  0
SECTION
  2
HEADER
  9
$ACADVER
  1
AC1009
  9
$INSBASE
 10
0.0
 20
0.0
 30
0.0
  9
$EXTMIN
 10
250.0
 20
300.0
 30
0.0
  9
$EXTMAX
 10
1856.9803379999989
 20
2786.6522620000001
 30
0.0
  9
$LIMMIN
 10
0.0
 20
0.0
  9
$LIMMAX
 10
297.0
 20
210.0
  9
$ORTHOMODE
 70
     0
  9
$REGENMODE
 70
     1
  9
$FILLMODE
 70
     0
  9
$QTEXTMODE
 70
     0
  9
$MIRRTEXT
 70
     1
  9
$DRAGMODE
 70
     2
  9
$LTSCALE
 40
100.0
  9
$OSMODE
 70
    37
  9
$ATTMODE
 70
     1
  9
$TEXTSIZE
 40
180.0
  9
$TRACEWID
 40
0.05
  9
$TEXTSTYLE
  7
STANDARD
  9
$CLAYER
  8
3
  9
$CELTYPE
  6
BYLAYER
  9
$CECOLOR
 62
   256
  9
$DIMSCALE
 40
10.0
  9
$DIMASZ
 40
2.0
  9
$DIMEXO
 40
0.5
  9
$DIMDLI
 40
10.0
  9
$DIMRND
 40
0.0
  9
$DIMDLE
 40
0.0
  9
$DIMEXE
 40
1.0
  9
$DIMTP
 40
1.0
  9
$DIMTM
 40
1.0
  9
$DIMTXT
 40
3.0
  9
$DIMCEN
 40
0.0
  9
$DIMTSZ
 40
0.0
  9
$DIMTOL
 70
     0
  9
$DIMLIM
 70
     0
  9
$DIMTIH
 70
     0
  9
$DIMTOH
 70
     0
  9
$DIMSE1
 70
     0
  9
$DIMSE2
 70
     0
  9
$DIMTAD
 70
     1
  9
$DIMZIN
 70
     8
  9
$DIMBLK
  1

  9
$DIMASO
 70
     1
  9
$DIMSHO
 70
     1
  9
$DIMPOST
  1

  9
$DIMAPOST
  1

  9
$DIMALT
 70
     0
  9
$DIMALTD
 70
     2
  9
$DIMALTF
 40
0.039
  9
$DIMLFAC
 40
1.0
  9
$DIMTOFL
 70
     1
  9
$DIMTVP
 40
0.0
  9
$DIMTIX
 70
     0
  9
$DIMSOXD
 70
     0
  9
$DIMSAH
 70
     1
  9
$DIMBLK1
  1
OPEN
  9
$DIMBLK2
  1
OPEN
  9
$DIMSTYLE
  2
IGA
  9
$DIMCLRD
 70
     0
  9
$DIMCLRE
 70
     0
  9
$DIMCLRT
 70
     0
  9
$DIMTFAC
 40
10.0
  9
$DIMGAP
 40
1.0
  9
$LUNITS
 70
     2
  9
$LUPREC
 70
     3
  9
$SKETCHINC
 40
0.1
  9
$FILLETRAD
 40
50.0
  9
$AUNITS
 70
     0
  9
$AUPREC
 70
     0
  9
$MENU
  1
acad
  9
$ELEVATION
 40
0.0
  9
$PELEVATION
 40
0.0
  9
$THICKNESS
 40
0.0
  9
$LIMCHECK
 70
     0
  9
$BLIPMODE
 70
     0
  9
$CHAMFERA
 40
0.5
  9
$CHAMFERB
 40
0.5
  9
$SKPOLY
 70
     0
  9
$TDCREATE
 40
2450744.4271931709
  9
$TDUPDATE
 40
2454953.863089629
  9
$TDINDWG
 40
0.004963831
  9
$TDUSRTIMER
 40
0.004963831
  9
$USRTIMER
 70
     1
  9
$ANGBASE
 50
0.0
  9
$ANGDIR
 70
     0
  9
$PDMODE
 70
     0
  9
$PDSIZE
 40
0.0
  9
$PLINEWID
 40
0.0
  9
$COORDS
 70
     1
  9
$SPLFRAME
 70
     0
  9
$SPLINETYPE
 70
     6
  9
$SPLINESEGS
 70
     8
  9
$ATTDIA
 70
     0
  9
$ATTREQ
 70
     1
  9
$HANDLING
 70
 10241
  9
$HANDSEED
  5
7FC2
  9
$SURFTAB1
 70
     6
  9
$SURFTAB2
 70
     6
  9
$SURFTYPE
 70
     6
  9
$SURFU
 70
     6
  9
$SURFV
 70
     6
  9
$UCSNAME
  2

  9
$UCSORG
 10
0.0
 20
0.0
 30
0.0
  9
$UCSXDIR
 10
1.0
 20
0.0
 30
0.0
  9
$UCSYDIR
 10
0.0
 20
1.0
 30
0.0
  9
$PUCSNAME
  2

  9
$PUCSORG
 10
0.0
 20
0.0
 30
0.0
  9
$PUCSXDIR
 10
1.0
 20
0.0
 30
0.0
  9
$PUCSYDIR
 10
0.0
 20
1.0
 30
0.0
  9
$USERI1
 70
     0
  9
$USERI2
 70
     0
  9
$USERI3
 70
     0
  9
$USERI4
 70
     0
  9
$USERI5
 70
     0
  9
$USERR1
 40
0.0
  9
$USERR2
 40
0.0
  9
$USERR3
 40
0.0
  9
$USERR4
 40
0.0
  9
$USERR5
 40
0.0
  9
$WORLDVIEW
 70
     1
  9
$SHADEDGE
 70
     3
  9
$SHADEDIF
 70
    70
  9
$TILEMODE
 70
     1
  9
$MAXACTVP
 70
    16
  9
$PLIMCHECK
 70
     0
  9
$PEXTMIN
 10
1.0000000000000000E+020
 20
1.0000000000000000E+020
 30
1.0000000000000000E+020
  9
$PEXTMAX
 10
-1.0000000000000000E+020
 20
-1.0000000000000000E+020
 30
-1.0000000000000000E+020
  9
$PLIMMIN
 10
0.0
 20
0.0
  9
$PLIMMAX
 10
12.0
 20
9.0
  9
$UNITMODE
 70
     0
  9
$VISRETAIN
 70
     0
  9
$PLINEGEN
 70
     0
  9
$PSLTSCALE
 70
     1
  0
ENDSEC
  0
SECTION
  2
TABLES
  0
TABLE
  2
VPORT
 70
     2
  0
VPORT
  2
*ACTIVE
 70
     0
 10
0.0
 20
0.0
 11
1.0
 21
1.0
 12
2948.0112341675322
 22
1973.675547966488
 13
0.0
 23
0.0
 14
10.0
 24
10.0
 15
10.0
 25
10.0
 16
0.0
 26
0.0
 36
1.0
 17
0.0
 27
0.0
 37
0.0
 40
3860.4308917189128
 41
1.5051150895140659
 42
50.0
 43
0.0
 44
0.0
 50
0.0
 51
0.0
 71
     0
 72
   100
 73
     1
 74
     0
 75
     0
 76
     0
 77
     0
 78
     0
  0
ENDTAB
  0
TABLE
  2
LTYPE
 70
     2
  0
LTYPE
  2
CONTINUOUS
 70
     0
  3
Solid line
 72
    65
 73
     0
 40
0.0
  0
LTYPE
  2
CENTER
 70
     0
  3
____ _ ____ _ ____ _ ____ _ ____ _ ____ _ ____ 
 72
    65
 73
     4
 40
2.0
 49
1.25
 49
-0.25
 49
0.25
 49
-0.25
  0
ENDTAB
  0
TABLE
  2
LAYER
 70
     6
  0
LAYER
  2
0
 70
     0
 62
     7
  6
CONTINUOUS
  0
LAYER
  2
3
 70
     0
 62
     2
  6
CONTINUOUS
  0
LAYER
  2
2
 70
     0
 62
     3
  6
CENTER
  0
LAYER
  2
1
 70
     0
 62
     4
  6
CONTINUOUS
  0
LAYER
  2
4
 70
     0
 62
     7
  6
CONTINUOUS
  0
LAYER
  2
DEFPOINTS
 70
     0
 62
     7
  6
CONTINUOUS
  0
ENDTAB
  0
TABLE
  2
STYLE
 70
     1
  0
STYLE
  2
STANDARD
 70
     0
 40
0.0
 41
1.0
 50
0.0
 71
     0
 42
180.0
  3
simplex.shx
  4
extfont.shx
  0
ENDTAB
  0
TABLE
  2
VIEW
 70
     0
  0
ENDTAB
  0
TABLE
  2
UCS
 70
     0
  0
ENDTAB
  0
TABLE
  2
APPID
 70
     1
  0
APPID
  2
ACAD
 70
     0
  0
ENDTAB
  0
TABLE
  2
DIMSTYLE
 70
     1
  0
DIMSTYLE
  2
IGA
 70
     0
  3

  4

  5

  6
OPEN
  7
OPEN
 40
2.0
 41
2.0
 42
0.5
 43
10.0
 44
1.0
 45
0.0
 46
0.0
 47
1.0
 48
1.0
140
3.0
141
0.0
142
0.0
143
0.03937
144
1.0
145
0.0
146
10.0
147
1.0
 71
     0
 72
     0
 73
     0
 74
     0
 75
     0
 76
     0
 77
     1
 78
     8
170
     0
171
     2
172
     0
173
     1
174
     0
175
     0
176
     0
177
     0
178
     0
  0
ENDTAB
  0
ENDSEC
  0
SECTION
  2
BLOCKS
  0
BLOCK
  8
0
  2
$MODEL_SPACE
 70
     0
 10
0.0
 20
0.0
 30
0.0
  3
$MODEL_SPACE
  1

  0
ENDBLK
  5
1B
  8
0
  0
BLOCK
 67
     1
  8
0
  2
$PAPER_SPACE
 70
     0
 10
0.0
 20
0.0
 30
0.0
  3
$PAPER_SPACE
  1

  0
ENDBLK
  5
18
 67
     1
  8
0
  0
BLOCK
  8
0
  2
_OPEN
 70
     0
 10
0.0
 20
0.0
 30
0.0
  3
_OPEN
  1

  0
LINE
  5
7B57
  8
0
  6
BYBLOCK
 62
     0
 10
-1.0
 20
0.166667
 30
0.0
 11
0.0
 21
0.0
 31
0.0
  0
LINE
  5
7B58
  8
0
  6
BYBLOCK
 62
     0
 10
0.0
 20
0.0
 30
0.0
 11
-1.0
 21
-0.166667
 31
0.0
  0
LINE
  5
7B59
  8
0
  6
BYBLOCK
 62
     0
 10
0.0
 20
0.0
 30
0.0
 11
-1.0
 21
0.0
 31
0.0
  0
ENDBLK
  5
7B5A
  8
0
  0
BLOCK
  8
0
  2
*D1
 70
     1
 10
0.0
 20
0.0
 30
0.0
  3
*D1
  1

  0
LINE
  5
7F17
  8
3
  6
CONTINUOUS
 62
     0
 10
283.51620799999989
 20
651.41328190688478
 30
0.0
 11
283.51620799999989
 21
572.97349790688475
 31
0.0
  0
LINE
  5
7F18
  8
3
  6
CONTINUOUS
 62
     0
 10
833.51620799999989
 20
654.94675090688474
 30
0.0
 11
833.51620799999989
 21
572.97349790688475
 31
0.0
  0
LINE
  5
7F19
  8
3
  6
CONTINUOUS
 62
     0
 10
303.51620800000001
 20
582.97349790688475
 30
0.0
 11
813.51620800000001
 21
582.97349790688475
 31
0.0
  0
INSERT
  5
7F1A
  8
3
  6
CONTINUOUS
 62
     0
  2
_OPEN
 10
283.51620799999989
 20
582.97349790688475
 30
0.0
 41
20.0
 42
20.0
 43
20.0
 50
180.0
  0
INSERT
  5
7F1B
  8
3
  6
CONTINUOUS
 62
     0
  2
_OPEN
 10
833.51620799999989
 20
582.97349790688475
 30
0.0
 41
20.0
 42
20.0
 43
20.0
  0
TEXT
  8
3
  40
30
  5
7FB0
  62
0
  72
0
  71
0
 10
490.908
 20
554.873
 30
0.000000
  1
550
  0
POINT
  5
7F1D
  8
DEFPOINTS
  6
CONTINUOUS
 62
     0
 10
283.51620799999989
 20
656.41328190688478
 30
0.0
  0
POINT
  5
7F1E
  8
DEFPOINTS
  6
CONTINUOUS
 62
     0
 10
833.51620799999989
 20
659.94675090688474
 30
0.0
  0
POINT
  5
7F1F
  8
DEFPOINTS
  6
CONTINUOUS
 62
     0
 10
833.51620799999989
 20
582.97349790688475
 30
0.0
  0
ENDBLK
  5
7B67
  8
0
  0
BLOCK
  8
0
  2
*D2
 70
     1
 10
0.0
 20
0.0
 30
0.0
  3
*D2
  1

  0
LINE
  5
7F20
  8
3
  6
CONTINUOUS
 62
     0
 10
1053.516208
 20
651.41328190688478
 30
0.0
 11
1053.516208
 21
572.97349790688475
 31
0.0
  0
LINE
  5
7F21
  8
3
  6
CONTINUOUS
 62
     0
 10
853.51620800000001
 20
582.97349790688475
 30
0.0
 11
1033.5162079999991
 21
582.97349790688475
 31
0.0
  0
INSERT
  5
7F22
  8
3
  6
CONTINUOUS
 62
     0
  2
_OPEN
 10
833.51620799999989
 20
582.97349790688475
 30
0.0
 41
20.0
 42
20.0
 43
20.0
 50
180.0
  0
INSERT
  5
7F23
  8
3
  6
CONTINUOUS
 62
     0
  2
_OPEN
 10
1053.516208
 20
582.97349790688475
 30
0.0
 41
20.0
 42
20.0
 43
20.0
  0
TEXT
  8
3
  40
30
  5
7FB1
  62
0
  72
0
  71
0
 10
883.516
 20
554.873
 30
0.000000
  1
220
  0
POINT
  5
7F25
  8
DEFPOINTS
  6
CONTINUOUS
 62
     0
 10
833.51620799999989
 20
659.94675090688474
 30
0.0
  0
POINT
  5
7F26
  8
DEFPOINTS
  6
CONTINUOUS
 62
     0
 10
1053.516208
 20
656.41328190688478
 30
0.0
  0
POINT
  5
7F27
  8
DEFPOINTS
  6
CONTINUOUS
 62
     0
 10
1053.516208
 20
582.97349790688475
 30
0.0
  0
ENDBLK
  5
7B73
  8
0
  0
BLOCK
  8
0
  2
*D3
 70
     1
 10
0.0
 20
0.0
 30
0.0
  3
*D3
  1

  0
LINE
  5
7F28
  8
3
  6
CONTINUOUS
 62
     0
 10
613.52682400000003
 20
1058.4132819068841
 30
0.0
 11
613.52682400000003
 21
1382.4746649068841
 31
0.0
  0
LINE
  5
7F29
  8
3
  6
CONTINUOUS
 62
     0
 10
833.51620799999989
 20
1318.413281906885
 30
0.0
 11
833.51620799999989
 21
1382.4746649068841
 31
0.0
  0
LINE
  5
7F2A
  8
3
  6
CONTINUOUS
 62
     0
 10
633.52682400000003
 20
1372.4746649068841
 30
0.0
 11
813.51620800000001
 21
1372.4746649068841
 31
0.0
  0
INSERT
  5
7F2B
  8
3
  6
CONTINUOUS
 62
     0
  2
_OPEN
 10
613.52682400000003
 20
1372.4746649068841
 30
0.0
 41
20.0
 42
20.0
 43
20.0
 50
180.0
  0
INSERT
  5
7F2C
  8
3
  6
CONTINUOUS
 62
     0
  2
_OPEN
 10
833.51620799999989
 20
1372.4746649068841
 30
0.0
 41
20.0
 42
20.0
 43
20.0
  0
TEXT
  8
3
  40
30
  5
7FB2
  62
0
  72
0
  71
0
 10
662.112
 20
1344.37
 30
0.000000
  1
220
  0
POINT
  5
7F2E
  8
DEFPOINTS
  6
CONTINUOUS
 62
     0
 10
613.52682400000003
 20
1053.4132819068841
 30
0.0
  0
POINT
  5
7F2F
  8
DEFPOINTS
  6
CONTINUOUS
 62
     0
 10
833.51620799999989
 20
1313.4132819068841
 30
0.0
  0
POINT
  5
7F30
  8
DEFPOINTS
  6
CONTINUOUS
 62
     0
 10
833.51620799999989
 20
1372.4746649068841
 30
0.0
  0
ENDBLK
  5
7B80
  8
0
  0
BLOCK
  8
0
  2
*D4
 70
     1
 10
0.0
 20
0.0
 30
0.0
  3
*D4
  1

  0
LINE
  5
7F31
  8
3
  6
CONTINUOUS
 62
     0
 10
1033.5162079999991
 20
1329.4132819068841
 30
0.0
 11
1033.5162079999991
 21
1382.4746649068841
 31
0.0
  0
LINE
  5
7F32
  8
3
  6
CONTINUOUS
 62
     0
 10
853.51620800000001
 20
1372.4746649068841
 30
0.0
 11
1013.516208
 21
1372.4746649068841
 31
0.0
  0
INSERT
  5
7F33
  8
3
  6
CONTINUOUS
 62
     0
  2
_OPEN
 10
833.51620799999989
 20
1372.4746649068841
 30
0.0
 41
20.0
 42
20.0
 43
20.0
 50
180.0
  0
INSERT
  5
7F34
  8
3
  6
CONTINUOUS
 62
     0
  2
_OPEN
 10
1033.5162079999991
 20
1372.4746649068841
 30
0.0
 41
20.0
 42
20.0
 43
20.0
  0
TEXT
  8
3
  40
30
  5
7FB3
  62
0
  72
0
  71
0
 10
873.516
 20
1344.37
 30
0.000000
  1
200
  0
POINT
  5
7F36
  8
DEFPOINTS
  6
CONTINUOUS
 62
     0
 10
833.51620799999989
 20
1313.4132819068841
 30
0.0
  0
POINT
  5
7F37
  8
DEFPOINTS
  6
CONTINUOUS
 62
     0
 10
1033.5162079999991
 20
1324.413281906885
 30
0.0
  0
POINT
  5
7F38
  8
DEFPOINTS
  6
CONTINUOUS
 62
     0
 10
1033.5162079999991
 20
1372.4746649068841
 30
0.0
  0
ENDBLK
  5
7B8C
  8
0
  0
BLOCK
  8
0
  2
*D5
 70
     1
 10
0.0
 20
0.0
 30
0.0
  3
*D5
  1

  0
LINE
  5
7F39
  8
3
  6
CONTINUOUS
 62
     0
 10
1038.516208
 20
1303.4132819068841
 30
0.0
 11
1103.247797
 21
1303.4132819068841
 31
0.0
  0
LINE
  5
7F3A
  8
3
  6
CONTINUOUS
 62
     0
 10
1038.516208
 20
1053.4132819068841
 30
0.0
 11
1103.247797
 21
1053.4132819068841
 31
0.0
  0
LINE
  5
7F3B
  8
3
  6
CONTINUOUS
 62
     0
 10
1093.247797
 20
1283.4132819068841
 30
0.0
 11
1093.247797
 21
1073.4132819068841
 31
0.0
  0
INSERT
  5
7F3C
  8
3
  6
CONTINUOUS
 62
     0
  2
_OPEN
 10
1093.247797
 20
1303.4132819068841
 30
0.0
 41
20.0
 42
20.0
 43
20.0
 50
90.0
  0
INSERT
  5
7F3D
  8
3
  6
CONTINUOUS
 62
     0
  2
_OPEN
 10
1093.247797
 20
1053.4132819068841
 30
0.0
 41
20.0
 42
20.0
 43
20.0
 50
270.0
  0
TEXT
  8
3
  40
30
  5
7FB4
  62
0
  72
0
  71
0
 10
1008.25
 20
1128.24
 30
0.000000
  1
250
  0
POINT
  5
7F3F
  8
DEFPOINTS
  6
CONTINUOUS
 62
     0
 10
1033.5162079999991
 20
1303.4132819068841
 30
0.0
  0
POINT
  5
7F40
  8
DEFPOINTS
  6
CONTINUOUS
 62
     0
 10
1033.5162079999991
 20
1053.4132819068841
 30
0.0
  0
POINT
  5
7F41
  8
DEFPOINTS
  6
CONTINUOUS
 62
     0
 10
1093.247797
 20
1053.4132819068841
 30
0.0
  0
ENDBLK
  5
7D24
  8
0
  0
BLOCK
  8
0
  2
*D6
 70
     1
 10
0.0
 20
0.0
 30
0.0
  3
*D6
  1

  0
LINE
  5
7F42
  8
3
  6
CONTINUOUS
 62
     0
 10
1038.516208
 20
1053.4132819068841
 30
0.0
 11
1173.743608999999
 21
1053.4132819068841
 31
0.0
  0
LINE
  5
7F43
  8
3
  6
CONTINUOUS
 62
     0
 10
1028.516208
 20
738.41328190688466
 30
0.0
 11
1173.743608999999
 21
738.41328190688466
 31
0.0
  0
LINE
  5
7F44
  8
3
  6
CONTINUOUS
 62
     0
 10
1163.743608999999
 20
1033.4132819068841
 30
0.0
 11
1163.743608999999
 21
758.41328190688466
 31
0.0
  0
INSERT
  5
7F45
  8
3
  6
CONTINUOUS
 62
     0
  2
_OPEN
 10
1163.743608999999
 20
1053.4132819068841
 30
0.0
 41
20.0
 42
20.0
 43
20.0
 50
90.0
  0
INSERT
  5
7F46
  8
3
  6
CONTINUOUS
 62
     0
  2
_OPEN
 10
1163.743608999999
 20
738.41328190688466
 30
0.0
 41
20.0
 42
20.0
 43
20.0
 50
270.0
  0
TEXT
  8
3
  40
30
  5
7FB5
  62
0
  72
0
  71
0
 10
1078.74
 20
842.813
 30
0.000000
  1
315
  0
POINT
  5
7F48
  8
DEFPOINTS
  6
CONTINUOUS
 62
     0
 10
1033.5162079999991
 20
1053.4132819068841
 30
0.0
  0
POINT
  5
7F49
  8
DEFPOINTS
  6
CONTINUOUS
 62
     0
 10
1023.516207999999
 20
738.41328190688466
 30
0.0
  0
POINT
  5
7F4A
  8
DEFPOINTS
  6
CONTINUOUS
 62
     0
 10
1163.743608999999
 20
738.41328190688466
 30
0.0
  0
ENDBLK
  5
7E10
  8
0
  0
BLOCK
  8
0
  2
*D7
 70
     1
 10
0.0
 20
0.0
 30
0.0
  3
*D7
  1

  0
LINE
  5
7DE9
  8
0
  6
BYBLOCK
 62
     0
 10
1058.516208
 20
686.41328190688466
 30
0.0
 11
1173.743608999999
 21
686.41328190688466
 31
0.0
  0
LINE
  5
7DEA
  8
0
  6
BYBLOCK
 62
     0
 10
1163.743608999999
 20
758.41328190688466
 30
0.0
 11
1163.743608999999
 21
778.41328190688466
 31
0.0
  0
LINE
  5
7DEB
  8
0
  6
BYBLOCK
 62
     0
 10
1163.743608999999
 20
666.41328190688466
 30
0.0
 11
1163.743608999999
 21
646.41328190688466
 31
0.0
  0
TEXT
  5
7DEC
  8
3
 62
     0
 10
1211.3512251355151
 20
690.03699462117038
 30
0.0
 40
30.0
  1
52
 50
90.0
  0
LINE
  5
7DED
  8
0
  6
BYBLOCK
 62
     0
 10
1163.743608999999
 20
738.41328190688466
 30
0.0
 11
1163.743608999999
 21
686.41328190688466
 31
0.0
  0
INSERT
  5
7DEE
  8
0
  6
BYBLOCK
 62
     0
  2
_OPEN
 10
1163.743608999999
 20
738.41328190688466
 30
0.0
 41
20.0
 42
20.0
 43
20.0
 50
270.0
  0
INSERT
  5
7DEF
  8
0
  6
BYBLOCK
 62
     0
  2
_DOT
 10
1163.743608999999
 20
686.41328190688466
 30
0.0
 41
20.0
 42
20.0
 43
20.0
 50
90.0
  0
POINT
  5
7DF0
  8
DEFPOINTS
  6
BYBLOCK
 62
     0
 10
1023.516207999999
 20
738.41328190688466
 30
0.0
  0
POINT
  5
7DF1
  8
DEFPOINTS
  6
BYBLOCK
 62
     0
 10
1053.516208
 20
686.41328190688466
 30
0.0
  0
POINT
  5
7DF2
  8
DEFPOINTS
  6
BYBLOCK
 62
     0
 10
1163.743608999999
 20
686.41328190688466
 30
0.0
  0
ENDBLK
  5
7DF3
  8
0
  0
BLOCK
  8
0
  2
*D8
 70
     1
 10
0.0
 20
0.0
 30
0.0
  3
*D8
  1

  0
LINE
  5
7F4B
  8
3
  6
CONTINUOUS
 62
     0
 10
1058.516208
 20
686.41328190688466
 30
0.0
 11
1173.7436090000001
 21
686.41328190688466
 31
0.0
  0
LINE
  5
7F4C
  8
3
  6
CONTINUOUS
 62
     0
 10
1058.516208
 20
656.41328190688478
 30
0.0
 11
1173.7436090000001
 21
656.41328190688478
 31
0.0
  0
LINE
  5
7F4D
  8
3
  6
CONTINUOUS
 62
     0
 10
1163.7436090000001
 20
706.41328190688478
 30
0.0
 11
1163.7436090000001
 21
726.41328190688478
 31
0.0
  0
LINE
  5
7F4E
  8
3
  6
CONTINUOUS
 62
     0
 10
1163.7436090000001
 20
636.41328190688466
 30
0.0
 11
1163.7436090000001
 21
547.84185333545634
 31
0.0
  0
LINE
  5
7F4F
  8
3
  6
CONTINUOUS
 62
     0
 10
1163.7436090000001
 20
686.41328190688466
 30
0.0
 11
1163.7436090000001
 21
656.41328190688478
 31
0.0
  0
INSERT
  5
7F50
  8
3
  6
CONTINUOUS
 62
     0
  2
_DOT
 10
1163.7436090000001
 20
686.41328190688466
 30
0.0
 41
20.0
 42
20.0
 43
20.0
 50
270.0
  0
INSERT
  5
7F51
  8
3
  6
CONTINUOUS
 62
     0
  2
_OPEN
 10
1163.7436090000001
 20
656.41328190688478
 30
0.0
 41
20.0
 42
20.0
 43
20.0
 50
90.0
  0
TEXT
  8
3
  40
30
  5
7FB6
  62
0
  72
0
  71
0
 10
1078.74
 20
529.028
 30
0.000000
  1
30
  0
POINT
  5
7F53
  8
DEFPOINTS
  6
CONTINUOUS
 62
     0
 10
1053.516208
 20
686.41328190688466
 30
0.0
  0
POINT
  5
7F54
  8
DEFPOINTS
  6
CONTINUOUS
 62
     0
 10
1053.516208
 20
656.41328190688478
 30
0.0
  0
POINT
  5
7F55
  8
DEFPOINTS
  6
CONTINUOUS
 62
     0
 10
1163.7436090000001
 20
656.41328190688478
 30
0.0
  0
ENDBLK
  5
7E28
  8
0
  0
BLOCK
  8
0
  2
*D9
 70
     1
 10
0.0
 20
0.0
 30
0.0
  3
*D9
  1

  0
LINE
  5
7F56
  8
3
  6
CONTINUOUS
 62
     0
 10
1018.516208
 20
1313.4132819068841
 30
0.0
 11
1173.743608999999
 21
1313.4132819068841
 31
0.0
  0
LINE
  5
7F57
  8
3
  6
CONTINUOUS
 62
     0
 10
1163.743608999999
 20
1073.4132819068841
 30
0.0
 11
1163.743608999999
 21
1293.4132819068841
 31
0.0
  0
INSERT
  5
7F58
  8
3
  6
CONTINUOUS
 62
     0
  2
_OPEN
 10
1163.743608999999
 20
1053.4132819068841
 30
0.0
 41
20.0
 42
20.0
 43
20.0
 50
270.0
  0
INSERT
  5
7F59
  8
3
  6
CONTINUOUS
 62
     0
  2
_OPEN
 10
1163.743608999999
 20
1313.4132819068841
 30
0.0
 41
20.0
 42
20.0
 43
20.0
 50
90.0
  0
TEXT
  8
3
  40
30
  5
7FB7
  62
0
  72
0
  71
0
 10
1078.74
 20
1130.31
 30
0.000000
  1
260
  0
POINT
  5
7F5B
  8
DEFPOINTS
  6
CONTINUOUS
 62
     0
 10
1033.5162079999991
 20
1053.4132819068841
 30
0.0
  0
POINT
  5
7F5C
  8
DEFPOINTS
  6
CONTINUOUS
 62
     0
 10
1013.516208
 20
1313.4132819068841
 30
0.0
  0
POINT
  5
7F5D
  8
DEFPOINTS
  6
CONTINUOUS
 62
     0
 10
1163.743608999999
 20
1313.4132819068841
 30
0.0
  0
ENDBLK
  5
7D44
  8
0
  0
BLOCK
  8
0
  2
*D10
 70
     1
 10
0.0
 20
0.0
 30
0.0
  3
*D10
  1

  0
LINE
  5
7F5E
  8
3
  6
CONTINUOUS
 62
     0
 10
1038.516208
 20
1324.413281906885
 30
0.0
 11
1238.9437330000001
 21
1324.413281906885
 31
0.0
  0
LINE
  5
7F5F
  8
3
  6
CONTINUOUS
 62
     0
 10
1058.516208
 20
656.41328190688478
 30
0.0
 11
1238.9437330000001
 21
656.41328190688478
 31
0.0
  0
LINE
  5
7F60
  8
3
  6
CONTINUOUS
 62
     0
 10
1228.9437330000001
 20
1304.4132819068841
 30
0.0
 11
1228.9437330000001
 21
676.41328190688478
 31
0.0
  0
INSERT
  5
7F61
  8
3
  6
CONTINUOUS
 62
     0
  2
_OPEN
 10
1228.9437330000001
 20
1324.413281906885
 30
0.0
 41
20.0
 42
20.0
 43
20.0
 50
90.0
  0
INSERT
  5
7F62
  8
3
  6
CONTINUOUS
 62
     0
  2
_OPEN
 10
1228.9437330000001
 20
656.41328190688478
 30
0.0
 41
20.0
 42
20.0
 43
20.0
 50
270.0
  0
TEXT
  8
3
  40
30
  5
7FB8
  62
0
  72
0
  71
0
 10
1143.94
 20
926.621
 30
0.000000
  1
668
  0
POINT
  5
7F64
  8
DEFPOINTS
  6
CONTINUOUS
 62
     0
 10
1033.5162079999991
 20
1324.413281906885
 30
0.0
  0
POINT
  5
7F65
  8
DEFPOINTS
  6
CONTINUOUS
 62
     0
 10
1053.516208
 20
656.41328190688478
 30
0.0
  0
POINT
  5
7F66
  8
DEFPOINTS
  6
CONTINUOUS
 62
     0
 10
1228.9437330000001
 20
656.41328190688478
 30
0.0
  0
ENDBLK
  5
7D66
  8
0
  0
BLOCK
  8
0
  2
*D11
 70
     1
 10
0.0
 20
0.0
 30
0.0
  3
*D11
  1

  0
LINE
  5
7F67
  8
3
  6
CONTINUOUS
 62
     0
 10
283.51620799999989
 20
1726.6008821858661
 30
0.0
 11
283.51620799999989
 21
1632.5400961858661
 31
0.0
  0
LINE
  5
7F68
  8
3
  6
CONTINUOUS
 62
     0
 10
1053.516208
 20
1726.6008821858661
 30
0.0
 11
1053.516208
 21
1632.5400961858661
 31
0.0
  0
LINE
  5
7F69
  8
3
  6
CONTINUOUS
 62
     0
 10
303.51620800000001
 20
1642.5400961858661
 30
0.0
 11
1033.5162079999991
 21
1642.5400961858661
 31
0.0
  0
INSERT
  5
7F6A
  8
3
  6
CONTINUOUS
 62
     0
  2
_OPEN
 10
283.51620799999989
 20
1642.5400961858661
 30
0.0
 41
20.0
 42
20.0
 43
20.0
 50
180.0
  0
INSERT
  5
7F6B
  8
3
  6
CONTINUOUS
 62
     0
  2
_OPEN
 10
1053.516208
 20
1642.5400961858661
 30
0.0
 41
20.0
 42
20.0
 43
20.0
  0
TEXT
  8
3
  40
30
  5
7FB9
  62
0
  72
0
  71
0
 10
602.113
 20
1614.44
 30
0.000000
  1
770
  0
POINT
  5
7F6D
  8
DEFPOINTS
  6
CONTINUOUS
 62
     0
 10
283.51620799999989
 20
1731.6008821858661
 30
0.0
  0
POINT
  5
7F6E
  8
DEFPOINTS
  6
CONTINUOUS
 62
     0
 10
1053.516208
 20
1731.6008821858661
 30
0.0
  0
POINT
  5
7F6F
  8
DEFPOINTS
  6
CONTINUOUS
 62
     0
 10
1053.516208
 20
1642.5400961858661
 30
0.0
  0
ENDBLK
  5
7C3A
  8
0
  0
BLOCK
  8
0
  2
*D12
 70
     1
 10
0.0
 20
0.0
 30
0.0
  3
*D12
  1

  0
LINE
  5
7F70
  8
3
  6
CONTINUOUS
 62
     0
 10
1058.516208
 20
2211.6008821858659
 30
0.0
 11
1156.742497
 21
2211.6008821858659
 31
0.0
  0
LINE
  5
7F71
  8
3
  6
CONTINUOUS
 62
     0
 10
1058.516208
 20
1731.6008821858661
 30
0.0
 11
1156.742497
 21
1731.6008821858661
 31
0.0
  0
LINE
  5
7F72
  8
3
  6
CONTINUOUS
 62
     0
 10
1146.742497
 20
2191.6008821858659
 30
0.0
 11
1146.742497
 21
1751.6008821858661
 31
0.0
  0
INSERT
  5
7F73
  8
3
  6
CONTINUOUS
 62
     0
  2
_OPEN
 10
1146.742497
 20
2211.6008821858659
 30
0.0
 41
20.0
 42
20.0
 43
20.0
 50
90.0
  0
INSERT
  5
7F74
  8
3
  6
CONTINUOUS
 62
     0
  2
_OPEN
 10
1146.742497
 20
1731.6008821858661
 30
0.0
 41
20.0
 42
20.0
 43
20.0
 50
270.0
  0
TEXT
  8
3
  40
30
  5
7FBA
  62
0
  72
0
  71
0
 10
1061.74
 20
1921.19
 30
0.000000
  1
480
  0
POINT
  5
7F76
  8
DEFPOINTS
  6
CONTINUOUS
 62
     0
 10
1053.516208
 20
2211.6008821858659
 30
0.0
  0
POINT
  5
7F77
  8
DEFPOINTS
  6
CONTINUOUS
 62
     0
 10
1053.516208
 20
1731.6008821858661
 30
0.0
  0
POINT
  5
7F78
  8
DEFPOINTS
  6
CONTINUOUS
 62
     0
 10
1146.742497
 20
1731.6008821858661
 30
0.0
  0
ENDBLK
  5
7C47
  8
0
  0
BLOCK
  8
0
  2
*D13
 70
     1
 10
0.0
 20
0.0
 30
0.0
  3
*D13
  1

  0
LINE
  5
7F79
  8
3
  6
CONTINUOUS
 62
     0
 10
1579.991933
 20
1309.4132819068841
 30
0.0
 11
1579.991933
 21
1361.038413906884
 31
0.0
  0
LINE
  5
7F7A
  8
3
  6
CONTINUOUS
 62
     0
 10
1759.991933
 20
1309.4132819068841
 30
0.0
 11
1759.991933
 21
1361.038413906884
 31
0.0
  0
LINE
  5
7F7B
  8
3
  6
CONTINUOUS
 62
     0
 10
1599.991933
 20
1351.038413906884
 30
0.0
 11
1739.9919329999991
 21
1351.038413906884
 31
0.0
  0
INSERT
  5
7F7C
  8
3
  6
CONTINUOUS
 62
     0
  2
_OPEN
 10
1579.991933
 20
1351.038413906884
 30
0.0
 41
20.0
 42
20.0
 43
20.0
 50
180.0
  0
INSERT
  5
7F7D
  8
3
  6
CONTINUOUS
 62
     0
  2
_OPEN
 10
1759.991933
 20
1351.038413906884
 30
0.0
 41
20.0
 42
20.0
 43
20.0
  0
TEXT
  8
3
  40
30
  5
7FBB
  62
0
  72
0
  71
0
 10
1599.17
 20
1322.94
 30
0.000000
  1
180
  0
POINT
  5
7F7F
  8
DEFPOINTS
  6
CONTINUOUS
 62
     0
 10
1579.991933
 20
1304.4132819068841
 30
0.0
  0
POINT
  5
7F80
  8
DEFPOINTS
  6
CONTINUOUS
 62
     0
 10
1759.991933
 20
1304.4132819068841
 30
0.0
  0
POINT
  5
7F81
  8
DEFPOINTS
  6
CONTINUOUS
 62
     0
 10
1759.991933
 20
1351.038413906884
 30
0.0
  0
ENDBLK
  5
7C59
  8
0
  0
BLOCK
  8
0
  2
*D14
 70
     1
 10
0.0
 20
0.0
 30
0.0
  3
*D14
  1

  0
LINE
  5
7F82
  8
3
  6
CONTINUOUS
 62
     0
 10
1329.991933
 20
1126.163431997921
 30
0.0
 11
1329.991933
 21
1432.073137768142
 31
0.0
  0
LINE
  5
7F83
  8
3
  6
CONTINUOUS
 62
     0
 10
1669.991933
 20
1399.9304636122561
 30
0.0
 11
1669.991933
 21
1432.073137768142
 31
0.0
  0
LINE
  5
7F84
  8
3
  6
CONTINUOUS
 62
     0
 10
1349.991933
 20
1422.073137768142
 30
0.0
 11
1649.991933
 21
1422.073137768142
 31
0.0
  0
INSERT
  5
7F85
  8
3
  6
CONTINUOUS
 62
     0
  2
_OPEN
 10
1329.991933
 20
1422.073137768142
 30
0.0
 41
20.0
 42
20.0
 43
20.0
 50
180.0
  0
INSERT
  5
7F86
  8
3
  6
CONTINUOUS
 62
     0
  2
_OPEN
 10
1669.991933
 20
1422.073137768142
 30
0.0
 41
20.0
 42
20.0
 43
20.0
  0
TEXT
  8
3
  40
30
  5
7FBC
  62
0
  72
0
  71
0
 10
1436.81
 20
1418.97
 30
0.000000
  1
MAX
  0
TEXT
  8
3
  40
30
  5
7FBD
  62
0
  72
0
  71
0
 10
1436.81
 20
1379.97
 30
0.000000
  1
340
  0
POINT
  5
7F88
  8
DEFPOINTS
  6
CONTINUOUS
 62
     0
 10
1329.991933
 20
1121.163431997921
 30
0.0
  0
POINT
  5
7F89
  8
DEFPOINTS
  6
CONTINUOUS
 62
     0
 10
1669.991933
 20
1394.9304636122561
 30
0.0
  0
POINT
  5
7F8A
  8
DEFPOINTS
  6
CONTINUOUS
 62
     0
 10
1669.991933
 20
1422.073137768142
 30
0.0
  0
ENDBLK
  5
7E1B
  8
0
  0
BLOCK
  8
0
  2
*D15
 70
     1
 10
0.0
 20
0.0
 30
0.0
  3
*D15
  1

  0
LINE
  5
7F8B
  8
3
  6
CONTINUOUS
 62
     0
 10
1768.9919329999991
 20
1148.163431997921
 30
0.0
 11
1768.9919329999991
 21
1432.073137768142
 31
0.0
  0
LINE
  5
7F8C
  8
3
  6
CONTINUOUS
 62
     0
 10
1689.9919329999991
 20
1422.073137768142
 30
0.0
 11
1748.991933
 21
1422.073137768142
 31
0.0
  0
TEXT
  8
3
  40
30
  5
7FBE
  62
0
  72
0
  71
0
 10
1655.76
 20
1393.97
 30
0.000000
  1
99
  0
INSERT
  5
7F8E
  8
3
  6
CONTINUOUS
 62
     0
  2
_OPEN
 10
1669.991933
 20
1422.073137768142
 30
0.0
 41
20.0
 42
20.0
 43
20.0
 50
180.0
  0
INSERT
  5
7F8F
  8
3
  6
CONTINUOUS
 62
     0
  2
_OPEN
 10
1768.9919329999991
 20
1422.073137768142
 30
0.0
 41
20.0
 42
20.0
 43
20.0
  0
POINT
  5
7F90
  8
DEFPOINTS
  6
CONTINUOUS
 62
     0
 10
1669.991933
 20
1395.4855290866101
 30
0.0
  0
POINT
  5
7F91
  8
DEFPOINTS
  6
CONTINUOUS
 62
     0
 10
1768.9919329999991
 20
1143.163431997921
 30
0.0
  0
POINT
  5
7F92
  8
DEFPOINTS
  6
CONTINUOUS
 62
     0
 10
1768.9919329999991
 20
1422.073137768142
 30
0.0
  0
ENDBLK
  5
7D90
  8
0
  0
BLOCK
  8
0
  2
*D16
 70
     1
 10
0.0
 20
0.0
 30
0.0
  3
*D16
  1

  0
LINE
  5
7F93
  8
3
  6
CONTINUOUS
 62
     0
 10
1331.991933
 20
651.41328190688478
 30
0.0
 11
1331.991933
 21
561.80013890688474
 31
0.0
  0
LINE
  5
7F94
  8
3
  6
CONTINUOUS
 62
     0
 10
1669.991933
 20
616.19249890688479
 30
0.0
 11
1669.991933
 21
561.80013890688474
 31
0.0
  0
LINE
  5
7F95
  8
3
  6
CONTINUOUS
 62
     0
 10
1351.991933
 20
571.80013890688474
 30
0.0
 11
1649.991933
 21
571.80013890688474
 31
0.0
  0
INSERT
  5
7F96
  8
3
  6
CONTINUOUS
 62
     0
  2
_OPEN
 10
1331.991933
 20
571.80013890688474
 30
0.0
 41
20.0
 42
20.0
 43
20.0
 50
180.0
  0
INSERT
  5
7F97
  8
3
  6
CONTINUOUS
 62
     0
  2
_OPEN
 10
1669.991933
 20
571.80013890688474
 30
0.0
 41
20.0
 42
20.0
 43
20.0
  0
TEXT
  8
3
  40
30
  5
7FBF
  62
0
  72
0
  71
0
 10
1441.73
 20
543.700
 30
0.000000
  1
338
  0
POINT
  5
7F99
  8
DEFPOINTS
  6
CONTINUOUS
 62
     0
 10
1331.991933
 20
656.41328190688478
 30
0.0
  0
POINT
  5
7F9A
  8
DEFPOINTS
  6
CONTINUOUS
 62
     0
 10
1669.991933
 20
621.19249890688468
 30
0.0
  0
POINT
  5
7F9B
  8
DEFPOINTS
  6
CONTINUOUS
 62
     0
 10
1669.991933
 20
571.80013890688474
 30
0.0
  0
ENDBLK
  5
7CD2
  8
0
  0
BLOCK
  8
0
  2
*D17
 70
     1
 10
0.0
 20
0.0
 30
0.0
  3
*D17
  1

  0
LINE
  5
7F9C
  8
3
  6
CONTINUOUS
 62
     0
 10
1811.9919329999991
 20
651.41328190688478
 30
0.0
 11
1811.9919329999991
 21
561.80013890688474
 31
0.0
  0
LINE
  5
7F9D
  8
3
  6
CONTINUOUS
 62
     0
 10
1689.9919329999991
 20
571.80013890688474
 30
0.0
 11
1791.991933
 21
571.80013890688474
 31
0.0
  0
INSERT
  5
7F9E
  8
3
  6
CONTINUOUS
 62
     0
  2
_OPEN
 10
1669.991933
 20
571.80013890688474
 30
0.0
 41
20.0
 42
20.0
 43
20.0
 50
180.0
  0
INSERT
  5
7F9F
  8
3
  6
CONTINUOUS
 62
     0
  2
_OPEN
 10
1811.9919329999991
 20
571.80013890688474
 30
0.0
 41
20.0
 42
20.0
 43
20.0
  0
TEXT
  8
3
  40
30
  5
7FC0
  62
0
  72
0
  71
0
 10
1680.99
 20
543.700
 30
0.000000
  1
142
  0
POINT
  5
7FA1
  8
DEFPOINTS
  6
CONTINUOUS
 62
     0
 10
1669.991933
 20
621.19249890688468
 30
0.0
  0
POINT
  5
7FA2
  8
DEFPOINTS
  6
CONTINUOUS
 62
     0
 10
1811.9919329999991
 20
656.41328190688478
 30
0.0
  0
POINT
  5
7FA3
  8
DEFPOINTS
  6
CONTINUOUS
 62
     0
 10
1811.9919329999991
 20
571.80013890688474
 30
0.0
  0
ENDBLK
  5
7CDE
  8
0
  0
BLOCK
  8
0
  2
*D18
 70
     1
 10
0.0
 20
0.0
 30
0.0
  3
*D18
  1

  0
LINE
  5
7FA4
  8
3
  6
CONTINUOUS
 62
     0
 10
1773.991933
 20
1178.4132819068841
 30
0.0
 11
1856.9803379999989
 21
1178.4132819068841
 31
0.0
  0
LINE
  5
7FA5
  8
3
  6
CONTINUOUS
 62
     0
 10
1773.991933
 20
928.41328190688466
 30
0.0
 11
1856.9803379999989
 21
928.41328190688455
 31
0.0
  0
LINE
  5
7FA6
  8
3
  6
CONTINUOUS
 62
     0
 10
1846.9803380000001
 20
1158.4132819068841
 30
0.0
 11
1846.9803380000001
 21
948.41328190688466
 31
0.0
  0
INSERT
  5
7FA7
  8
3
  6
CONTINUOUS
 62
     0
  2
_OPEN
 10
1846.9803380000001
 20
1178.4132819068841
 30
0.0
 41
20.0
 42
20.0
 43
20.0
 50
90.0
  0
INSERT
  5
7FA8
  8
3
  6
CONTINUOUS
 62
     0
  2
_OPEN
 10
1846.9803380000001
 20
928.41328190688455
 30
0.0
 41
20.0
 42
20.0
 43
20.0
 50
270.0
  0
TEXT
  8
3
  40
30
  5
7FC1
  62
0
  72
0
  71
0
 10
1761.98
 20
992.518
 30
0.000000
  1
φ250
  0
POINT
  5
7FAA
  8
DEFPOINTS
  6
CONTINUOUS
 62
     0
 10
1768.9919329999991
 20
1178.4132819068841
 30
0.0
  0
POINT
  5
7FAB
  8
DEFPOINTS
  6
CONTINUOUS
 62
     0
 10
1768.9919329999991
 20
928.41328190688466
 30
0.0
  0
POINT
  5
7FAC
  8
DEFPOINTS
  6
CONTINUOUS
 62
     0
 10
1846.9803380000001
 20
928.41328190688455
 30
0.0
  0
ENDBLK
  5
7DA6
  8
0
  0
BLOCK
  8
0
  2
_DOT
 70
     0
 10
0.0
 20
0.0
 30
0.0
  3
_DOT
  1

  0
LINE
  5
7E01
  8
0
  6
BYBLOCK
 62
     0
 10
0.0
 20
0.0
 30
0.0
 11
-1.0
 21
-0.0000000000000284
 31
0.0
  0
POLYLINE
  5
7E02
  8
0
  6
BYBLOCK
 62
     0
 66
     1
 10
0.0
 20
0.0
 30
0.0
 70
     1
 40
0.1666666666666666
 41
0.1666666666666666
  0
VERTEX
  5
7FAD
  8
0
  6
BYBLOCK
 62
     0
 10
-0.0833333333333286
 20
-0.0000000000000284
 30
0.0
 42
1.0
  0
VERTEX
  5
7FAE
  8
0
  6
BYBLOCK
 62
     0
 10
0.0833333333333286
 20
-0.0000000000000284
 30
0.0
 42
1.0
  0
SEQEND
  5
7FAF
  8
0
  6
BYBLOCK
 62
     0
  0
ENDBLK
  5
7DE7
  8
0
  0
ENDSEC
  0
SECTION
  2
ENTITIES
  0
LINE
  5
7A9B
  8
1
  6
CONTINUOUS
 10
1053.516208
 20
656.41328190688478
 30
0.0
 11
1023.516207999999
 21
656.41328190688478
 31
0.0
  0
LINE
  5
7A9C
  8
1
  6
CONTINUOUS
 10
1023.516207999999
 20
1731.6008821858661
 30
0.0
 11
1053.516208
 21
1731.6008821858661
 31
0.0
  0
LINE
  5
7A9D
  8
1
  6
CONTINUOUS
 10
1023.516207999999
 20
2211.6008821858659
 30
0.0
 11
1053.516208
 21
2211.6008821858659
 31
0.0
  0
LINE
  5
7A9E
  8
1
  6
CONTINUOUS
 10
1053.516208
 20
2061.6008821858659
 30
0.0
 11
1033.5162079999991
 21
2061.6008821858659
 31
0.0
  0
LINE
  5
7A9F
  8
1
  6
CONTINUOUS
 10
1053.516208
 20
1811.6008821858661
 30
0.0
 11
845.51620800000001
 21
1811.6008821858661
 31
0.0
  0
LINE
  5
7AA0
  8
1
  6
CONTINUOUS
 10
283.51620799999989
 20
716.41328190688466
 30
0.0
 11
1053.516208
 21
716.41328190688466
 31
0.0
  0
LINE
  5
7AA1
  8
1
  6
CONTINUOUS
 10
283.51620799999989
 20
686.41328190688466
 30
0.0
 11
1053.516208
 21
686.41328190688466
 31
0.0
  0
LINE
  5
7AA2
  8
1
  6
CONTINUOUS
 10
447.4162080000001
 20
933.41328190688478
 30
0.0
 11
805.4162080000001
 21
1110.313281906884
 31
0.0
  0
LINE
  5
7AA3
  8
1
  6
CONTINUOUS
 10
491.81620800000002
 20
837.21328190688484
 30
0.0
 11
858.61620799999992
 21
995.11328190688471
 31
0.0
  0
LINE
  5
7AA4
  8
1
  6
CONTINUOUS
 10
833.71620800000005
 20
1178.4132819068841
 30
0.0
 11
378.51620800000001
 21
978.41328190688466
 31
0.0
  0
LINE
  5
7AA5
  8
1
  6
CONTINUOUS
 10
313.51620800000001
 20
798.41328190688478
 30
0.0
 11
1023.516207999999
 21
798.41328190688478
 31
0.0
  0
LINE
  5
7AA6
  8
1
  6
CONTINUOUS
 10
313.51620800000001
 20
738.41328190688466
 30
0.0
 11
1023.516207999999
 21
738.41328190688466
 31
0.0
  0
ARC
  5
7AA7
  8
1
  6
CONTINUOUS
 10
853.51620800000001
 20
1073.4132819068841
 30
0.0
 40
240.90000000000001
 50
94.900000000000006
 51
184.59999999999999
  0
ARC
  5
7AA8
  8
1
  6
CONTINUOUS
 10
816.51620799999989
 20
1070.4132819068841
 30
0.0
 40
203.6999999999999
 50
184.59999999999999
 51
275.49999999999989
  0
LINE
  5
7AA9
  8
2
  6
CENTER
 10
470.9162080000001
 20
832.91328190688466
 30
0.0
 11
470.9162080000001
 21
938.91328190688478
 31
0.0
  0
CIRCLE
  5
7AAA
  8
1
  6
CONTINUOUS
 10
470.9162080000001
 20
885.91328190688466
 30
0.0
 40
53.0
  0
LINE
  5
7AAB
  8
1
  6
CONTINUOUS
 10
378.51620800000001
 20
798.41328190688478
 30
0.0
 11
378.51620800000001
 21
978.41328190688466
 31
0.0
  0
ARC
  5
7AAC
  8
1
  6
CONTINUOUS
 10
470.9162080000001
 20
885.91328190688466
 30
0.0
 40
75.799999999999997
 50
322.89999999999992
 51
217.09999999999991
  0
LINE
  5
7AAD
  8
1
  6
CONTINUOUS
 10
568.21620800000005
 20
818.41328190688478
 30
0.0
 11
313.51620800000001
 21
818.41328190688478
 31
0.0
  0
LINE
  5
7AAE
  8
1
  6
CONTINUOUS
 10
283.51620799999989
 20
656.41328190688478
 30
0.0
 11
313.51620800000001
 21
656.41328190688478
 31
0.0
  0
LINE
  5
7AAF
  8
1
  6
CONTINUOUS
 10
313.51620800000001
 20
686.41328190688466
 30
0.0
 11
313.51620800000001
 21
656.41328190688478
 31
0.0
  0
LINE
  5
7AB0
  8
1
  6
CONTINUOUS
 10
313.51620800000001
 20
818.41328190688478
 30
0.0
 11
313.51620800000001
 21
798.41328190688478
 31
0.0
  0
LINE
  5
7AB1
  8
1
  6
CONTINUOUS
 10
313.51620800000001
 20
798.41328190688478
 30
0.0
 11
313.51620800000001
 21
738.41328190688466
 31
0.0
  0
LINE
  5
7AB2
  8
1
  6
CONTINUOUS
 10
283.51620799999989
 20
716.41328190688466
 30
0.0
 11
283.51620799999989
 21
656.41328190688478
 31
0.0
  0
LINE
  5
7AB3
  8
2
  6
CENTER
 10
417.9162080000001
 20
885.91328190688466
 30
0.0
 11
523.91620799999998
 21
885.91328190688466
 31
0.0
  0
LINE
  5
7AB4
  8
1
  6
CONTINUOUS
 10
404.9162080000001
 20
825.91328190688466
 30
0.0
 11
410.41620799999998
 21
840.21328190688484
 31
0.0
  0
LINE
  5
7AB5
  8
1
  6
CONTINUOUS
 10
404.9162080000001
 20
818.41328190688478
 30
0.0
 11
404.9162080000001
 21
825.91328190688466
 31
0.0
  0
LINE
  5
7AB6
  8
1
  6
CONTINUOUS
 10
568.21620800000005
 20
798.41328190688478
 30
0.0
 11
568.21620800000005
 21
818.41328190688478
 31
0.0
  0
LINE
  5
7AB7
  8
1
  6
CONTINUOUS
 10
536.9162080000001
 20
818.41328190688478
 30
0.0
 11
536.9162080000001
 21
825.91328190688466
 31
0.0
  0
LINE
  5
7AB8
  8
1
  6
CONTINUOUS
 10
536.9162080000001
 20
825.91328190688466
 30
0.0
 11
531.31620799999985
 21
840.21328190688484
 31
0.0
  0
POINT
  5
7AB9
  8
1
  6
CONTINUOUS
 10
541.31620799999985
 20
885.91328190688466
 30
0.0
  0
CIRCLE
  5
7ABA
  8
1
  6
CONTINUOUS
 10
833.51620799999989
 20
1053.4132819068841
 30
0.0
 40
145.0
  0
LINE
  5
7ABB
  8
1
  6
CONTINUOUS
 10
958.51620799999989
 20
798.41328190688478
 30
0.0
 11
958.51620799999989
 21
1108.4132819068841
 31
0.0
  0
LINE
  5
7ABC
  8
1
  6
CONTINUOUS
 10
993.51620799999989
 20
798.41328190688478
 30
0.0
 11
993.51620799999989
 21
1119.513281906884
 31
0.0
  0
LINE
  5
7ABD
  8
1
  6
CONTINUOUS
 10
673.51620800000001
 20
1119.513281906884
 30
0.0
 11
673.51620800000001
 21
798.41328190688478
 31
0.0
  0
ARC
  5
7ABE
  8
1
  6
CONTINUOUS
 10
819.51620799999989
 20
1039.4132819068841
 30
0.0
 40
172.59999999999991
 50
275.49999999999989
 51
1.3
  0
LINE
  5
7ABF
  8
1
  6
CONTINUOUS
 10
1023.516207999999
 20
686.41328190688466
 30
0.0
 11
1023.516207999999
 21
656.41328190688478
 31
0.0
  0
LINE
  5
7AC0
  8
1
  6
CONTINUOUS
 10
1023.516207999999
 20
798.41328190688478
 30
0.0
 11
1023.516207999999
 21
738.41328190688466
 31
0.0
  0
CIRCLE
  5
7AC1
  8
1
  6
CONTINUOUS
 10
833.51620799999989
 20
1053.4132819068841
 30
0.0
 40
125.0
  0
CIRCLE
  5
7AC2
  8
1
  6
CONTINUOUS
 10
833.51620799999989
 20
1053.4132819068841
 30
0.0
 40
63.5
  0
LINE
  5
7AC3
  8
1
  6
CONTINUOUS
 10
895.11620799999992
 20
1203.4132819068841
 30
0.0
 11
771.9162080000001
 21
1203.4132819068841
 31
0.0
  0
LINE
  5
7AC4
  8
1
  6
CONTINUOUS
 10
993.51620799999989
 20
1020.113281906884
 30
0.0
 11
673.51620800000001
 21
1020.113281906884
 31
0.0
  0
LINE
  5
7AC5
  8
2
  6
CENTER
 10
1790.960251
 20
1053.4132819068841
 30
0.0
 11
1275.4068010000001
 21
1053.4132819068841
 31
0.0
  0
LINE
  5
7AC6
  8
1
  6
CONTINUOUS
 10
771.9162080000001
 20
1203.4132819068841
 30
0.0
 11
673.51620800000001
 21
1119.513281906884
 31
0.0
  0
LINE
  5
7AC7
  8
1
  6
CONTINUOUS
 10
1013.516208
 20
1283.4132819068841
 30
0.0
 11
1013.516208
 21
1073.4132819068841
 31
0.0
  0
LINE
  5
7AC8
  8
1
  6
CONTINUOUS
 10
1033.5162079999991
 20
1032.4132819068841
 30
0.0
 11
1033.5162079999991
 21
1324.413281906885
 31
0.0
  0
LINE
  5
7AC9
  8
1
  6
CONTINUOUS
 10
958.51620799999989
 20
1108.4132819068841
 30
0.0
 11
833.71620800000005
 21
1178.4132819068841
 31
0.0
  0
LINE
  5
7ACA
  8
1
  6
CONTINUOUS
 10
895.11620799999992
 20
1203.4132819068841
 30
0.0
 11
993.51620799999989
 21
1119.513281906884
 31
0.0
  0
LINE
  5
7ACB
  8
2
  6
CENTER
 10
833.51620799999989
 20
2203.2554101858659
 30
0.0
 11
833.51620799999989
 21
1699.0601491858661
 31
0.0
  0
LINE
  5
7ACC
  8
1
  6
CONTINUOUS
 10
1013.516208
 20
1053.4132819068841
 30
0.0
 11
1013.516208
 21
1043.4132819068841
 31
0.0
  0
LINE
  5
7ACD
  8
1
  6
CONTINUOUS
 10
1033.5162079999991
 20
1053.4132819068841
 30
0.0
 11
1013.516208
 21
1053.4132819068841
 31
0.0
  0
LINE
  5
7ACE
  8
1
  6
CONTINUOUS
 10
1033.5162079999991
 20
1053.4132819068841
 30
0.0
 11
1013.516208
 21
1073.4132819068841
 31
0.0
  0
LINE
  5
7ACF
  8
1
  6
CONTINUOUS
 10
1013.516208
 20
1043.4132819068841
 30
0.0
 11
992.11620800000003
 21
1043.4132819068841
 31
0.0
  0
LINE
  5
7AD0
  8
1
  6
CONTINUOUS
 10
1013.516208
 20
1313.4132819068841
 30
0.0
 11
833.1162079999998
 21
1313.4132819068841
 31
0.0
  0
LINE
  5
7AD1
  8
1
  6
CONTINUOUS
 10
1033.5162079999991
 20
1303.4132819068841
 30
0.0
 11
1013.516208
 21
1303.4132819068841
 31
0.0
  0
LINE
  5
7AD2
  8
1
  6
CONTINUOUS
 10
1013.516208
 20
1313.4132819068841
 30
0.0
 11
1013.516208
 21
1303.4132819068841
 31
0.0
  0
LINE
  5
7AD3
  8
1
  6
CONTINUOUS
 10
1033.5162079999991
 20
1303.4132819068841
 30
0.0
 11
1013.516208
 21
1283.4132819068841
 31
0.0
  0
LINE
  5
7AD4
  8
1
  6
CONTINUOUS
 10
821.51620800000001
 20
1811.6008821858661
 30
0.0
 11
482.91620799999993
 21
1811.6008821858661
 31
0.0
  0
LINE
  5
7AD5
  8
1
  6
CONTINUOUS
 10
958.51620799999989
 20
1804.6008821858661
 30
0.0
 11
378.51620800000001
 21
1804.6008821858661
 31
0.0
  0
LINE
  5
7AD6
  8
1
  6
CONTINUOUS
 10
958.51620799999989
 20
1729.6008821858661
 30
0.0
 11
378.51620800000001
 21
1729.6008821858661
 31
0.0
  0
LINE
  5
7AD7
  8
1
  6
CONTINUOUS
 10
622.61620800000003
 20
2061.6008821858659
 30
0.0
 11
283.51620799999989
 21
2061.6008821858659
 31
0.0
  0
LINE
  5
7AD8
  8
1
  6
CONTINUOUS
 10
396.01620800000001
 20
1835.9008821858661
 30
0.0
 11
396.01620800000001
 21
2039.9008821858661
 31
0.0
  0
LINE
  5
7AD9
  8
1
  6
CONTINUOUS
 10
547.51620800000001
 20
1835.9008821858661
 30
0.0
 11
547.51620800000001
 21
2039.9008821858661
 31
0.0
  0
LINE
  5
7ADA
  8
1
  6
CONTINUOUS
 10
283.51620799999989
 20
2211.6008821858659
 30
0.0
 11
283.51620799999989
 21
1731.6008821858661
 31
0.0
  0
LINE
  5
7ADB
  8
1
  6
CONTINUOUS
 10
458.81620800000002
 20
1811.6008821858661
 30
0.0
 11
283.51620799999989
 21
1811.6008821858661
 31
0.0
  0
LINE
  5
7ADC
  8
1
  6
CONTINUOUS
 10
313.51620800000001
 20
1731.6008821858661
 30
0.0
 11
283.51620799999989
 21
1731.6008821858661
 31
0.0
  0
LINE
  5
7ADD
  8
1
  6
CONTINUOUS
 10
313.51620800000001
 20
1811.6008821858661
 30
0.0
 11
313.51620800000001
 21
1731.6008821858661
 31
0.0
  0
LINE
  5
7ADE
  8
1
  6
CONTINUOUS
 10
378.51620800000001
 20
1729.6008821858661
 30
0.0
 11
378.51620800000001
 21
1804.6008821858661
 31
0.0
  0
LINE
  5
7ADF
  8
1
  6
CONTINUOUS
 10
523.91620799999987
 20
1749.6008821858661
 30
0.0
 11
417.91620799999998
 21
1749.6008821858661
 31
0.0
  0
LINE
  5
7AE0
  8
1
  6
CONTINUOUS
 10
523.91620799999987
 20
1784.6008821858661
 30
0.0
 11
417.91620799999998
 21
1784.6008821858661
 31
0.0
  0
LINE
  5
7AE1
  8
1
  6
CONTINUOUS
 10
547.51620800000001
 20
1835.9008821858661
 30
0.0
 11
396.01620800000001
 21
1835.9008821858661
 31
0.0
  0
LINE
  5
7AE2
  8
1
  6
CONTINUOUS
 10
417.91620799999998
 20
1749.6008821858661
 30
0.0
 11
417.91620799999998
 21
1784.6008821858661
 31
0.0
  0
LINE
  5
7AE3
  8
1
  6
CONTINUOUS
 10
458.91620799999998
 20
1784.6008821858661
 30
0.0
 11
458.81620800000002
 21
1835.9008821858661
 31
0.0
  0
LINE
  5
7AE4
  8
1
  6
CONTINUOUS
 10
482.81620800000002
 20
1784.6008821858661
 30
0.0
 11
482.91620799999993
 21
1835.9008821858661
 31
0.0
  0
LINE
  5
7AE5
  8
1
  6
CONTINUOUS
 10
523.91620799999987
 20
1749.6008821858661
 30
0.0
 11
523.91620799999987
 21
1784.6008821858661
 31
0.0
  0
LINE
  5
7AE6
  8
1
  6
CONTINUOUS
 10
313.51620800000001
 20
2211.6008821858659
 30
0.0
 11
313.51620800000001
 21
2061.6008821858659
 31
0.0
  0
LINE
  5
7AE7
  8
1
  6
CONTINUOUS
 10
313.51620800000001
 20
2211.6008821858659
 30
0.0
 11
283.51620799999989
 21
2211.6008821858659
 31
0.0
  0
LINE
  5
7AE8
  8
1
  6
CONTINUOUS
 10
547.51620800000001
 20
2039.9008821858661
 30
0.0
 11
396.01620800000001
 21
2039.9008821858661
 31
0.0
  0
LINE
  5
7AE9
  8
1
  6
CONTINUOUS
 10
622.61620800000003
 20
2147.4008821858661
 30
0.0
 11
622.61620800000003
 21
1991.8008821858659
 31
0.0
  0
LINE
  5
7AEA
  8
1
  6
CONTINUOUS
 10
1033.5162079999991
 20
1988.8008821858659
 30
0.0
 11
1013.516208
 21
2008.8008821858659
 31
0.0
  0
LINE
  5
7AEB
  8
1
  6
CONTINUOUS
 10
1033.5162079999991
 20
2180.6008821858659
 30
0.0
 11
1033.5162079999991
 21
1958.6008821858661
 31
0.0
  0
LINE
  5
7AEC
  8
1
  6
CONTINUOUS
 10
1033.5162079999991
 20
1979.8008821858659
 30
0.0
 11
634.61620800000003
 21
1979.8008821858659
 31
0.0
  0
LINE
  5
7AED
  8
1
  6
CONTINUOUS
 10
821.51620800000001
 20
1841.6008821858661
 30
0.0
 11
673.51620800000001
 21
1841.6008821858661
 31
0.0
  0
LINE
  5
7AEE
  8
1
  6
CONTINUOUS
 10
897.01620799999989
 20
1749.6008821858661
 30
0.0
 11
770.01620800000001
 21
1749.6008821858661
 31
0.0
  0
LINE
  5
7AEF
  8
1
  6
CONTINUOUS
 10
897.01620799999989
 20
1784.6008821858661
 30
0.0
 11
770.01620800000001
 21
1784.6008821858661
 31
0.0
  0
LINE
  5
7AF0
  8
1
  6
CONTINUOUS
 10
993.51620799999989
 20
1970.600882185865
 30
0.0
 11
673.51620800000001
 21
1970.600882185865
 31
0.0
  0
ARC
  5
7AF1
  8
1
  6
CONTINUOUS
 10
634.61620800000003
 20
1991.8008821858659
 30
0.0
 40
12.0
 50
180.0
 51
270.0
  0
LINE
  5
7AF2
  8
1
  6
CONTINUOUS
 10
686.51620800000001
 20
1979.8008821858659
 30
0.0
 11
686.51620800000001
 21
1970.600882185865
 31
0.0
  0
LINE
  5
7AF3
  8
1
  6
CONTINUOUS
 10
673.51620800000001
 20
1970.600882185865
 30
0.0
 11
673.51620800000001
 21
1841.6008821858661
 31
0.0
  0
LINE
  5
7AF4
  8
1
  6
CONTINUOUS
 10
770.01620800000001
 20
1749.6008821858661
 30
0.0
 11
770.01620800000001
 21
1784.6008821858661
 31
0.0
  0
LINE
  5
7AF5
  8
1
  6
CONTINUOUS
 10
993.51620799999989
 20
1841.6008821858661
 30
0.0
 11
845.51620800000001
 21
1841.6008821858661
 31
0.0
  0
LINE
  5
7AF6
  8
1
  6
CONTINUOUS
 10
845.51620800000001
 20
1784.6008821858661
 30
0.0
 11
845.51620800000001
 21
1970.600882185865
 31
0.0
  0
LINE
  5
7AF7
  8
1
  6
CONTINUOUS
 10
821.51620800000001
 20
1784.6008821858661
 30
0.0
 11
821.51620800000001
 21
1970.600882185865
 31
0.0
  0
LINE
  5
7AF8
  8
1
  6
CONTINUOUS
 10
897.01620799999989
 20
1749.6008821858661
 30
0.0
 11
897.01620799999989
 21
1784.6008821858661
 31
0.0
  0
LINE
  5
7AF9
  8
1
  6
CONTINUOUS
 10
980.51620800000001
 20
1979.8008821858659
 30
0.0
 11
980.51620800000001
 21
1970.600882185865
 31
0.0
  0
LINE
  5
7AFA
  8
1
  6
CONTINUOUS
 10
1023.516207999999
 20
1811.6008821858661
 30
0.0
 11
1023.516207999999
 21
1731.6008821858661
 31
0.0
  0
LINE
  5
7AFB
  8
1
  6
CONTINUOUS
 10
958.51620799999989
 20
1729.6008821858661
 30
0.0
 11
958.51620799999989
 21
1804.6008821858661
 31
0.0
  0
LINE
  5
7AFC
  8
1
  6
CONTINUOUS
 10
993.51620799999989
 20
1841.6008821858661
 30
0.0
 11
993.51620799999989
 21
1970.600882185865
 31
0.0
  0
LINE
  5
7AFD
  8
1
  6
CONTINUOUS
 10
1033.5162079999991
 20
2159.4008821858661
 30
0.0
 11
634.61620800000003
 21
2159.4008821858661
 31
0.0
  0
LINE
  5
7AFE
  8
1
  6
CONTINUOUS
 10
686.51620800000001
 20
2168.6008821858659
 30
0.0
 11
980.51620800000001
 21
2168.6008821858659
 31
0.0
  0
ARC
  5
7AFF
  8
1
  6
CONTINUOUS
 10
634.61620800000003
 20
2147.4008821858661
 30
0.0
 40
12.0
 50
90.0
 51
180.0
  0
LINE
  5
7B00
  8
1
  6
CONTINUOUS
 10
686.51620800000001
 20
2160.4008821858661
 30
0.0
 11
686.51620800000001
 21
2168.6008821858659
 31
0.0
  0
LINE
  5
7B01
  8
1
  6
CONTINUOUS
 10
1033.5162079999991
 20
2150.4008821858661
 30
0.0
 11
1013.516208
 21
2130.4008821858661
 31
0.0
  0
LINE
  5
7B02
  8
1
  6
CONTINUOUS
 10
1013.516208
 20
2130.4008821858661
 30
0.0
 11
1013.516208
 21
2008.8008821858659
 31
0.0
  0
LINE
  5
7B03
  8
1
  6
CONTINUOUS
 10
980.51620800000001
 20
2160.4008821858661
 30
0.0
 11
980.51620800000001
 21
2168.6008821858659
 31
0.0
  0
LINE
  5
7B04
  8
1
  6
CONTINUOUS
 10
1023.516207999999
 20
2211.6008821858659
 30
0.0
 11
1023.516207999999
 21
2160.4008821858661
 31
0.0
  0
LINE
  5
7B05
  8
1
  6
CONTINUOUS
 10
1331.991933
 20
656.41328190688478
 30
0.0
 11
1811.9919329999991
 21
656.41328190688478
 31
0.0
  0
LINE
  5
7B06
  8
1
  6
CONTINUOUS
 10
1441.991933
 20
1015.213281906884
 30
0.0
 11
1570.991933
 21
1119.513281906884
 31
0.0
  0
LINE
  5
7B07
  8
1
  6
CONTINUOUS
 10
1411.991933
 20
738.41328190688466
 30
0.0
 11
1661.991933
 21
738.41328190688466
 31
0.0
  0
LINE
  5
7B08
  8
1
  6
CONTINUOUS
 10
1329.991933
 20
798.41328190688478
 30
0.0
 11
1661.991933
 21
798.41328190688478
 31
0.0
  0
LINE
  5
7B09
  8
1
  6
CONTINUOUS
 10
1331.991933
 20
686.41328190688466
 30
0.0
 11
1811.9919329999991
 21
686.41328190688466
 31
0.0
  0
LINE
  5
7B0A
  8
1
  6
CONTINUOUS
 10
1411.991933
 20
716.41328190688466
 30
0.0
 11
1661.991933
 21
716.41328190688466
 31
0.0
  0
LINE
  5
7B0B
  8
1
  6
CONTINUOUS
 10
1384.991933
 20
938.91328190688478
 30
0.0
 11
1384.991933
 21
832.91328190688466
 31
0.0
  0
LINE
  5
7B0C
  8
1
  6
CONTINUOUS
 10
1349.991933
 20
938.91328190688478
 30
0.0
 11
1349.991933
 21
832.91328190688466
 31
0.0
  0
LINE
  5
7B0D
  8
1
  6
CONTINUOUS
 10
1404.9919329999991
 20
798.41328190688478
 30
0.0
 11
1404.9919329999991
 21
1178.4132819068841
 31
0.0
  0
LINE
  5
7B0E
  8
1
  6
CONTINUOUS
 10
1329.991933
 20
798.41328190688478
 30
0.0
 11
1329.991933
 21
1178.4132819068841
 31
0.0
  0
LINE
  5
7B0F
  8
1
  6
CONTINUOUS
 10
1441.991933
 20
798.41328190688478
 30
0.0
 11
1441.991933
 21
1015.213281906884
 31
0.0
  0
LINE
  5
7B12
  8
1
  6
CONTINUOUS
 10
1053.516208
 20
716.41328190688466
 30
0.0
 11
1053.516208
 21
656.41328190688478
 31
0.0
  0
LINE
  5
7B14
  8
1
  6
CONTINUOUS
 10
1384.991933
 20
897.91328190688478
 30
0.0
 11
1441.991933
 21
897.91328190688478
 31
0.0
  0
LINE
  5
7B15
  8
1
  6
CONTINUOUS
 10
1384.991933
 20
873.91328190688466
 30
0.0
 11
1441.991933
 21
873.91328190688466
 31
0.0
  0
LINE
  5
7B16
  8
1
  6
CONTINUOUS
 10
1331.991933
 20
686.41328190688466
 30
0.0
 11
1331.991933
 21
656.41328190688478
 31
0.0
  0
LINE
  5
7B17
  8
1
  6
CONTINUOUS
 10
1349.991933
 20
832.91328190688466
 30
0.0
 11
1384.991933
 21
832.91328190688466
 31
0.0
  0
LINE
  5
7B18
  8
1
  6
CONTINUOUS
 10
1411.991933
 20
798.41328190688478
 30
0.0
 11
1411.991933
 21
738.41328190688466
 31
0.0
  0
LINE
  5
7B19
  8
1
  6
CONTINUOUS
 10
1411.991933
 20
716.41328190688466
 30
0.0
 11
1411.991933
 21
686.41328190688466
 31
0.0
  0
LINE
  5
7B1A
  8
1
  6
CONTINUOUS
 10
1384.991933
 20
1041.4132819068841
 30
0.0
 11
1474.3919330000001
 21
1041.4132819068841
 31
0.0
  0
LINE
  5
7B1B
  8
1
  6
CONTINUOUS
 10
1384.991933
 20
1065.4132819068841
 30
0.0
 11
1504.091932999999
 21
1065.4132819068841
 31
0.0
  0
LINE
  5
7B1C
  8
1
  6
CONTINUOUS
 10
1329.991933
 20
1178.4132819068841
 30
0.0
 11
1404.9919329999991
 21
1178.4132819068841
 31
0.0
  0
LINE
  5
7B1D
  8
1
  6
CONTINUOUS
 10
1349.991933
 20
938.91328190688478
 30
0.0
 11
1384.991933
 21
938.91328190688478
 31
0.0
  0
LINE
  5
7B1E
  8
1
  6
CONTINUOUS
 10
1384.991933
 20
1116.9132819068841
 30
0.0
 11
1384.991933
 21
989.91328190688478
 31
0.0
  0
LINE
  5
7B1F
  8
1
  6
CONTINUOUS
 10
1349.991933
 20
989.91328190688478
 30
0.0
 11
1384.991933
 21
989.91328190688478
 31
0.0
  0
LINE
  5
7B20
  8
1
  6
CONTINUOUS
 10
1349.991933
 20
1116.9132819068841
 30
0.0
 11
1384.991933
 21
1116.9132819068841
 31
0.0
  0
LINE
  5
7B21
  8
1
  6
CONTINUOUS
 10
1349.991933
 20
1116.9132819068841
 30
0.0
 11
1349.991933
 21
989.91328190688478
 31
0.0
  0
LINE
  5
7B22
  8
1
  6
CONTINUOUS
 10
1768.9919329999991
 20
1200.4132819068841
 30
0.0
 11
1768.9919329999991
 21
906.41328190688466
 31
0.0
  0
LINE
  5
7B23
  8
1
  6
CONTINUOUS
 10
1759.991933
 20
854.5132819068848
 30
0.0
 11
1759.991933
 21
1304.4132819068841
 31
0.0
  0
LINE
  5
7B24
  8
1
  6
CONTINUOUS
 10
1579.991933
 20
1304.4132819068841
 30
0.0
 11
1579.991933
 21
854.5132819068848
 31
0.0
  0
LINE
  5
7B25
  8
1
  6
CONTINUOUS
 10
1570.991933
 20
1200.4132819068841
 30
0.0
 11
1570.991933
 21
798.41328190688478
 31
0.0
  0
LINE
  5
7B26
  8
1
  6
CONTINUOUS
 10
1590.991933
 20
842.51328190688469
 30
0.0
 11
1748.991933
 21
842.51328190688469
 31
0.0
  0
LINE
  5
7B27
  8
1
  6
CONTINUOUS
 10
1579.991933
 20
906.41328190688466
 30
0.0
 11
1570.991933
 21
906.41328190688466
 31
0.0
  0
ARC
  5
7B28
  8
1
  6
CONTINUOUS
 10
1590.991933
 20
854.5132819068848
 30
0.0
 40
12.0
 50
180.0
 51
270.0
  0
ARC
  5
7B29
  8
1
  6
CONTINUOUS
 10
1591.991933
 20
854.5132819068848
 30
0.0
 40
12.0
 50
180.0
 51
270.0
  0
LINE
  5
7B2A
  8
1
  6
CONTINUOUS
 10
1661.991933
 20
798.41328190688478
 30
0.0
 11
1661.991933
 21
738.41328190688466
 31
0.0
  0
LINE
  5
7B2B
  8
1
  6
CONTINUOUS
 10
1661.991933
 20
716.41328190688466
 30
0.0
 11
1661.991933
 21
686.41328190688466
 31
0.0
  0
LINE
  5
7B2C
  8
1
  6
CONTINUOUS
 10
1759.991933
 20
906.41328190688466
 30
0.0
 11
1768.9919329999991
 21
906.41328190688466
 31
0.0
  0
ARC
  5
7B2D
  8
1
  6
CONTINUOUS
 10
1747.9919329999991
 20
854.5132819068848
 30
0.0
 40
12.0
 50
270.0
 51
0.0
  0
LINE
  5
7B2E
  8
1
  6
CONTINUOUS
 10
1811.9919329999991
 20
686.41328190688466
 30
0.0
 11
1811.9919329999991
 21
656.41328190688478
 31
0.0
  0
LINE
  5
7B2F
  8
1
  6
CONTINUOUS
 10
1579.991933
 20
1052.4132819068841
 30
0.0
 11
1759.991933
 21
1052.4132819068841
 31
0.0
  0
LINE
  5
7B30
  8
1
  6
CONTINUOUS
 10
1759.991933
 20
1304.4132819068841
 30
0.0
 11
1579.991933
 21
1304.4132819068841
 31
0.0
  0
LINE
  5
7B31
  8
1
  6
CONTINUOUS
 10
1579.991933
 20
1304.4132819068841
 30
0.0
 11
1759.991933
 21
1052.4132819068841
 31
0.0
  0
LINE
  5
7B32
  8
1
  6
CONTINUOUS
 10
1579.991933
 20
1052.4132819068841
 30
0.0
 11
1759.991933
 21
1304.4132819068841
 31
0.0
  0
LINE
  5
7B33
  8
1
  6
CONTINUOUS
 10
1579.991933
 20
1200.4132819068841
 30
0.0
 11
1570.991933
 21
1200.4132819068841
 31
0.0
  0
LINE
  5
7B34
  8
1
  6
CONTINUOUS
 10
1759.991933
 20
1200.4132819068841
 30
0.0
 11
1768.9919329999991
 21
1200.4132819068841
 31
0.0
  0
LINE
  5
7B35
  8
1
  6
CONTINUOUS
 10
1053.516208
 20
2211.6008821858659
 30
0.0
 11
1053.516208
 21
1731.6008821858661
 31
0.0
  0
LINE
  5
7B36
  8
4
  6
CONTINUOUS
 10
1850.0
 20
500.0
 30
0.0
 11
1850.0
 21
300.0
 31
0.0
  0
LINE
  5
7B37
  8
4
  6
CONTINUOUS
 10
1150.0
 20
500.0
 30
0.0
 11
1150.0
 21
300.0
 31
0.0
  0
LINE
  5
7B38
  8
4
  6
CONTINUOUS
 10
650.0
 20
500.0
 30
0.0
 11
650.0
 21
300.0
 31
0.0
  0
LINE
  5
7B3B
  8
4
  6
CONTINUOUS
 10
650.0
 20
300.0
 30
0.0
 11
1850.0
 21
300.0
 31
0.0
  0
LINE
  5
7B3C
  8
4
  6
CONTINUOUS
 10
650.0
 20
400.0
 30
0.0
 11
1850.0
 21
400.0
 31
0.0
  0
TEXT
  5
7B3D
  8
4
  6
CONTINUOUS
 10
688.50208099999998
 20
431.543026
 30
0.0
 40
50.0
  1
機器名称
  0
TEXT
  5
7B3E
  8
4
  6
CONTINUOUS
 10
686.258106
 20
321.64515699999993
 30
0.0
 40
50.0
  1
機器型番
  0
TEXT
  5
7B3F
  8
4
  6
CONTINUOUS
 10
1177.678744999999
 20
422.57176900000002
 30
0.0
 40
45.0
  1
ミツヤニューマルチファン
  0
TEXT
  5
7B40
  8
4
  6
CONTINUOUS
 10
1186.6544960000001
 20
317.159584
 30
0.0
 40
50.0
  1
NM#1 1/2-1
  0
TEXT
  5
7B42
  8
4
  6
CONTINUOUS
 10
757.68035699999996
 20
2383.4288409999999
 30
0.0
 40
54.0
  1
天井吊防振ベット
  0
TEXT
  5
7B43
  8
4
  6
CONTINUOUS
 10
316.16759300000001
 20
2533.8809759999999
 30
0.0
 40
72.0
  1
ベルト駆動式片吸込片持多翼ファン
  0
LINE
  5
7B44
  8
4
  6
CONTINUOUS
 10
250.0
 20
2469.408754
 30
0.0
 11
1850.0
 21
2469.408754
 31
0.0
  0
LINE
  5
7B45
  8
4
  6
CONTINUOUS
 10
250.0
 20
2669.408754
 30
0.0
 11
1850.0
 21
2669.408754
 31
0.0
  0
LINE
  5
7B46
  8
4
  6
CONTINUOUS
 10
650.0
 20
500.0
 30
0.0
 11
1850.0
 21
500.0
 31
0.0
  0
LINE
  5
7B47
  8
4
  6
CONTINUOUS
 10
250.0
 20
2669.408754
 30
0.0
 11
250.0
 21
2469.408754
 31
0.0
  0
TEXT
  5
7B48
  8
4
  6
CONTINUOUS
 10
321.82152500000001
 20
2382.3194779999999
 30
0.0
 40
54.0
  1
右回転右横向
  0
TEXT
  5
7B49
  8
4
  6
CONTINUOUS
 10
1468.9695589999999
 20
2706.0610809999998
 30
0.0
 40
56.0
  1
No.
  0
TEXT
  5
7B4A
  8
4
  6
CONTINUOUS
 10
1444.391433
 20
2383.4288409999999
 30
0.0
 40
54.0
  1
縮尺：1/10
  0
LINE
  5
7B4B
  8
4
  6
CONTINUOUS
 10
1850.0
 20
2669.408754
 30
0.0
 11
1850.0
 21
2469.408754
 31
0.0
  0
LINE
  5
7B4D
  8
4
  6
CONTINUOUS
 10
1440.617422
 20
2681.2635829999999
 30
0.0
 11
1440.617422
 21
2786.6522620000001
 31
0.0
  0
LINE
  5
7B4E
  8
4
  6
CONTINUOUS
 10
1440.617422
 20
2786.6522620000001
 30
0.0
 11
1850.0
 21
2786.6522620000001
 31
0.0
  0
LINE
  5
7B4F
  8
4
  6
CONTINUOUS
 10
1850.0
 20
2786.6522620000001
 30
0.0
 11
1850.0
 21
2681.2635829999999
 31
0.0
  0
LINE
  5
7B50
  8
4
  6
CONTINUOUS
 10
1850.0
 20
2681.2635829999999
 30
0.0
 11
1440.617422
 21
2681.2635829999999
 31
0.0
  0
DIMENSION
  5
7B68
  8
3
  6
CONTINUOUS
  2
*D1
 10
833.51620799999989
 20
582.97349790688475
 30
0.0
 11
550.90778399999988
 21
582.97349790688475
 31
0.0
 70
   128
 13
283.51620799999989
 23
656.41328190688478
 33
0.0
 14
833.51620799999989
 24
659.94675090688474
 34
0.0
1001
ACAD
1000
DSTYLE
1002
{
1070
   287
1070
     3
1070
   287
1070
     3
1070
    40
1040
10.0
1070
   143
1040
0.039
1070
   172
1070
     1
1070
   271
1070
     0
1070
   279
1070
     0
1070
   288
1070
     1
1002
}
  0
DIMENSION
  5
7B74
  8
3
  6
CONTINUOUS
  2
*D2
 10
1053.516208
 20
582.97349790688475
 30
0.0
 11
943.51620799999989
 21
607.97349790688475
 31
0.0
 70
     0
 13
833.51620799999989
 23
659.94675090688474
 33
0.0
 14
1053.516208
 24
656.41328190688478
 34
0.0
1001
ACAD
1000
DSTYLE
1002
{
1070
   287
1070
     4
1070
   287
1070
     4
1070
    40
1040
10.0
1070
    75
1070
     1
1070
   143
1040
0.039
1070
   172
1070
     1
1070
   271
1070
     0
1070
   279
1070
     1
1070
   288
1070
     1
1002
}
  0
DIMENSION
  5
7B81
  8
3
  6
CONTINUOUS
  2
*D3
 10
833.51620799999989
 20
1372.4746649068841
 30
0.0
 11
722.11188900000002
 21
1372.4746649068841
 31
0.0
 70
   128
 13
613.52682400000003
 23
1053.4132819068841
 33
0.0
 14
833.51620799999989
 24
1313.4132819068841
 34
0.0
1001
ACAD
1000
DSTYLE
1002
{
1070
   287
1070
     3
1070
   287
1070
     3
1070
    40
1040
10.0
1070
   143
1040
0.039
1070
   172
1070
     1
1070
   271
1070
     0
1070
   279
1070
     0
1070
   288
1070
     1
1002
}
  0
DIMENSION
  5
7B8D
  8
3
  6
CONTINUOUS
  2
*D4
 10
1033.5162079999991
 20
1372.4746649068841
 30
0.0
 11
933.51620799999989
 21
1397.4746649068841
 31
0.0
 70
     0
 13
833.51620799999989
 23
1313.4132819068841
 33
0.0
 14
1033.5162079999991
 24
1324.413281906885
 34
0.0
1001
ACAD
1000
DSTYLE
1002
{
1070
   287
1070
     4
1070
   287
1070
     4
1070
    40
1040
10.0
1070
    75
1070
     1
1070
   143
1040
0.039
1070
   172
1070
     1
1070
   271
1070
     0
1070
   279
1070
     1
1070
   288
1070
     1
1002
}
  0
DIMENSION
  5
7B9A
  8
3
  6
CONTINUOUS
  2
*D5
 10
1093.247797
 20
1053.4132819068841
 30
0.0
 11
1093.247797
 21
1181.3355109068841
 31
0.0
 70
   128
 13
1033.5162079999991
 23
1303.4132819068841
 33
0.0
 14
1033.5162079999991
 24
1053.4132819068841
 34
0.0
 50
90.0
1001
ACAD
1000
DSTYLE
1002
{
1070
   287
1070
     3
1070
   287
1070
     3
1070
    40
1040
10.0
1070
   143
1040
0.039
1070
   172
1070
     1
1070
   271
1070
     0
1070
   279
1070
     0
1070
   288
1070
     1
1002
}
  0
DIMENSION
  5
7BB3
  8
3
  6
CONTINUOUS
  2
*D6
 10
1163.743608999999
 20
738.41328190688466
 30
0.0
 11
1138.743608999999
 21
895.91328190688478
 31
0.0
 70
     0
 13
1033.5162079999991
 23
1053.4132819068841
 33
0.0
 14
1023.516207999999
 24
738.41328190688466
 34
0.0
 50
90.0
1001
ACAD
1000
DSTYLE
1002
{
1070
   287
1070
     3
1070
   287
1070
     3
1070
    40
1040
10.0
1070
   143
1040
0.039
1070
   172
1070
     1
1070
   271
1070
     0
1070
   279
1070
     0
1070
   288
1070
     1
1002
}
  0
DIMENSION
  5
7BC3
  8
3
  6
CONTINUOUS
  2
*D7
 10
1163.743608999999
 20
686.41328190688466
 30
0.0
 11
1196.3512251355151
 21
714.32270890688483
 31
0.0
 70
   128
 13
1023.516207999999
 23
738.41328190688466
 33
0.0
 14
1053.516208
 24
686.41328190688466
 34
0.0
 50
90.0
1001
ACAD
1000
DSTYLE
1002
{
1070
   288
1070
     1
1070
   172
1070
     1
1070
    75
1070
     1
1070
    40
1040
10.0
1070
   271
1070
     0
1070
     7
1000
_DOT
1070
   143
1040
0.039
1002
}
  0
DIMENSION
  5
7BD3
  8
3
  6
CONTINUOUS
  2
*D8
 10
1163.7436090000001
 20
656.41328190688478
 30
0.0
 11
1163.743608999999
 21
582.12756762117067
 31
0.0
 70
   128
 13
1053.516208
 23
686.41328190688466
 33
0.0
 14
1053.516208
 24
656.41328190688478
 34
0.0
 50
90.0
1001
ACAD
1000
DSTYLE
1002
{
1070
   287
1070
     3
1070
   287
1070
     3
1070
    40
1040
10.0
1070
   143
1040
0.039
1070
   172
1070
     1
1070
   271
1070
     0
1070
   279
1070
     0
1070
   288
1070
     1
1070
     6
1000
DOT
1002
}
  0
DIMENSION
  5
7C21
  8
3
  6
CONTINUOUS
  2
*D9
 10
1163.743608999999
 20
1313.4132819068841
 30
0.0
 11
1138.743608999999
 21
1183.413281906885
 31
0.0
 70
     0
 13
1033.5162079999991
 23
1053.4132819068841
 33
0.0
 14
1013.516208
 24
1313.4132819068841
 34
0.0
 50
90.0
1001
ACAD
1000
DSTYLE
1002
{
1070
   287
1070
     4
1070
   287
1070
     4
1070
    40
1040
10.0
1070
    75
1070
     1
1070
   143
1040
0.039
1070
   172
1070
     1
1070
   271
1070
     0
1070
   279
1070
     1
1070
   288
1070
     1
1002
}
  0
DIMENSION
  5
7C2E
  8
3
  6
CONTINUOUS
  2
*D10
 10
1228.9437330000001
 20
656.41328190688478
 30
0.0
 11
1228.9437330000001
 21
979.72121590688471
 31
0.0
 70
   128
 13
1033.5162079999991
 23
1324.413281906885
 33
0.0
 14
1053.516208
 24
656.41328190688478
 34
0.0
 50
90.0
1001
ACAD
1000
DSTYLE
1002
{
1070
   287
1070
     3
1070
   287
1070
     3
1070
    40
1040
10.0
1070
   143
1040
0.039
1070
   172
1070
     1
1070
   271
1070
     0
1070
   279
1070
     0
1070
   288
1070
     1
1002
}
  0
DIMENSION
  5
7C3B
  8
3
  6
CONTINUOUS
  2
*D11
 10
1053.516208
 20
1642.5400961858661
 30
0.0
 11
662.11263499999995
 21
1642.5400961858661
 31
0.0
 70
   128
 13
283.51620799999989
 23
1731.6008821858661
 33
0.0
 14
1053.516208
 24
1731.6008821858661
 34
0.0
1001
ACAD
1000
DSTYLE
1002
{
1070
   287
1070
     3
1070
   287
1070
     3
1070
    40
1040
10.0
1070
   143
1040
0.039
1070
   172
1070
     1
1070
   271
1070
     0
1070
   279
1070
     0
1070
   288
1070
     1
1002
}
  0
DIMENSION
  5
7C48
  8
3
  6
CONTINUOUS
  2
*D12
 10
1146.742497
 20
1731.6008821858661
 30
0.0
 11
1146.742496999999
 21
1974.288234185866
 31
0.0
 70
   128
 13
1053.516208
 23
2211.6008821858659
 33
0.0
 14
1053.516208
 24
1731.6008821858661
 34
0.0
 50
90.0
1001
ACAD
1000
DSTYLE
1002
{
1070
   287
1070
     3
1070
   287
1070
     3
1070
    40
1040
10.0
1070
   143
1040
0.039
1070
   172
1070
     1
1070
   271
1070
     0
1070
   279
1070
     0
1070
   288
1070
     1
1002
}
  0
LINE
  5
7C49
  8
2
  6
CENTER
 10
588.17550199999994
 20
2069.6008821858659
 30
0.0
 11
1080.321138
 21
2069.6008821858659
 31
0.0
  0
LINE
  5
7C4A
  8
2
  6
CENTER
 10
833.51620799999989
 20
1330.6332639068839
 30
0.0
 11
833.51620799999989
 21
659.94675090688474
 31
0.0
  0
LINE
  5
7C4D
  8
2
  6
CENTER
 10
1071.709151
 20
1053.4132819068841
 30
0.0
 11
492.06129399999998
 21
1053.4132819068841
 31
0.0
  0
DIMENSION
  5
7C5A
  8
3
  6
CONTINUOUS
  2
*D13
 10
1759.991933
 20
1351.038413906884
 30
0.0
 11
1659.17461
 21
1351.038413906884
 31
0.0
 70
   128
 13
1579.991933
 23
1304.4132819068841
 33
0.0
 14
1759.991933
 24
1304.4132819068841
 34
0.0
1001
ACAD
1000
DSTYLE
1002
{
1070
   287
1070
     3
1070
   287
1070
     3
1070
    40
1040
10.0
1070
   143
1040
0.039
1070
   172
1070
     1
1070
   271
1070
     0
1070
   279
1070
     0
1070
   288
1070
     1
1002
}
  0
DIMENSION
  5
7CA2
  8
3
  6
CONTINUOUS
  2
*D14
 10
1669.991933
 20
1422.073137768142
 30
0.0
 11
1496.8113049999999
 21
1422.073137768142
 31
0.0
 70
   128
  1
MAX\P340
 13
1329.991933
 23
1121.163431997921
 33
0.0
 14
1669.991933
 24
1394.9304636122561
 34
0.0
1001
ACAD
1000
DSTYLE
1002
{
1070
   287
1070
     3
1070
   287
1070
     3
1070
    40
1040
10.0
1070
   143
1040
0.039
1070
   172
1070
     1
1070
   271
1070
     0
1070
   279
1070
     0
1070
   288
1070
     1
1002
}
  0
DIMENSION
  5
7CB0
  8
3
  6
CONTINUOUS
  2
*D15
 10
1768.9919329999991
 20
1422.073137768142
 30
0.0
 11
1715.7557690000001
 21
1422.073137768142
 31
0.0
 70
   128
 13
1669.991933
 23
1395.4855290866101
 33
0.0
 14
1768.9919329999991
 24
1143.163431997921
 34
0.0
1001
ACAD
1000
DSTYLE
1002
{
1070
   287
1070
     4
1070
   287
1070
     4
1070
    40
1040
10.0
1070
    75
1070
     1
1070
   143
1040
0.039
1070
   172
1070
     1
1070
   271
1070
     0
1070
   279
1070
     1
1070
   288
1070
     1
1002
}
  0
DIMENSION
  5
7CD3
  8
3
  6
CONTINUOUS
  2
*D16
 10
1669.991933
 20
571.80013890688474
 30
0.0
 11
1501.731411
 21
571.80013890688474
 31
0.0
 70
   128
 13
1331.991933
 23
656.41328190688478
 33
0.0
 14
1669.991933
 24
621.19249890688468
 34
0.0
1001
ACAD
1000
DSTYLE
1002
{
1070
   287
1070
     3
1070
   287
1070
     3
1070
    40
1040
10.0
1070
   143
1040
0.039
1070
   172
1070
     1
1070
   271
1070
     0
1070
   279
1070
     0
1070
   288
1070
     1
1002
}
  0
DIMENSION
  5
7CDF
  8
3
  6
CONTINUOUS
  2
*D17
 10
1811.9919329999991
 20
571.80013890688474
 30
0.0
 11
1740.9919329999991
 21
596.80013890688474
 31
0.0
 70
     0
 13
1669.991933
 23
621.19249890688468
 33
0.0
 14
1811.9919329999991
 24
656.41328190688478
 34
0.0
1001
ACAD
1000
DSTYLE
1002
{
1070
   287
1070
     4
1070
   287
1070
     4
1070
    40
1040
10.0
1070
    75
1070
     1
1070
   143
1040
0.039
1070
   172
1070
     1
1070
   271
1070
     0
1070
   279
1070
     1
1070
   288
1070
     1
1002
}
  0
LINE
  5
7CE1
  8
3
  6
CONTINUOUS
 10
1768.9919329999991
 20
1178.4132819068841
 30
0.0
 11
1783.7201130000001
 21
1178.4132819068841
 31
0.0
  0
LINE
  5
7CE3
  8
3
  6
CONTINUOUS
 10
1768.9919329999991
 20
928.41328190688466
 30
0.0
 11
1782.6997960000001
 21
928.41328190688466
 31
0.0
  0
DIMENSION
  5
7CF0
  8
3
  6
CONTINUOUS
  2
*D18
 10
1846.9803380000001
 20
928.41328190688455
 30
0.0
 11
1846.9803379999989
 21
1045.617526906884
 31
0.0
 70
   128
 13
1768.9919329999991
 23
1178.4132819068841
 33
0.0
 14
1768.9919329999991
 24
928.41328190688466
 34
0.0
 50
90.0
1001
ACAD
1000
DSTYLE
1002
{
1070
   287
1070
     3
1070
   287
1070
     3
1070
     3
1000
φ<>
1070
    40
1040
10.0
1070
   143
1040
0.039
1070
   172
1070
     1
1070
   271
1070
     0
1070
   279
1070
     0
1070
   288
1070
     1
1002
}
  0
LINE
  5
7D86
  8
2
  6
CENTER
 10
1669.991933
 20
1348.304933653857
 30
0.0
 11
1669.991933
 21
621.19249890688468
 31
0.0
  0
ENDSEC
  0
EOF
