  0
SECTION
  2
HEADER
  9
$ACADVER
  1
AC1009
  9
$INSBASE
 10
0.0
 20
0.0
 30
0.0
  9
$EXTMIN
 10
248.2775639999999
 20
300.0
 30
0.0
  9
$EXTMAX
 10
1850.0
 20
2786.6522620000001
 30
0.0
  9
$LIMMIN
 10
0.0
 20
0.0
  9
$LIMMAX
 10
297.0
 20
210.0
  9
$ORTHOMODE
 70
     0
  9
$REGENMODE
 70
     1
  9
$FILLMODE
 70
     0
  9
$QTEXTMODE
 70
     0
  9
$MIRRTEXT
 70
     1
  9
$DRAGMODE
 70
     2
  9
$LTSCALE
 40
100.0
  9
$OSMODE
 70
    37
  9
$ATTMODE
 70
     1
  9
$TEXTSIZE
 40
180.0
  9
$TRACEWID
 40
0.05
  9
$TEXTSTYLE
  7
STANDARD
  9
$CLAYER
  8
3
  9
$CELTYPE
  6
BYLAYER
  9
$CECOLOR
 62
   256
  9
$DIMSCALE
 40
10.0
  9
$DIMASZ
 40
2.0
  9
$DIMEXO
 40
0.5
  9
$DIMDLI
 40
10.0
  9
$DIMRND
 40
0.0
  9
$DIMDLE
 40
0.0
  9
$DIMEXE
 40
1.0
  9
$DIMTP
 40
1.0
  9
$DIMTM
 40
1.0
  9
$DIMTXT
 40
3.0
  9
$DIMCEN
 40
0.0
  9
$DIMTSZ
 40
0.0
  9
$DIMTOL
 70
     0
  9
$DIMLIM
 70
     0
  9
$DIMTIH
 70
     0
  9
$DIMTOH
 70
     0
  9
$DIMSE1
 70
     0
  9
$DIMSE2
 70
     0
  9
$DIMTAD
 70
     1
  9
$DIMZIN
 70
     8
  9
$DIMBLK
  1

  9
$DIMASO
 70
     1
  9
$DIMSHO
 70
     1
  9
$DIMPOST
  1

  9
$DIMAPOST
  1

  9
$DIMALT
 70
     0
  9
$DIMALTD
 70
     2
  9
$DIMALTF
 40
0.039
  9
$DIMLFAC
 40
1.0
  9
$DIMTOFL
 70
     1
  9
$DIMTVP
 40
0.0
  9
$DIMTIX
 70
     0
  9
$DIMSOXD
 70
     0
  9
$DIMSAH
 70
     1
  9
$DIMBLK1
  1
OPEN
  9
$DIMBLK2
  1
OPEN
  9
$DIMSTYLE
  2
IGA
  9
$DIMCLRD
 70
     0
  9
$DIMCLRE
 70
     0
  9
$DIMCLRT
 70
     0
  9
$DIMTFAC
 40
10.0
  9
$DIMGAP
 40
1.0
  9
$LUNITS
 70
     2
  9
$LUPREC
 70
     3
  9
$SKETCHINC
 40
0.1
  9
$FILLETRAD
 40
50.0
  9
$AUNITS
 70
     0
  9
$AUPREC
 70
     0
  9
$MENU
  1
acad
  9
$ELEVATION
 40
0.0
  9
$PELEVATION
 40
0.0
  9
$THICKNESS
 40
0.0
  9
$LIMCHECK
 70
     0
  9
$BLIPMODE
 70
     0
  9
$CHAMFERA
 40
0.5
  9
$CHAMFERB
 40
0.5
  9
$SKPOLY
 70
     0
  9
$TDCREATE
 40
2450745.340466782
  9
$TDUPDATE
 40
2454953.8630278348
  9
$TDINDWG
 40
0.0101297801
  9
$TDUSRTIMER
 40
0.0101297801
  9
$USRTIMER
 70
     1
  9
$ANGBASE
 50
0.0
  9
$ANGDIR
 70
     0
  9
$PDMODE
 70
     0
  9
$PDSIZE
 40
0.0
  9
$PLINEWID
 40
0.0
  9
$COORDS
 70
     1
  9
$SPLFRAME
 70
     0
  9
$SPLINETYPE
 70
     6
  9
$SPLINESEGS
 70
     8
  9
$ATTDIA
 70
     0
  9
$ATTREQ
 70
     1
  9
$HANDLING
 70
 10241
  9
$HANDSEED
  5
7FDE
  9
$SURFTAB1
 70
     6
  9
$SURFTAB2
 70
     6
  9
$SURFTYPE
 70
     6
  9
$SURFU
 70
     6
  9
$SURFV
 70
     6
  9
$UCSNAME
  2

  9
$UCSORG
 10
0.0
 20
0.0
 30
0.0
  9
$UCSXDIR
 10
1.0
 20
0.0
 30
0.0
  9
$UCSYDIR
 10
0.0
 20
1.0
 30
0.0
  9
$PUCSNAME
  2

  9
$PUCSORG
 10
0.0
 20
0.0
 30
0.0
  9
$PUCSXDIR
 10
1.0
 20
0.0
 30
0.0
  9
$PUCSYDIR
 10
0.0
 20
1.0
 30
0.0
  9
$USERI1
 70
     0
  9
$USERI2
 70
     0
  9
$USERI3
 70
     0
  9
$USERI4
 70
     0
  9
$USERI5
 70
     0
  9
$USERR1
 40
0.0
  9
$USERR2
 40
0.0
  9
$USERR3
 40
0.0
  9
$USERR4
 40
0.0
  9
$USERR5
 40
0.0
  9
$WORLDVIEW
 70
     1
  9
$SHADEDGE
 70
     3
  9
$SHADEDIF
 70
    70
  9
$TILEMODE
 70
     1
  9
$MAXACTVP
 70
    16
  9
$PLIMCHECK
 70
     0
  9
$PEXTMIN
 10
1.0000000000000000E+020
 20
1.0000000000000000E+020
 30
1.0000000000000000E+020
  9
$PEXTMAX
 10
-1.0000000000000000E+020
 20
-1.0000000000000000E+020
 30
-1.0000000000000000E+020
  9
$PLIMMIN
 10
0.0
 20
0.0
  9
$PLIMMAX
 10
12.0
 20
9.0
  9
$UNITMODE
 70
     0
  9
$VISRETAIN
 70
     0
  9
$PLINEGEN
 70
     0
  9
$PSLTSCALE
 70
     1
  0
ENDSEC
  0
SECTION
  2
TABLES
  0
TABLE
  2
VPORT
 70
     2
  0
VPORT
  2
*ACTIVE
 70
     0
 10
0.0
 20
0.0
 11
1.0
 21
1.0
 12
2918.6641026985012
 22
1964.4673228933721
 13
0.0
 23
0.0
 14
10.0
 24
10.0
 15
10.0
 25
10.0
 16
0.0
 26
0.0
 36
1.0
 17
0.0
 27
0.0
 37
0.0
 40
3860.4308917189128
 41
1.5051150895140659
 42
50.0
 43
0.0
 44
0.0
 50
0.0
 51
0.0
 71
     0
 72
   100
 73
     1
 74
     0
 75
     0
 76
     0
 77
     0
 78
     0
  0
ENDTAB
  0
TABLE
  2
LTYPE
 70
     2
  0
LTYPE
  2
CONTINUOUS
 70
     0
  3
Solid line
 72
    65
 73
     0
 40
0.0
  0
LTYPE
  2
CENTER
 70
     0
  3
____ _ ____ _ ____ _ ____ _ ____ _ ____ _ ____ 
 72
    65
 73
     4
 40
2.0
 49
1.25
 49
-0.25
 49
0.25
 49
-0.25
  0
ENDTAB
  0
TABLE
  2
LAYER
 70
     6
  0
LAYER
  2
0
 70
     0
 62
     7
  6
CONTINUOUS
  0
LAYER
  2
3
 70
     0
 62
     2
  6
CONTINUOUS
  0
LAYER
  2
2
 70
     0
 62
     3
  6
CENTER
  0
LAYER
  2
1
 70
     0
 62
     4
  6
CONTINUOUS
  0
LAYER
  2
4
 70
     0
 62
     7
  6
CONTINUOUS
  0
LAYER
  2
DEFPOINTS
 70
     0
 62
     7
  6
CONTINUOUS
  0
ENDTAB
  0
TABLE
  2
STYLE
 70
     1
  0
STYLE
  2
STANDARD
 70
     0
 40
0.0
 41
1.0
 50
0.0
 71
     0
 42
180.0
  3
simplex.shx
  4
extfont.shx
  0
ENDTAB
  0
TABLE
  2
VIEW
 70
     0
  0
ENDTAB
  0
TABLE
  2
UCS
 70
     0
  0
ENDTAB
  0
TABLE
  2
APPID
 70
     1
  0
APPID
  2
ACAD
 70
     0
  0
ENDTAB
  0
TABLE
  2
DIMSTYLE
 70
     1
  0
DIMSTYLE
  2
IGA
 70
     0
  3

  4

  5

  6
OPEN
  7
OPEN
 40
2.0
 41
2.0
 42
0.5
 43
10.0
 44
1.0
 45
0.0
 46
0.0
 47
1.0
 48
1.0
140
3.0
141
0.0
142
0.0
143
0.03937
144
1.0
145
0.0
146
10.0
147
1.0
 71
     0
 72
     0
 73
     0
 74
     0
 75
     0
 76
     0
 77
     1
 78
     8
170
     0
171
     2
172
     0
173
     1
174
     0
175
     0
176
     0
177
     0
178
     0
  0
ENDTAB
  0
ENDSEC
  0
SECTION
  2
BLOCKS
  0
BLOCK
  8
0
  2
$MODEL_SPACE
 70
     0
 10
0.0
 20
0.0
 30
0.0
  3
$MODEL_SPACE
  1

  0
ENDBLK
  5
1B
  8
0
  0
BLOCK
 67
     1
  8
0
  2
$PAPER_SPACE
 70
     0
 10
0.0
 20
0.0
 30
0.0
  3
$PAPER_SPACE
  1

  0
ENDBLK
  5
18
 67
     1
  8
0
  0
BLOCK
  8
0
  2
_OPEN
 70
     0
 10
0.0
 20
0.0
 30
0.0
  3
_OPEN
  1

  0
LINE
  5
7B61
  8
0
  6
BYBLOCK
 62
     0
 10
-1.0
 20
0.166667
 30
0.0
 11
0.0
 21
0.0
 31
0.0
  0
LINE
  5
7B62
  8
0
  6
BYBLOCK
 62
     0
 10
0.0
 20
0.0
 30
0.0
 11
-1.0
 21
-0.166667
 31
0.0
  0
LINE
  5
7B63
  8
0
  6
BYBLOCK
 62
     0
 10
0.0
 20
0.0
 30
0.0
 11
-1.0
 21
0.0
 31
0.0
  0
ENDBLK
  5
7B64
  8
0
  0
BLOCK
  8
0
  2
*D1
 70
     1
 10
0.0
 20
0.0
 30
0.0
  3
*D1
  1

  0
LINE
  5
7F1F
  8
3
  6
CONTINUOUS
 62
     0
 10
248.2775639999999
 20
660.17741956258726
 30
0.0
 11
248.2775639999999
 21
583.50000056258727
 31
0.0
  0
LINE
  5
7F20
  8
3
  6
CONTINUOUS
 62
     0
 10
798.27756399999987
 20
664.99286756258732
 30
0.0
 11
798.27756399999987
 21
583.50000056258727
 31
0.0
  0
LINE
  5
7F21
  8
3
  6
CONTINUOUS
 62
     0
 10
268.27756399999998
 20
593.50000056258716
 30
0.0
 11
778.27756399999987
 21
593.50000056258716
 31
0.0
  0
INSERT
  5
7F22
  8
3
  6
CONTINUOUS
 62
     0
  2
_OPEN
 10
248.2775639999999
 20
593.50000056258716
 30
0.0
 41
20.0
 42
20.0
 43
20.0
 50
180.0
  0
INSERT
  5
7F23
  8
3
  6
CONTINUOUS
 62
     0
  2
_OPEN
 10
798.27756399999987
 20
593.50000056258716
 30
0.0
 41
20.0
 42
20.0
 43
20.0
  0
TEXT
  8
3
  40
30
  5
7FCA
  62
0
  72
0
  71
0
 10
476.048
 20
565.400
 30
0.000000
  1
550
  0
POINT
  5
7F25
  8
DEFPOINTS
  6
CONTINUOUS
 62
     0
 10
248.2775639999999
 20
665.17741956258737
 30
0.0
  0
POINT
  5
7F26
  8
DEFPOINTS
  6
CONTINUOUS
 62
     0
 10
798.27756399999987
 20
669.99286756258732
 30
0.0
  0
POINT
  5
7F27
  8
DEFPOINTS
  6
CONTINUOUS
 62
     0
 10
798.27756399999987
 20
593.50000056258716
 30
0.0
  0
ENDBLK
  5
7B71
  8
0
  0
BLOCK
  8
0
  2
*D2
 70
     1
 10
0.0
 20
0.0
 30
0.0
  3
*D2
  1

  0
LINE
  5
7F28
  8
3
  6
CONTINUOUS
 62
     0
 10
1018.277564
 20
660.17741956258726
 30
0.0
 11
1018.277564
 21
583.50000056258727
 31
0.0
  0
LINE
  5
7F29
  8
3
  6
CONTINUOUS
 62
     0
 10
818.27756399999987
 20
593.50000056258716
 30
0.0
 11
998.2775640000001
 21
593.50000056258716
 31
0.0
  0
INSERT
  5
7F2A
  8
3
  6
CONTINUOUS
 62
     0
  2
_OPEN
 10
798.27756399999987
 20
593.50000056258716
 30
0.0
 41
20.0
 42
20.0
 43
20.0
 50
180.0
  0
INSERT
  5
7F2B
  8
3
  6
CONTINUOUS
 62
     0
  2
_OPEN
 10
1018.277564
 20
593.50000056258716
 30
0.0
 41
20.0
 42
20.0
 43
20.0
  0
TEXT
  8
3
  40
30
  5
7FCB
  62
0
  72
0
  71
0
 10
848.278
 20
565.400
 30
0.000000
  1
220
  0
POINT
  5
7F2D
  8
DEFPOINTS
  6
CONTINUOUS
 62
     0
 10
798.27756399999987
 20
669.99286756258732
 30
0.0
  0
POINT
  5
7F2E
  8
DEFPOINTS
  6
CONTINUOUS
 62
     0
 10
1018.277564
 20
665.17741956258737
 30
0.0
  0
POINT
  5
7F2F
  8
DEFPOINTS
  6
CONTINUOUS
 62
     0
 10
1018.277564
 20
593.50000056258716
 30
0.0
  0
ENDBLK
  5
7B7D
  8
0
  0
BLOCK
  8
0
  2
*D3
 70
     1
 10
0.0
 20
0.0
 30
0.0
  3
*D3
  1

  0
LINE
  5
7F30
  8
3
  6
CONTINUOUS
 62
     0
 10
578.28818000000001
 20
1067.1774195625869
 30
0.0
 11
578.28818000000001
 21
1301.3226015625869
 31
0.0
  0
LINE
  5
7F31
  8
3
  6
CONTINUOUS
 62
     0
 10
798.27756399999987
 20
1253.1668035625869
 30
0.0
 11
798.27756399999987
 21
1301.3226015625869
 31
0.0
  0
LINE
  5
7F32
  8
3
  6
CONTINUOUS
 62
     0
 10
598.28818000000001
 20
1291.3226015625869
 30
0.0
 11
778.27756399999987
 21
1291.3226015625869
 31
0.0
  0
INSERT
  5
7F33
  8
3
  6
CONTINUOUS
 62
     0
  2
_OPEN
 10
578.28818000000001
 20
1291.3226015625869
 30
0.0
 41
20.0
 42
20.0
 43
20.0
 50
180.0
  0
INSERT
  5
7F34
  8
3
  6
CONTINUOUS
 62
     0
  2
_OPEN
 10
798.27756399999987
 20
1291.3226015625869
 30
0.0
 41
20.0
 42
20.0
 43
20.0
  0
TEXT
  8
3
  40
30
  5
7FCC
  62
0
  72
0
  71
0
 10
635.506
 20
1263.22
 30
0.000000
  1
220
  0
POINT
  5
7F36
  8
DEFPOINTS
  6
CONTINUOUS
 62
     0
 10
578.28818000000001
 20
1062.1774195625869
 30
0.0
  0
POINT
  5
7F37
  8
DEFPOINTS
  6
CONTINUOUS
 62
     0
 10
798.27756399999987
 20
1248.1668035625869
 30
0.0
  0
POINT
  5
7F38
  8
DEFPOINTS
  6
CONTINUOUS
 62
     0
 10
798.27756399999987
 20
1291.3226015625869
 30
0.0
  0
ENDBLK
  5
7B8A
  8
0
  0
BLOCK
  8
0
  2
*D4
 70
     1
 10
0.0
 20
0.0
 30
0.0
  3
*D4
  1

  0
LINE
  5
7F39
  8
3
  6
CONTINUOUS
 62
     0
 10
998.2775640000001
 20
1088.1774195625869
 30
0.0
 11
998.2775640000001
 21
1301.3226015625869
 31
0.0
  0
LINE
  5
7F3A
  8
3
  6
CONTINUOUS
 62
     0
 10
818.27756399999987
 20
1291.3226015625869
 30
0.0
 11
978.27756399999998
 21
1291.3226015625869
 31
0.0
  0
INSERT
  5
7F3B
  8
3
  6
CONTINUOUS
 62
     0
  2
_OPEN
 10
798.27756399999987
 20
1291.3226015625869
 30
0.0
 41
20.0
 42
20.0
 43
20.0
 50
180.0
  0
INSERT
  5
7F3C
  8
3
  6
CONTINUOUS
 62
     0
  2
_OPEN
 10
998.2775640000001
 20
1291.3226015625869
 30
0.0
 41
20.0
 42
20.0
 43
20.0
  0
TEXT
  8
3
  40
30
  5
7FCD
  62
0
  72
0
  71
0
 10
838.278
 20
1263.22
 30
0.000000
  1
200
  0
POINT
  5
7F3E
  8
DEFPOINTS
  6
CONTINUOUS
 62
     0
 10
798.27756399999987
 20
1248.1668035625869
 30
0.0
  0
POINT
  5
7F3F
  8
DEFPOINTS
  6
CONTINUOUS
 62
     0
 10
998.2775640000001
 20
1083.1774195625869
 30
0.0
  0
POINT
  5
7F40
  8
DEFPOINTS
  6
CONTINUOUS
 62
     0
 10
998.2775640000001
 20
1291.3226015625869
 30
0.0
  0
ENDBLK
  5
7B96
  8
0
  0
BLOCK
  8
0
  2
*D5
 70
     1
 10
0.0
 20
0.0
 30
0.0
  3
*D5
  1

  0
LINE
  5
7F41
  8
3
  6
CONTINUOUS
 62
     0
 10
1003.277564
 20
1062.1774195625869
 30
0.0
 11
1084.0149899999999
 21
1062.1774195625869
 31
0.0
  0
LINE
  5
7F42
  8
3
  6
CONTINUOUS
 62
     0
 10
1003.277564
 20
812.17741956258726
 30
0.0
 11
1084.0149899999999
 21
812.17741956258726
 31
0.0
  0
LINE
  5
7F43
  8
3
  6
CONTINUOUS
 62
     0
 10
1074.0149899999999
 20
1042.1774195625869
 30
0.0
 11
1074.0149899999999
 21
832.17741956258715
 31
0.0
  0
INSERT
  5
7F44
  8
3
  6
CONTINUOUS
 62
     0
  2
_OPEN
 10
1074.0149899999999
 20
1062.1774195625869
 30
0.0
 41
20.0
 42
20.0
 43
20.0
 50
90.0
  0
INSERT
  5
7F45
  8
3
  6
CONTINUOUS
 62
     0
  2
_OPEN
 10
1074.0149899999999
 20
812.17741956258726
 30
0.0
 41
20.0
 42
20.0
 43
20.0
 50
270.0
  0
TEXT
  8
3
  40
30
  5
7FCE
  62
0
  72
0
  71
0
 10
989.015
 20
881.726
 30
0.000000
  1
250
  0
POINT
  5
7F47
  8
DEFPOINTS
  6
CONTINUOUS
 62
     0
 10
998.2775640000001
 20
1062.1774195625869
 30
0.0
  0
POINT
  5
7F48
  8
DEFPOINTS
  6
CONTINUOUS
 62
     0
 10
998.2775640000001
 20
812.17741956258726
 30
0.0
  0
POINT
  5
7F49
  8
DEFPOINTS
  6
CONTINUOUS
 62
     0
 10
1074.0149899999999
 20
812.17741956258726
 30
0.0
  0
ENDBLK
  5
7D3C
  8
0
  0
BLOCK
  8
0
  2
*D6
 70
     1
 10
0.0
 20
0.0
 30
0.0
  3
*D6
  1

  0
LINE
  5
7F4A
  8
3
  6
CONTINUOUS
 62
     0
 10
803.27756399999998
 20
1248.1668035625869
 30
0.0
 11
1204.5497439999999
 21
1248.1668035625869
 31
0.0
  0
LINE
  5
7F4B
  8
3
  6
CONTINUOUS
 62
     0
 10
1003.277564
 20
1062.1774195625869
 30
0.0
 11
1204.5497439999999
 21
1062.1774195625869
 31
0.0
  0
LINE
  5
7F4C
  8
3
  6
CONTINUOUS
 62
     0
 10
1194.5497439999999
 20
1228.1668035625869
 30
0.0
 11
1194.5497439999999
 21
1082.1774195625869
 31
0.0
  0
INSERT
  5
7F4D
  8
3
  6
CONTINUOUS
 62
     0
  2
_OPEN
 10
1194.5497439999999
 20
1248.1668035625869
 30
0.0
 41
20.0
 42
20.0
 43
20.0
 50
90.0
  0
INSERT
  5
7F4E
  8
3
  6
CONTINUOUS
 62
     0
  2
_OPEN
 10
1194.5497439999999
 20
1062.1774195625869
 30
0.0
 41
20.0
 42
20.0
 43
20.0
 50
270.0
  0
TEXT
  8
3
  40
30
  5
7FCF
  62
0
  72
0
  71
0
 10
1109.55
 20
1101.69
 30
0.000000
  1
186
  0
POINT
  5
7F50
  8
DEFPOINTS
  6
CONTINUOUS
 62
     0
 10
798.27756399999987
 20
1248.1668035625869
 30
0.0
  0
POINT
  5
7F51
  8
DEFPOINTS
  6
CONTINUOUS
 62
     0
 10
998.2775640000001
 20
1062.1774195625869
 30
0.0
  0
POINT
  5
7F52
  8
DEFPOINTS
  6
CONTINUOUS
 62
     0
 10
1194.5497439999999
 20
1062.1774195625869
 30
0.0
  0
ENDBLK
  5
7D47
  8
0
  0
BLOCK
  8
0
  2
*D7
 70
     1
 10
0.0
 20
0.0
 30
0.0
  3
*D7
  1

  0
LINE
  5
7F53
  8
3
  6
CONTINUOUS
 62
     0
 10
993.27756399999998
 20
747.17741956258726
 30
0.0
 11
1204.5497439999999
 21
747.17741956258726
 31
0.0
  0
LINE
  5
7F54
  8
3
  6
CONTINUOUS
 62
     0
 10
1194.549743999999
 20
1042.1774195625869
 30
0.0
 11
1194.549743999999
 21
767.17741956258726
 31
0.0
  0
INSERT
  5
7F55
  8
3
  6
CONTINUOUS
 62
     0
  2
_OPEN
 10
1194.549743999999
 20
1062.1774195625869
 30
0.0
 41
20.0
 42
20.0
 43
20.0
 50
90.0
  0
INSERT
  5
7F56
  8
3
  6
CONTINUOUS
 62
     0
  2
_OPEN
 10
1194.549743999999
 20
747.17741956258726
 30
0.0
 41
20.0
 42
20.0
 43
20.0
 50
270.0
  0
TEXT
  8
3
  40
30
  5
7FD0
  62
0
  72
0
  71
0
 10
1109.55
 20
851.577
 30
0.000000
  1
315
  0
POINT
  5
7F58
  8
DEFPOINTS
  6
CONTINUOUS
 62
     0
 10
998.2775640000001
 20
1062.1774195625869
 30
0.0
  0
POINT
  5
7F59
  8
DEFPOINTS
  6
CONTINUOUS
 62
     0
 10
988.2775640000001
 20
747.17741956258726
 30
0.0
  0
POINT
  5
7F5A
  8
DEFPOINTS
  6
CONTINUOUS
 62
     0
 10
1194.549743999999
 20
747.17741956258726
 30
0.0
  0
ENDBLK
  5
7D51
  8
0
  0
BLOCK
  8
0
  2
*D8
 70
     1
 10
0.0
 20
0.0
 30
0.0
  3
*D8
  1

  0
LINE
  5
7DD7
  8
0
  6
BYBLOCK
 62
     0
 10
1023.277564
 20
811.70552790896329
 30
0.0
 11
1204.5497439999999
 21
811.70552790896329
 31
0.0
  0
LINE
  5
7DD8
  8
0
  6
BYBLOCK
 62
     0
 10
1194.549743999999
 20
883.7055279089634
 30
0.0
 11
1194.549743999999
 21
903.70552790896329
 31
0.0
  0
LINE
  5
7DD9
  8
0
  6
BYBLOCK
 62
     0
 10
1194.549743999999
 20
791.7055279089634
 30
0.0
 11
1194.549743999999
 21
771.7055279089634
 31
0.0
  0
TEXT
  5
7DDA
  8
3
 62
     0
 10
1249.5497439999999
 20
813.41981362324907
 30
0.0
 40
30.0
  1
52
 50
90.0
  0
LINE
  5
7DDB
  8
0
  6
BYBLOCK
 62
     0
 10
1194.549743999999
 20
863.70552790896352
 30
0.0
 11
1194.549743999999
 21
811.70552790896329
 31
0.0
  0
INSERT
  5
7DDC
  8
0
  6
BYBLOCK
 62
     0
  2
_OPEN
 10
1194.549743999999
 20
863.70552790896352
 30
0.0
 41
20.0
 42
20.0
 43
20.0
 50
270.0
  0
INSERT
  5
7DDD
  8
0
  6
BYBLOCK
 62
     0
  2
_DOT
 10
1194.549743999999
 20
811.70552790896329
 30
0.0
 41
20.0
 42
20.0
 43
20.0
 50
90.0
  0
POINT
  5
7DDE
  8
DEFPOINTS
  6
BYBLOCK
 62
     0
 10
988.2775640000001
 20
863.70552790896352
 30
0.0
  0
POINT
  5
7DDF
  8
DEFPOINTS
  6
BYBLOCK
 62
     0
 10
1018.277564
 20
811.70552790896329
 30
0.0
  0
POINT
  5
7DE0
  8
DEFPOINTS
  6
BYBLOCK
 62
     0
 10
1194.549743999999
 20
811.70552790896329
 30
0.0
  0
ENDBLK
  5
7DE1
  8
0
  0
BLOCK
  8
0
  2
*D9
 70
     1
 10
0.0
 20
0.0
 30
0.0
  3
*D9
  1

  0
LINE
  5
7F5B
  8
3
  6
CONTINUOUS
 62
     0
 10
1023.277564
 20
695.17741956258737
 30
0.0
 11
1204.5497439999999
 21
695.17741956258737
 31
0.0
  0
LINE
  5
7F5C
  8
3
  6
CONTINUOUS
 62
     0
 10
1023.277564
 20
665.17741956258737
 30
0.0
 11
1204.5497439999999
 21
665.17741956258737
 31
0.0
  0
LINE
  5
7F5D
  8
3
  6
CONTINUOUS
 62
     0
 10
1194.5497439999999
 20
715.17741956258737
 30
0.0
 11
1194.5497439999999
 21
735.17741956258726
 31
0.0
  0
LINE
  5
7F5E
  8
3
  6
CONTINUOUS
 62
     0
 10
1194.5497439999999
 20
645.17741956258737
 30
0.0
 11
1194.5497439999999
 21
556.60599099115893
 31
0.0
  0
LINE
  5
7F5F
  8
3
  6
CONTINUOUS
 62
     0
 10
1194.5497439999999
 20
695.17741956258737
 30
0.0
 11
1194.5497439999999
 21
665.17741956258737
 31
0.0
  0
INSERT
  5
7F60
  8
3
  6
CONTINUOUS
 62
     0
  2
_DOT
 10
1194.5497439999999
 20
695.17741956258737
 30
0.0
 41
20.0
 42
20.0
 43
20.0
 50
270.0
  0
INSERT
  5
7F61
  8
3
  6
CONTINUOUS
 62
     0
  2
_OPEN
 10
1194.5497439999999
 20
665.17741956258737
 30
0.0
 41
20.0
 42
20.0
 43
20.0
 50
90.0
  0
TEXT
  8
3
  40
30
  5
7FD1
  62
0
  72
0
  71
0
 10
1109.55
 20
537.792
 30
0.000000
  1
30
  0
POINT
  5
7F63
  8
DEFPOINTS
  6
CONTINUOUS
 62
     0
 10
1018.277564
 20
695.17741956258737
 30
0.0
  0
POINT
  5
7F64
  8
DEFPOINTS
  6
CONTINUOUS
 62
     0
 10
1018.277564
 20
665.17741956258737
 30
0.0
  0
POINT
  5
7F65
  8
DEFPOINTS
  6
CONTINUOUS
 62
     0
 10
1194.5497439999999
 20
665.17741956258737
 30
0.0
  0
ENDBLK
  5
7DD5
  8
0
  0
BLOCK
  8
0
  2
*D10
 70
     1
 10
0.0
 20
0.0
 30
0.0
  3
*D10
  1

  0
LINE
  5
7F66
  8
3
  6
CONTINUOUS
 62
     0
 10
803.27756399999998
 20
1248.1668035625869
 30
0.0
 11
1293.031332
 21
1248.1668035625869
 31
0.0
  0
LINE
  5
7F67
  8
3
  6
CONTINUOUS
 62
     0
 10
1023.277564
 20
665.17741956258737
 30
0.0
 11
1293.031332
 21
665.17741956258715
 31
0.0
  0
LINE
  5
7F68
  8
3
  6
CONTINUOUS
 62
     0
 10
1283.031332
 20
1228.1668035625869
 30
0.0
 11
1283.031332
 21
685.17741956258715
 31
0.0
  0
INSERT
  5
7F69
  8
3
  6
CONTINUOUS
 62
     0
  2
_OPEN
 10
1283.031332
 20
1248.1668035625869
 30
0.0
 41
20.0
 42
20.0
 43
20.0
 50
90.0
  0
INSERT
  5
7F6A
  8
3
  6
CONTINUOUS
 62
     0
  2
_OPEN
 10
1283.031332
 20
665.17741956258715
 30
0.0
 41
20.0
 42
20.0
 43
20.0
 50
270.0
  0
TEXT
  8
3
  40
30
  5
7FD2
  62
0
  72
0
  71
0
 10
1198.03
 20
894.368
 30
0.000000
  1
583
  0
POINT
  5
7F6C
  8
DEFPOINTS
  6
CONTINUOUS
 62
     0
 10
798.27756399999987
 20
1248.1668035625869
 30
0.0
  0
POINT
  5
7F6D
  8
DEFPOINTS
  6
CONTINUOUS
 62
     0
 10
1018.277564
 20
665.17741956258737
 30
0.0
  0
POINT
  5
7F6E
  8
DEFPOINTS
  6
CONTINUOUS
 62
     0
 10
1283.031332
 20
665.17741956258715
 30
0.0
  0
ENDBLK
  5
7D78
  8
0
  0
BLOCK
  8
0
  2
*D11
 70
     1
 10
0.0
 20
0.0
 30
0.0
  3
*D11
  1

  0
LINE
  5
7F6F
  8
3
  6
CONTINUOUS
 62
     0
 10
248.2775639999999
 20
1678.018653041245
 30
0.0
 11
248.2775639999999
 21
1550.5501110412449
 31
0.0
  0
LINE
  5
7F70
  8
3
  6
CONTINUOUS
 62
     0
 10
1018.277564
 20
1678.018653041245
 30
0.0
 11
1018.277564
 21
1550.5501110412449
 31
0.0
  0
LINE
  5
7F71
  8
3
  6
CONTINUOUS
 62
     0
 10
268.27756399999998
 20
1560.5501110412449
 30
0.0
 11
998.2775640000001
 21
1560.5501110412449
 31
0.0
  0
INSERT
  5
7F72
  8
3
  6
CONTINUOUS
 62
     0
  2
_OPEN
 10
248.2775639999999
 20
1560.5501110412449
 30
0.0
 41
20.0
 42
20.0
 43
20.0
 50
180.0
  0
INSERT
  5
7F73
  8
3
  6
CONTINUOUS
 62
     0
  2
_OPEN
 10
1018.277564
 20
1560.5501110412449
 30
0.0
 41
20.0
 42
20.0
 43
20.0
  0
TEXT
  8
3
  40
30
  5
7FD3
  62
0
  72
0
  71
0
 10
569.698
 20
1532.45
 30
0.000000
  1
770
  0
POINT
  5
7F75
  8
DEFPOINTS
  6
CONTINUOUS
 62
     0
 10
248.2775639999999
 20
1683.018653041245
 30
0.0
  0
POINT
  5
7F76
  8
DEFPOINTS
  6
CONTINUOUS
 62
     0
 10
1018.277564
 20
1683.018653041245
 30
0.0
  0
POINT
  5
7F77
  8
DEFPOINTS
  6
CONTINUOUS
 62
     0
 10
1018.277564
 20
1560.5501110412449
 30
0.0
  0
ENDBLK
  5
7C12
  8
0
  0
BLOCK
  8
0
  2
*D12
 70
     1
 10
0.0
 20
0.0
 30
0.0
  3
*D12
  1

  0
LINE
  5
7F78
  8
3
  6
CONTINUOUS
 62
     0
 10
1023.277564
 20
2163.0186530412452
 30
0.0
 11
1133.2576469999999
 21
2163.0186530412452
 31
0.0
  0
LINE
  5
7F79
  8
3
  6
CONTINUOUS
 62
     0
 10
1023.277564
 20
1683.018653041245
 30
0.0
 11
1133.2576469999999
 21
1683.018653041245
 31
0.0
  0
LINE
  5
7F7A
  8
3
  6
CONTINUOUS
 62
     0
 10
1123.2576469999999
 20
2143.0186530412452
 30
0.0
 11
1123.2576469999999
 21
1703.018653041245
 31
0.0
  0
INSERT
  5
7F7B
  8
3
  6
CONTINUOUS
 62
     0
  2
_OPEN
 10
1123.2576469999999
 20
2163.0186530412452
 30
0.0
 41
20.0
 42
20.0
 43
20.0
 50
90.0
  0
INSERT
  5
7F7C
  8
3
  6
CONTINUOUS
 62
     0
  2
_OPEN
 10
1123.2576469999999
 20
1683.018653041245
 30
0.0
 41
20.0
 42
20.0
 43
20.0
 50
270.0
  0
TEXT
  8
3
  40
30
  5
7FD4
  62
0
  72
0
  71
0
 10
1038.26
 20
1861.42
 30
0.000000
  1
480
  0
POINT
  5
7F7E
  8
DEFPOINTS
  6
CONTINUOUS
 62
     0
 10
1018.277564
 20
2163.0186530412452
 30
0.0
  0
POINT
  5
7F7F
  8
DEFPOINTS
  6
CONTINUOUS
 62
     0
 10
1018.277564
 20
1683.018653041245
 30
0.0
  0
POINT
  5
7F80
  8
DEFPOINTS
  6
CONTINUOUS
 62
     0
 10
1123.2576469999999
 20
1683.018653041245
 30
0.0
  0
ENDBLK
  5
7C1F
  8
0
  0
BLOCK
  8
0
  2
*D13
 70
     1
 10
0.0
 20
0.0
 30
0.0
  3
*D13
  1

  0
LINE
  5
7F81
  8
3
  6
CONTINUOUS
 62
     0
 10
1338.7409250000001
 20
660.17741956258726
 30
0.0
 11
1338.7409250000001
 21
576.17298956258742
 31
0.0
  0
LINE
  5
7F82
  8
3
  6
CONTINUOUS
 62
     0
 10
1676.7409250000001
 20
660.17741956258726
 30
0.0
 11
1676.7409250000001
 21
576.17298956258742
 31
0.0
  0
LINE
  5
7F83
  8
3
  6
CONTINUOUS
 62
     0
 10
1358.7409250000001
 20
586.17298956258742
 30
0.0
 11
1656.7409250000001
 21
586.17298956258742
 31
0.0
  0
INSERT
  5
7F84
  8
3
  6
CONTINUOUS
 62
     0
  2
_OPEN
 10
1338.7409250000001
 20
586.17298956258742
 30
0.0
 41
20.0
 42
20.0
 43
20.0
 50
180.0
  0
INSERT
  5
7F85
  8
3
  6
CONTINUOUS
 62
     0
  2
_OPEN
 10
1676.7409250000001
 20
586.17298956258742
 30
0.0
 41
20.0
 42
20.0
 43
20.0
  0
TEXT
  8
3
  40
30
  5
7FD5
  62
0
  72
0
  71
0
 10
1459.12
 20
558.073
 30
0.000000
  1
338
  0
POINT
  5
7F87
  8
DEFPOINTS
  6
CONTINUOUS
 62
     0
 10
1338.7409250000001
 20
665.17741956258737
 30
0.0
  0
POINT
  5
7F88
  8
DEFPOINTS
  6
CONTINUOUS
 62
     0
 10
1676.7409250000001
 20
665.17741956258737
 30
0.0
  0
POINT
  5
7F89
  8
DEFPOINTS
  6
CONTINUOUS
 62
     0
 10
1676.7409250000001
 20
586.17298956258742
 30
0.0
  0
ENDBLK
  5
7C2F
  8
0
  0
BLOCK
  8
0
  2
*D14
 70
     1
 10
0.0
 20
0.0
 30
0.0
  3
*D14
  1

  0
LINE
  5
7F8A
  8
3
  6
CONTINUOUS
 62
     0
 10
1818.7409250000001
 20
660.17741956258726
 30
0.0
 11
1818.7409250000001
 21
576.17298956258742
 31
0.0
  0
LINE
  5
7F8B
  8
3
  6
CONTINUOUS
 62
     0
 10
1696.7409250000001
 20
586.17298956258742
 30
0.0
 11
1798.7409250000001
 21
586.17298956258742
 31
0.0
  0
INSERT
  5
7F8C
  8
3
  6
CONTINUOUS
 62
     0
  2
_OPEN
 10
1676.7409250000001
 20
586.17298956258742
 30
0.0
 41
20.0
 42
20.0
 43
20.0
 50
180.0
  0
INSERT
  5
7F8D
  8
3
  6
CONTINUOUS
 62
     0
  2
_OPEN
 10
1818.7409250000001
 20
586.17298956258742
 30
0.0
 41
20.0
 42
20.0
 43
20.0
  0
TEXT
  8
3
  40
30
  5
7FD6
  62
0
  72
0
  71
0
 10
1687.74
 20
558.073
 30
0.000000
  1
142
  0
POINT
  5
7F8F
  8
DEFPOINTS
  6
CONTINUOUS
 62
     0
 10
1676.7409250000001
 20
665.17741956258737
 30
0.0
  0
POINT
  5
7F90
  8
DEFPOINTS
  6
CONTINUOUS
 62
     0
 10
1818.7409250000001
 20
665.17741956258737
 30
0.0
  0
POINT
  5
7F91
  8
DEFPOINTS
  6
CONTINUOUS
 62
     0
 10
1818.7409250000001
 20
586.17298956258742
 30
0.0
  0
ENDBLK
  5
7C3B
  8
0
  0
BLOCK
  8
0
  2
*D15
 70
     1
 10
0.0
 20
0.0
 30
0.0
  3
*D15
  1

  0
LINE
  5
7F92
  8
3
  6
CONTINUOUS
 62
     0
 10
1586.7409250000001
 20
1266.077419562587
 30
0.0
 11
1586.7409250000001
 21
1321.807351562587
 31
0.0
  0
LINE
  5
7F93
  8
3
  6
CONTINUOUS
 62
     0
 10
1766.7409250000001
 20
1266.077419562587
 30
0.0
 11
1766.7409250000001
 21
1321.807351562587
 31
0.0
  0
LINE
  5
7F94
  8
3
  6
CONTINUOUS
 62
     0
 10
1606.7409250000001
 20
1311.807351562587
 30
0.0
 11
1746.7409250000001
 21
1311.807351562587
 31
0.0
  0
INSERT
  5
7F95
  8
3
  6
CONTINUOUS
 62
     0
  2
_OPEN
 10
1586.7409250000001
 20
1311.807351562587
 30
0.0
 41
20.0
 42
20.0
 43
20.0
 50
180.0
  0
INSERT
  5
7F96
  8
3
  6
CONTINUOUS
 62
     0
  2
_OPEN
 10
1766.7409250000001
 20
1311.807351562587
 30
0.0
 41
20.0
 42
20.0
 43
20.0
  0
TEXT
  8
3
  40
30
  5
7FD7
  62
0
  72
0
  71
0
 10
1610.98
 20
1283.71
 30
0.000000
  1
180
  0
POINT
  5
7F98
  8
DEFPOINTS
  6
CONTINUOUS
 62
     0
 10
1586.7409250000001
 20
1261.077419562587
 30
0.0
  0
POINT
  5
7F99
  8
DEFPOINTS
  6
CONTINUOUS
 62
     0
 10
1766.7409250000001
 20
1261.077419562587
 30
0.0
  0
POINT
  5
7F9A
  8
DEFPOINTS
  6
CONTINUOUS
 62
     0
 10
1766.7409250000001
 20
1311.807351562587
 30
0.0
  0
ENDBLK
  5
7C48
  8
0
  0
BLOCK
  8
0
  2
*D16
 70
     1
 10
0.0
 20
0.0
 30
0.0
  3
*D16
  1

  0
LINE
  5
7F9B
  8
3
  6
CONTINUOUS
 62
     0
 10
1336.7409250000001
 20
1192.1774195625869
 30
0.0
 11
1336.7409250000001
 21
1389.8938597611379
 31
0.0
  0
LINE
  5
7F9C
  8
3
  6
CONTINUOUS
 62
     0
 10
1676.7409250000001
 20
1360.7347685625871
 30
0.0
 11
1676.7409250000001
 21
1389.8938597611379
 31
0.0
  0
LINE
  5
7F9D
  8
3
  6
CONTINUOUS
 62
     0
 10
1356.7409250000001
 20
1379.8938597611379
 30
0.0
 11
1656.7409250000001
 21
1379.8938597611379
 31
0.0
  0
INSERT
  5
7F9E
  8
3
  6
CONTINUOUS
 62
     0
  2
_OPEN
 10
1336.7409250000001
 20
1379.8938597611379
 30
0.0
 41
20.0
 42
20.0
 43
20.0
 50
180.0
  0
INSERT
  5
7F9F
  8
3
  6
CONTINUOUS
 62
     0
  2
_OPEN
 10
1676.7409250000001
 20
1379.8938597611379
 30
0.0
 41
20.0
 42
20.0
 43
20.0
  0
TEXT
  8
3
  40
30
  5
7FD8
  62
0
  72
0
  71
0
 10
1443.93
 20
1376.79
 30
0.000000
  1
MAX
  0
TEXT
  8
3
  40
30
  5
7FD9
  62
0
  72
0
  71
0
 10
1443.93
 20
1337.79
 30
0.000000
  1
340
  0
POINT
  5
7FA1
  8
DEFPOINTS
  6
CONTINUOUS
 62
     0
 10
1336.7409250000001
 20
1187.1774195625869
 30
0.0
  0
POINT
  5
7FA2
  8
DEFPOINTS
  6
CONTINUOUS
 62
     0
 10
1676.7409250000001
 20
1355.7347685625871
 30
0.0
  0
POINT
  5
7FA3
  8
DEFPOINTS
  6
CONTINUOUS
 62
     0
 10
1676.7409250000001
 20
1379.8938597611379
 30
0.0
  0
ENDBLK
  5
7E11
  8
0
  0
BLOCK
  8
0
  2
*D17
 70
     1
 10
0.0
 20
0.0
 30
0.0
  3
*D17
  1

  0
LINE
  5
7FA4
  8
3
  6
CONTINUOUS
 62
     0
 10
1775.7409250000001
 20
1214.1774195625869
 30
0.0
 11
1775.7409250000001
 21
1389.8938597611379
 31
0.0
  0
LINE
  5
7FA5
  8
3
  6
CONTINUOUS
 62
     0
 10
1696.7409250000001
 20
1379.8938597611379
 30
0.0
 11
1755.7409250000001
 21
1379.8938597611379
 31
0.0
  0
TEXT
  8
3
  40
30
  5
7FDA
  62
0
  72
0
  71
0
 10
1664.13
 20
1349.27
 30
0.000000
  1
99
  0
INSERT
  5
7FA7
  8
3
  6
CONTINUOUS
 62
     0
  2
_OPEN
 10
1676.7409250000001
 20
1379.8938597611379
 30
0.0
 41
20.0
 42
20.0
 43
20.0
 50
180.0
  0
INSERT
  5
7FA8
  8
3
  6
CONTINUOUS
 62
     0
  2
_OPEN
 10
1775.7409250000001
 20
1379.8938597611379
 30
0.0
 41
20.0
 42
20.0
 43
20.0
  0
POINT
  5
7FA9
  8
DEFPOINTS
  6
CONTINUOUS
 62
     0
 10
1676.7409250000001
 20
1355.7347685625871
 30
0.0
  0
POINT
  5
7FAA
  8
DEFPOINTS
  6
CONTINUOUS
 62
     0
 10
1775.7409250000001
 20
1209.1774195625869
 30
0.0
  0
POINT
  5
7FAB
  8
DEFPOINTS
  6
CONTINUOUS
 62
     0
 10
1775.7409250000001
 20
1379.8938597611379
 30
0.0
  0
ENDBLK
  5
7DF0
  8
0
  0
BLOCK
  8
0
  2
*D18
 70
     1
 10
0.0
 20
0.0
 30
0.0
  3
*D18
  1

  0
LINE
  5
7FAC
  8
3
  6
CONTINUOUS
 62
     0
 10
1780.7409250000001
 20
1187.1774195625869
 30
0.0
 11
1844.4617499999999
 21
1187.1774195625869
 31
0.0
  0
LINE
  5
7FAD
  8
3
  6
CONTINUOUS
 62
     0
 10
1780.7409250000001
 20
937.17741956258715
 30
0.0
 11
1844.4617499999999
 21
937.17741956258715
 31
0.0
  0
LINE
  5
7FAE
  8
3
  6
CONTINUOUS
 62
     0
 10
1834.4617499999999
 20
1167.1774195625869
 30
0.0
 11
1834.4617499999999
 21
957.17741956258703
 31
0.0
  0
INSERT
  5
7FAF
  8
3
  6
CONTINUOUS
 62
     0
  2
_OPEN
 10
1834.4617499999999
 20
1187.1774195625869
 30
0.0
 41
20.0
 42
20.0
 43
20.0
 50
90.0
  0
INSERT
  5
7FB0
  8
3
  6
CONTINUOUS
 62
     0
  2
_OPEN
 10
1834.4617499999999
 20
937.17741956258715
 30
0.0
 41
20.0
 42
20.0
 43
20.0
 50
270.0
  0
TEXT
  8
3
  40
30
  5
7FDB
  62
0
  72
0
  71
0
 10
1749.46
 20
995.033
 30
0.000000
  1
φ250
  0
POINT
  5
7FB2
  8
DEFPOINTS
  6
CONTINUOUS
 62
     0
 10
1775.7409250000001
 20
1187.1774195625869
 30
0.0
  0
POINT
  5
7FB3
  8
DEFPOINTS
  6
CONTINUOUS
 62
     0
 10
1775.7409250000001
 20
937.17741956258715
 30
0.0
  0
POINT
  5
7FB4
  8
DEFPOINTS
  6
CONTINUOUS
 62
     0
 10
1834.4617499999999
 20
937.17741956258715
 30
0.0
  0
ENDBLK
  5
7E06
  8
0
  0
BLOCK
  8
0
  2
*D19
 70
     1
 10
0.0
 20
0.0
 30
0.0
  3
*D19
  1

  0
LINE
  5
7FB5
  8
3
  6
CONTINUOUS
 62
     0
 10
1003.277564
 20
1062.1774195625869
 30
0.0
 11
1153.197895
 21
1062.1774195625869
 31
0.0
  0
LINE
  5
7FB6
  8
3
  6
CONTINUOUS
 62
     0
 10
983.2775640000001
 20
802.17741956258726
 30
0.0
 11
1153.197895
 21
802.17741956258726
 31
0.0
  0
LINE
  5
7FB7
  8
3
  6
CONTINUOUS
 62
     0
 10
1143.197895
 20
1042.1774195625869
 30
0.0
 11
1143.197895
 21
822.17741956258715
 31
0.0
  0
INSERT
  5
7FB8
  8
3
  6
CONTINUOUS
 62
     0
  2
_OPEN
 10
1143.197895
 20
1062.1774195625869
 30
0.0
 41
20.0
 42
20.0
 43
20.0
 50
90.0
  0
INSERT
  5
7FB9
  8
3
  6
CONTINUOUS
 62
     0
  2
_OPEN
 10
1143.197895
 20
802.17741956258726
 30
0.0
 41
20.0
 42
20.0
 43
20.0
 50
270.0
  0
TEXT
  8
3
  40
30
  5
7FDC
  62
0
  72
0
  71
0
 10
1058.20
 20
878.378
 30
0.000000
  1
260
  0
POINT
  5
7FBB
  8
DEFPOINTS
  6
CONTINUOUS
 62
     0
 10
998.2775640000001
 20
1062.1774195625869
 30
0.0
  0
POINT
  5
7FBC
  8
DEFPOINTS
  6
CONTINUOUS
 62
     0
 10
978.27756399999998
 20
802.17741956258726
 30
0.0
  0
POINT
  5
7FBD
  8
DEFPOINTS
  6
CONTINUOUS
 62
     0
 10
1143.197895
 20
802.17741956258726
 30
0.0
  0
ENDBLK
  5
7D83
  8
0
  0
BLOCK
  8
0
  2
_DOT
 70
     0
 10
0.0
 20
0.0
 30
0.0
  3
_DOT
  1

  0
LINE
  5
7DE2
  8
0
  6
BYBLOCK
 62
     0
 10
0.0
 20
0.0
 30
0.0
 11
-1.0
 21
-0.0000000000000284
 31
0.0
  0
POLYLINE
  5
7DE3
  8
0
  6
BYBLOCK
 62
     0
 66
     1
 10
0.0
 20
0.0
 30
0.0
 70
     1
 40
0.1666666666666666
 41
0.1666666666666666
  0
VERTEX
  5
7FBE
  8
0
  6
BYBLOCK
 62
     0
 10
-0.0833333333333286
 20
-0.0000000000000284
 30
0.0
 42
1.0
  0
VERTEX
  5
7FBF
  8
0
  6
BYBLOCK
 62
     0
 10
0.0833333333333286
 20
-0.0000000000000284
 30
0.0
 42
1.0
  0
SEQEND
  5
7FC0
  8
0
  6
BYBLOCK
 62
     0
  0
ENDBLK
  5
7DBA
  8
0
  0
BLOCK
  8
0
  2
*D21
 70
     1
 10
0.0
 20
0.0
 30
0.0
  3
*D21
  1

  0
LINE
  5
7FC1
  8
3
 62
     0
 10
998.2775640000001
 20
1088.1774195625869
 30
0.0
 11
998.2775640000001
 21
1368.7401946843229
 31
0.0
  0
LINE
  5
7FC2
  8
3
 62
     0
 10
248.2775639999999
 20
730.17741956258726
 30
0.0
 11
248.27756400000001
 21
1368.7401946843229
 31
0.0
  0
LINE
  5
7FC3
  8
3
 62
     0
 10
978.27756399999998
 20
1358.7401946843229
 30
0.0
 11
268.27756399999998
 21
1358.7401946843229
 31
0.0
  0
INSERT
  5
7FC4
  8
3
 62
     0
  2
_OPEN
 10
998.2775640000001
 20
1358.7401946843229
 30
0.0
 41
20.0
 42
20.0
 43
20.0
  0
INSERT
  5
7FC5
  8
3
 62
     0
  2
_OPEN
 10
248.27756400000001
 20
1358.7401946843229
 30
0.0
 41
20.0
 42
20.0
 43
20.0
 50
180.0
  0
TEXT
  8
3
  40
30
  5
7FDD
  62
0
  72
0
  71
0
 10
558.518
 20
1330.64
 30
0.000000
  1
750
  0
POINT
  5
7FC7
  8
DEFPOINTS
 62
     0
 10
998.2775640000001
 20
1083.1774195625869
 30
0.0
  0
POINT
  5
7FC8
  8
DEFPOINTS
 62
     0
 10
248.2775639999999
 20
725.17741956258726
 30
0.0
  0
POINT
  5
7FC9
  8
DEFPOINTS
 62
     0
 10
248.27756400000001
 20
1358.7401946843229
 30
0.0
  0
ENDBLK
  5
7E1D
  8
0
  0
ENDSEC
  0
SECTION
  2
ENTITIES
  0
LINE
  5
7AA0
  8
1
  6
CONTINUOUS
 10
1586.7409250000001
 20
1063.1774195625869
 30
0.0
 11
1766.7409250000001
 21
1063.1774195625869
 31
0.0
  0
LINE
  5
7AA1
  8
1
  6
CONTINUOUS
 10
1598.7409250000001
 20
1273.077419562587
 30
0.0
 11
1754.7409250000001
 21
1273.077419562587
 31
0.0
  0
LINE
  5
7AA2
  8
1
  6
CONTINUOUS
 10
1586.7409250000001
 20
1063.1774195625869
 30
0.0
 11
1766.7409250000001
 21
811.17741956258726
 31
0.0
  0
LINE
  5
7AA3
  8
1
  6
CONTINUOUS
 10
1766.7409250000001
 20
1063.1774195625869
 30
0.0
 11
1586.7409250000001
 21
811.17741956258726
 31
0.0
  0
LINE
  5
7AA4
  8
1
  6
CONTINUOUS
 10
1766.7409250000001
 20
811.17741956258726
 30
0.0
 11
1586.7409250000001
 21
811.17741956258726
 31
0.0
  0
LINE
  5
7AA5
  8
1
  6
CONTINUOUS
 10
1338.7409250000001
 20
665.17741956258737
 30
0.0
 11
1818.7409250000001
 21
665.17741956258737
 31
0.0
  0
LINE
  5
7AA6
  8
1
  6
CONTINUOUS
 10
1338.7409250000001
 20
695.17741956258737
 30
0.0
 11
1818.7409250000001
 21
695.17741956258737
 31
0.0
  0
CIRCLE
  5
7AA7
  8
1
  6
CONTINUOUS
 10
798.27756399999987
 20
1062.1774195625869
 30
0.0
 40
125.0
  0
CIRCLE
  5
7AA8
  8
1
  6
CONTINUOUS
 10
798.27756399999987
 20
1062.1774195625869
 30
0.0
 40
145.0
  0
LINE
  5
7AA9
  8
1
  6
CONTINUOUS
 10
923.27756399999987
 20
1117.1774195625869
 30
0.0
 11
798.47756399999969
 21
1187.1774195625869
 31
0.0
  0
CIRCLE
  5
7AAA
  8
1
  6
CONTINUOUS
 10
798.27756399999987
 20
1062.1774195625869
 30
0.0
 40
63.5
  0
LINE
  5
7AAB
  8
1
  6
CONTINUOUS
 10
278.27756399999998
 20
807.17741956258715
 30
0.0
 11
988.2775640000001
 21
807.17741956258715
 31
0.0
  0
LINE
  5
7AAC
  8
1
  6
CONTINUOUS
 10
456.57756399999988
 20
845.97741956258744
 30
0.0
 11
823.37756399999989
 21
1003.877419562587
 31
0.0
  0
LINE
  5
7AAD
  8
1
  6
CONTINUOUS
 10
278.27756399999998
 20
747.17741956258726
 30
0.0
 11
988.2775640000001
 21
747.17741956258726
 31
0.0
  0
LINE
  5
7AAE
  8
1
  6
CONTINUOUS
 10
638.27756399999998
 20
747.17741956258726
 30
0.0
 11
958.27756399999987
 21
747.17741956258726
 31
0.0
  0
LINE
  5
7AAF
  8
1
  6
CONTINUOUS
 10
859.87756399999989
 20
1212.1774195625869
 30
0.0
 11
736.67756400000007
 21
1212.1774195625869
 31
0.0
  0
LINE
  5
7AB0
  8
2
  6
CENTER
 10
1794.3446100000001
 20
1062.1774195625869
 30
0.0
 11
1321.155293999999
 21
1062.1774195625869
 31
0.0
  0
ARC
  5
7AB1
  8
1
  6
CONTINUOUS
 10
781.27756399999987
 20
1045.1774195625869
 30
0.0
 40
203.6999999999999
 50
84.500000000000014
 51
175.40000000000001
  0
LINE
  5
7AB2
  8
1
  6
CONTINUOUS
 10
978.27756399999998
 20
802.17741956258726
 30
0.0
 11
797.87756399999989
 21
802.17741956258726
 31
0.0
  0
LINE
  5
7AB3
  8
1
  6
CONTINUOUS
 10
248.2775639999999
 20
695.17741956258737
 30
0.0
 11
1018.277564
 21
695.17741956258737
 31
0.0
  0
LINE
  5
7AB4
  8
1
  6
CONTINUOUS
 10
248.2775639999999
 20
725.17741956258726
 30
0.0
 11
1018.277564
 21
725.17741956258726
 31
0.0
  0
ARC
  5
7AB5
  8
1
  6
CONTINUOUS
 10
435.67756400000007
 20
894.67741956258715
 30
0.0
 40
75.799999999999997
 50
322.89999999999992
 51
217.09999999999991
  0
LINE
  5
7AB6
  8
1
  6
CONTINUOUS
 10
532.9775639999998
 20
827.17741956258726
 30
0.0
 11
278.27756399999998
 21
827.17741956258726
 31
0.0
  0
LINE
  5
7AB7
  8
1
  6
CONTINUOUS
 10
798.47756399999969
 20
1187.1774195625869
 30
0.0
 11
343.27756399999998
 21
987.17741956258726
 31
0.0
  0
LINE
  5
7AB8
  8
1
  6
CONTINUOUS
 10
343.27756399999998
 20
807.17741956258715
 30
0.0
 11
343.27756399999998
 21
987.17741956258726
 31
0.0
  0
LINE
  5
7AB9
  8
1
  6
CONTINUOUS
 10
248.2775639999999
 20
665.17741956258737
 30
0.0
 11
278.27756399999998
 21
665.17741956258737
 31
0.0
  0
LINE
  5
7ABA
  8
1
  6
CONTINUOUS
 10
248.2775639999999
 20
725.17741956258726
 30
0.0
 11
248.2775639999999
 21
665.17741956258737
 31
0.0
  0
LINE
  5
7ABB
  8
1
  6
CONTINUOUS
 10
278.27756399999998
 20
695.17741956258737
 30
0.0
 11
278.27756399999998
 21
665.17741956258737
 31
0.0
  0
LINE
  5
7ABC
  8
1
  6
CONTINUOUS
 10
278.27756399999998
 20
827.17741956258726
 30
0.0
 11
278.27756399999998
 21
807.17741956258715
 31
0.0
  0
LINE
  5
7ABD
  8
1
  6
CONTINUOUS
 10
278.27756399999998
 20
807.17741956258715
 30
0.0
 11
278.27756399999998
 21
747.17741956258726
 31
0.0
  0
CIRCLE
  5
7ABE
  8
1
  6
CONTINUOUS
 10
435.67756400000007
 20
894.67741956258715
 30
0.0
 40
53.0
  0
LINE
  5
7ABF
  8
2
  6
CENTER
 10
435.67756400000007
 20
841.67741956258726
 30
0.0
 11
435.67756400000007
 21
947.67741956258715
 31
0.0
  0
LINE
  5
7AC0
  8
1
  6
CONTINUOUS
 10
638.27756399999998
 20
1128.2774195625871
 30
0.0
 11
638.27756399999998
 21
807.17741956258715
 31
0.0
  0
ARC
  5
7AC1
  8
1
  6
CONTINUOUS
 10
818.27756399999987
 20
1042.1774195625869
 30
0.0
 40
240.90000000000001
 50
175.40000000000001
 51
265.10000000000002
  0
LINE
  5
7AC2
  8
2
  6
CENTER
 10
382.67756400000007
 20
894.67741956258715
 30
0.0
 11
488.67756400000002
 21
894.67741956258715
 31
0.0
  0
LINE
  5
7AC3
  8
1
  6
CONTINUOUS
 10
369.67756400000002
 20
827.17741956258726
 30
0.0
 11
369.67756400000002
 21
834.67741956258715
 31
0.0
  0
LINE
  5
7AC4
  8
1
  6
CONTINUOUS
 10
369.67756400000002
 20
834.67741956258715
 30
0.0
 11
375.17756400000002
 21
848.97741956258733
 31
0.0
  0
POINT
  5
7AC5
  8
1
  6
CONTINUOUS
 10
506.07756399999988
 20
894.67741956258715
 30
0.0
  0
LINE
  5
7AC6
  8
1
  6
CONTINUOUS
 10
501.67756400000002
 20
834.67741956258715
 30
0.0
 11
496.07756399999988
 21
848.97741956258733
 31
0.0
  0
LINE
  5
7AC7
  8
1
  6
CONTINUOUS
 10
501.67756400000002
 20
827.17741956258726
 30
0.0
 11
501.67756400000002
 21
834.67741956258715
 31
0.0
  0
LINE
  5
7AC8
  8
1
  6
CONTINUOUS
 10
532.9775639999998
 20
807.17741956258715
 30
0.0
 11
532.9775639999998
 21
827.17741956258726
 31
0.0
  0
LINE
  5
7AC9
  8
1
  6
CONTINUOUS
 10
412.17756400000002
 20
942.17741956258715
 30
0.0
 11
770.17756400000007
 21
1119.077419562587
 31
0.0
  0
LINE
  5
7ACA
  8
1
  6
CONTINUOUS
 10
736.67756400000007
 20
1212.1774195625869
 30
0.0
 11
638.27756399999998
 21
1128.2774195625871
 31
0.0
  0
LINE
  5
7ACB
  8
2
  6
CENTER
 10
798.27756399999987
 20
669.99286756258732
 30
0.0
 11
798.27756399999987
 21
1263.001286562587
 31
0.0
  0
LINE
  5
7ACF
  8
1
  6
CONTINUOUS
 10
923.27756399999987
 20
807.17741956258715
 30
0.0
 11
923.27756399999987
 21
1117.1774195625869
 31
0.0
  0
LINE
  5
7AD0
  8
1
  6
CONTINUOUS
 10
958.27756399999987
 20
807.17741956258715
 30
0.0
 11
958.27756399999987
 21
1128.2774195625871
 31
0.0
  0
LINE
  5
7AD1
  8
1
  6
CONTINUOUS
 10
998.2775640000001
 20
1083.1774195625869
 30
0.0
 11
998.2775640000001
 21
791.17741956258726
 31
0.0
  0
LINE
  5
7AD2
  8
1
  6
CONTINUOUS
 10
978.27756399999998
 20
832.17741956258715
 30
0.0
 11
978.27756399999998
 21
1042.1774195625869
 31
0.0
  0
LINE
  5
7AD3
  8
1
  6
CONTINUOUS
 10
1018.277564
 20
665.17741956258737
 30
0.0
 11
988.2775640000001
 21
665.17741956258737
 31
0.0
  0
LINE
  5
7AD4
  8
1
  6
CONTINUOUS
 10
988.2775640000001
 20
695.17741956258737
 30
0.0
 11
988.2775640000001
 21
665.17741956258737
 31
0.0
  0
LINE
  5
7AD5
  8
1
  6
CONTINUOUS
 10
978.27756399999998
 20
802.17741956258726
 30
0.0
 11
978.27756399999998
 21
812.17741956258726
 31
0.0
  0
LINE
  5
7AD6
  8
1
  6
CONTINUOUS
 10
998.2775640000001
 20
812.17741956258726
 30
0.0
 11
978.27756399999998
 21
812.17741956258726
 31
0.0
  0
LINE
  5
7AD7
  8
1
  6
CONTINUOUS
 10
988.2775640000001
 20
807.17741956258715
 30
0.0
 11
988.2775640000001
 21
747.17741956258726
 31
0.0
  0
LINE
  5
7AD8
  8
1
  6
CONTINUOUS
 10
998.2775640000001
 20
812.17741956258726
 30
0.0
 11
978.27756399999998
 21
832.17741956258715
 31
0.0
  0
LINE
  5
7ADA
  8
1
  6
CONTINUOUS
 10
1018.277564
 20
725.17741956258726
 30
0.0
 11
1018.277564
 21
665.17741956258737
 31
0.0
  0
ARC
  5
7ADC
  8
1
  6
CONTINUOUS
 10
784.27756399999998
 20
1076.1774195625869
 30
0.0
 40
172.59999999999991
 50
358.69999999999987
 51
84.500000000000014
  0
LINE
  5
7ADD
  8
1
  6
CONTINUOUS
 10
859.87756399999989
 20
1212.1774195625869
 30
0.0
 11
958.27756399999987
 21
1128.2774195625871
 31
0.0
  0
LINE
  5
7ADE
  8
1
  6
CONTINUOUS
 10
978.27756399999998
 20
1062.1774195625869
 30
0.0
 11
978.27756399999998
 21
1072.1774195625869
 31
0.0
  0
LINE
  5
7ADF
  8
1
  6
CONTINUOUS
 10
998.2775640000001
 20
1062.1774195625869
 30
0.0
 11
978.27756399999998
 21
1062.1774195625869
 31
0.0
  0
LINE
  5
7AE0
  8
1
  6
CONTINUOUS
 10
978.27756399999998
 20
1072.1774195625869
 30
0.0
 11
956.87756399999978
 21
1072.1774195625869
 31
0.0
  0
LINE
  5
7AE1
  8
1
  6
CONTINUOUS
 10
998.2775640000001
 20
1062.1774195625869
 30
0.0
 11
978.27756399999998
 21
1042.1774195625869
 31
0.0
  0
LINE
  5
7AE2
  8
1
  6
CONTINUOUS
 10
1586.7409250000001
 20
811.17741956258726
 30
0.0
 11
1586.7409250000001
 21
1261.077419562587
 31
0.0
  0
LINE
  5
7AE3
  8
1
  6
CONTINUOUS
 10
1577.7409250000001
 20
915.17741956258715
 30
0.0
 11
1577.7409250000001
 21
1062.1774195625869
 31
0.0
  0
LINE
  5
7AE4
  8
1
  6
CONTINUOUS
 10
1577.7409250000001
 20
1209.1774195625869
 30
0.0
 11
1577.7409250000001
 21
807.17741956258715
 31
0.0
  0
LINE
  5
7AE5
  8
1
  6
CONTINUOUS
 10
1448.7409250000001
 20
807.17741956258715
 30
0.0
 11
1448.7409250000001
 21
1023.977419562587
 31
0.0
  0
LINE
  5
7AE6
  8
1
  6
CONTINUOUS
 10
1336.7409250000001
 20
807.17741956258715
 30
0.0
 11
1336.7409250000001
 21
1187.1774195625869
 31
0.0
  0
LINE
  5
7AE7
  8
1
  6
CONTINUOUS
 10
1411.7409250000001
 20
807.17741956258715
 30
0.0
 11
1411.7409250000001
 21
1187.1774195625869
 31
0.0
  0
LINE
  5
7AE8
  8
1
  6
CONTINUOUS
 10
1356.7409250000001
 20
947.67741956258715
 30
0.0
 11
1356.7409250000001
 21
841.67741956258726
 31
0.0
  0
LINE
  5
7AE9
  8
1
  6
CONTINUOUS
 10
1391.7409250000001
 20
947.67741956258715
 30
0.0
 11
1391.7409250000001
 21
841.67741956258726
 31
0.0
  0
LINE
  5
7AEA
  8
1
  6
CONTINUOUS
 10
1336.7409250000001
 20
807.17741956258715
 30
0.0
 11
1668.7409250000001
 21
807.17741956258715
 31
0.0
  0
LINE
  5
7AEB
  8
1
  6
CONTINUOUS
 10
1418.7409250000001
 20
747.17741956258726
 30
0.0
 11
1668.7409250000001
 21
747.17741956258726
 31
0.0
  0
LINE
  5
7AEC
  8
1
  6
CONTINUOUS
 10
1418.7409250000001
 20
725.17741956258726
 30
0.0
 11
1668.7409250000001
 21
725.17741956258726
 31
0.0
  0
LINE
  5
7AED
  8
1
  6
CONTINUOUS
 10
1391.7409250000001
 20
882.67741956258726
 30
0.0
 11
1448.7409250000001
 21
882.67741956258726
 31
0.0
  0
LINE
  5
7AEE
  8
1
  6
CONTINUOUS
 10
1391.7409250000001
 20
906.67741956258726
 30
0.0
 11
1448.7409250000001
 21
906.67741956258726
 31
0.0
  0
LINE
  5
7AEF
  8
1
  6
CONTINUOUS
 10
1338.7409250000001
 20
695.17741956258737
 30
0.0
 11
1338.7409250000001
 21
665.17741956258737
 31
0.0
  0
LINE
  5
7AF0
  8
1
  6
CONTINUOUS
 10
1356.7409250000001
 20
841.67741956258726
 30
0.0
 11
1391.7409250000001
 21
841.67741956258726
 31
0.0
  0
LINE
  5
7AF1
  8
1
  6
CONTINUOUS
 10
1418.7409250000001
 20
807.17741956258715
 30
0.0
 11
1418.7409250000001
 21
747.17741956258726
 31
0.0
  0
LINE
  5
7AF2
  8
1
  6
CONTINUOUS
 10
1418.7409250000001
 20
725.17741956258726
 30
0.0
 11
1418.7409250000001
 21
695.17741956258737
 31
0.0
  0
LINE
  5
7AF3
  8
1
  6
CONTINUOUS
 10
1586.7409250000001
 20
915.17741956258715
 30
0.0
 11
1577.7409250000001
 21
915.17741956258715
 31
0.0
  0
LINE
  5
7AF4
  8
1
  6
CONTINUOUS
 10
1586.7409250000001
 20
811.17741956258726
 30
0.0
 11
1586.7409250000001
 21
833.15770456258736
 31
0.0
  0
LINE
  5
7AF5
  8
1
  6
CONTINUOUS
 10
1668.7409250000001
 20
807.17741956258715
 30
0.0
 11
1668.7409250000001
 21
747.17741956258726
 31
0.0
  0
LINE
  5
7AF6
  8
1
  6
CONTINUOUS
 10
1668.7409250000001
 20
725.17741956258726
 30
0.0
 11
1668.7409250000001
 21
695.17741956258737
 31
0.0
  0
LINE
  5
7AF7
  8
1
  6
CONTINUOUS
 10
1448.7409250000001
 20
1023.977419562587
 30
0.0
 11
1577.7409250000001
 21
1128.2774195625871
 31
0.0
  0
LINE
  5
7AF8
  8
1
  6
CONTINUOUS
 10
1391.7409250000001
 20
1074.1774195625869
 30
0.0
 11
1510.840925
 21
1074.1774195625869
 31
0.0
  0
LINE
  5
7AF9
  8
1
  6
CONTINUOUS
 10
1391.7409250000001
 20
1050.1774195625869
 30
0.0
 11
1481.1409249999999
 21
1050.1774195625869
 31
0.0
  0
LINE
  5
7AFA
  8
1
  6
CONTINUOUS
 10
1336.7409250000001
 20
1187.1774195625869
 30
0.0
 11
1411.7409250000001
 21
1187.1774195625869
 31
0.0
  0
LINE
  5
7AFB
  8
1
  6
CONTINUOUS
 10
1356.7409250000001
 20
1125.6774195625869
 30
0.0
 11
1356.7409250000001
 21
998.67741956258726
 31
0.0
  0
LINE
  5
7AFC
  8
1
  6
CONTINUOUS
 10
1356.7409250000001
 20
1125.6774195625869
 30
0.0
 11
1391.7409250000001
 21
1125.6774195625869
 31
0.0
  0
LINE
  5
7AFD
  8
1
  6
CONTINUOUS
 10
1356.7409250000001
 20
998.67741956258726
 30
0.0
 11
1391.7409250000001
 21
998.67741956258726
 31
0.0
  0
LINE
  5
7AFE
  8
1
  6
CONTINUOUS
 10
1391.7409250000001
 20
1125.6774195625869
 30
0.0
 11
1391.7409250000001
 21
998.67741956258726
 31
0.0
  0
LINE
  5
7AFF
  8
1
  6
CONTINUOUS
 10
1356.7409250000001
 20
947.67741956258715
 30
0.0
 11
1391.7409250000001
 21
947.67741956258715
 31
0.0
  0
LINE
  5
7B00
  8
1
  6
CONTINUOUS
 10
1577.7409250000001
 20
1209.1774195625869
 30
0.0
 11
1577.7409250000001
 21
1062.1774195625869
 31
0.0
  0
LINE
  5
7B01
  8
1
  6
CONTINUOUS
 10
1586.7409250000001
 20
1209.1774195625869
 30
0.0
 11
1577.7409250000001
 21
1209.1774195625869
 31
0.0
  0
ARC
  5
7B02
  8
1
  6
CONTINUOUS
 10
1598.7409250000001
 20
1261.077419562587
 30
0.0
 40
12.0
 50
90.0
 51
180.0
  0
LINE
  5
7B03
  8
1
  6
CONTINUOUS
 10
998.2775640000001
 20
2110.8186530412459
 30
0.0
 11
599.37756399999989
 21
2110.8186530412459
 31
0.0
  0
LINE
  5
7B04
  8
1
  6
CONTINUOUS
 10
651.27756399999998
 20
2120.0186530412452
 30
0.0
 11
945.27756399999998
 21
2120.0186530412452
 31
0.0
  0
LINE
  5
7B05
  8
1
  6
CONTINUOUS
 10
998.2775640000001
 20
1931.218653041245
 30
0.0
 11
798.27756399999987
 21
1931.218653041245
 31
0.0
  0
LINE
  5
7B06
  8
1
  6
CONTINUOUS
 10
923.2775640000001
 20
1681.018653041245
 30
0.0
 11
343.27756399999998
 21
1681.018653041245
 31
0.0
  0
LINE
  5
7B07
  8
1
  6
CONTINUOUS
 10
923.2775640000001
 20
1756.0186530412459
 30
0.0
 11
343.27756399999998
 21
1756.0186530412459
 31
0.0
  0
LINE
  5
7B08
  8
1
  6
CONTINUOUS
 10
861.7775640000001
 20
1736.018653041245
 30
0.0
 11
734.77756399999998
 21
1736.018653041245
 31
0.0
  0
LINE
  5
7B09
  8
1
  6
CONTINUOUS
 10
861.7775640000001
 20
1701.018653041245
 30
0.0
 11
734.77756399999998
 21
1701.018653041245
 31
0.0
  0
LINE
  5
7B0A
  8
1
  6
CONTINUOUS
 10
638.27756399999998
 20
1922.018653041245
 30
0.0
 11
958.2775640000001
 21
1922.018653041245
 31
0.0
  0
LINE
  5
7B0B
  8
1
  6
CONTINUOUS
 10
423.6775639999999
 20
1763.018653041245
 30
0.0
 11
248.2775639999999
 21
1763.018653041245
 31
0.0
  0
LINE
  5
7B0C
  8
1
  6
CONTINUOUS
 10
512.27756399999987
 20
1787.3186530412449
 30
0.0
 11
360.77756399999998
 21
1787.3186530412449
 31
0.0
  0
LINE
  5
7B0D
  8
1
  6
CONTINUOUS
 10
512.27756399999987
 20
1991.3186530412461
 30
0.0
 11
360.77756399999998
 21
1991.3186530412461
 31
0.0
  0
LINE
  5
7B0E
  8
1
  6
CONTINUOUS
 10
587.37756399999989
 20
2013.018653041245
 30
0.0
 11
248.2775639999999
 21
2013.018653041245
 31
0.0
  0
LINE
  5
7B0F
  8
1
  6
CONTINUOUS
 10
360.77756399999998
 20
1787.3186530412449
 30
0.0
 11
360.77756399999998
 21
1991.3186530412461
 31
0.0
  0
LINE
  5
7B10
  8
1
  6
CONTINUOUS
 10
248.2775639999999
 20
2163.0186530412452
 30
0.0
 11
248.2775639999999
 21
1683.018653041245
 31
0.0
  0
LINE
  5
7B11
  8
1
  6
CONTINUOUS
 10
278.27756399999998
 20
1683.018653041245
 30
0.0
 11
248.2775639999999
 21
1683.018653041245
 31
0.0
  0
LINE
  5
7B12
  8
1
  6
CONTINUOUS
 10
278.27756399999998
 20
1763.018653041245
 30
0.0
 11
278.27756399999998
 21
1683.018653041245
 31
0.0
  0
LINE
  5
7B13
  8
1
  6
CONTINUOUS
 10
343.27756399999998
 20
1681.018653041245
 30
0.0
 11
343.27756399999998
 21
1756.0186530412459
 31
0.0
  0
LINE
  5
7B14
  8
1
  6
CONTINUOUS
 10
278.27756399999998
 20
2163.0186530412452
 30
0.0
 11
248.2775639999999
 21
2163.0186530412452
 31
0.0
  0
LINE
  5
7B15
  8
1
  6
CONTINUOUS
 10
278.27756399999998
 20
2163.0186530412452
 30
0.0
 11
278.27756399999998
 21
2013.018653041245
 31
0.0
  0
LINE
  5
7B16
  8
1
  6
CONTINUOUS
 10
587.37756399999989
 20
2098.8186530412459
 30
0.0
 11
587.37756399999989
 21
1943.218653041245
 31
0.0
  0
LINE
  5
7B17
  8
1
  6
CONTINUOUS
 10
512.27756399999987
 20
1787.3186530412449
 30
0.0
 11
512.27756399999987
 21
1991.3186530412461
 31
0.0
  0
LINE
  5
7B18
  8
1
  6
CONTINUOUS
 10
786.27756399999987
 20
1763.018653041245
 30
0.0
 11
447.6775639999999
 21
1763.018653041245
 31
0.0
  0
LINE
  5
7B19
  8
1
  6
CONTINUOUS
 10
488.6775639999999
 20
1736.018653041245
 30
0.0
 11
382.67756400000002
 21
1736.018653041245
 31
0.0
  0
LINE
  5
7B1A
  8
1
  6
CONTINUOUS
 10
488.6775639999999
 20
1701.018653041245
 30
0.0
 11
382.67756400000002
 21
1701.018653041245
 31
0.0
  0
LINE
  5
7B1B
  8
1
  6
CONTINUOUS
 10
447.6775639999999
 20
1736.018653041245
 30
0.0
 11
447.6775639999999
 21
1787.3186530412449
 31
0.0
  0
LINE
  5
7B1C
  8
1
  6
CONTINUOUS
 10
423.6775639999999
 20
1736.018653041245
 30
0.0
 11
423.57756399999988
 21
1787.3186530412449
 31
0.0
  0
LINE
  5
7B1D
  8
1
  6
CONTINUOUS
 10
382.67756400000002
 20
1701.018653041245
 30
0.0
 11
382.67756400000002
 21
1736.018653041245
 31
0.0
  0
LINE
  5
7B1E
  8
1
  6
CONTINUOUS
 10
488.6775639999999
 20
1701.018653041245
 30
0.0
 11
488.6775639999999
 21
1736.018653041245
 31
0.0
  0
LINE
  5
7B1F
  8
1
  6
CONTINUOUS
 10
599.37756399999989
 20
1931.218653041245
 30
0.0
 11
798.27756399999987
 21
1931.218653041245
 31
0.0
  0
LINE
  5
7B20
  8
1
  6
CONTINUOUS
 10
786.27756399999987
 20
1793.018653041245
 30
0.0
 11
638.27756399999998
 21
1793.018653041245
 31
0.0
  0
LINE
  5
7B21
  8
1
  6
CONTINUOUS
 10
651.27756399999998
 20
1931.218653041245
 30
0.0
 11
651.27756399999998
 21
1922.018653041245
 31
0.0
  0
ARC
  5
7B22
  8
1
  6
CONTINUOUS
 10
599.37756399999989
 20
1943.218653041245
 30
0.0
 40
12.0
 50
180.0
 51
270.0
  0
LINE
  5
7B23
  8
1
  6
CONTINUOUS
 10
638.27756399999998
 20
1922.018653041245
 30
0.0
 11
638.27756399999998
 21
1793.018653041245
 31
0.0
  0
LINE
  5
7B24
  8
1
  6
CONTINUOUS
 10
734.77756399999998
 20
1701.018653041245
 30
0.0
 11
734.77756399999998
 21
1736.018653041245
 31
0.0
  0
LINE
  5
7B25
  8
1
  6
CONTINUOUS
 10
786.27756399999987
 20
1736.018653041245
 30
0.0
 11
786.27756399999987
 21
1922.018653041245
 31
0.0
  0
LINE
  5
7B26
  8
1
  6
CONTINUOUS
 10
651.27756399999998
 20
2110.8186530412459
 30
0.0
 11
651.27756399999998
 21
2120.0186530412452
 31
0.0
  0
ARC
  5
7B27
  8
1
  6
CONTINUOUS
 10
599.37756399999989
 20
2098.8186530412459
 30
0.0
 40
12.0
 50
90.0
 51
180.0
  0
LINE
  5
7B28
  8
1
  6
CONTINUOUS
 10
998.2775640000001
 20
1940.218653041245
 30
0.0
 11
978.27756399999998
 21
1960.218653041245
 31
0.0
  0
LINE
  5
7B29
  8
1
  6
CONTINUOUS
 10
998.2775640000001
 20
2132.0186530412452
 30
0.0
 11
998.2775640000001
 21
1910.018653041245
 31
0.0
  0
LINE
  5
7B2A
  8
1
  6
CONTINUOUS
 10
1018.277564
 20
2163.0186530412452
 30
0.0
 11
1018.277564
 21
1683.018653041245
 31
0.0
  0
LINE
  5
7B2B
  8
1
  6
CONTINUOUS
 10
988.2775640000001
 20
1683.018653041245
 30
0.0
 11
1018.277564
 21
1683.018653041245
 31
0.0
  0
LINE
  5
7B2C
  8
1
  6
CONTINUOUS
 10
1018.277564
 20
1763.018653041245
 30
0.0
 11
810.27756399999998
 21
1763.018653041245
 31
0.0
  0
LINE
  5
7B2D
  8
1
  6
CONTINUOUS
 10
958.2775640000001
 20
1793.018653041245
 30
0.0
 11
810.27756399999998
 21
1793.018653041245
 31
0.0
  0
LINE
  5
7B2E
  8
1
  6
CONTINUOUS
 10
861.7775640000001
 20
1701.018653041245
 30
0.0
 11
861.7775640000001
 21
1736.018653041245
 31
0.0
  0
LINE
  5
7B2F
  8
1
  6
CONTINUOUS
 10
810.27756399999998
 20
1736.018653041245
 30
0.0
 11
810.27756399999998
 21
1922.018653041245
 31
0.0
  0
LINE
  5
7B30
  8
1
  6
CONTINUOUS
 10
945.27756399999998
 20
1931.218653041245
 30
0.0
 11
945.27756399999998
 21
1922.018653041245
 31
0.0
  0
LINE
  5
7B31
  8
1
  6
CONTINUOUS
 10
988.2775640000001
 20
1763.018653041245
 30
0.0
 11
988.2775640000001
 21
1683.018653041245
 31
0.0
  0
LINE
  5
7B32
  8
1
  6
CONTINUOUS
 10
958.2775640000001
 20
1793.018653041245
 30
0.0
 11
958.2775640000001
 21
1922.018653041245
 31
0.0
  0
LINE
  5
7B33
  8
1
  6
CONTINUOUS
 10
923.2775640000001
 20
1681.018653041245
 30
0.0
 11
923.2775640000001
 21
1756.0186530412459
 31
0.0
  0
LINE
  5
7B34
  8
1
  6
CONTINUOUS
 10
988.2775640000001
 20
2163.0186530412452
 30
0.0
 11
1018.277564
 21
2163.0186530412452
 31
0.0
  0
LINE
  5
7B35
  8
1
  6
CONTINUOUS
 10
1018.277564
 20
2013.018653041245
 30
0.0
 11
998.2775640000001
 21
2013.018653041245
 31
0.0
  0
LINE
  5
7B36
  8
1
  6
CONTINUOUS
 10
998.2775640000001
 20
2101.8186530412459
 30
0.0
 11
978.27756399999998
 21
2081.8186530412449
 31
0.0
  0
LINE
  5
7B37
  8
1
  6
CONTINUOUS
 10
945.27756399999998
 20
2110.8186530412459
 30
0.0
 11
945.27756399999998
 21
2120.0186530412452
 31
0.0
  0
LINE
  5
7B38
  8
1
  6
CONTINUOUS
 10
978.27756399999998
 20
2081.8186530412449
 30
0.0
 11
978.27756399999998
 21
1960.218653041245
 31
0.0
  0
LINE
  5
7B39
  8
1
  6
CONTINUOUS
 10
988.2775640000001
 20
2163.0186530412452
 30
0.0
 11
988.2775640000001
 21
2111.8186530412449
 31
0.0
  0
LINE
  5
7B3A
  8
1
  6
CONTINUOUS
 10
1766.7409250000001
 20
1261.077419562587
 30
0.0
 11
1766.7409250000001
 21
811.17741956258726
 31
0.0
  0
LINE
  5
7B3B
  8
1
  6
CONTINUOUS
 10
1775.7409250000001
 20
915.17741956258715
 30
0.0
 11
1775.7409250000001
 21
1209.1774195625869
 31
0.0
  0
LINE
  5
7B3C
  8
1
  6
CONTINUOUS
 10
1766.7409250000001
 20
915.17741956258715
 30
0.0
 11
1775.7409250000001
 21
915.17741956258715
 31
0.0
  0
LINE
  5
7B3D
  8
1
  6
CONTINUOUS
 10
1818.7409250000001
 20
695.17741956258737
 30
0.0
 11
1818.7409250000001
 21
665.17741956258737
 31
0.0
  0
LINE
  5
7B3E
  8
1
  6
CONTINUOUS
 10
1766.7409250000001
 20
1209.1774195625869
 30
0.0
 11
1775.7409250000001
 21
1209.1774195625869
 31
0.0
  0
ARC
  5
7B3F
  8
1
  6
CONTINUOUS
 10
1754.7409250000001
 20
1261.077419562587
 30
0.0
 40
12.0
 50
0.0
 51
90.0
  0
LINE
  5
7B40
  8
4
  6
CONTINUOUS
 10
1850.0
 20
500.0
 30
0.0
 11
1850.0
 21
300.0
 31
0.0
  0
LINE
  5
7B41
  8
4
  6
CONTINUOUS
 10
1150.0
 20
500.0
 30
0.0
 11
1150.0
 21
300.0
 31
0.0
  0
LINE
  5
7B42
  8
4
  6
CONTINUOUS
 10
650.0
 20
500.0
 30
0.0
 11
650.0
 21
300.0
 31
0.0
  0
LINE
  5
7B45
  8
4
  6
CONTINUOUS
 10
650.0
 20
300.0
 30
0.0
 11
1850.0
 21
300.0
 31
0.0
  0
LINE
  5
7B46
  8
4
  6
CONTINUOUS
 10
650.0
 20
400.0
 30
0.0
 11
1850.0
 21
400.0
 31
0.0
  0
TEXT
  5
7B47
  8
4
  6
CONTINUOUS
 10
688.50208099999998
 20
431.543026
 30
0.0
 40
50.0
  1
機器名称
  0
TEXT
  5
7B48
  8
4
  6
CONTINUOUS
 10
686.258106
 20
321.64515699999993
 30
0.0
 40
50.0
  1
機器型番
  0
TEXT
  5
7B49
  8
4
  6
CONTINUOUS
 10
1177.678744999999
 20
422.57176900000002
 30
0.0
 40
45.0
  1
ミツヤニューマルチファン
  0
TEXT
  5
7B4A
  8
4
  6
CONTINUOUS
 10
1186.6544960000001
 20
317.159584
 30
0.0
 40
50.0
  1
NM#1 1/2-1
  0
TEXT
  5
7B4C
  8
4
  6
CONTINUOUS
 10
739.4673019999999
 20
2383.4288409999999
 30
0.0
 40
54.0
  1
天井吊防振ベット
  0
TEXT
  5
7B4D
  8
4
  6
CONTINUOUS
 10
316.16759300000001
 20
2533.8809759999999
 30
0.0
 40
72.0
  1
ベルト駆動式片吸込片持多翼ファン
  0
LINE
  5
7B4E
  8
4
  6
CONTINUOUS
 10
250.0
 20
2469.408754
 30
0.0
 11
1850.0
 21
2469.408754
 31
0.0
  0
LINE
  5
7B4F
  8
4
  6
CONTINUOUS
 10
250.0
 20
2669.408754
 30
0.0
 11
1850.0
 21
2669.408754
 31
0.0
  0
LINE
  5
7B50
  8
4
  6
CONTINUOUS
 10
650.0
 20
500.0
 30
0.0
 11
1850.0
 21
500.0
 31
0.0
  0
LINE
  5
7B51
  8
4
  6
CONTINUOUS
 10
250.0
 20
2669.408754
 30
0.0
 11
250.0
 21
2469.408754
 31
0.0
  0
TEXT
  5
7B52
  8
4
  6
CONTINUOUS
 10
303.6084699999999
 20
2382.3194779999999
 30
0.0
 40
54.0
  1
左回転右横向
  0
TEXT
  5
7B53
  8
4
  6
CONTINUOUS
 10
1468.9695589999999
 20
2706.0610809999998
 30
0.0
 40
56.0
  1
No.
  0
TEXT
  5
7B54
  8
4
  6
CONTINUOUS
 10
1393.9552880000001
 20
2383.4288409999999
 30
0.0
 40
54.0
  1
縮尺：1/10
  0
LINE
  5
7B55
  8
4
  6
CONTINUOUS
 10
1850.0
 20
2669.408754
 30
0.0
 11
1850.0
 21
2469.408754
 31
0.0
  0
LINE
  5
7B57
  8
4
  6
CONTINUOUS
 10
1440.617422
 20
2681.2635829999999
 30
0.0
 11
1440.617422
 21
2786.6522620000001
 31
0.0
  0
LINE
  5
7B58
  8
4
  6
CONTINUOUS
 10
1440.617422
 20
2786.6522620000001
 30
0.0
 11
1850.0
 21
2786.6522620000001
 31
0.0
  0
LINE
  5
7B59
  8
4
  6
CONTINUOUS
 10
1850.0
 20
2786.6522620000001
 30
0.0
 11
1850.0
 21
2681.2635829999999
 31
0.0
  0
LINE
  5
7B5A
  8
4
  6
CONTINUOUS
 10
1850.0
 20
2681.2635829999999
 30
0.0
 11
1440.617422
 21
2681.2635829999999
 31
0.0
  0
DIMENSION
  5
7B72
  8
3
  6
CONTINUOUS
  2
*D1
 10
798.27756399999987
 20
593.50000056258716
 30
0.0
 11
536.04803399999992
 21
593.50000056258716
 31
0.0
 70
   128
 13
248.2775639999999
 23
665.17741956258737
 33
0.0
 14
798.27756399999987
 24
669.99286756258732
 34
0.0
1001
ACAD
1000
DSTYLE
1002
{
1070
   287
1070
     3
1070
   287
1070
     3
1070
    40
1040
10.0
1070
   143
1040
0.039
1070
   172
1070
     1
1070
   271
1070
     0
1070
   279
1070
     0
1070
   288
1070
     1
1002
}
  0
DIMENSION
  5
7B7E
  8
3
  6
CONTINUOUS
  2
*D2
 10
1018.277564
 20
593.50000056258716
 30
0.0
 11
908.27756399999987
 21
618.50000056258716
 31
0.0
 70
     0
 13
798.27756399999987
 23
669.99286756258732
 33
0.0
 14
1018.277564
 24
665.17741956258737
 34
0.0
1001
ACAD
1000
DSTYLE
1002
{
1070
   287
1070
     4
1070
   287
1070
     4
1070
    40
1040
10.0
1070
    75
1070
     1
1070
   143
1040
0.039
1070
   172
1070
     1
1070
   271
1070
     0
1070
   279
1070
     1
1070
   288
1070
     1
1002
}
  0
DIMENSION
  5
7B8B
  8
3
  6
CONTINUOUS
  2
*D3
 10
798.27756399999987
 20
1291.3226015625869
 30
0.0
 11
695.50581899999986
 21
1291.3226015625869
 31
0.0
 70
   128
 13
578.28818000000001
 23
1062.1774195625869
 33
0.0
 14
798.27756399999987
 24
1248.1668035625869
 34
0.0
1001
ACAD
1000
DSTYLE
1002
{
1070
   287
1070
     3
1070
   287
1070
     3
1070
    40
1040
10.0
1070
   143
1040
0.039
1070
   172
1070
     1
1070
   271
1070
     0
1070
   279
1070
     0
1070
   288
1070
     1
1002
}
  0
DIMENSION
  5
7B97
  8
3
  6
CONTINUOUS
  2
*D4
 10
998.2775640000001
 20
1291.3226015625869
 30
0.0
 11
898.27756399999987
 21
1316.3226015625869
 31
0.0
 70
     0
 13
798.27756399999987
 23
1248.1668035625869
 33
0.0
 14
998.2775640000001
 24
1083.1774195625869
 34
0.0
1001
ACAD
1000
DSTYLE
1002
{
1070
   287
1070
     4
1070
   287
1070
     4
1070
    40
1040
10.0
1070
    75
1070
     1
1070
   143
1040
0.039
1070
   172
1070
     1
1070
   271
1070
     0
1070
   279
1070
     1
1070
   288
1070
     1
1002
}
  0
DIMENSION
  5
7BA4
  8
3
  6
CONTINUOUS
  2
*D5
 10
1074.0149899999999
 20
812.17741956258726
 30
0.0
 11
1074.0149899999999
 21
934.82627456258751
 31
0.0
 70
   128
 13
998.2775640000001
 23
1062.1774195625869
 33
0.0
 14
998.2775640000001
 24
812.17741956258726
 34
0.0
 50
90.0
1001
ACAD
1000
DSTYLE
1002
{
1070
   287
1070
     3
1070
   287
1070
     3
1070
    40
1040
10.0
1070
   143
1040
0.039
1070
   172
1070
     1
1070
   271
1070
     0
1070
   279
1070
     0
1070
   288
1070
     1
1002
}
  0
DIMENSION
  5
7BB1
  8
3
  6
CONTINUOUS
  2
*D6
 10
1194.5497439999999
 20
1062.1774195625869
 30
0.0
 11
1194.549743999999
 21
1154.7920935625871
 31
0.0
 70
   128
 13
798.27756399999987
 23
1248.1668035625869
 33
0.0
 14
998.2775640000001
 24
1062.1774195625869
 34
0.0
 50
90.0
1001
ACAD
1000
DSTYLE
1002
{
1070
   287
1070
     3
1070
   287
1070
     3
1070
    40
1040
10.0
1070
   143
1040
0.039
1070
   172
1070
     1
1070
   271
1070
     0
1070
   279
1070
     0
1070
   288
1070
     1
1002
}
  0
DIMENSION
  5
7BBD
  8
3
  6
CONTINUOUS
  2
*D7
 10
1194.549743999999
 20
747.17741956258726
 30
0.0
 11
1169.549743999999
 21
904.67741956258749
 31
0.0
 70
     0
 13
998.2775640000001
 23
1062.1774195625869
 33
0.0
 14
988.2775640000001
 24
747.17741956258726
 34
0.0
 50
90.0
1001
ACAD
1000
DSTYLE
1002
{
1070
   287
1070
     4
1070
   287
1070
     4
1070
    40
1040
10.0
1070
    75
1070
     1
1070
   143
1040
0.039
1070
   172
1070
     1
1070
   271
1070
     0
1070
   279
1070
     1
1070
   288
1070
     1
1002
}
  0
DIMENSION
  5
7BCD
  8
3
  6
CONTINUOUS
  2
*D8
 10
1194.549743999999
 20
695.17741956258737
 30
0.0
 11
1234.549743999999
 21
721.17741956258726
 31
0.0
 12
0.0
 22
-116.528108346376
 32
0.0
 70
     0
 13
988.2775640000001
 23
747.17741956258726
 33
0.0
 14
1018.277564
 24
695.17741956258737
 34
0.0
 50
90.0
1001
ACAD
1000
DSTYLE
1002
{
1070
   288
1070
     1
1070
   172
1070
     1
1070
    75
1070
     1
1070
    40
1040
10.0
1070
   271
1070
     0
1070
     7
1000
_DOT
1070
   143
1040
0.039
1002
}
  0
DIMENSION
  5
7BDD
  8
3
  6
CONTINUOUS
  2
*D9
 10
1194.5497439999999
 20
665.17741956258737
 30
0.0
 11
1194.549743999999
 21
590.89170527687327
 31
0.0
 70
   128
 13
1018.277564
 23
695.17741956258737
 33
0.0
 14
1018.277564
 24
665.17741956258737
 34
0.0
 50
90.0
1001
ACAD
1000
DSTYLE
1002
{
1070
   287
1070
     3
1070
   287
1070
     3
1070
    40
1040
10.0
1070
   143
1040
0.039
1070
   172
1070
     1
1070
   271
1070
     0
1070
   279
1070
     0
1070
   288
1070
     1
1070
     6
1000
DOT
1002
}
  0
DIMENSION
  5
7C06
  8
3
  6
CONTINUOUS
  2
*D10
 10
1283.031332
 20
665.17741956258715
 30
0.0
 11
1283.031332
 21
947.46798956258715
 31
0.0
 70
   128
 13
798.27756399999987
 23
1248.1668035625869
 33
0.0
 14
1018.277564
 24
665.17741956258737
 34
0.0
 50
90.0
1001
ACAD
1000
DSTYLE
1002
{
1070
   287
1070
     3
1070
   287
1070
     3
1070
    40
1040
10.0
1070
   143
1040
0.039
1070
   172
1070
     1
1070
   271
1070
     0
1070
   279
1070
     0
1070
   288
1070
     1
1002
}
  0
DIMENSION
  5
7C13
  8
3
  6
CONTINUOUS
  2
*D11
 10
1018.277564
 20
1560.5501110412449
 30
0.0
 11
629.69785100000001
 21
1560.5501110412449
 31
0.0
 70
   128
 13
248.2775639999999
 23
1683.018653041245
 33
0.0
 14
1018.277564
 24
1683.018653041245
 34
0.0
1001
ACAD
1000
DSTYLE
1002
{
1070
   287
1070
     3
1070
   287
1070
     3
1070
    40
1040
10.0
1070
   143
1040
0.039
1070
   172
1070
     1
1070
   271
1070
     0
1070
   279
1070
     0
1070
   288
1070
     1
1002
}
  0
DIMENSION
  5
7C20
  8
3
  6
CONTINUOUS
  2
*D12
 10
1123.2576469999999
 20
1683.018653041245
 30
0.0
 11
1123.2576469999999
 21
1914.5180940412461
 31
0.0
 70
   128
 13
1018.277564
 23
2163.0186530412452
 33
0.0
 14
1018.277564
 24
1683.018653041245
 34
0.0
 50
90.0
1001
ACAD
1000
DSTYLE
1002
{
1070
   287
1070
     3
1070
   287
1070
     3
1070
    40
1040
10.0
1070
   143
1040
0.039
1070
   172
1070
     1
1070
   271
1070
     0
1070
   279
1070
     0
1070
   288
1070
     1
1002
}
  0
LINE
  5
7C21
  8
2
  6
CENTER
 10
554.47357999999986
 20
2021.018653041245
 30
0.0
 11
1042.263224
 21
2021.018653041245
 31
0.0
  0
LINE
  5
7C22
  8
2
  6
CENTER
 10
798.27756399999987
 20
1654.0987920412449
 30
0.0
 11
798.27756399999987
 21
2150.6214020412449
 31
0.0
  0
LINE
  5
7C23
  8
2
  6
CENTER
 10
1676.7409250000001
 20
1316.380305562587
 30
0.0
 11
1676.7409250000001
 21
660.2236027507887
 31
0.0
  0
DIMENSION
  5
7C30
  8
3
  6
CONTINUOUS
  2
*D13
 10
1676.7409250000001
 20
586.17298956258742
 30
0.0
 11
1519.116405
 21
586.17298956258742
 31
0.0
 70
   128
 13
1338.7409250000001
 23
665.17741956258737
 33
0.0
 14
1676.7409250000001
 24
665.17741956258737
 34
0.0
1001
ACAD
1000
DSTYLE
1002
{
1070
   287
1070
     3
1070
   287
1070
     3
1070
    40
1040
10.0
1070
   143
1040
0.039
1070
   172
1070
     1
1070
   271
1070
     0
1070
   279
1070
     0
1070
   288
1070
     1
1002
}
  0
DIMENSION
  5
7C3C
  8
3
  6
CONTINUOUS
  2
*D14
 10
1818.7409250000001
 20
586.17298956258742
 30
0.0
 11
1747.7409250000001
 21
611.17298956258742
 31
0.0
 70
     0
 13
1676.7409250000001
 23
665.17741956258737
 33
0.0
 14
1818.7409250000001
 24
665.17741956258737
 34
0.0
1001
ACAD
1000
DSTYLE
1002
{
1070
   287
1070
     4
1070
   287
1070
     4
1070
    40
1040
10.0
1070
    75
1070
     1
1070
   143
1040
0.039
1070
   172
1070
     1
1070
   271
1070
     0
1070
   279
1070
     1
1070
   288
1070
     1
1002
}
  0
DIMENSION
  5
7C49
  8
3
  6
CONTINUOUS
  2
*D15
 10
1766.7409250000001
 20
1311.807351562587
 30
0.0
 11
1670.9809560000001
 21
1311.807351562587
 31
0.0
 70
   128
 13
1586.7409250000001
 23
1261.077419562587
 33
0.0
 14
1766.7409250000001
 24
1261.077419562587
 34
0.0
1001
ACAD
1000
DSTYLE
1002
{
1070
   287
1070
     3
1070
   287
1070
     3
1070
    40
1040
10.0
1070
   143
1040
0.039
1070
   172
1070
     1
1070
   271
1070
     0
1070
   279
1070
     0
1070
   288
1070
     1
1002
}
  0
DIMENSION
  5
7C56
  8
3
  6
CONTINUOUS
  2
*D16
 10
1676.7409250000001
 20
1379.8938597611379
 30
0.0
 11
1503.92995
 21
1379.8938597611379
 31
0.0
 70
   128
  1
MAX\P340
 13
1336.7409250000001
 23
1187.1774195625869
 33
0.0
 14
1676.7409250000001
 24
1355.7347685625871
 34
0.0
1001
ACAD
1000
DSTYLE
1002
{
1070
   287
1070
     3
1070
   287
1070
     3
1070
    40
1040
10.0
1070
   143
1040
0.039
1070
   172
1070
     1
1070
   271
1070
     0
1070
   279
1070
     0
1070
   288
1070
     1
1002
}
  0
DIMENSION
  5
7C64
  8
3
  6
CONTINUOUS
  2
*D17
 10
1775.7409250000001
 20
1379.8938597611379
 30
0.0
 11
1724.1335549999999
 21
1377.3655157611381
 31
0.0
 70
   128
 13
1676.7409250000001
 23
1355.7347685625871
 33
0.0
 14
1775.7409250000001
 24
1209.1774195625869
 34
0.0
1001
ACAD
1000
DSTYLE
1002
{
1070
   287
1070
     4
1070
   287
1070
     4
1070
    40
1040
10.0
1070
    75
1070
     1
1070
   143
1040
0.039
1070
   172
1070
     1
1070
   271
1070
     0
1070
   279
1070
     1
1070
   288
1070
     1
1002
}
  0
LINE
  5
7C7C
  8
3
  6
CONTINUOUS
 10
1775.7409250000001
 20
1187.1774195625869
 30
0.0
 11
1793.245449999999
 21
1187.1774195625869
 31
0.0
  0
LINE
  5
7C7E
  8
3
  6
CONTINUOUS
 10
1775.7409250000001
 20
937.17741956258715
 30
0.0
 11
1791.3648519999999
 21
937.17741956258715
 31
0.0
  0
DIMENSION
  5
7C8C
  8
3
  6
CONTINUOUS
  2
*D18
 10
1834.4617499999999
 20
937.17741956258715
 30
0.0
 11
1834.4617499999999
 21
1048.132729562587
 31
0.0
 70
   128
 13
1775.7409250000001
 23
1187.1774195625869
 33
0.0
 14
1775.7409250000001
 24
937.17741956258715
 34
0.0
 50
90.0
1001
ACAD
1000
DSTYLE
1002
{
1070
   287
1070
     3
1070
   287
1070
     3
1070
     3
1000
φ<>
1070
    40
1040
10.0
1070
   143
1040
0.039
1070
   172
1070
     1
1070
   271
1070
     0
1070
   279
1070
     0
1070
   288
1070
     1
1002
}
  0
LINE
  5
7C8D
  8
2
  6
CENTER
 10
1034.895188
 20
1062.1774195625869
 30
0.0
 11
476.60780399999999
 21
1062.1774195625869
 31
0.0
  0
DIMENSION
  5
7D12
  8
3
  6
CONTINUOUS
  2
*D19
 10
1143.197895
 20
802.17741956258726
 30
0.0
 11
1143.1978949999991
 21
931.47818756258744
 31
0.0
 70
   128
 13
998.2775640000001
 23
1062.1774195625869
 33
0.0
 14
978.27756399999998
 24
802.17741956258726
 34
0.0
 50
90.0
1001
ACAD
1000
DSTYLE
1002
{
1070
   287
1070
     3
1070
   287
1070
     3
1070
    40
1040
10.0
1070
   143
1040
0.039
1070
   172
1070
     1
1070
   271
1070
     0
1070
   279
1070
     0
1070
   288
1070
     1
1002
}
  0
DIMENSION
  5
7E1E
  8
3
  2
*D21
 10
248.27756400000001
 20
1358.7401946843229
 30
0.0
 11
618.5175747624271
 21
1358.7401946843229
 31
0.0
 70
   128
 13
998.2775640000001
 23
1083.1774195625869
 33
0.0
 14
248.2775639999999
 24
725.17741956258726
 34
0.0
1001
ACAD
1000
DSTYLE
1002
{
1070
   287
1070
     3
1070
   287
1070
     3
1070
    40
1040
10.0
1070
   143
1040
0.039
1070
   172
1070
     1
1070
   271
1070
     0
1070
   279
1070
     0
1070
   288
1070
     1
1002
}
  0
ENDSEC
  0
EOF
