  0
SECTION
  2
HEADER
  9
$ACADVER
  1
AC1009
  9
$INSBASE
 10
0.0
 20
0.0
 30
0.0
  9
$EXTMIN
 10
217.07475999999991
 20
300.0
 30
0.0
  9
$EXTMAX
 10
1850.0
 20
2786.6522620000001
 30
0.0
  9
$LIMMIN
 10
0.0
 20
0.0
  9
$LIMMAX
 10
297.0
 20
210.0
  9
$ORTHOMODE
 70
     0
  9
$REGENMODE
 70
     1
  9
$FILLMODE
 70
     0
  9
$QTEXTMODE
 70
     0
  9
$MIRRTEXT
 70
     1
  9
$DRAGMODE
 70
     2
  9
$LTSCALE
 40
100.0
  9
$OSMODE
 70
    37
  9
$ATTMODE
 70
     1
  9
$TEXTSIZE
 40
180.0
  9
$TRACEWID
 40
0.05
  9
$TEXTSTYLE
  7
STANDARD
  9
$CLAYER
  8
3
  9
$CELTYPE
  6
BYLAYER
  9
$CECOLOR
 62
   256
  9
$DIMSCALE
 40
10.0
  9
$DIMASZ
 40
2.0
  9
$DIMEXO
 40
0.5
  9
$DIMDLI
 40
10.0
  9
$DIMRND
 40
0.0
  9
$DIMDLE
 40
0.0
  9
$DIMEXE
 40
1.0
  9
$DIMTP
 40
1.0
  9
$DIMTM
 40
1.0
  9
$DIMTXT
 40
3.0
  9
$DIMCEN
 40
0.0
  9
$DIMTSZ
 40
0.0
  9
$DIMTOL
 70
     0
  9
$DIMLIM
 70
     0
  9
$DIMTIH
 70
     0
  9
$DIMTOH
 70
     0
  9
$DIMSE1
 70
     0
  9
$DIMSE2
 70
     0
  9
$DIMTAD
 70
     1
  9
$DIMZIN
 70
     8
  9
$DIMBLK
  1

  9
$DIMASO
 70
     1
  9
$DIMSHO
 70
     1
  9
$DIMPOST
  1

  9
$DIMAPOST
  1

  9
$DIMALT
 70
     0
  9
$DIMALTD
 70
     2
  9
$DIMALTF
 40
0.039
  9
$DIMLFAC
 40
1.0
  9
$DIMTOFL
 70
     1
  9
$DIMTVP
 40
0.0
  9
$DIMTIX
 70
     0
  9
$DIMSOXD
 70
     0
  9
$DIMSAH
 70
     1
  9
$DIMBLK1
  1
OPEN
  9
$DIMBLK2
  1
OPEN
  9
$DIMSTYLE
  2
IGA
  9
$DIMCLRD
 70
     0
  9
$DIMCLRE
 70
     0
  9
$DIMCLRT
 70
     0
  9
$DIMTFAC
 40
10.0
  9
$DIMGAP
 40
1.0
  9
$LUNITS
 70
     2
  9
$LUPREC
 70
     3
  9
$SKETCHINC
 40
0.1
  9
$FILLETRAD
 40
50.0
  9
$AUNITS
 70
     0
  9
$AUPREC
 70
     0
  9
$MENU
  1
acad
  9
$ELEVATION
 40
0.0
  9
$PELEVATION
 40
0.0
  9
$THICKNESS
 40
0.0
  9
$LIMCHECK
 70
     0
  9
$BLIPMODE
 70
     0
  9
$CHAMFERA
 40
0.5
  9
$CHAMFERB
 40
0.5
  9
$SKPOLY
 70
     0
  9
$TDCREATE
 40
2450744.4487329861
  9
$TDUPDATE
 40
2454953.8629669561
  9
$TDINDWG
 40
0.0066527546
  9
$TDUSRTIMER
 40
0.0066527546
  9
$USRTIMER
 70
     1
  9
$ANGBASE
 50
0.0
  9
$ANGDIR
 70
     0
  9
$PDMODE
 70
     0
  9
$PDSIZE
 40
0.0
  9
$PLINEWID
 40
0.0
  9
$COORDS
 70
     1
  9
$SPLFRAME
 70
     0
  9
$SPLINETYPE
 70
     6
  9
$SPLINESEGS
 70
     8
  9
$ATTDIA
 70
     0
  9
$ATTREQ
 70
     1
  9
$HANDLING
 70
 10241
  9
$HANDSEED
  5
7F2C
  9
$SURFTAB1
 70
     6
  9
$SURFTAB2
 70
     6
  9
$SURFTYPE
 70
     6
  9
$SURFU
 70
     6
  9
$SURFV
 70
     6
  9
$UCSNAME
  2

  9
$UCSORG
 10
0.0
 20
0.0
 30
0.0
  9
$UCSXDIR
 10
1.0
 20
0.0
 30
0.0
  9
$UCSYDIR
 10
0.0
 20
1.0
 30
0.0
  9
$PUCSNAME
  2

  9
$PUCSORG
 10
0.0
 20
0.0
 30
0.0
  9
$PUCSXDIR
 10
1.0
 20
0.0
 30
0.0
  9
$PUCSYDIR
 10
0.0
 20
1.0
 30
0.0
  9
$USERI1
 70
     0
  9
$USERI2
 70
     0
  9
$USERI3
 70
     0
  9
$USERI4
 70
     0
  9
$USERI5
 70
     0
  9
$USERR1
 40
0.0
  9
$USERR2
 40
0.0
  9
$USERR3
 40
0.0
  9
$USERR4
 40
0.0
  9
$USERR5
 40
0.0
  9
$WORLDVIEW
 70
     1
  9
$SHADEDGE
 70
     3
  9
$SHADEDIF
 70
    70
  9
$TILEMODE
 70
     1
  9
$MAXACTVP
 70
    16
  9
$PLIMCHECK
 70
     0
  9
$PEXTMIN
 10
1.0000000000000000E+020
 20
1.0000000000000000E+020
 30
1.0000000000000000E+020
  9
$PEXTMAX
 10
-1.0000000000000000E+020
 20
-1.0000000000000000E+020
 30
-1.0000000000000000E+020
  9
$PLIMMIN
 10
0.0
 20
0.0
  9
$PLIMMAX
 10
12.0
 20
9.0
  9
$UNITMODE
 70
     0
  9
$VISRETAIN
 70
     0
  9
$PLINEGEN
 70
     0
  9
$PSLTSCALE
 70
     1
  0
ENDSEC
  0
SECTION
  2
TABLES
  0
TABLE
  2
VPORT
 70
     2
  0
VPORT
  2
*ACTIVE
 70
     0
 10
0.0
 20
0.0
 11
1.0
 21
1.0
 12
2887.4613048516621
 22
1927.6344024116211
 13
0.0
 23
0.0
 14
10.0
 24
10.0
 15
10.0
 25
10.0
 16
0.0
 26
0.0
 36
1.0
 17
0.0
 27
0.0
 37
0.0
 40
3860.4308835425832
 41
1.5051150895140659
 42
50.0
 43
0.0
 44
0.0
 50
0.0
 51
0.0
 71
     0
 72
   100
 73
     1
 74
     0
 75
     0
 76
     0
 77
     0
 78
     0
  0
ENDTAB
  0
TABLE
  2
LTYPE
 70
     2
  0
LTYPE
  2
CONTINUOUS
 70
     0
  3
Solid line
 72
    65
 73
     0
 40
0.0
  0
LTYPE
  2
CENTER
 70
     0
  3
____ _ ____ _ ____ _ ____ _ ____ _ ____ _ ____ 
 72
    65
 73
     4
 40
2.0
 49
1.25
 49
-0.25
 49
0.25
 49
-0.25
  0
ENDTAB
  0
TABLE
  2
LAYER
 70
     6
  0
LAYER
  2
0
 70
     0
 62
     7
  6
CONTINUOUS
  0
LAYER
  2
3
 70
     0
 62
     2
  6
CONTINUOUS
  0
LAYER
  2
2
 70
     0
 62
     3
  6
CENTER
  0
LAYER
  2
1
 70
     0
 62
     4
  6
CONTINUOUS
  0
LAYER
  2
4
 70
     0
 62
     7
  6
CONTINUOUS
  0
LAYER
  2
DEFPOINTS
 70
     0
 62
     7
  6
CONTINUOUS
  0
ENDTAB
  0
TABLE
  2
STYLE
 70
     1
  0
STYLE
  2
STANDARD
 70
     0
 40
0.0
 41
1.0
 50
0.0
 71
     0
 42
180.0
  3
simplex.shx
  4
extfont.shx
  0
ENDTAB
  0
TABLE
  2
VIEW
 70
     0
  0
ENDTAB
  0
TABLE
  2
UCS
 70
     0
  0
ENDTAB
  0
TABLE
  2
APPID
 70
     1
  0
APPID
  2
ACAD
 70
     0
  0
ENDTAB
  0
TABLE
  2
DIMSTYLE
 70
     1
  0
DIMSTYLE
  2
IGA
 70
     0
  3

  4

  5

  6
OPEN
  7
OPEN
 40
2.0
 41
2.0
 42
0.5
 43
10.0
 44
1.0
 45
0.0
 46
0.0
 47
1.0
 48
1.0
140
3.0
141
0.0
142
0.0
143
0.03937
144
1.0
145
0.0
146
10.0
147
1.0
 71
     0
 72
     0
 73
     0
 74
     0
 75
     0
 76
     0
 77
     1
 78
     8
170
     0
171
     2
172
     0
173
     1
174
     0
175
     0
176
     0
177
     0
178
     0
  0
ENDTAB
  0
ENDSEC
  0
SECTION
  2
BLOCKS
  0
BLOCK
  8
0
  2
$MODEL_SPACE
 70
     0
 10
0.0
 20
0.0
 30
0.0
  3
$MODEL_SPACE
  1

  0
ENDBLK
  5
1B
  8
0
  0
BLOCK
 67
     1
  8
0
  2
$PAPER_SPACE
 70
     0
 10
0.0
 20
0.0
 30
0.0
  3
$PAPER_SPACE
  1

  0
ENDBLK
  5
18
 67
     1
  8
0
  0
BLOCK
  8
0
  2
_OPEN
 70
     0
 10
0.0
 20
0.0
 30
0.0
  3
_OPEN
  1

  0
LINE
  5
7B51
  8
0
  6
BYBLOCK
 62
     0
 10
-1.0
 20
0.166667
 30
0.0
 11
0.0
 21
0.0
 31
0.0
  0
LINE
  5
7B52
  8
0
  6
BYBLOCK
 62
     0
 10
0.0
 20
0.0
 30
0.0
 11
-1.0
 21
-0.166667
 31
0.0
  0
LINE
  5
7B53
  8
0
  6
BYBLOCK
 62
     0
 10
0.0
 20
0.0
 30
0.0
 11
-1.0
 21
0.0
 31
0.0
  0
ENDBLK
  5
7B54
  8
0
  0
BLOCK
  8
0
  2
*D1
 70
     1
 10
0.0
 20
0.0
 30
0.0
  3
*D1
  1

  0
LINE
  5
7E77
  8
3
  6
CONTINUOUS
 62
     0
 10
265.12683630551408
 20
677.73703776295838
 30
0.0
 11
265.12683630551408
 21
611.02051476295844
 31
0.0
  0
LINE
  5
7E78
  8
3
  6
CONTINUOUS
 62
     0
 10
485.12683630551408
 20
695.90640976295845
 30
0.0
 11
485.12683630551408
 21
611.02051476295844
 31
0.0
  0
LINE
  5
7E79
  8
3
  6
CONTINUOUS
 62
     0
 10
285.12683630551419
 20
621.02051476295844
 30
0.0
 11
465.12683630551419
 21
621.02051476295844
 31
0.0
  0
INSERT
  5
7E7A
  8
3
  6
CONTINUOUS
 62
     0
  2
_OPEN
 10
265.12683630551408
 20
621.02051476295844
 30
0.0
 41
20.0
 42
20.0
 43
20.0
 50
180.0
  0
INSERT
  5
7E7B
  8
3
  6
CONTINUOUS
 62
     0
  2
_OPEN
 10
485.12683630551408
 20
621.02051476295844
 30
0.0
 41
20.0
 42
20.0
 43
20.0
  0
TEXT
  8
3
  40
30
  5
7F19
  62
0
  72
0
  71
0
 10
327.606
 20
592.921
 30
0.000000
  1
220
  0
POINT
  5
7E7D
  8
DEFPOINTS
  6
CONTINUOUS
 62
     0
 10
265.12683630551408
 20
682.73703776295838
 30
0.0
  0
POINT
  5
7E7E
  8
DEFPOINTS
  6
CONTINUOUS
 62
     0
 10
485.12683630551408
 20
700.90640976295845
 30
0.0
  0
POINT
  5
7E7F
  8
DEFPOINTS
  6
CONTINUOUS
 62
     0
 10
485.12683630551408
 20
621.02051476295844
 30
0.0
  0
ENDBLK
  5
7B61
  8
0
  0
BLOCK
  8
0
  2
*D2
 70
     1
 10
0.0
 20
0.0
 30
0.0
  3
*D2
  1

  0
LINE
  5
7E80
  8
3
  6
CONTINUOUS
 62
     0
 10
1035.126836305514
 20
677.73703776295838
 30
0.0
 11
1035.126836305514
 21
611.02051476295844
 31
0.0
  0
LINE
  5
7E81
  8
3
  6
CONTINUOUS
 62
     0
 10
505.12683630551408
 20
621.02051476295844
 30
0.0
 11
1015.126836305514
 21
621.02051476295844
 31
0.0
  0
INSERT
  5
7E82
  8
3
  6
CONTINUOUS
 62
     0
  2
_OPEN
 10
485.12683630551408
 20
621.02051476295844
 30
0.0
 41
20.0
 42
20.0
 43
20.0
 50
180.0
  0
INSERT
  5
7E83
  8
3
  6
CONTINUOUS
 62
     0
  2
_OPEN
 10
1035.126836305514
 20
621.02051476295844
 30
0.0
 41
20.0
 42
20.0
 43
20.0
  0
TEXT
  8
3
  40
30
  5
7F1A
  62
0
  72
0
  71
0
 10
700.127
 20
592.921
 30
0.000000
  1
550
  0
POINT
  5
7E85
  8
DEFPOINTS
  6
CONTINUOUS
 62
     0
 10
485.12683630551408
 20
700.90640976295845
 30
0.0
  0
POINT
  5
7E86
  8
DEFPOINTS
  6
CONTINUOUS
 62
     0
 10
1035.126836305514
 20
682.73703776295838
 30
0.0
  0
POINT
  5
7E87
  8
DEFPOINTS
  6
CONTINUOUS
 62
     0
 10
1035.126836305514
 20
621.02051476295844
 30
0.0
  0
ENDBLK
  5
7B6D
  8
0
  0
BLOCK
  8
0
  2
*D3
 70
     1
 10
0.0
 20
0.0
 30
0.0
  3
*D3
  1

  0
LINE
  5
7E88
  8
3
  6
CONTINUOUS
 62
     0
 10
761.12683630551419
 20
1279.7370377629579
 30
0.0
 11
1120.327109633201
 21
1279.7370377629579
 31
0.0
  0
LINE
  5
7E89
  8
3
  6
CONTINUOUS
 62
     0
 10
750.12683630551408
 20
1079.7370377629579
 30
0.0
 11
1120.327109633201
 21
1079.7370377629579
 31
0.0
  0
LINE
  5
7E8A
  8
3
  6
CONTINUOUS
 62
     0
 10
1110.327109633201
 20
1259.7370377629579
 30
0.0
 11
1110.327109633201
 21
1099.7370377629579
 31
0.0
  0
INSERT
  5
7E8B
  8
3
  6
CONTINUOUS
 62
     0
  2
_OPEN
 10
1110.327109633201
 20
1279.7370377629579
 30
0.0
 41
20.0
 42
20.0
 43
20.0
 50
90.0
  0
INSERT
  5
7E8C
  8
3
  6
CONTINUOUS
 62
     0
  2
_OPEN
 10
1110.327109633201
 20
1079.7370377629579
 30
0.0
 41
20.0
 42
20.0
 43
20.0
 50
270.0
  0
TEXT
  8
3
  40
30
  5
7F1B
  62
0
  72
0
  71
0
 10
1025.33
 20
1131.60
 30
0.000000
  1
200
  0
POINT
  5
7E8E
  8
DEFPOINTS
  6
CONTINUOUS
 62
     0
 10
756.12683630551408
 20
1279.7370377629579
 30
0.0
  0
POINT
  5
7E8F
  8
DEFPOINTS
  6
CONTINUOUS
 62
     0
 10
745.12683630551419
 20
1079.7370377629579
 30
0.0
  0
POINT
  5
7E90
  8
DEFPOINTS
  6
CONTINUOUS
 62
     0
 10
1110.327109633201
 20
1079.7370377629579
 30
0.0
  0
ENDBLK
  5
7D5E
  8
0
  0
BLOCK
  8
0
  2
*D4
 70
     1
 10
0.0
 20
0.0
 30
0.0
  3
*D4
  1

  0
LINE
  5
7E91
  8
3
  6
CONTINUOUS
 62
     0
 10
1010.126836305514
 20
764.73703776295838
 30
0.0
 11
1120.327109633201
 21
764.73703776295838
 31
0.0
  0
LINE
  5
7E92
  8
3
  6
CONTINUOUS
 62
     0
 10
1110.327109633201
 20
1059.7370377629579
 30
0.0
 11
1110.327109633201
 21
784.73703776295849
 31
0.0
  0
INSERT
  5
7E93
  8
3
  6
CONTINUOUS
 62
     0
  2
_OPEN
 10
1110.327109633201
 20
1079.7370377629579
 30
0.0
 41
20.0
 42
20.0
 43
20.0
 50
90.0
  0
INSERT
  5
7E94
  8
3
  6
CONTINUOUS
 62
     0
  2
_OPEN
 10
1110.327109633201
 20
764.73703776295838
 30
0.0
 41
20.0
 42
20.0
 43
20.0
 50
270.0
  0
TEXT
  8
3
  40
30
  5
7F1C
  62
0
  72
0
  71
0
 10
1025.33
 20
869.137
 30
0.000000
  1
315
  0
POINT
  5
7E96
  8
DEFPOINTS
  6
CONTINUOUS
 62
     0
 10
745.12683630551419
 20
1079.7370377629579
 30
0.0
  0
POINT
  5
7E97
  8
DEFPOINTS
  6
CONTINUOUS
 62
     0
 10
1005.126836305514
 20
764.73703776295838
 30
0.0
  0
POINT
  5
7E98
  8
DEFPOINTS
  6
CONTINUOUS
 62
     0
 10
1110.327109633201
 20
764.73703776295838
 30
0.0
  0
ENDBLK
  5
7D68
  8
0
  0
BLOCK
  8
0
  2
*D5
 70
     1
 10
0.0
 20
0.0
 30
0.0
  3
*D5
  1

  0
LINE
  5
7D76
  8
0
  6
BYBLOCK
 62
     0
 10
1040.126836305514
 20
712.73703776295849
 30
0.0
 11
1120.327109633201
 21
712.73703776295849
 31
0.0
  0
LINE
  5
7D77
  8
0
  6
BYBLOCK
 62
     0
 10
1110.327109633201
 20
784.73703776295849
 30
0.0
 11
1110.327109633201
 21
804.73703776295849
 31
0.0
  0
LINE
  5
7D78
  8
0
  6
BYBLOCK
 62
     0
 10
1110.327109633201
 20
692.73703776295849
 30
0.0
 11
1110.327109633201
 21
672.73703776295849
 31
0.0
  0
TEXT
  5
7D79
  8
3
 62
     0
 10
1157.284517146335
 20
716.23596118979128
 30
0.0
 40
30.0
  1
52
 50
90.0
  0
LINE
  5
7D7A
  8
0
  6
BYBLOCK
 62
     0
 10
1110.327109633201
 20
764.73703776295838
 30
0.0
 11
1110.327109633201
 21
712.73703776295849
 31
0.0
  0
INSERT
  5
7D7B
  8
0
  6
BYBLOCK
 62
     0
  2
_OPEN
 10
1110.327109633201
 20
764.73703776295838
 30
0.0
 41
20.0
 42
20.0
 43
20.0
 50
270.0
  0
INSERT
  5
7D7C
  8
0
  6
BYBLOCK
 62
     0
  2
_DOT
 10
1110.327109633201
 20
712.73703776295849
 30
0.0
 41
20.0
 42
20.0
 43
20.0
 50
90.0
  0
POINT
  5
7D7D
  8
DEFPOINTS
  6
BYBLOCK
 62
     0
 10
1005.126836305514
 20
764.73703776295838
 30
0.0
  0
POINT
  5
7D7E
  8
DEFPOINTS
  6
BYBLOCK
 62
     0
 10
1035.126836305514
 20
712.73703776295849
 30
0.0
  0
POINT
  5
7D7F
  8
DEFPOINTS
  6
BYBLOCK
 62
     0
 10
1110.327109633201
 20
712.73703776295849
 30
0.0
  0
ENDBLK
  5
7D80
  8
0
  0
BLOCK
  8
0
  2
*D6
 70
     1
 10
0.0
 20
0.0
 30
0.0
  3
*D6
  1

  0
LINE
  5
7E99
  8
3
  6
CONTINUOUS
 62
     0
 10
1112.3769843276859
 20
712.73703776295849
 30
0.0
 11
1120.327109633201
 21
712.73703776295849
 31
0.0
  0
LINE
  5
7E9A
  8
3
  6
CONTINUOUS
 62
     0
 10
1112.3769843276859
 20
682.73703776295838
 30
0.0
 11
1120.327109633201
 21
682.73703776295838
 31
0.0
  0
LINE
  5
7E9B
  8
3
  6
CONTINUOUS
 62
     0
 10
1110.327109633201
 20
732.73703776295838
 30
0.0
 11
1110.327109633201
 21
752.73703776295838
 31
0.0
  0
LINE
  5
7E9C
  8
3
  6
CONTINUOUS
 62
     0
 10
1110.327109633201
 20
662.73703776295849
 30
0.0
 11
1110.327109633201
 21
574.16560919152994
 31
0.0
  0
LINE
  5
7E9D
  8
3
  6
CONTINUOUS
 62
     0
 10
1110.327109633201
 20
712.73703776295849
 30
0.0
 11
1110.327109633201
 21
682.73703776295838
 31
0.0
  0
INSERT
  5
7E9E
  8
3
  6
CONTINUOUS
 62
     0
  2
_DOT
 10
1110.327109633201
 20
712.73703776295849
 30
0.0
 41
20.0
 42
20.0
 43
20.0
 50
270.0
  0
INSERT
  5
7E9F
  8
3
  6
CONTINUOUS
 62
     0
  2
_OPEN
 10
1110.327109633201
 20
682.73703776295838
 30
0.0
 41
20.0
 42
20.0
 43
20.0
 50
90.0
  0
TEXT
  8
3
  40
30
  5
7F1D
  62
0
  72
0
  71
0
 10
1025.33
 20
555.351
 30
0.000000
  1
30
  0
POINT
  5
7EA1
  8
DEFPOINTS
  6
CONTINUOUS
 62
     0
 10
1107.3769843276871
 20
712.73703776295849
 30
0.0
  0
POINT
  5
7EA2
  8
DEFPOINTS
  6
CONTINUOUS
 62
     0
 10
1107.3769843276871
 20
682.73703776295838
 30
0.0
  0
POINT
  5
7EA3
  8
DEFPOINTS
  6
CONTINUOUS
 62
     0
 10
1110.327109633201
 20
682.73703776295838
 30
0.0
  0
ENDBLK
  5
7D41
  8
0
  0
BLOCK
  8
0
  2
*D7
 70
     1
 10
0.0
 20
0.0
 30
0.0
  3
*D7
  1

  0
LINE
  5
7EA4
  8
3
  6
CONTINUOUS
 62
     0
 10
766.12683630551419
 20
1279.7370377629579
 30
0.0
 11
1183.844089305514
 21
1279.7370377629579
 31
0.0
  0
LINE
  5
7EA5
  8
3
  6
CONTINUOUS
 62
     0
 10
1040.126836305514
 20
682.73703776295838
 30
0.0
 11
1183.844089305514
 21
682.73703776295838
 31
0.0
  0
LINE
  5
7EA6
  8
3
  6
CONTINUOUS
 62
     0
 10
1173.844089305514
 20
1259.7370377629579
 30
0.0
 11
1173.844089305514
 21
702.73703776295838
 31
0.0
  0
INSERT
  5
7EA7
  8
3
  6
CONTINUOUS
 62
     0
  2
_OPEN
 10
1173.844089305514
 20
1279.7370377629579
 30
0.0
 41
20.0
 42
20.0
 43
20.0
 50
90.0
  0
INSERT
  5
7EA8
  8
3
  6
CONTINUOUS
 62
     0
  2
_OPEN
 10
1173.844089305514
 20
682.73703776295838
 30
0.0
 41
20.0
 42
20.0
 43
20.0
 50
270.0
  0
TEXT
  8
3
  40
30
  5
7F1E
  62
0
  72
0
  71
0
 10
1088.84
 20
943.377
 30
0.000000
  1
597
  0
POINT
  5
7EAA
  8
DEFPOINTS
  6
CONTINUOUS
 62
     0
 10
761.12683630551419
 20
1279.7370377629579
 30
0.0
  0
POINT
  5
7EAB
  8
DEFPOINTS
  6
CONTINUOUS
 62
     0
 10
1035.126836305514
 20
682.73703776295838
 30
0.0
  0
POINT
  5
7EAC
  8
DEFPOINTS
  6
CONTINUOUS
 62
     0
 10
1173.844089305514
 20
682.73703776295838
 30
0.0
  0
ENDBLK
  5
7BEB
  8
0
  0
BLOCK
  8
0
  2
*D8
 70
     1
 10
0.0
 20
0.0
 30
0.0
  3
*D8
  1

  0
LINE
  5
7EAD
  8
3
  6
CONTINUOUS
 62
     0
 10
485.12683630551408
 20
1284.7370377629579
 30
0.0
 11
485.12683630551408
 21
1330.032053762958
 31
0.0
  0
LINE
  5
7EAE
  8
3
  6
CONTINUOUS
 62
     0
 10
735.12683630551408
 20
1284.7370377629579
 30
0.0
 11
735.12683630551408
 21
1330.032053762958
 31
0.0
  0
LINE
  5
7EAF
  8
3
  6
CONTINUOUS
 62
     0
 10
505.12683630551408
 20
1320.032053762958
 30
0.0
 11
715.12683630551419
 21
1320.032053762958
 31
0.0
  0
INSERT
  5
7EB0
  8
3
  6
CONTINUOUS
 62
     0
  2
_OPEN
 10
485.12683630551408
 20
1320.032053762958
 30
0.0
 41
20.0
 42
20.0
 43
20.0
 50
180.0
  0
INSERT
  5
7EB1
  8
3
  6
CONTINUOUS
 62
     0
  2
_OPEN
 10
735.12683630551408
 20
1320.032053762958
 30
0.0
 41
20.0
 42
20.0
 43
20.0
  0
TEXT
  8
3
  40
30
  5
7F1F
  62
0
  72
0
  71
0
 10
555.047
 20
1291.93
 30
0.000000
  1
250
  0
POINT
  5
7EB3
  8
DEFPOINTS
  6
CONTINUOUS
 62
     0
 10
485.12683630551408
 20
1279.7370377629579
 30
0.0
  0
POINT
  5
7EB4
  8
DEFPOINTS
  6
CONTINUOUS
 62
     0
 10
735.12683630551408
 20
1279.7370377629579
 30
0.0
  0
POINT
  5
7EB5
  8
DEFPOINTS
  6
CONTINUOUS
 62
     0
 10
735.12683630551408
 20
1320.032053762958
 30
0.0
  0
ENDBLK
  5
7BF8
  8
0
  0
BLOCK
  8
0
  2
*D9
 70
     1
 10
0.0
 20
0.0
 30
0.0
  3
*D9
  1

  0
LINE
  5
7EB6
  8
3
  6
CONTINUOUS
 62
     0
 10
299.13745230551422
 20
1084.7370377629579
 30
0.0
 11
299.13745230551422
 21
1398.5821887629579
 31
0.0
  0
LINE
  5
7EB7
  8
3
  6
CONTINUOUS
 62
     0
 10
485.12683630551408
 20
1284.7370377629579
 30
0.0
 11
485.12683630551408
 21
1398.5821887629579
 31
0.0
  0
LINE
  5
7EB8
  8
3
  6
CONTINUOUS
 62
     0
 10
319.13745230551422
 20
1388.5821887629579
 30
0.0
 11
465.12683630551419
 21
1388.5821887629579
 31
0.0
  0
INSERT
  5
7EB9
  8
3
  6
CONTINUOUS
 62
     0
  2
_OPEN
 10
299.13745230551422
 20
1388.5821887629579
 30
0.0
 41
20.0
 42
20.0
 43
20.0
 50
180.0
  0
INSERT
  5
7EBA
  8
3
  6
CONTINUOUS
 62
     0
  2
_OPEN
 10
485.12683630551408
 20
1388.5821887629579
 30
0.0
 41
20.0
 42
20.0
 43
20.0
  0
TEXT
  8
3
  40
30
  5
7F20
  62
0
  72
0
  71
0
 10
319.764
 20
1360.48
 30
0.000000
  1
186
  0
POINT
  5
7EBC
  8
DEFPOINTS
  6
CONTINUOUS
 62
     0
 10
299.13745230551422
 20
1079.7370377629579
 30
0.0
  0
POINT
  5
7EBD
  8
DEFPOINTS
  6
CONTINUOUS
 62
     0
 10
485.12683630551408
 20
1279.7370377629579
 30
0.0
  0
POINT
  5
7EBE
  8
DEFPOINTS
  6
CONTINUOUS
 62
     0
 10
485.12683630551408
 20
1388.5821887629579
 30
0.0
  0
ENDBLK
  5
7C05
  8
0
  0
BLOCK
  8
0
  2
*D10
 70
     1
 10
0.0
 20
0.0
 30
0.0
  3
*D10
  1

  0
LINE
  5
7EBF
  8
3
  6
CONTINUOUS
 62
     0
 10
745.12683630551419
 20
1264.7370377629579
 30
0.0
 11
745.12683630551419
 21
1398.5821887629579
 31
0.0
  0
LINE
  5
7EC0
  8
3
  6
CONTINUOUS
 62
     0
 10
505.12683630551408
 20
1388.5821887629579
 30
0.0
 11
725.12683630551408
 21
1388.5821887629579
 31
0.0
  0
INSERT
  5
7EC1
  8
3
  6
CONTINUOUS
 62
     0
  2
_OPEN
 10
485.12683630551408
 20
1388.5821887629579
 30
0.0
 41
20.0
 42
20.0
 43
20.0
 50
180.0
  0
INSERT
  5
7EC2
  8
3
  6
CONTINUOUS
 62
     0
  2
_OPEN
 10
745.12683630551419
 20
1388.5821887629579
 30
0.0
 41
20.0
 42
20.0
 43
20.0
  0
TEXT
  8
3
  40
30
  5
7F21
  62
0
  72
0
  71
0
 10
555.127
 20
1360.48
 30
0.000000
  1
260
  0
POINT
  5
7EC4
  8
DEFPOINTS
  6
CONTINUOUS
 62
     0
 10
485.12683630551408
 20
1279.7370377629579
 30
0.0
  0
POINT
  5
7EC5
  8
DEFPOINTS
  6
CONTINUOUS
 62
     0
 10
745.12683630551419
 20
1259.7370377629579
 30
0.0
  0
POINT
  5
7EC6
  8
DEFPOINTS
  6
CONTINUOUS
 62
     0
 10
745.12683630551419
 20
1388.5821887629579
 30
0.0
  0
ENDBLK
  5
7C11
  8
0
  0
BLOCK
  8
0
  2
*D11
 70
     1
 10
0.0
 20
0.0
 30
0.0
  3
*D11
  1

  0
LINE
  5
7EC7
  8
3
  6
CONTINUOUS
 62
     0
 10
265.12683630551408
 20
1725.50079792769
 30
0.0
 11
265.12683630551408
 21
1614.3096709276899
 31
0.0
  0
LINE
  5
7EC8
  8
3
  6
CONTINUOUS
 62
     0
 10
1035.126836305514
 20
1725.50079792769
 30
0.0
 11
1035.126836305514
 21
1614.3096709276899
 31
0.0
  0
LINE
  5
7EC9
  8
3
  6
CONTINUOUS
 62
     0
 10
285.12683630551419
 20
1624.3096709276899
 30
0.0
 11
1015.126836305514
 21
1624.3096709276899
 31
0.0
  0
INSERT
  5
7ECA
  8
3
  6
CONTINUOUS
 62
     0
  2
_OPEN
 10
265.12683630551408
 20
1624.3096709276899
 30
0.0
 41
20.0
 42
20.0
 43
20.0
 50
180.0
  0
INSERT
  5
7ECB
  8
3
  6
CONTINUOUS
 62
     0
  2
_OPEN
 10
1035.126836305514
 20
1624.3096709276899
 30
0.0
 41
20.0
 42
20.0
 43
20.0
  0
TEXT
  8
3
  40
30
  5
7F22
  62
0
  72
0
  71
0
 10
580.019
 20
1596.21
 30
0.000000
  1
770
  0
POINT
  5
7ECD
  8
DEFPOINTS
  6
CONTINUOUS
 62
     0
 10
265.12683630551408
 20
1730.50079792769
 30
0.0
  0
POINT
  5
7ECE
  8
DEFPOINTS
  6
CONTINUOUS
 62
     0
 10
1035.126836305514
 20
1730.50079792769
 30
0.0
  0
POINT
  5
7ECF
  8
DEFPOINTS
  6
CONTINUOUS
 62
     0
 10
1035.126836305514
 20
1624.3096709276899
 30
0.0
  0
ENDBLK
  5
7C1E
  8
0
  0
BLOCK
  8
0
  2
*D12
 70
     1
 10
0.0
 20
0.0
 30
0.0
  3
*D12
  1

  0
LINE
  5
7ED0
  8
3
  6
CONTINUOUS
 62
     0
 10
1040.126836305514
 20
2210.5007979276902
 30
0.0
 11
1141.1188053055139
 21
2210.5007979276902
 31
0.0
  0
LINE
  5
7ED1
  8
3
  6
CONTINUOUS
 62
     0
 10
1040.126836305514
 20
1730.50079792769
 30
0.0
 11
1141.1188053055139
 21
1730.50079792769
 31
0.0
  0
LINE
  5
7ED2
  8
3
  6
CONTINUOUS
 62
     0
 10
1131.1188053055139
 20
2190.5007979276902
 30
0.0
 11
1131.1188053055139
 21
1750.50079792769
 31
0.0
  0
INSERT
  5
7ED3
  8
3
  6
CONTINUOUS
 62
     0
  2
_OPEN
 10
1131.1188053055139
 20
2210.5007979276902
 30
0.0
 41
20.0
 42
20.0
 43
20.0
 50
90.0
  0
INSERT
  5
7ED4
  8
3
  6
CONTINUOUS
 62
     0
  2
_OPEN
 10
1131.1188053055139
 20
1730.50079792769
 30
0.0
 41
20.0
 42
20.0
 43
20.0
 50
270.0
  0
TEXT
  8
3
  40
30
  5
7F23
  62
0
  72
0
  71
0
 10
1046.12
 20
1918.35
 30
0.000000
  1
480
  0
POINT
  5
7ED6
  8
DEFPOINTS
  6
CONTINUOUS
 62
     0
 10
1035.126836305514
 20
2210.5007979276902
 30
0.0
  0
POINT
  5
7ED7
  8
DEFPOINTS
  6
CONTINUOUS
 62
     0
 10
1035.126836305514
 20
1730.50079792769
 30
0.0
  0
POINT
  5
7ED8
  8
DEFPOINTS
  6
CONTINUOUS
 62
     0
 10
1131.1188053055139
 20
1730.50079792769
 30
0.0
  0
ENDBLK
  5
7C2B
  8
0
  0
BLOCK
  8
0
  2
*D13
 70
     1
 10
0.0
 20
0.0
 30
0.0
  3
*D13
  1

  0
LINE
  5
7ED9
  8
3
  6
CONTINUOUS
 62
     0
 10
1275.2542858126669
 20
677.73703776295838
 30
0.0
 11
1275.2542858126669
 21
590.84169676295835
 31
0.0
  0
LINE
  5
7EDA
  8
3
  6
CONTINUOUS
 62
     0
 10
1613.2542858126669
 20
677.73703776295838
 30
0.0
 11
1613.2542858126669
 21
590.84169676295835
 31
0.0
  0
LINE
  5
7EDB
  8
3
  6
CONTINUOUS
 62
     0
 10
1295.2542858126669
 20
600.84169676295835
 30
0.0
 11
1593.2542858126669
 21
600.84169676295835
 31
0.0
  0
INSERT
  5
7EDC
  8
3
  6
CONTINUOUS
 62
     0
  2
_OPEN
 10
1275.2542858126669
 20
600.84169676295835
 30
0.0
 41
20.0
 42
20.0
 43
20.0
 50
180.0
  0
INSERT
  5
7EDD
  8
3
  6
CONTINUOUS
 62
     0
  2
_OPEN
 10
1613.2542858126669
 20
600.84169676295835
 30
0.0
 41
20.0
 42
20.0
 43
20.0
  0
TEXT
  8
3
  40
30
  5
7F24
  62
0
  72
0
  71
0
 10
1383.44
 20
572.742
 30
0.000000
  1
338
  0
POINT
  5
7EDF
  8
DEFPOINTS
  6
CONTINUOUS
 62
     0
 10
1275.2542858126669
 20
682.73703776295838
 30
0.0
  0
POINT
  5
7EE0
  8
DEFPOINTS
  6
CONTINUOUS
 62
     0
 10
1613.2542858126669
 20
682.73703776295838
 30
0.0
  0
POINT
  5
7EE1
  8
DEFPOINTS
  6
CONTINUOUS
 62
     0
 10
1613.2542858126669
 20
600.84169676295835
 30
0.0
  0
ENDBLK
  5
7C3C
  8
0
  0
BLOCK
  8
0
  2
*D14
 70
     1
 10
0.0
 20
0.0
 30
0.0
  3
*D14
  1

  0
LINE
  5
7EE2
  8
3
  6
CONTINUOUS
 62
     0
 10
1755.2542858126669
 20
677.73703776295838
 30
0.0
 11
1755.2542858126669
 21
590.84169676295835
 31
0.0
  0
LINE
  5
7EE3
  8
3
  6
CONTINUOUS
 62
     0
 10
1633.2542858126669
 20
600.84169676295835
 30
0.0
 11
1735.254285812666
 21
600.84169676295835
 31
0.0
  0
INSERT
  5
7EE4
  8
3
  6
CONTINUOUS
 62
     0
  2
_OPEN
 10
1613.2542858126669
 20
600.84169676295835
 30
0.0
 41
20.0
 42
20.0
 43
20.0
 50
180.0
  0
INSERT
  5
7EE5
  8
3
  6
CONTINUOUS
 62
     0
  2
_OPEN
 10
1755.2542858126669
 20
600.84169676295835
 30
0.0
 41
20.0
 42
20.0
 43
20.0
  0
TEXT
  8
3
  40
30
  5
7F25
  62
0
  72
0
  71
0
 10
1624.25
 20
572.742
 30
0.000000
  1
142
  0
POINT
  5
7EE7
  8
DEFPOINTS
  6
CONTINUOUS
 62
     0
 10
1613.2542858126669
 20
682.73703776295838
 30
0.0
  0
POINT
  5
7EE8
  8
DEFPOINTS
  6
CONTINUOUS
 62
     0
 10
1755.2542858126669
 20
682.73703776295838
 30
0.0
  0
POINT
  5
7EE9
  8
DEFPOINTS
  6
CONTINUOUS
 62
     0
 10
1755.2542858126669
 20
600.84169676295835
 30
0.0
  0
ENDBLK
  5
7C48
  8
0
  0
BLOCK
  8
0
  2
*D15
 70
     1
 10
0.0
 20
0.0
 30
0.0
  3
*D15
  1

  0
LINE
  5
7EEA
  8
3
  6
CONTINUOUS
 62
     0
 10
1523.454285812667
 20
1284.7370377629579
 30
0.0
 11
1523.454285812667
 21
1335.6239807629579
 31
0.0
  0
LINE
  5
7EEB
  8
3
  6
CONTINUOUS
 62
     0
 10
1703.054285812666
 20
1284.7370377629579
 30
0.0
 11
1703.054285812666
 21
1335.6239807629579
 31
0.0
  0
LINE
  5
7EEC
  8
3
  6
CONTINUOUS
 62
     0
 10
1543.454285812667
 20
1325.6239807629579
 30
0.0
 11
1683.0542858126671
 21
1325.6239807629579
 31
0.0
  0
INSERT
  5
7EED
  8
3
  6
CONTINUOUS
 62
     0
  2
_OPEN
 10
1523.454285812667
 20
1325.6239807629579
 30
0.0
 41
20.0
 42
20.0
 43
20.0
 50
180.0
  0
INSERT
  5
7EEE
  8
3
  6
CONTINUOUS
 62
     0
  2
_OPEN
 10
1703.054285812666
 20
1325.6239807629579
 30
0.0
 41
20.0
 42
20.0
 43
20.0
  0
TEXT
  8
3
  40
30
  5
7F26
  62
0
  72
0
  71
0
 10
1542.15
 20
1297.52
 30
0.000000
  1
180
  0
POINT
  5
7EF0
  8
DEFPOINTS
  6
CONTINUOUS
 62
     0
 10
1523.454285812667
 20
1279.7370377629579
 30
0.0
  0
POINT
  5
7EF1
  8
DEFPOINTS
  6
CONTINUOUS
 62
     0
 10
1703.054285812666
 20
1279.7370377629579
 30
0.0
  0
POINT
  5
7EF2
  8
DEFPOINTS
  6
CONTINUOUS
 62
     0
 10
1703.054285812666
 20
1325.6239807629579
 30
0.0
  0
ENDBLK
  5
7C55
  8
0
  0
BLOCK
  8
0
  2
*D16
 70
     1
 10
0.0
 20
0.0
 30
0.0
  3
*D16
  1

  0
LINE
  5
7EF3
  8
3
  6
CONTINUOUS
 62
     0
 10
1273.2542858126669
 20
1209.7370377629579
 30
0.0
 11
1273.2542858126669
 21
1401.432116762958
 31
0.0
  0
LINE
  5
7EF4
  8
3
  6
CONTINUOUS
 62
     0
 10
1613.2542858126669
 20
1380.345971762958
 30
0.0
 11
1613.2542858126669
 21
1401.432116762958
 31
0.0
  0
LINE
  5
7EF5
  8
3
  6
CONTINUOUS
 62
     0
 10
1293.2542858126669
 20
1391.432116762958
 30
0.0
 11
1593.2542858126669
 21
1391.432116762958
 31
0.0
  0
INSERT
  5
7EF6
  8
3
  6
CONTINUOUS
 62
     0
  2
_OPEN
 10
1273.2542858126669
 20
1391.432116762958
 30
0.0
 41
20.0
 42
20.0
 43
20.0
 50
180.0
  0
INSERT
  5
7EF7
  8
3
  6
CONTINUOUS
 62
     0
  2
_OPEN
 10
1613.2542858126669
 20
1391.432116762958
 30
0.0
 41
20.0
 42
20.0
 43
20.0
  0
TEXT
  8
3
  40
30
  5
7F27
  62
0
  72
0
  71
0
 10
1392.43
 20
1388.33
 30
0.000000
  1
MAX
  0
TEXT
  8
3
  40
30
  5
7F28
  62
0
  72
0
  71
0
 10
1392.43
 20
1349.33
 30
0.000000
  1
340
  0
POINT
  5
7EF9
  8
DEFPOINTS
  6
CONTINUOUS
 62
     0
 10
1273.2542858126669
 20
1204.7370377629579
 30
0.0
  0
POINT
  5
7EFA
  8
DEFPOINTS
  6
CONTINUOUS
 62
     0
 10
1613.2542858126669
 20
1375.345971762958
 30
0.0
  0
POINT
  5
7EFB
  8
DEFPOINTS
  6
CONTINUOUS
 62
     0
 10
1613.2542858126669
 20
1391.432116762958
 30
0.0
  0
ENDBLK
  5
7CE3
  8
0
  0
BLOCK
  8
0
  2
*D17
 70
     1
 10
0.0
 20
0.0
 30
0.0
  3
*D17
  1

  0
LINE
  5
7EFC
  8
3
  6
CONTINUOUS
 62
     0
 10
1712.2542858126669
 20
1231.7370377629579
 30
0.0
 11
1712.2542858126669
 21
1401.432116762958
 31
0.0
  0
LINE
  5
7EFD
  8
3
  6
CONTINUOUS
 62
     0
 10
1633.2542858126669
 20
1391.432116762958
 30
0.0
 11
1692.2542858126669
 21
1391.432116762958
 31
0.0
  0
TEXT
  8
3
  40
30
  5
7F29
  62
0
  72
0
  71
0
 10
1602.04
 20
1363.33
 30
0.000000
  1
99
  0
INSERT
  5
7EFF
  8
3
  6
CONTINUOUS
 62
     0
  2
_OPEN
 10
1613.2542858126669
 20
1391.432116762958
 30
0.0
 41
20.0
 42
20.0
 43
20.0
 50
180.0
  0
INSERT
  5
7F00
  8
3
  6
CONTINUOUS
 62
     0
  2
_OPEN
 10
1712.2542858126669
 20
1391.432116762958
 30
0.0
 41
20.0
 42
20.0
 43
20.0
  0
POINT
  5
7F01
  8
DEFPOINTS
  6
CONTINUOUS
 62
     0
 10
1613.2542858126669
 20
1375.345971762958
 30
0.0
  0
POINT
  5
7F02
  8
DEFPOINTS
  6
CONTINUOUS
 62
     0
 10
1712.2542858126669
 20
1226.7370377629579
 30
0.0
  0
POINT
  5
7F03
  8
DEFPOINTS
  6
CONTINUOUS
 62
     0
 10
1712.2542858126669
 20
1391.432116762958
 30
0.0
  0
ENDBLK
  5
7CB2
  8
0
  0
BLOCK
  8
0
  2
*D18
 70
     1
 10
0.0
 20
0.0
 30
0.0
  3
*D18
  1

  0
LINE
  5
7F04
  8
3
  6
CONTINUOUS
 62
     0
 10
1717.254285812666
 20
1204.7370377629579
 30
0.0
 11
1791.3811368126669
 21
1204.7370377629579
 31
0.0
  0
LINE
  5
7F05
  8
3
  6
CONTINUOUS
 62
     0
 10
1717.254285812666
 20
954.73703776295872
 30
0.0
 11
1791.3811368126669
 21
954.73703776295872
 31
0.0
  0
LINE
  5
7F06
  8
3
  6
CONTINUOUS
 62
     0
 10
1781.3811368126669
 20
1184.7370377629579
 30
0.0
 11
1781.3811368126669
 21
974.73703776295861
 31
0.0
  0
INSERT
  5
7F07
  8
3
  6
CONTINUOUS
 62
     0
  2
_OPEN
 10
1781.3811368126669
 20
1204.7370377629579
 30
0.0
 41
20.0
 42
20.0
 43
20.0
 50
90.0
  0
INSERT
  5
7F08
  8
3
  6
CONTINUOUS
 62
     0
  2
_OPEN
 10
1781.3811368126669
 20
954.73703776295872
 30
0.0
 41
20.0
 42
20.0
 43
20.0
 50
270.0
  0
TEXT
  8
3
  40
30
  5
7F2A
  62
0
  72
0
  71
0
 10
1696.38
 20
1013.25
 30
0.000000
  1
φ250
  0
POINT
  5
7F0A
  8
DEFPOINTS
  6
CONTINUOUS
 62
     0
 10
1712.2542858126669
 20
1204.7370377629579
 30
0.0
  0
POINT
  5
7F0B
  8
DEFPOINTS
  6
CONTINUOUS
 62
     0
 10
1712.2542858126669
 20
954.73703776295872
 30
0.0
  0
POINT
  5
7F0C
  8
DEFPOINTS
  6
CONTINUOUS
 62
     0
 10
1781.3811368126669
 20
954.73703776295872
 30
0.0
  0
ENDBLK
  5
7CEE
  8
0
  0
BLOCK
  8
0
  2
_DOT
 70
     0
 10
0.0
 20
0.0
 30
0.0
  3
_DOT
  1

  0
LINE
  5
7D42
  8
0
  6
BYBLOCK
 62
     0
 10
0.0
 20
0.0
 30
0.0
 11
-1.0
 21
-0.0000000000000284
 31
0.0
  0
POLYLINE
  5
7D43
  8
0
  6
BYBLOCK
 62
     0
 66
     1
 10
0.0
 20
0.0
 30
0.0
 70
     1
 40
0.1666666666666666
 41
0.1666666666666666
  0
VERTEX
  5
7F0D
  8
0
  6
BYBLOCK
 62
     0
 10
-0.0833333333333286
 20
-0.0000000000000284
 30
0.0
 42
1.0
  0
VERTEX
  5
7F0E
  8
0
  6
BYBLOCK
 62
     0
 10
0.0833333333333286
 20
-0.0000000000000284
 30
0.0
 42
1.0
  0
SEQEND
  5
7F0F
  8
0
  6
BYBLOCK
 62
     0
  0
ENDBLK
  5
7D28
  8
0
  0
BLOCK
  8
0
  2
*D20
 70
     1
 10
0.0
 20
0.0
 30
0.0
  3
*D20
  1

  0
LINE
  5
7F10
  8
3
 62
     0
 10
299.13745230551388
 20
1089.7370377629579
 30
0.0
 11
299.13745230551388
 21
1466.782794900133
 31
0.0
  0
LINE
  5
7F11
  8
3
 62
     0
 10
1035.126836305514
 20
747.73703776295849
 30
0.0
 11
1035.126836305514
 21
1466.782794900133
 31
0.0
  0
LINE
  5
7F12
  8
3
 62
     0
 10
319.13745230551388
 20
1456.782794900133
 30
0.0
 11
1015.126836305514
 21
1456.782794900133
 31
0.0
  0
INSERT
  5
7F13
  8
3
 62
     0
  2
_OPEN
 10
299.13745230551388
 20
1456.782794900133
 30
0.0
 41
20.0
 42
20.0
 43
20.0
 50
180.0
  0
INSERT
  5
7F14
  8
3
 62
     0
  2
_OPEN
 10
1035.126836305514
 20
1456.782794900133
 30
0.0
 41
20.0
 42
20.0
 43
20.0
  0
TEXT
  8
3
  40
30
  5
7F2B
  62
0
  72
0
  71
0
 10
632.082
 20
1428.68
 30
0.000000
  1
736
  0
POINT
  5
7F16
  8
DEFPOINTS
 62
     0
 10
299.13745230551388
 20
1084.7370377629579
 30
0.0
  0
POINT
  5
7F17
  8
DEFPOINTS
 62
     0
 10
1035.126836305514
 20
742.73703776295849
 30
0.0
  0
POINT
  5
7F18
  8
DEFPOINTS
 62
     0
 10
1035.126836305514
 20
1456.782794900133
 30
0.0
  0
ENDBLK
  5
7D52
  8
0
  0
ENDSEC
  0
SECTION
  2
ENTITIES
  0
LINE
  5
7A98
  8
1
  6
CONTINUOUS
 10
286.22683630551421
 20
1978.50079792769
 30
0.0
 11
736.12683630551419
 21
1978.50079792769
 31
0.0
  0
LINE
  5
7A99
  8
1
  6
CONTINUOUS
 10
484.12683630551408
 20
2158.5007979276902
 30
0.0
 11
736.12683630551419
 21
1978.50079792769
 31
0.0
  0
LINE
  5
7A9A
  8
1
  6
CONTINUOUS
 10
736.12683630551419
 20
2158.5007979276902
 30
0.0
 11
484.12683630551408
 21
1978.50079792769
 31
0.0
  0
LINE
  5
7A9B
  8
1
  6
CONTINUOUS
 10
632.12683630551419
 20
2167.5007979276902
 30
0.0
 11
338.12683630551408
 21
2167.5007979276902
 31
0.0
  0
LINE
  5
7A9C
  8
1
  6
CONTINUOUS
 10
736.12683630551419
 20
2158.5007979276902
 30
0.0
 11
286.22683630551421
 21
2158.5007979276902
 31
0.0
  0
CIRCLE
  5
7A9D
  8
1
  6
CONTINUOUS
 10
485.12683630551408
 20
1079.7370377629579
 30
0.0
 40
145.0
  0
LINE
  5
7A9E
  8
1
  6
CONTINUOUS
 10
1035.126836305514
 20
742.73703776295849
 30
0.0
 11
265.12683630551408
 21
742.73703776295849
 31
0.0
  0
LINE
  5
7A9F
  8
1
  6
CONTINUOUS
 10
1035.126836305514
 20
712.73703776295849
 30
0.0
 11
265.12683630551408
 21
712.73703776295849
 31
0.0
  0
LINE
  5
7AA0
  8
1
  6
CONTINUOUS
 10
715.12683630551419
 20
1259.7370377629579
 30
0.0
 11
505.12683630551408
 21
1259.7370377629579
 31
0.0
  0
ARC
  5
7AA1
  8
1
  6
CONTINUOUS
 10
505.12683630551408
 20
1099.7370377629579
 30
0.0
 40
240.90000000000001
 50
265.39999999999992
 51
355.10000000000002
  0
LINE
  5
7AA2
  8
1
  6
CONTINUOUS
 10
464.12683630551408
 20
1279.7370377629579
 30
0.0
 11
756.12683630551408
 21
1279.7370377629579
 31
0.0
  0
LINE
  5
7AA3
  8
1
  6
CONTINUOUS
 10
645.12683630551419
 20
1969.50079792769
 30
0.0
 11
325.12683630551408
 21
1969.50079792769
 31
0.0
  0
LINE
  5
7AA4
  8
1
  6
CONTINUOUS
 10
325.12683630551408
 20
1046.437037762958
 30
0.0
 11
645.12683630551419
 21
1046.437037762958
 31
0.0
  0
LINE
  5
7AA5
  8
1
  6
CONTINUOUS
 10
546.7268363055141
 20
1229.7370377629579
 30
0.0
 11
645.12683630551419
 21
1145.8370377629581
 31
0.0
  0
LINE
  5
7AA6
  8
1
  6
CONTINUOUS
 10
645.12683630551419
 20
764.73703776295838
 30
0.0
 11
325.12683630551408
 21
764.73703776295838
 31
0.0
  0
LINE
  5
7AA7
  8
1
  6
CONTINUOUS
 10
1005.126836305514
 20
764.73703776295838
 30
0.0
 11
295.12683630551408
 21
764.73703776295838
 31
0.0
  0
LINE
  5
7AA8
  8
1
  6
CONTINUOUS
 10
871.2268363055141
 20
959.73703776295861
 30
0.0
 11
513.2268363055141
 21
1136.637037762958
 31
0.0
  0
LINE
  5
7AA9
  8
1
  6
CONTINUOUS
 10
826.82683630551401
 20
863.53703776295856
 30
0.0
 11
460.02683630551428
 21
1021.437037762958
 31
0.0
  0
LINE
  5
7AAA
  8
1
  6
CONTINUOUS
 10
484.92683630551409
 20
1204.7370377629579
 30
0.0
 11
940.12683630551408
 21
1004.737037762958
 31
0.0
  0
LINE
  5
7AAB
  8
1
  6
CONTINUOUS
 10
1005.126836305514
 20
824.73703776295838
 30
0.0
 11
295.12683630551408
 21
824.73703776295838
 31
0.0
  0
LINE
  5
7AAC
  8
1
  6
CONTINUOUS
 10
360.12683630551419
 20
1803.50079792769
 30
0.0
 11
940.12683630551408
 21
1803.50079792769
 31
0.0
  0
LINE
  5
7AAD
  8
1
  6
CONTINUOUS
 10
360.12683630551419
 20
1728.50079792769
 30
0.0
 11
940.12683630551408
 21
1728.50079792769
 31
0.0
  0
LINE
  5
7AAE
  8
1
  6
CONTINUOUS
 10
497.12683630551408
 20
1840.50079792769
 30
0.0
 11
645.12683630551419
 21
1840.50079792769
 31
0.0
  0
LINE
  5
7AAF
  8
1
  6
CONTINUOUS
 10
497.12683630551408
 20
1810.50079792769
 30
0.0
 11
835.82683630551423
 21
1810.50079792769
 31
0.0
  0
ARC
  5
7AB0
  8
1
  6
CONTINUOUS
 10
502.12683630551408
 20
1062.7370377629579
 30
0.0
 40
203.6999999999999
 50
174.5
 51
265.39999999999992
  0
LINE
  5
7AB1
  8
1
  6
CONTINUOUS
 10
325.12683630551408
 20
824.73703776295838
 30
0.0
 11
325.12683630551408
 21
1145.8370377629581
 31
0.0
  0
LINE
  5
7AB2
  8
1
  6
CONTINUOUS
 10
360.12683630551419
 20
824.73703776295838
 30
0.0
 11
360.12683630551419
 21
1134.7370377629579
 31
0.0
  0
LINE
  5
7AB3
  8
1
  6
CONTINUOUS
 10
265.12683630551408
 20
682.73703776295838
 30
0.0
 11
295.12683630551408
 21
682.73703776295838
 31
0.0
  0
LINE
  5
7AB4
  8
1
  6
CONTINUOUS
 10
265.12683630551408
 20
742.73703776295849
 30
0.0
 11
265.12683630551408
 21
682.73703776295838
 31
0.0
  0
LINE
  5
7AB5
  8
1
  6
CONTINUOUS
 10
295.12683630551408
 20
824.73703776295838
 30
0.0
 11
295.12683630551408
 21
764.73703776295838
 31
0.0
  0
LINE
  5
7AB6
  8
1
  6
CONTINUOUS
 10
295.12683630551408
 20
712.73703776295849
 30
0.0
 11
295.12683630551408
 21
682.73703776295838
 31
0.0
  0
CIRCLE
  5
7AB7
  8
1
  6
CONTINUOUS
 10
485.12683630551408
 20
1079.7370377629579
 30
0.0
 40
125.0
  0
ARC
  5
7AB8
  8
1
  6
CONTINUOUS
 10
471.12683630551408
 20
1065.7370377629579
 30
0.0
 40
172.59999999999991
 50
88.700000000000003
 51
174.5
  0
LINE
  5
7AB9
  8
1
  6
CONTINUOUS
 10
423.52683630551422
 20
1229.7370377629579
 30
0.0
 11
325.12683630551408
 21
1145.8370377629581
 31
0.0
  0
LINE
  5
7ABA
  8
1
  6
CONTINUOUS
 10
360.12683630551419
 20
1134.7370377629579
 30
0.0
 11
484.92683630551409
 21
1204.7370377629579
 31
0.0
  0
LINE
  5
7ABB
  8
1
  6
CONTINUOUS
 10
475.12683630551408
 20
1259.7370377629579
 30
0.0
 11
475.12683630551408
 21
1238.3370377629581
 31
0.0
  0
LINE
  5
7ABC
  8
2
  6
CENTER
 10
1738.466609812667
 20
1079.7370377629579
 30
0.0
 11
1238.3538258126671
 21
1079.7370377629579
 31
0.0
  0
LINE
  5
7ABD
  8
1
  6
CONTINUOUS
 10
423.52683630551422
 20
1229.7370377629579
 30
0.0
 11
546.7268363055141
 21
1229.7370377629579
 31
0.0
  0
CIRCLE
  5
7ABE
  8
1
  6
CONTINUOUS
 10
485.12683630551408
 20
1079.7370377629579
 30
0.0
 40
63.5
  0
LINE
  5
7ABF
  8
2
  6
CENTER
 10
485.12683630551408
 20
2218.3317039276899
 30
0.0
 11
485.12683630551408
 21
1718.9851829276899
 31
0.0
  0
LINE
  5
7AC0
  8
1
  6
CONTINUOUS
 10
485.12683630551408
 20
1279.7370377629579
 30
0.0
 11
505.12683630551408
 21
1259.7370377629579
 31
0.0
  0
LINE
  5
7AC1
  8
1
  6
CONTINUOUS
 10
485.12683630551408
 20
1279.7370377629579
 30
0.0
 11
485.12683630551408
 21
1259.7370377629579
 31
0.0
  0
LINE
  5
7AC2
  8
1
  6
CONTINUOUS
 10
485.12683630551408
 20
1259.7370377629579
 30
0.0
 11
475.12683630551408
 21
1259.7370377629579
 31
0.0
  0
LINE
  5
7AC3
  8
1
  6
CONTINUOUS
 10
274.22683630551421
 20
2146.5007979276911
 30
0.0
 11
274.22683630551421
 21
1990.50079792769
 31
0.0
  0
LINE
  5
7AC4
  8
1
  6
CONTINUOUS
 10
484.12683630551408
 20
2158.5007979276902
 30
0.0
 11
484.12683630551408
 21
1978.50079792769
 31
0.0
  0
LINE
  5
7AC5
  8
1
  6
CONTINUOUS
 10
265.12683630551408
 20
2210.5007979276902
 30
0.0
 11
265.12683630551408
 21
1730.50079792769
 31
0.0
  0
LINE
  5
7AC6
  8
1
  6
CONTINUOUS
 10
265.12683630551408
 20
1810.50079792769
 30
0.0
 11
473.12683630551419
 21
1810.50079792769
 31
0.0
  0
LINE
  5
7AC7
  8
1
  6
CONTINUOUS
 10
325.12683630551408
 20
1840.50079792769
 30
0.0
 11
473.12683630551419
 21
1840.50079792769
 31
0.0
  0
LINE
  5
7AC8
  8
1
  6
CONTINUOUS
 10
295.12683630551408
 20
1730.50079792769
 30
0.0
 11
265.12683630551408
 21
1730.50079792769
 31
0.0
  0
ARC
  5
7AC9
  8
1
  6
CONTINUOUS
 10
286.22683630551421
 20
1990.50079792769
 30
0.0
 40
12.0
 50
180.0
 51
270.0
  0
LINE
  5
7ACA
  8
1
  6
CONTINUOUS
 10
338.12683630551408
 20
1978.50079792769
 30
0.0
 11
338.12683630551408
 21
1969.50079792769
 31
0.0
  0
LINE
  5
7ACB
  8
1
  6
CONTINUOUS
 10
360.12683630551419
 20
1728.50079792769
 30
0.0
 11
360.12683630551419
 21
1803.50079792769
 31
0.0
  0
LINE
  5
7ACC
  8
1
  6
CONTINUOUS
 10
325.12683630551408
 20
1840.50079792769
 30
0.0
 11
325.12683630551408
 21
1969.50079792769
 31
0.0
  0
LINE
  5
7ACD
  8
1
  6
CONTINUOUS
 10
295.12683630551408
 20
1810.50079792769
 30
0.0
 11
295.12683630551408
 21
1730.50079792769
 31
0.0
  0
LINE
  5
7ACE
  8
1
  6
CONTINUOUS
 10
421.62683630551408
 20
1748.50079792769
 30
0.0
 11
548.62683630551419
 21
1748.50079792769
 31
0.0
  0
LINE
  5
7ACF
  8
1
  6
CONTINUOUS
 10
421.62683630551408
 20
1783.50079792769
 30
0.0
 11
548.62683630551419
 21
1783.50079792769
 31
0.0
  0
LINE
  5
7AD0
  8
1
  6
CONTINUOUS
 10
473.12683630551419
 20
1783.50079792769
 30
0.0
 11
473.12683630551419
 21
1969.50079792769
 31
0.0
  0
LINE
  5
7AD1
  8
1
  6
CONTINUOUS
 10
497.12683630551408
 20
1783.50079792769
 30
0.0
 11
497.12683630551408
 21
1969.50079792769
 31
0.0
  0
LINE
  5
7AD2
  8
1
  6
CONTINUOUS
 10
421.62683630551408
 20
1748.50079792769
 30
0.0
 11
421.62683630551408
 21
1783.50079792769
 31
0.0
  0
LINE
  5
7AD3
  8
1
  6
CONTINUOUS
 10
548.62683630551419
 20
1748.50079792769
 30
0.0
 11
548.62683630551419
 21
1783.50079792769
 31
0.0
  0
LINE
  5
7AD4
  8
1
  6
CONTINUOUS
 10
295.12683630551408
 20
2210.5007979276902
 30
0.0
 11
265.12683630551408
 21
2210.5007979276902
 31
0.0
  0
ARC
  5
7AD5
  8
1
  6
CONTINUOUS
 10
286.22683630551421
 20
2146.5007979276911
 30
0.0
 40
12.0
 50
90.0
 51
180.0
  0
LINE
  5
7AD6
  8
1
  6
CONTINUOUS
 10
338.12683630551408
 20
2158.5007979276902
 30
0.0
 11
338.12683630551408
 21
2167.5007979276902
 31
0.0
  0
LINE
  5
7AD7
  8
1
  6
CONTINUOUS
 10
295.12683630551408
 20
2210.5007979276902
 30
0.0
 11
295.12683630551408
 21
2159.3007979276899
 31
0.0
  0
LINE
  5
7AD8
  8
1
  6
CONTINUOUS
 10
645.12683630551419
 20
1145.8370377629581
 30
0.0
 11
645.12683630551419
 21
824.73703776295838
 31
0.0
  0
LINE
  5
7AD9
  8
2
  6
CENTER
 10
847.82683630551389
 20
859.23703776295849
 30
0.0
 11
847.82683630551389
 21
965.23703776295849
 31
0.0
  0
CIRCLE
  5
7ADA
  8
1
  6
CONTINUOUS
 10
847.82683630551389
 20
912.23703776295838
 30
0.0
 40
53.0
  0
LINE
  5
7ADB
  8
1
  6
CONTINUOUS
 10
940.12683630551408
 20
824.73703776295838
 30
0.0
 11
940.12683630551408
 21
1004.737037762958
 31
0.0
  0
ARC
  5
7ADC
  8
1
  6
CONTINUOUS
 10
847.82683630551389
 20
912.23703776295838
 30
0.0
 40
75.799999999999997
 50
322.89999999999992
 51
217.09999999999991
  0
LINE
  5
7ADD
  8
2
  6
CENTER
 10
900.82683630551401
 20
912.23703776295838
 30
0.0
 11
794.82683630551401
 21
912.23703776295838
 31
0.0
  0
LINE
  5
7ADE
  8
1
  6
CONTINUOUS
 10
750.42683630551414
 20
844.73703776295849
 30
0.0
 11
1005.126836305514
 21
844.73703776295849
 31
0.0
  0
LINE
  5
7ADF
  8
1
  6
CONTINUOUS
 10
750.42683630551414
 20
824.73703776295838
 30
0.0
 11
750.42683630551414
 21
844.73703776295849
 31
0.0
  0
LINE
  5
7AE0
  8
1
  6
CONTINUOUS
 10
781.82683630551401
 20
844.73703776295849
 30
0.0
 11
781.82683630551401
 21
852.23703776295838
 31
0.0
  0
LINE
  5
7AE1
  8
1
  6
CONTINUOUS
 10
781.82683630551401
 20
852.23703776295838
 30
0.0
 11
787.32683630551401
 21
866.53703776295845
 31
0.0
  0
LINE
  5
7AE2
  8
1
  6
CONTINUOUS
 10
913.82683630551389
 20
852.23703776295838
 30
0.0
 11
908.22683630551398
 21
866.53703776295845
 31
0.0
  0
LINE
  5
7AE3
  8
1
  6
CONTINUOUS
 10
913.82683630551389
 20
844.73703776295849
 30
0.0
 11
913.82683630551389
 21
852.23703776295838
 31
0.0
  0
LINE
  5
7AE4
  8
1
  6
CONTINUOUS
 10
1035.126836305514
 20
742.73703776295849
 30
0.0
 11
1035.126836305514
 21
682.73703776295838
 31
0.0
  0
LINE
  5
7AE5
  8
1
  6
CONTINUOUS
 10
1005.126836305514
 20
824.73703776295838
 30
0.0
 11
1005.126836305514
 21
764.73703776295838
 31
0.0
  0
LINE
  5
7AE6
  8
1
  6
CONTINUOUS
 10
1005.126836305514
 20
844.73703776295849
 30
0.0
 11
1005.126836305514
 21
824.73703776295838
 31
0.0
  0
LINE
  5
7AE7
  8
1
  6
CONTINUOUS
 10
1035.126836305514
 20
682.73703776295838
 30
0.0
 11
1005.126836305514
 21
682.73703776295838
 31
0.0
  0
LINE
  5
7AE8
  8
1
  6
CONTINUOUS
 10
1005.126836305514
 20
712.73703776295849
 30
0.0
 11
1005.126836305514
 21
682.73703776295838
 31
0.0
  0
LINE
  5
7AE9
  8
1
  6
CONTINUOUS
 10
745.12683630551419
 20
1259.7370377629579
 30
0.0
 11
745.12683630551419
 21
1079.3370377629581
 31
0.0
  0
LINE
  5
7AEA
  8
1
  6
CONTINUOUS
 10
735.12683630551408
 20
1279.7370377629579
 30
0.0
 11
715.12683630551419
 21
1259.7370377629579
 31
0.0
  0
LINE
  5
7AEB
  8
1
  6
CONTINUOUS
 10
735.12683630551408
 20
1279.7370377629579
 30
0.0
 11
735.12683630551408
 21
1259.7370377629579
 31
0.0
  0
LINE
  5
7AEC
  8
1
  6
CONTINUOUS
 10
745.12683630551419
 20
1259.7370377629579
 30
0.0
 11
735.12683630551408
 21
1259.7370377629579
 31
0.0
  0
LINE
  5
7AED
  8
1
  6
CONTINUOUS
 10
736.12683630551419
 20
1978.50079792769
 30
0.0
 11
736.12683630551419
 21
2158.5007979276902
 31
0.0
  0
LINE
  5
7AEE
  8
1
  6
CONTINUOUS
 10
1035.126836305514
 20
2210.5007979276902
 30
0.0
 11
1035.126836305514
 21
1730.50079792769
 31
0.0
  0
LINE
  5
7AEF
  8
1
  6
CONTINUOUS
 10
922.62683630551419
 20
1834.8007979276899
 30
0.0
 11
922.62683630551419
 21
2038.8007979276899
 31
0.0
  0
LINE
  5
7AF0
  8
1
  6
CONTINUOUS
 10
771.12683630551408
 20
1834.8007979276899
 30
0.0
 11
771.12683630551408
 21
2038.8007979276899
 31
0.0
  0
LINE
  5
7AF1
  8
1
  6
CONTINUOUS
 10
794.82683630551412
 20
1748.50079792769
 30
0.0
 11
900.82683630551401
 21
1748.50079792769
 31
0.0
  0
LINE
  5
7AF2
  8
1
  6
CONTINUOUS
 10
794.82683630551412
 20
1783.50079792769
 30
0.0
 11
900.82683630551401
 21
1783.50079792769
 31
0.0
  0
LINE
  5
7AF3
  8
1
  6
CONTINUOUS
 10
771.12683630551408
 20
1834.8007979276899
 30
0.0
 11
922.62683630551419
 21
1834.8007979276899
 31
0.0
  0
LINE
  5
7AF4
  8
1
  6
CONTINUOUS
 10
632.12683630551419
 20
1978.50079792769
 30
0.0
 11
632.12683630551419
 21
1969.50079792769
 31
0.0
  0
LINE
  5
7AF5
  8
1
  6
CONTINUOUS
 10
645.12683630551419
 20
1969.50079792769
 30
0.0
 11
645.12683630551419
 21
1840.50079792769
 31
0.0
  0
LINE
  5
7AF6
  8
1
  6
CONTINUOUS
 10
794.82683630551412
 20
1748.50079792769
 30
0.0
 11
794.82683630551412
 21
1783.50079792769
 31
0.0
  0
LINE
  5
7AF7
  8
1
  6
CONTINUOUS
 10
835.82683630551423
 20
1783.50079792769
 30
0.0
 11
835.82683630551423
 21
1834.8007979276899
 31
0.0
  0
LINE
  5
7AF8
  8
1
  6
CONTINUOUS
 10
859.82683630551401
 20
1810.50079792769
 30
0.0
 11
1035.126836305514
 21
1810.50079792769
 31
0.0
  0
LINE
  5
7AF9
  8
1
  6
CONTINUOUS
 10
900.82683630551401
 20
1748.50079792769
 30
0.0
 11
900.82683630551401
 21
1783.50079792769
 31
0.0
  0
LINE
  5
7AFA
  8
1
  6
CONTINUOUS
 10
940.12683630551408
 20
1728.50079792769
 30
0.0
 11
940.12683630551408
 21
1803.50079792769
 31
0.0
  0
LINE
  5
7AFB
  8
1
  6
CONTINUOUS
 10
859.82683630551401
 20
1783.50079792769
 30
0.0
 11
859.82683630551401
 21
1834.8007979276899
 31
0.0
  0
LINE
  5
7AFC
  8
1
  6
CONTINUOUS
 10
1005.126836305514
 20
1730.50079792769
 30
0.0
 11
1035.126836305514
 21
1730.50079792769
 31
0.0
  0
LINE
  5
7AFD
  8
1
  6
CONTINUOUS
 10
1005.126836305514
 20
1810.50079792769
 30
0.0
 11
1005.126836305514
 21
1730.50079792769
 31
0.0
  0
LINE
  5
7AFE
  8
1
  6
CONTINUOUS
 10
736.12683630551419
 20
2060.5007979276902
 30
0.0
 11
1035.126836305514
 21
2060.5007979276902
 31
0.0
  0
LINE
  5
7AFF
  8
1
  6
CONTINUOUS
 10
771.12683630551408
 20
2038.8007979276899
 30
0.0
 11
922.62683630551419
 21
2038.8007979276899
 31
0.0
  0
LINE
  5
7B00
  8
1
  6
CONTINUOUS
 10
632.12683630551419
 20
2158.5007979276902
 30
0.0
 11
632.12683630551419
 21
2167.5007979276902
 31
0.0
  0
LINE
  5
7B01
  8
1
  6
CONTINUOUS
 10
1005.126836305514
 20
2210.5007979276902
 30
0.0
 11
1005.126836305514
 21
2060.5007979276902
 31
0.0
  0
LINE
  5
7B02
  8
1
  6
CONTINUOUS
 10
1005.126836305514
 20
2210.5007979276902
 30
0.0
 11
1035.126836305514
 21
2210.5007979276902
 31
0.0
  0
LINE
  5
7B03
  8
1
  6
CONTINUOUS
 10
1275.2542858126669
 20
682.73703776295838
 30
0.0
 11
1755.2542858126669
 21
682.73703776295838
 31
0.0
  0
LINE
  5
7B04
  8
1
  6
CONTINUOUS
 10
1273.2542858126669
 20
824.73703776295838
 30
0.0
 11
1605.2542858126669
 21
824.73703776295838
 31
0.0
  0
LINE
  5
7B05
  8
1
  6
CONTINUOUS
 10
1328.2542858126669
 20
1091.7370377629579
 30
0.0
 11
1447.3542858126671
 21
1091.7370377629579
 31
0.0
  0
LINE
  5
7B06
  8
1
  6
CONTINUOUS
 10
1328.2542858126669
 20
1067.7370377629579
 30
0.0
 11
1417.654285812667
 21
1067.7370377629579
 31
0.0
  0
LINE
  5
7B07
  8
1
  6
CONTINUOUS
 10
1328.2542858126669
 20
900.23703776295849
 30
0.0
 11
1385.2542858126669
 21
900.23703776295849
 31
0.0
  0
LINE
  5
7B08
  8
1
  6
CONTINUOUS
 10
1328.2542858126669
 20
924.23703776295849
 30
0.0
 11
1385.2542858126669
 21
924.23703776295849
 31
0.0
  0
LINE
  5
7B09
  8
1
  6
CONTINUOUS
 10
1275.2542858126669
 20
712.73703776295849
 30
0.0
 11
1755.2542858126669
 21
712.73703776295849
 31
0.0
  0
LINE
  5
7B0A
  8
1
  6
CONTINUOUS
 10
1273.2542858126669
 20
824.73703776295838
 30
0.0
 11
1273.2542858126669
 21
1204.7370377629579
 31
0.0
  0
LINE
  5
7B0B
  8
1
  6
CONTINUOUS
 10
1348.2542858126669
 20
824.73703776295838
 30
0.0
 11
1348.2542858126669
 21
1204.7370377629579
 31
0.0
  0
LINE
  5
7B0C
  8
1
  6
CONTINUOUS
 10
1293.2542858126669
 20
965.23703776295849
 30
0.0
 11
1293.2542858126669
 21
859.23703776295849
 31
0.0
  0
LINE
  5
7B0D
  8
1
  6
CONTINUOUS
 10
1328.2542858126669
 20
965.23703776295849
 30
0.0
 11
1328.2542858126669
 21
859.23703776295849
 31
0.0
  0
LINE
  5
7B0E
  8
1
  6
CONTINUOUS
 10
1275.2542858126669
 20
712.73703776295849
 30
0.0
 11
1275.2542858126669
 21
682.73703776295838
 31
0.0
  0
LINE
  5
7B0F
  8
1
  6
CONTINUOUS
 10
1293.2542858126669
 20
859.23703776295849
 30
0.0
 11
1328.2542858126669
 21
859.23703776295849
 31
0.0
  0
LINE
  5
7B10
  8
1
  6
CONTINUOUS
 10
1273.2542858126669
 20
1204.7370377629579
 30
0.0
 11
1348.2542858126669
 21
1204.7370377629579
 31
0.0
  0
LINE
  5
7B11
  8
1
  6
CONTINUOUS
 10
1293.2542858126669
 20
1143.2370377629579
 30
0.0
 11
1293.2542858126669
 21
1016.237037762958
 31
0.0
  0
LINE
  5
7B12
  8
1
  6
CONTINUOUS
 10
1293.2542858126669
 20
1143.2370377629579
 30
0.0
 11
1328.2542858126669
 21
1143.2370377629579
 31
0.0
  0
LINE
  5
7B13
  8
1
  6
CONTINUOUS
 10
1293.2542858126669
 20
1016.237037762958
 30
0.0
 11
1328.2542858126669
 21
1016.237037762958
 31
0.0
  0
LINE
  5
7B14
  8
1
  6
CONTINUOUS
 10
1328.2542858126669
 20
1143.2370377629579
 30
0.0
 11
1328.2542858126669
 21
1016.237037762958
 31
0.0
  0
LINE
  5
7B15
  8
1
  6
CONTINUOUS
 10
1293.2542858126669
 20
965.23703776295849
 30
0.0
 11
1328.2542858126669
 21
965.23703776295849
 31
0.0
  0
LINE
  5
7B16
  8
1
  6
CONTINUOUS
 10
1712.2542858126669
 20
1226.7370377629579
 30
0.0
 11
1712.2542858126669
 21
932.73703776295861
 31
0.0
  0
LINE
  5
7B17
  8
1
  6
CONTINUOUS
 10
1703.054285812666
 20
880.8370377629584
 30
0.0
 11
1703.054285812666
 21
1079.7370377629579
 31
0.0
  0
LINE
  5
7B18
  8
1
  6
CONTINUOUS
 10
1523.454285812667
 20
1279.7370377629579
 30
0.0
 11
1523.454285812667
 21
880.8370377629584
 31
0.0
  0
LINE
  5
7B19
  8
1
  6
CONTINUOUS
 10
1514.2542858126669
 20
1226.7370377629579
 30
0.0
 11
1514.2542858126669
 21
824.73703776295838
 31
0.0
  0
LINE
  5
7B1A
  8
1
  6
CONTINUOUS
 10
1385.2542858126669
 20
824.73703776295838
 30
0.0
 11
1385.2542858126669
 21
1041.5370377629581
 31
0.0
  0
LINE
  5
7B1B
  8
1
  6
CONTINUOUS
 10
1535.454285812667
 20
868.83703776295852
 30
0.0
 11
1691.054285812666
 21
868.83703776295852
 31
0.0
  0
LINE
  5
7B1C
  8
1
  6
CONTINUOUS
 10
1355.2542858126669
 20
764.73703776295838
 30
0.0
 11
1605.2542858126669
 21
764.73703776295838
 31
0.0
  0
LINE
  5
7B1D
  8
1
  6
CONTINUOUS
 10
1355.2542858126669
 20
742.73703776295849
 30
0.0
 11
1605.2542858126669
 21
742.73703776295849
 31
0.0
  0
LINE
  5
7B1E
  8
1
  6
CONTINUOUS
 10
1355.2542858126669
 20
824.73703776295838
 30
0.0
 11
1355.2542858126669
 21
764.73703776295838
 31
0.0
  0
LINE
  5
7B1F
  8
1
  6
CONTINUOUS
 10
1355.2542858126669
 20
742.73703776295849
 30
0.0
 11
1355.2542858126669
 21
712.73703776295849
 31
0.0
  0
LINE
  5
7B20
  8
1
  6
CONTINUOUS
 10
1523.454285812667
 20
932.73703776295861
 30
0.0
 11
1514.2542858126669
 21
932.73703776295861
 31
0.0
  0
ARC
  5
7B21
  8
1
  6
CONTINUOUS
 10
1535.454285812667
 20
880.8370377629584
 30
0.0
 40
12.0
 50
180.0
 51
270.0
  0
LINE
  5
7B22
  8
1
  6
CONTINUOUS
 10
1605.2542858126669
 20
824.73703776295838
 30
0.0
 11
1605.2542858126669
 21
764.73703776295838
 31
0.0
  0
LINE
  5
7B23
  8
1
  6
CONTINUOUS
 10
1605.2542858126669
 20
742.73703776295849
 30
0.0
 11
1605.2542858126669
 21
712.73703776295849
 31
0.0
  0
LINE
  5
7B24
  8
1
  6
CONTINUOUS
 10
1703.054285812666
 20
932.73703776295861
 30
0.0
 11
1712.2542858126669
 21
932.73703776295861
 31
0.0
  0
ARC
  5
7B25
  8
1
  6
CONTINUOUS
 10
1691.054285812666
 20
880.8370377629584
 30
0.0
 40
12.0
 50
270.0
 51
0.0
  0
LINE
  5
7B26
  8
1
  6
CONTINUOUS
 10
1755.2542858126669
 20
712.73703776295849
 30
0.0
 11
1755.2542858126669
 21
682.73703776295838
 31
0.0
  0
LINE
  5
7B27
  8
1
  6
CONTINUOUS
 10
1502.2542858126669
 20
1279.7370377629579
 30
0.0
 11
1724.2542858126669
 21
1279.7370377629579
 31
0.0
  0
LINE
  5
7B28
  8
1
  6
CONTINUOUS
 10
1552.454285812667
 20
1259.7370377629579
 30
0.0
 11
1674.054285812666
 21
1259.7370377629579
 31
0.0
  0
LINE
  5
7B29
  8
1
  6
CONTINUOUS
 10
1385.2542858126669
 20
1041.5370377629581
 30
0.0
 11
1514.2542858126669
 21
1145.8370377629581
 31
0.0
  0
LINE
  5
7B2A
  8
1
  6
CONTINUOUS
 10
1523.454285812667
 20
1226.7370377629579
 30
0.0
 11
1514.2542858126669
 21
1226.7370377629579
 31
0.0
  0
LINE
  5
7B2B
  8
1
  6
CONTINUOUS
 10
1514.2542858126669
 20
1226.7370377629579
 30
0.0
 11
1514.2542858126669
 21
1079.7370377629579
 31
0.0
  0
LINE
  5
7B2C
  8
1
  6
CONTINUOUS
 10
1532.454285812667
 20
1279.7370377629579
 30
0.0
 11
1552.454285812667
 21
1259.7370377629579
 31
0.0
  0
LINE
  5
7B2D
  8
1
  6
CONTINUOUS
 10
1703.054285812666
 20
1279.7370377629579
 30
0.0
 11
1703.054285812666
 21
1079.7370377629579
 31
0.0
  0
LINE
  5
7B2E
  8
1
  6
CONTINUOUS
 10
1703.054285812666
 20
1226.7370377629579
 30
0.0
 11
1712.2542858126669
 21
1226.7370377629579
 31
0.0
  0
LINE
  5
7B2F
  8
1
  6
CONTINUOUS
 10
1694.0542858126671
 20
1279.7370377629579
 30
0.0
 11
1674.054285812666
 21
1259.7370377629579
 31
0.0
  0
LINE
  5
7B30
  8
4
  6
CONTINUOUS
 10
1850.0
 20
500.0
 30
0.0
 11
1850.0
 21
300.0
 31
0.0
  0
LINE
  5
7B31
  8
4
  6
CONTINUOUS
 10
1150.0
 20
500.0
 30
0.0
 11
1150.0
 21
300.0
 31
0.0
  0
LINE
  5
7B32
  8
4
  6
CONTINUOUS
 10
650.0
 20
500.0
 30
0.0
 11
650.0
 21
300.0
 31
0.0
  0
LINE
  5
7B35
  8
4
  6
CONTINUOUS
 10
650.0
 20
300.0
 30
0.0
 11
1850.0
 21
300.0
 31
0.0
  0
LINE
  5
7B36
  8
4
  6
CONTINUOUS
 10
650.0
 20
400.0
 30
0.0
 11
1850.0
 21
400.0
 31
0.0
  0
TEXT
  5
7B37
  8
4
  6
CONTINUOUS
 10
688.50208099999998
 20
431.543026
 30
0.0
 40
50.0
  1
機器名称
  0
TEXT
  5
7B38
  8
4
  6
CONTINUOUS
 10
686.258106
 20
321.64515699999993
 30
0.0
 40
50.0
  1
機器型番
  0
TEXT
  5
7B39
  8
4
  6
CONTINUOUS
 10
1177.678744999999
 20
422.57176900000002
 30
0.0
 40
45.0
  1
ミツヤニューマルチファン
  0
TEXT
  5
7B3A
  8
4
  6
CONTINUOUS
 10
1186.6544960000001
 20
317.159584
 30
0.0
 40
50.0
  1
NM#1 1/2-1
  0
TEXT
  5
7B3C
  8
4
  6
CONTINUOUS
 10
708.64521300000001
 20
2383.4288409999999
 30
0.0
 40
54.0
  1
天井吊防振ベット
  0
TEXT
  5
7B3D
  8
4
  6
CONTINUOUS
 10
316.16759300000001
 20
2533.8809759999999
 30
0.0
 40
72.0
  1
ベルト駆動式片吸込片持多翼ファン
  0
LINE
  5
7B3E
  8
4
  6
CONTINUOUS
 10
250.0
 20
2469.408754
 30
0.0
 11
1850.0
 21
2469.408754
 31
0.0
  0
LINE
  5
7B3F
  8
4
  6
CONTINUOUS
 10
250.0
 20
2669.408754
 30
0.0
 11
1850.0
 21
2669.408754
 31
0.0
  0
LINE
  5
7B40
  8
4
  6
CONTINUOUS
 10
650.0
 20
500.0
 30
0.0
 11
1850.0
 21
500.0
 31
0.0
  0
LINE
  5
7B41
  8
4
  6
CONTINUOUS
 10
250.0
 20
2669.408754
 30
0.0
 11
250.0
 21
2469.408754
 31
0.0
  0
TEXT
  5
7B42
  8
4
  6
CONTINUOUS
 10
272.78638100000001
 20
2382.3194779999999
 30
0.0
 40
54.0
  1
左回転上向
  0
TEXT
  5
7B43
  8
4
  6
CONTINUOUS
 10
1468.9695589999999
 20
2706.0610809999998
 30
0.0
 40
56.0
  1
No.
  0
TEXT
  5
7B44
  8
4
  6
CONTINUOUS
 10
1423.376385
 20
2383.4288409999999
 30
0.0
 40
54.0
  1
縮尺：1/10
  0
LINE
  5
7B45
  8
4
  6
CONTINUOUS
 10
1850.0
 20
2669.408754
 30
0.0
 11
1850.0
 21
2469.408754
 31
0.0
  0
LINE
  5
7B47
  8
4
  6
CONTINUOUS
 10
1440.617422
 20
2681.2635829999999
 30
0.0
 11
1440.617422
 21
2786.6522620000001
 31
0.0
  0
LINE
  5
7B48
  8
4
  6
CONTINUOUS
 10
1440.617422
 20
2786.6522620000001
 30
0.0
 11
1850.0
 21
2786.6522620000001
 31
0.0
  0
LINE
  5
7B49
  8
4
  6
CONTINUOUS
 10
1850.0
 20
2786.6522620000001
 30
0.0
 11
1850.0
 21
2681.2635829999999
 31
0.0
  0
LINE
  5
7B4A
  8
4
  6
CONTINUOUS
 10
1850.0
 20
2681.2635829999999
 30
0.0
 11
1440.617422
 21
2681.2635829999999
 31
0.0
  0
DIMENSION
  5
7B62
  8
3
  6
CONTINUOUS
  2
*D1
 10
485.12683630551408
 20
621.02051476295844
 30
0.0
 11
387.60636130551387
 21
621.02051476295844
 31
0.0
 70
   128
 13
265.12683630551408
 23
682.73703776295838
 33
0.0
 14
485.12683630551408
 24
700.90640976295845
 34
0.0
1001
ACAD
1000
DSTYLE
1002
{
1070
   287
1070
     3
1070
   287
1070
     3
1070
    40
1040
10.0
1070
   143
1040
0.039
1070
   172
1070
     1
1070
   271
1070
     0
1070
   279
1070
     0
1070
   288
1070
     1
1002
}
  0
DIMENSION
  5
7B6E
  8
3
  6
CONTINUOUS
  2
*D2
 10
1035.126836305514
 20
621.02051476295844
 30
0.0
 11
760.12683630551408
 21
646.02051476295844
 31
0.0
 70
     0
 13
485.12683630551408
 23
700.90640976295845
 33
0.0
 14
1035.126836305514
 24
682.73703776295838
 34
0.0
1001
ACAD
1000
DSTYLE
1002
{
1070
   287
1070
     4
1070
   287
1070
     4
1070
    40
1040
10.0
1070
    75
1070
     1
1070
   143
1040
0.039
1070
   172
1070
     1
1070
   271
1070
     0
1070
   279
1070
     1
1070
   288
1070
     1
1002
}
  0
DIMENSION
  5
7B7B
  8
3
  6
CONTINUOUS
  2
*D3
 10
1110.327109633201
 20
1079.7370377629579
 30
0.0
 11
1110.327109633201
 21
1184.695497762958
 31
0.0
 70
   128
 13
756.12683630551408
 23
1279.7370377629579
 33
0.0
 14
745.12683630551419
 24
1079.7370377629579
 34
0.0
 50
90.0
1001
ACAD
1000
DSTYLE
1002
{
1070
   287
1070
     3
1070
   287
1070
     3
1070
    40
1040
10.0
1070
   143
1040
0.039
1070
   172
1070
     1
1070
   271
1070
     0
1070
   279
1070
     0
1070
   288
1070
     1
1002
}
  0
DIMENSION
  5
7B87
  8
3
  6
CONTINUOUS
  2
*D4
 10
1110.327109633201
 20
764.73703776295838
 30
0.0
 11
1085.3271096332001
 21
922.23703776295872
 31
0.0
 70
     0
 13
745.12683630551419
 23
1079.7370377629579
 33
0.0
 14
1005.126836305514
 24
764.73703776295838
 34
0.0
 50
90.0
1001
ACAD
1000
DSTYLE
1002
{
1070
   287
1070
     4
1070
   287
1070
     4
1070
    40
1040
10.0
1070
    75
1070
     1
1070
   143
1040
0.039
1070
   172
1070
     1
1070
   271
1070
     0
1070
   279
1070
     1
1070
   288
1070
     1
1002
}
  0
DIMENSION
  5
7B97
  8
3
  6
CONTINUOUS
  2
*D5
 10
1110.327109633201
 20
712.73703776295849
 30
0.0
 11
1142.2845171463359
 21
740.52167547550562
 31
0.0
 70
   128
 13
1005.126836305514
 23
764.73703776295838
 33
0.0
 14
1035.126836305514
 24
712.73703776295849
 34
0.0
 50
90.0
1001
ACAD
1000
DSTYLE
1002
{
1070
   288
1070
     1
1070
   172
1070
     1
1070
    75
1070
     1
1070
    40
1040
10.0
1070
   271
1070
     0
1070
     7
1000
_DOT
1070
   143
1040
0.039
1002
}
  0
DIMENSION
  5
7BA7
  8
3
  6
CONTINUOUS
  2
*D6
 10
1110.327109633201
 20
682.73703776295838
 30
0.0
 11
1110.327109633201
 21
608.45132347724416
 31
0.0
 70
   128
 13
1107.3769843276871
 23
712.73703776295849
 33
0.0
 14
1107.3769843276871
 24
682.73703776295838
 34
0.0
 50
90.0
1001
ACAD
1000
DSTYLE
1002
{
1070
   287
1070
     3
1070
   287
1070
     3
1070
    40
1040
10.0
1070
   143
1040
0.039
1070
   172
1070
     1
1070
   271
1070
     0
1070
   279
1070
     0
1070
   288
1070
     1
1070
     6
1000
DOT
1002
}
  0
DIMENSION
  5
7BEC
  8
3
  6
CONTINUOUS
  2
*D7
 10
1173.844089305514
 20
682.73703776295838
 30
0.0
 11
1173.844089305514
 21
996.47740876295848
 31
0.0
 70
   128
 13
761.12683630551419
 23
1279.7370377629579
 33
0.0
 14
1035.126836305514
 24
682.73703776295838
 34
0.0
 50
90.0
1001
ACAD
1000
DSTYLE
1002
{
1070
   287
1070
     3
1070
   287
1070
     3
1070
    40
1040
10.0
1070
   143
1040
0.039
1070
   172
1070
     1
1070
   271
1070
     0
1070
   279
1070
     0
1070
   288
1070
     1
1002
}
  0
DIMENSION
  5
7BF9
  8
3
  6
CONTINUOUS
  2
*D8
 10
735.12683630551408
 20
1320.032053762958
 30
0.0
 11
615.04669930551415
 21
1320.032053762958
 31
0.0
 70
   128
 13
485.12683630551408
 23
1279.7370377629579
 33
0.0
 14
735.12683630551408
 24
1279.7370377629579
 34
0.0
1001
ACAD
1000
DSTYLE
1002
{
1070
   287
1070
     3
1070
   287
1070
     3
1070
    40
1040
10.0
1070
   143
1040
0.039
1070
   172
1070
     1
1070
   271
1070
     0
1070
   279
1070
     0
1070
   288
1070
     1
1002
}
  0
DIMENSION
  5
7C06
  8
3
  6
CONTINUOUS
  2
*D9
 10
485.12683630551408
 20
1388.5821887629579
 30
0.0
 11
379.76358830551402
 21
1388.5821887629579
 31
0.0
 70
   128
 13
299.13745230551422
 23
1079.7370377629579
 33
0.0
 14
485.12683630551408
 24
1279.7370377629579
 34
0.0
1001
ACAD
1000
DSTYLE
1002
{
1070
   287
1070
     3
1070
   287
1070
     3
1070
    40
1040
10.0
1070
   143
1040
0.039
1070
   172
1070
     1
1070
   271
1070
     0
1070
   279
1070
     0
1070
   288
1070
     1
1002
}
  0
DIMENSION
  5
7C12
  8
3
  6
CONTINUOUS
  2
*D10
 10
745.12683630551419
 20
1388.5821887629579
 30
0.0
 11
615.12683630551419
 21
1413.5821887629579
 31
0.0
 70
     0
 13
485.12683630551408
 23
1279.7370377629579
 33
0.0
 14
745.12683630551419
 24
1259.7370377629579
 34
0.0
1001
ACAD
1000
DSTYLE
1002
{
1070
   287
1070
     4
1070
   287
1070
     4
1070
    40
1040
10.0
1070
    75
1070
     1
1070
   143
1040
0.039
1070
   172
1070
     1
1070
   271
1070
     0
1070
   279
1070
     1
1070
   288
1070
     1
1002
}
  0
DIMENSION
  5
7C1F
  8
3
  6
CONTINUOUS
  2
*D11
 10
1035.126836305514
 20
1624.3096709276899
 30
0.0
 11
640.01879030551413
 21
1624.3096709276899
 31
0.0
 70
   128
 13
265.12683630551408
 23
1730.50079792769
 33
0.0
 14
1035.126836305514
 24
1730.50079792769
 34
0.0
1001
ACAD
1000
DSTYLE
1002
{
1070
   287
1070
     3
1070
   287
1070
     3
1070
    40
1040
10.0
1070
   143
1040
0.039
1070
   172
1070
     1
1070
   271
1070
     0
1070
   279
1070
     0
1070
   288
1070
     1
1002
}
  0
DIMENSION
  5
7C2C
  8
3
  6
CONTINUOUS
  2
*D12
 10
1131.1188053055139
 20
1730.50079792769
 30
0.0
 11
1131.1188053055139
 21
1971.4468059276901
 31
0.0
 70
   128
 13
1035.126836305514
 23
2210.5007979276902
 33
0.0
 14
1035.126836305514
 24
1730.50079792769
 34
0.0
 50
90.0
1001
ACAD
1000
DSTYLE
1002
{
1070
   287
1070
     3
1070
   287
1070
     3
1070
    40
1040
10.0
1070
   143
1040
0.039
1070
   172
1070
     1
1070
   271
1070
     0
1070
   279
1070
     0
1070
   288
1070
     1
1002
}
  0
LINE
  5
7C2D
  8
2
  6
CENTER
 10
485.12683630551408
 20
1290.1787657629579
 30
0.0
 11
485.12683630551408
 21
700.90640976295845
 31
0.0
  0
LINE
  5
7C2E
  8
2
  6
CENTER
 10
857.13528499999995
 20
2032.0690741633459
 30
0.0
 11
217.07475999999991
 21
2032.0690741633459
 31
0.0
  0
LINE
  5
7C2F
  8
2
  6
CENTER
 10
1613.2542858126669
 20
1329.955489762958
 30
0.0
 11
1613.2542858126669
 21
671.26381980396854
 31
0.0
  0
DIMENSION
  5
7C3D
  8
3
  6
CONTINUOUS
  2
*D13
 10
1613.2542858126669
 20
600.84169676295835
 30
0.0
 11
1443.444146812667
 21
600.84169676295835
 31
0.0
 70
   128
 13
1275.2542858126669
 23
682.73703776295838
 33
0.0
 14
1613.2542858126669
 24
682.73703776295838
 34
0.0
1001
ACAD
1000
DSTYLE
1002
{
1070
   287
1070
     3
1070
   287
1070
     3
1070
    40
1040
10.0
1070
   143
1040
0.039
1070
   172
1070
     1
1070
   271
1070
     0
1070
   279
1070
     0
1070
   288
1070
     1
1002
}
  0
DIMENSION
  5
7C49
  8
3
  6
CONTINUOUS
  2
*D14
 10
1755.2542858126669
 20
600.84169676295835
 30
0.0
 11
1684.2542858126669
 21
625.84169676295835
 31
0.0
 70
     0
 13
1613.2542858126669
 23
682.73703776295838
 33
0.0
 14
1755.2542858126669
 24
682.73703776295838
 34
0.0
1001
ACAD
1000
DSTYLE
1002
{
1070
   287
1070
     4
1070
   287
1070
     4
1070
    40
1040
10.0
1070
    75
1070
     1
1070
   143
1040
0.039
1070
   172
1070
     1
1070
   271
1070
     0
1070
   279
1070
     1
1070
   288
1070
     1
1002
}
  0
DIMENSION
  5
7C56
  8
3
  6
CONTINUOUS
  2
*D15
 10
1703.054285812666
 20
1325.6239807629579
 30
0.0
 11
1602.153309812667
 21
1325.6239807629579
 31
0.0
 70
   128
 13
1523.454285812667
 23
1279.7370377629579
 33
0.0
 14
1703.054285812666
 24
1279.7370377629579
 34
0.0
1001
ACAD
1000
DSTYLE
1002
{
1070
   287
1070
     3
1070
   287
1070
     3
1070
    40
1040
10.0
1070
   143
1040
0.039
1070
   172
1070
     1
1070
   271
1070
     0
1070
   279
1070
     0
1070
   288
1070
     1
1002
}
  0
DIMENSION
  5
7C63
  8
3
  6
CONTINUOUS
  2
*D16
 10
1613.2542858126669
 20
1391.432116762958
 30
0.0
 11
1452.4276848126669
 21
1391.432116762958
 31
0.0
 70
   128
  1
MAX\P340
 13
1273.2542858126669
 23
1204.7370377629579
 33
0.0
 14
1613.2542858126669
 24
1375.345971762958
 34
0.0
1001
ACAD
1000
DSTYLE
1002
{
1070
   287
1070
     3
1070
   287
1070
     3
1070
    40
1040
10.0
1070
   143
1040
0.039
1070
   172
1070
     1
1070
   271
1070
     0
1070
   279
1070
     0
1070
   288
1070
     1
1002
}
  0
DIMENSION
  5
7C71
  8
3
  6
CONTINUOUS
  2
*D17
 10
1712.2542858126669
 20
1391.432116762958
 30
0.0
 11
1662.0435578126669
 21
1391.432116762958
 31
0.0
 70
   128
 13
1613.2542858126669
 23
1375.345971762958
 33
0.0
 14
1712.2542858126669
 24
1226.7370377629579
 34
0.0
1001
ACAD
1000
DSTYLE
1002
{
1070
   287
1070
     4
1070
   287
1070
     4
1070
    40
1040
10.0
1070
    75
1070
     1
1070
   143
1040
0.039
1070
   172
1070
     1
1070
   271
1070
     0
1070
   279
1070
     1
1070
   288
1070
     1
1002
}
  0
LINE
  5
7C89
  8
3
  6
CONTINUOUS
 10
1712.2542858126669
 20
1204.7370377629579
 30
0.0
 11
1727.8923498126669
 21
1204.7370377629579
 31
0.0
  0
LINE
  5
7C8B
  8
3
  6
CONTINUOUS
 10
1712.2542858126669
 20
954.73703776295872
 30
0.0
 11
1729.370558812667
 21
954.73703776295872
 31
0.0
  0
DIMENSION
  5
7C98
  8
3
  6
CONTINUOUS
  2
*D18
 10
1781.3811368126669
 20
954.73703776295872
 30
0.0
 11
1781.3811368126669
 21
1066.349362762958
 31
0.0
 70
   128
 13
1712.2542858126669
 23
1204.7370377629579
 33
0.0
 14
1712.2542858126669
 24
954.73703776295872
 34
0.0
 50
90.0
1001
ACAD
1000
DSTYLE
1002
{
1070
   287
1070
     3
1070
   287
1070
     3
1070
     3
1000
φ<>
1070
    40
1040
10.0
1070
   143
1040
0.039
1070
   172
1070
     1
1070
   271
1070
     0
1070
   279
1070
     0
1070
   288
1070
     1
1002
}
  0
LINE
  5
7C99
  8
2
  6
CENTER
 10
827.44318030551403
 20
1079.7370377629579
 30
0.0
 11
270.65350630551433
 21
1079.7370377629579
 31
0.0
  0
DIMENSION
  5
7D53
  8
3
  2
*D20
 10
1035.126836305514
 20
1456.782794900133
 30
0.0
 11
692.08229844531877
 21
1456.782794900133
 31
0.0
 70
   128
 13
299.13745230551388
 23
1084.7370377629579
 33
0.0
 14
1035.126836305514
 24
742.73703776295849
 34
0.0
1001
ACAD
1000
DSTYLE
1002
{
1070
   287
1070
     3
1070
   287
1070
     3
1070
    40
1040
10.0
1070
   143
1040
0.039
1070
   172
1070
     1
1070
   271
1070
     0
1070
   279
1070
     0
1070
   288
1070
     1
1002
}
  0
ENDSEC
  0
EOF
