  0
SECTION
  2
HEADER
  9
$ACADVER
  1
AC1009
  9
$INSBASE
 10
0.0
 20
0.0
 30
0.0
  9
$EXTMIN
 10
250.0
 20
300.0
 30
0.0
  9
$EXTMAX
 10
1927.9631220000001
 20
2786.6522620000001
 30
0.0
  9
$LIMMIN
 10
0.0
 20
0.0
  9
$LIMMAX
 10
297.0
 20
210.0
  9
$ORTHOMODE
 70
     0
  9
$REGENMODE
 70
     1
  9
$FILLMODE
 70
     0
  9
$QTEXTMODE
 70
     0
  9
$MIRRTEXT
 70
     1
  9
$DRAGMODE
 70
     2
  9
$LTSCALE
 40
100.0
  9
$OSMODE
 70
    37
  9
$ATTMODE
 70
     1
  9
$TEXTSIZE
 40
180.0
  9
$TRACEWID
 40
0.05
  9
$TEXTSTYLE
  7
STANDARD
  9
$CLAYER
  8
3
  9
$CELTYPE
  6
BYLAYER
  9
$CECOLOR
 62
   256
  9
$DIMSCALE
 40
10.0
  9
$DIMASZ
 40
2.0
  9
$DIMEXO
 40
0.5
  9
$DIMDLI
 40
10.0
  9
$DIMRND
 40
0.0
  9
$DIMDLE
 40
0.0
  9
$DIMEXE
 40
1.0
  9
$DIMTP
 40
1.0
  9
$DIMTM
 40
1.0
  9
$DIMTXT
 40
3.0
  9
$DIMCEN
 40
0.0
  9
$DIMTSZ
 40
0.0
  9
$DIMTOL
 70
     0
  9
$DIMLIM
 70
     0
  9
$DIMTIH
 70
     0
  9
$DIMTOH
 70
     0
  9
$DIMSE1
 70
     0
  9
$DIMSE2
 70
     0
  9
$DIMTAD
 70
     1
  9
$DIMZIN
 70
     8
  9
$DIMBLK
  1

  9
$DIMASO
 70
     1
  9
$DIMSHO
 70
     1
  9
$DIMPOST
  1

  9
$DIMAPOST
  1

  9
$DIMALT
 70
     0
  9
$DIMALTD
 70
     2
  9
$DIMALTF
 40
0.039
  9
$DIMLFAC
 40
1.0
  9
$DIMTOFL
 70
     1
  9
$DIMTVP
 40
0.0
  9
$DIMTIX
 70
     0
  9
$DIMSOXD
 70
     0
  9
$DIMSAH
 70
     1
  9
$DIMBLK1
  1
OPEN
  9
$DIMBLK2
  1
OPEN
  9
$DIMSTYLE
  2
IGA
  9
$DIMCLRD
 70
     0
  9
$DIMCLRE
 70
     0
  9
$DIMCLRT
 70
     0
  9
$DIMTFAC
 40
10.0
  9
$DIMGAP
 40
1.0
  9
$LUNITS
 70
     2
  9
$LUPREC
 70
     3
  9
$SKETCHINC
 40
0.1
  9
$FILLETRAD
 40
50.0
  9
$AUNITS
 70
     0
  9
$AUPREC
 70
     0
  9
$MENU
  1
acad
  9
$ELEVATION
 40
0.0
  9
$PELEVATION
 40
0.0
  9
$THICKNESS
 40
0.0
  9
$LIMCHECK
 70
     0
  9
$BLIPMODE
 70
     0
  9
$CHAMFERA
 40
0.5
  9
$CHAMFERB
 40
0.5
  9
$SKPOLY
 70
     0
  9
$TDCREATE
 40
2450744.4023184022
  9
$TDUPDATE
 40
2454953.8629053468
  9
$TDINDWG
 40
0.0032381481
  9
$TDUSRTIMER
 40
0.0032381481
  9
$USRTIMER
 70
     1
  9
$ANGBASE
 50
0.0
  9
$ANGDIR
 70
     0
  9
$PDMODE
 70
     0
  9
$PDSIZE
 40
0.0
  9
$PLINEWID
 40
0.0
  9
$COORDS
 70
     1
  9
$SPLFRAME
 70
     0
  9
$SPLINETYPE
 70
     6
  9
$SPLINESEGS
 70
     8
  9
$ATTDIA
 70
     0
  9
$ATTREQ
 70
     1
  9
$HANDLING
 70
 10241
  9
$HANDSEED
  5
7F6C
  9
$SURFTAB1
 70
     6
  9
$SURFTAB2
 70
     6
  9
$SURFTYPE
 70
     6
  9
$SURFU
 70
     6
  9
$SURFV
 70
     6
  9
$UCSNAME
  2

  9
$UCSORG
 10
0.0
 20
0.0
 30
0.0
  9
$UCSXDIR
 10
1.0
 20
0.0
 30
0.0
  9
$UCSYDIR
 10
0.0
 20
1.0
 30
0.0
  9
$PUCSNAME
  2

  9
$PUCSORG
 10
0.0
 20
0.0
 30
0.0
  9
$PUCSXDIR
 10
1.0
 20
0.0
 30
0.0
  9
$PUCSYDIR
 10
0.0
 20
1.0
 30
0.0
  9
$USERI1
 70
     0
  9
$USERI2
 70
     0
  9
$USERI3
 70
     0
  9
$USERI4
 70
     0
  9
$USERI5
 70
     0
  9
$USERR1
 40
0.0
  9
$USERR2
 40
0.0
  9
$USERR3
 40
0.0
  9
$USERR4
 40
0.0
  9
$USERR5
 40
0.0
  9
$WORLDVIEW
 70
     1
  9
$SHADEDGE
 70
     3
  9
$SHADEDIF
 70
    70
  9
$TILEMODE
 70
     1
  9
$MAXACTVP
 70
    16
  9
$PLIMCHECK
 70
     0
  9
$PEXTMIN
 10
1.0000000000000000E+020
 20
1.0000000000000000E+020
 30
1.0000000000000000E+020
  9
$PEXTMAX
 10
-1.0000000000000000E+020
 20
-1.0000000000000000E+020
 30
-1.0000000000000000E+020
  9
$PLIMMIN
 10
0.0
 20
0.0
  9
$PLIMMAX
 10
12.0
 20
9.0
  9
$UNITMODE
 70
     0
  9
$VISRETAIN
 70
     0
  9
$PLINEGEN
 70
     0
  9
$PSLTSCALE
 70
     1
  0
ENDSEC
  0
SECTION
  2
TABLES
  0
TABLE
  2
VPORT
 70
     2
  0
VPORT
  2
*ACTIVE
 70
     0
 10
0.0
 20
0.0
 11
1.0
 21
1.0
 12
2938.8030002934679
 22
1941.4467522229061
 13
0.0
 23
0.0
 14
10.0
 24
10.0
 15
10.0
 25
10.0
 16
0.0
 26
0.0
 36
1.0
 17
0.0
 27
0.0
 37
0.0
 40
3860.4308998952438
 41
1.5051150895140659
 42
50.0
 43
0.0
 44
0.0
 50
0.0
 51
0.0
 71
     0
 72
   100
 73
     1
 74
     0
 75
     0
 76
     0
 77
     0
 78
     0
  0
ENDTAB
  0
TABLE
  2
LTYPE
 70
     2
  0
LTYPE
  2
CONTINUOUS
 70
     0
  3
Solid line
 72
    65
 73
     0
 40
0.0
  0
LTYPE
  2
CENTER
 70
     0
  3
____ _ ____ _ ____ _ ____ _ ____ _ ____ _ ____ 
 72
    65
 73
     4
 40
2.0
 49
1.25
 49
-0.25
 49
0.25
 49
-0.25
  0
ENDTAB
  0
TABLE
  2
LAYER
 70
     6
  0
LAYER
  2
0
 70
     0
 62
     7
  6
CONTINUOUS
  0
LAYER
  2
3
 70
     0
 62
     2
  6
CONTINUOUS
  0
LAYER
  2
2
 70
     0
 62
     3
  6
CENTER
  0
LAYER
  2
1
 70
     0
 62
     4
  6
CONTINUOUS
  0
LAYER
  2
4
 70
     0
 62
     7
  6
CONTINUOUS
  0
LAYER
  2
DEFPOINTS
 70
     0
 62
     7
  6
CONTINUOUS
  0
ENDTAB
  0
TABLE
  2
STYLE
 70
     1
  0
STYLE
  2
STANDARD
 70
     0
 40
0.0
 41
1.0
 50
0.0
 71
     0
 42
180.0
  3
simplex.shx
  4
extfont.shx
  0
ENDTAB
  0
TABLE
  2
VIEW
 70
     0
  0
ENDTAB
  0
TABLE
  2
UCS
 70
     0
  0
ENDTAB
  0
TABLE
  2
APPID
 70
     1
  0
APPID
  2
ACAD
 70
     0
  0
ENDTAB
  0
TABLE
  2
DIMSTYLE
 70
     1
  0
DIMSTYLE
  2
IGA
 70
     0
  3

  4

  5

  6
OPEN
  7
OPEN
 40
2.0
 41
2.0
 42
0.5
 43
10.0
 44
1.0
 45
0.0
 46
0.0
 47
1.0
 48
1.0
140
3.0
141
0.0
142
0.0
143
0.03937
144
1.0
145
0.0
146
10.0
147
1.0
 71
     0
 72
     0
 73
     0
 74
     0
 75
     0
 76
     0
 77
     1
 78
     8
170
     0
171
     2
172
     0
173
     1
174
     0
175
     0
176
     0
177
     0
178
     0
  0
ENDTAB
  0
ENDSEC
  0
SECTION
  2
BLOCKS
  0
BLOCK
  8
0
  2
$MODEL_SPACE
 70
     0
 10
0.0
 20
0.0
 30
0.0
  3
$MODEL_SPACE
  1

  0
ENDBLK
  5
1B
  8
0
  0
BLOCK
 67
     1
  8
0
  2
$PAPER_SPACE
 70
     0
 10
0.0
 20
0.0
 30
0.0
  3
$PAPER_SPACE
  1

  0
ENDBLK
  5
18
 67
     1
  8
0
  0
BLOCK
  8
0
  2
_OPEN
 70
     0
 10
0.0
 20
0.0
 30
0.0
  3
_OPEN
  1

  0
LINE
  5
7B5B
  8
0
  6
BYBLOCK
 62
     0
 10
-1.0
 20
0.166667
 30
0.0
 11
0.0
 21
0.0
 31
0.0
  0
LINE
  5
7B5C
  8
0
  6
BYBLOCK
 62
     0
 10
0.0
 20
0.0
 30
0.0
 11
-1.0
 21
-0.166667
 31
0.0
  0
LINE
  5
7B5D
  8
0
  6
BYBLOCK
 62
     0
 10
0.0
 20
0.0
 30
0.0
 11
-1.0
 21
0.0
 31
0.0
  0
ENDBLK
  5
7B5E
  8
0
  0
BLOCK
  8
0
  2
*D1
 70
     1
 10
0.0
 20
0.0
 30
0.0
  3
*D1
  1

  0
LINE
  5
7EAC
  8
3
  6
CONTINUOUS
 62
     0
 10
459.05004899999989
 20
669.46992360297963
 30
0.0
 11
459.05004899999989
 21
593.41258960297955
 31
0.0
  0
LINE
  5
7EAD
  8
3
  6
CONTINUOUS
 62
     0
 10
679.05004899999994
 20
679.30643960297971
 30
0.0
 11
679.05004899999994
 21
593.41258960297955
 31
0.0
  0
LINE
  5
7EAE
  8
3
  6
CONTINUOUS
 62
     0
 10
479.05004899999989
 20
603.41258960297955
 30
0.0
 11
659.05004899999994
 21
603.41258960297955
 31
0.0
  0
INSERT
  5
7EAF
  8
3
  6
CONTINUOUS
 62
     0
  2
_OPEN
 10
459.05004899999989
 20
603.41258960297955
 30
0.0
 41
20.0
 42
20.0
 43
20.0
 50
180.0
  0
INSERT
  5
7EB0
  8
3
  6
CONTINUOUS
 62
     0
  2
_OPEN
 10
679.05004899999994
 20
603.41258960297955
 30
0.0
 41
20.0
 42
20.0
 43
20.0
  0
TEXT
  8
3
  40
30
  5
7F58
  62
0
  72
0
  71
0
 10
513.024
 20
575.313
 30
0.000000
  1
220
  0
POINT
  5
7EB2
  8
DEFPOINTS
  6
CONTINUOUS
 62
     0
 10
459.05004899999989
 20
674.46992360297963
 30
0.0
  0
POINT
  5
7EB3
  8
DEFPOINTS
  6
CONTINUOUS
 62
     0
 10
679.05004899999994
 20
684.30643960297971
 30
0.0
  0
POINT
  5
7EB4
  8
DEFPOINTS
  6
CONTINUOUS
 62
     0
 10
679.05004899999994
 20
603.41258960297955
 30
0.0
  0
ENDBLK
  5
7B6B
  8
0
  0
BLOCK
  8
0
  2
*D2
 70
     1
 10
0.0
 20
0.0
 30
0.0
  3
*D2
  1

  0
LINE
  5
7EB5
  8
3
  6
CONTINUOUS
 62
     0
 10
1229.0500489999999
 20
669.46992360297963
 30
0.0
 11
1229.0500489999999
 21
593.41258960297955
 31
0.0
  0
LINE
  5
7EB6
  8
3
  6
CONTINUOUS
 62
     0
 10
699.05004899999994
 20
603.41258960297955
 30
0.0
 11
1209.0500489999999
 21
603.41258960297955
 31
0.0
  0
INSERT
  5
7EB7
  8
3
  6
CONTINUOUS
 62
     0
  2
_OPEN
 10
679.05004899999994
 20
603.41258960297955
 30
0.0
 41
20.0
 42
20.0
 43
20.0
 50
180.0
  0
INSERT
  5
7EB8
  8
3
  6
CONTINUOUS
 62
     0
  2
_OPEN
 10
1229.0500489999999
 20
603.41258960297955
 30
0.0
 41
20.0
 42
20.0
 43
20.0
  0
TEXT
  8
3
  40
30
  5
7F59
  62
0
  72
0
  71
0
 10
894.050
 20
575.313
 30
0.000000
  1
550
  0
POINT
  5
7EBA
  8
DEFPOINTS
  6
CONTINUOUS
 62
     0
 10
679.05004899999994
 20
684.30643960297971
 30
0.0
  0
POINT
  5
7EBB
  8
DEFPOINTS
  6
CONTINUOUS
 62
     0
 10
1229.0500489999999
 20
674.46992360297963
 30
0.0
  0
POINT
  5
7EBC
  8
DEFPOINTS
  6
CONTINUOUS
 62
     0
 10
1229.0500489999999
 20
603.41258960297955
 30
0.0
  0
ENDBLK
  5
7B77
  8
0
  0
BLOCK
  8
0
  2
*D3
 70
     1
 10
0.0
 20
0.0
 30
0.0
  3
*D3
  1

  0
LINE
  5
7EBD
  8
3
  6
CONTINUOUS
 62
     0
 10
474.05004899999989
 20
1321.469923602979
 30
0.0
 11
439.45498200000043
 21
1321.469923602979
 31
0.0
  0
LINE
  5
7EBE
  8
3
  6
CONTINUOUS
 62
     0
 10
474.05004899999989
 20
1071.469923602979
 30
0.0
 11
439.45498200000031
 21
1071.469923602979
 31
0.0
  0
LINE
  5
7EBF
  8
3
  6
CONTINUOUS
 62
     0
 10
449.45498200000043
 20
1301.469923602979
 30
0.0
 11
449.45498200000043
 21
1091.469923602979
 31
0.0
  0
INSERT
  5
7EC0
  8
3
  6
CONTINUOUS
 62
     0
  2
_OPEN
 10
449.45498200000043
 20
1321.469923602979
 30
0.0
 41
20.0
 42
20.0
 43
20.0
 50
90.0
  0
INSERT
  5
7EC1
  8
3
  6
CONTINUOUS
 62
     0
  2
_OPEN
 10
449.45498200000043
 20
1071.469923602979
 30
0.0
 41
20.0
 42
20.0
 43
20.0
 50
270.0
  0
TEXT
  8
3
  40
30
  5
7F5A
  62
0
  72
0
  71
0
 10
364.455
 20
1147.10
 30
0.000000
  1
250
  0
POINT
  5
7EC3
  8
DEFPOINTS
  6
CONTINUOUS
 62
     0
 10
479.05004899999989
 20
1321.469923602979
 30
0.0
  0
POINT
  5
7EC4
  8
DEFPOINTS
  6
CONTINUOUS
 62
     0
 10
479.05004899999989
 20
1071.469923602979
 30
0.0
  0
POINT
  5
7EC5
  8
DEFPOINTS
  6
CONTINUOUS
 62
     0
 10
449.45498200000043
 20
1071.469923602979
 30
0.0
  0
ENDBLK
  5
7CFD
  8
0
  0
BLOCK
  8
0
  2
*D4
 70
     1
 10
0.0
 20
0.0
 30
0.0
  3
*D4
  1

  0
LINE
  5
7EC6
  8
3
  6
CONTINUOUS
 62
     0
 10
494.05004899999989
 20
1331.469923602979
 30
0.0
 11
363.36107200000032
 21
1331.469923602979
 31
0.0
  0
LINE
  5
7EC7
  8
3
  6
CONTINUOUS
 62
     0
 10
474.05004899999989
 20
1071.469923602979
 30
0.0
 11
363.36107200000032
 21
1071.469923602979
 31
0.0
  0
LINE
  5
7EC8
  8
3
  6
CONTINUOUS
 62
     0
 10
373.36107200000032
 20
1311.469923602979
 30
0.0
 11
373.36107200000032
 21
1091.469923602979
 31
0.0
  0
INSERT
  5
7EC9
  8
3
  6
CONTINUOUS
 62
     0
  2
_OPEN
 10
373.36107200000032
 20
1331.469923602979
 30
0.0
 41
20.0
 42
20.0
 43
20.0
 50
90.0
  0
INSERT
  5
7ECA
  8
3
  6
CONTINUOUS
 62
     0
  2
_OPEN
 10
373.36107200000032
 20
1071.469923602979
 30
0.0
 41
20.0
 42
20.0
 43
20.0
 50
270.0
  0
TEXT
  8
3
  40
30
  5
7F5B
  62
0
  72
0
  71
0
 10
288.361
 20
1148.37
 30
0.000000
  1
260
  0
POINT
  5
7ECC
  8
DEFPOINTS
  6
CONTINUOUS
 62
     0
 10
499.05004899999989
 20
1331.469923602979
 30
0.0
  0
POINT
  5
7ECD
  8
DEFPOINTS
  6
CONTINUOUS
 62
     0
 10
479.05004899999989
 20
1071.469923602979
 30
0.0
  0
POINT
  5
7ECE
  8
DEFPOINTS
  6
CONTINUOUS
 62
     0
 10
373.36107200000032
 20
1071.469923602979
 30
0.0
  0
ENDBLK
  5
7D08
  8
0
  0
BLOCK
  8
0
  2
*D5
 70
     1
 10
0.0
 20
0.0
 30
0.0
  3
*D5
  1

  0
LINE
  5
7ECF
  8
3
  6
CONTINUOUS
 62
     0
 10
484.05004899999989
 20
756.46992360297963
 30
0.0
 11
363.36107200000009
 21
756.46992360297963
 31
0.0
  0
LINE
  5
7ED0
  8
3
  6
CONTINUOUS
 62
     0
 10
373.36107200000009
 20
1051.469923602979
 30
0.0
 11
373.36107200000009
 21
776.46992360297963
 31
0.0
  0
INSERT
  5
7ED1
  8
3
  6
CONTINUOUS
 62
     0
  2
_OPEN
 10
373.36107200000009
 20
1071.469923602979
 30
0.0
 41
20.0
 42
20.0
 43
20.0
 50
90.0
  0
INSERT
  5
7ED2
  8
3
  6
CONTINUOUS
 62
     0
  2
_OPEN
 10
373.36107200000009
 20
756.46992360297963
 30
0.0
 41
20.0
 42
20.0
 43
20.0
 50
270.0
  0
TEXT
  8
3
  40
30
  5
7F5C
  62
0
  72
0
  71
0
 10
288.361
 20
860.870
 30
0.000000
  1
315
  0
POINT
  5
7ED4
  8
DEFPOINTS
  6
CONTINUOUS
 62
     0
 10
479.05004899999989
 20
1071.469923602979
 30
0.0
  0
POINT
  5
7ED5
  8
DEFPOINTS
  6
CONTINUOUS
 62
     0
 10
489.05004899999989
 20
756.46992360297963
 30
0.0
  0
POINT
  5
7ED6
  8
DEFPOINTS
  6
CONTINUOUS
 62
     0
 10
373.36107200000009
 20
756.46992360297963
 30
0.0
  0
ENDBLK
  5
7D12
  8
0
  0
BLOCK
  8
0
  2
*D6
 70
     1
 10
0.0
 20
0.0
 30
0.0
  3
*D6
  1

  0
LINE
  5
7ED7
  8
3
  6
CONTINUOUS
 62
     0
 10
454.05004899999989
 20
704.46992360297963
 30
0.0
 11
363.36107200000009
 21
704.46992360297963
 31
0.0
  0
LINE
  5
7ED8
  8
3
  6
CONTINUOUS
 62
     0
 10
373.36107200000009
 20
776.46992360297963
 30
0.0
 11
373.36107200000009
 21
796.46992360297963
 31
0.0
  0
LINE
  5
7ED9
  8
3
  6
CONTINUOUS
 62
     0
 10
373.36107200000009
 20
684.46992360297963
 30
0.0
 11
373.36107200000009
 21
664.46992360297963
 31
0.0
  0
TEXT
  8
3
  40
30
  5
7F5D
  62
0
  72
0
  71
0
 10
275.612
 20
683.072
 30
0.000000
  1
52
  0
LINE
  5
7EDB
  8
3
  6
CONTINUOUS
 62
     0
 10
373.36107200000009
 20
756.46992360297963
 30
0.0
 11
373.36107200000009
 21
704.46992360297963
 31
0.0
  0
INSERT
  5
7EDC
  8
3
  6
CONTINUOUS
 62
     0
  2
_OPEN
 10
373.36107200000009
 20
756.46992360297963
 30
0.0
 41
20.0
 42
20.0
 43
20.0
 50
270.0
  0
INSERT
  5
7EDD
  8
3
  6
CONTINUOUS
 62
     0
  2
_DOT
 10
373.36107200000009
 20
704.46992360297963
 30
0.0
 41
20.0
 42
20.0
 43
20.0
 50
90.0
  0
POINT
  5
7EDE
  8
DEFPOINTS
  6
CONTINUOUS
 62
     0
 10
489.05004899999989
 20
756.46992360297963
 30
0.0
  0
POINT
  5
7EDF
  8
DEFPOINTS
  6
CONTINUOUS
 62
     0
 10
459.05004899999989
 20
704.46992360297963
 30
0.0
  0
POINT
  5
7EE0
  8
DEFPOINTS
  6
CONTINUOUS
 62
     0
 10
373.36107200000009
 20
704.46992360297963
 30
0.0
  0
ENDBLK
  5
7D81
  8
0
  0
BLOCK
  8
0
  2
*D7
 70
     1
 10
0.0
 20
0.0
 30
0.0
  3
*D7
  1

  0
LINE
  5
7EE1
  8
3
  6
CONTINUOUS
 62
     0
 10
454.05004899999989
 20
704.46992360297963
 30
0.0
 11
363.36107200000021
 21
704.46992360297963
 31
0.0
  0
LINE
  5
7EE2
  8
3
  6
CONTINUOUS
 62
     0
 10
454.05004899999989
 20
674.46992360297963
 30
0.0
 11
363.36107200000021
 21
674.46992360297963
 31
0.0
  0
LINE
  5
7EE3
  8
3
  6
CONTINUOUS
 62
     0
 10
373.36107200000021
 20
724.46992360297963
 30
0.0
 11
373.36107200000021
 21
744.46992360297963
 31
0.0
  0
LINE
  5
7EE4
  8
3
  6
CONTINUOUS
 62
     0
 10
373.36107200000021
 20
654.46992360297963
 30
0.0
 11
373.36107200000009
 21
565.89849503155096
 31
0.0
  0
LINE
  5
7EE5
  8
3
  6
CONTINUOUS
 62
     0
 10
373.36107200000021
 20
704.46992360297963
 30
0.0
 11
373.36107200000021
 21
674.46992360297963
 31
0.0
  0
INSERT
  5
7EE6
  8
3
  6
CONTINUOUS
 62
     0
  2
_DOT
 10
373.36107200000021
 20
704.46992360297963
 30
0.0
 41
20.0
 42
20.0
 43
20.0
 50
270.0
  0
INSERT
  5
7EE7
  8
3
  6
CONTINUOUS
 62
     0
  2
_OPEN
 10
373.36107200000021
 20
674.46992360297963
 30
0.0
 41
20.0
 42
20.0
 43
20.0
 50
90.0
  0
TEXT
  8
3
  40
30
  5
7F5E
  62
0
  72
0
  71
0
 10
288.361
 20
547.084
 30
0.000000
  1
30
  0
POINT
  5
7EE9
  8
DEFPOINTS
  6
CONTINUOUS
 62
     0
 10
459.05004899999989
 20
704.46992360297963
 30
0.0
  0
POINT
  5
7EEA
  8
DEFPOINTS
  6
CONTINUOUS
 62
     0
 10
459.05004899999989
 20
674.46992360297963
 30
0.0
  0
POINT
  5
7EEB
  8
DEFPOINTS
  6
CONTINUOUS
 62
     0
 10
373.36107200000021
 20
674.46992360297963
 30
0.0
  0
ENDBLK
  5
7D8E
  8
0
  0
BLOCK
  8
0
  2
*D8
 70
     1
 10
0.0
 20
0.0
 30
0.0
  3
*D8
  1

  0
LINE
  5
7EEC
  8
3
  6
CONTINUOUS
 62
     0
 10
474.05004899999989
 20
1342.469923602979
 30
0.0
 11
297.22707800000012
 21
1342.469923602979
 31
0.0
  0
LINE
  5
7EED
  8
3
  6
CONTINUOUS
 62
     0
 10
454.05004899999989
 20
674.46992360297963
 30
0.0
 11
297.22707800000001
 21
674.46992360297963
 31
0.0
  0
LINE
  5
7EEE
  8
3
  6
CONTINUOUS
 62
     0
 10
307.22707800000012
 20
1322.469923602979
 30
0.0
 11
307.22707800000001
 21
694.46992360297963
 31
0.0
  0
INSERT
  5
7EEF
  8
3
  6
CONTINUOUS
 62
     0
  2
_OPEN
 10
307.22707800000012
 20
1342.469923602979
 30
0.0
 41
20.0
 42
20.0
 43
20.0
 50
90.0
  0
INSERT
  5
7EF0
  8
3
  6
CONTINUOUS
 62
     0
  2
_OPEN
 10
307.22707800000001
 20
674.46992360297963
 30
0.0
 41
20.0
 42
20.0
 43
20.0
 50
270.0
  0
TEXT
  8
3
  40
30
  5
7F5F
  62
0
  72
0
  71
0
 10
222.227
 20
942.547
 30
0.000000
  1
668
  0
POINT
  5
7EF2
  8
DEFPOINTS
  6
CONTINUOUS
 62
     0
 10
479.05004899999989
 20
1342.469923602979
 30
0.0
  0
POINT
  5
7EF3
  8
DEFPOINTS
  6
CONTINUOUS
 62
     0
 10
459.05004899999989
 20
674.46992360297963
 30
0.0
  0
POINT
  5
7EF4
  8
DEFPOINTS
  6
CONTINUOUS
 62
     0
 10
307.22707800000001
 20
674.46992360297963
 30
0.0
  0
ENDBLK
  5
7D35
  8
0
  0
BLOCK
  8
0
  2
*D9
 70
     1
 10
0.0
 20
0.0
 30
0.0
  3
*D9
  1

  0
LINE
  5
7EF5
  8
3
  6
CONTINUOUS
 62
     0
 10
479.05004899999989
 20
1347.469923602979
 30
0.0
 11
479.05004899999989
 21
1420.1837926029791
 31
0.0
  0
LINE
  5
7EF6
  8
3
  6
CONTINUOUS
 62
     0
 10
679.05004899999994
 20
1336.469923602979
 30
0.0
 11
679.05004899999994
 21
1420.1837926029791
 31
0.0
  0
LINE
  5
7EF7
  8
3
  6
CONTINUOUS
 62
     0
 10
499.05004899999989
 20
1410.1837926029791
 30
0.0
 11
659.05004899999994
 21
1410.1837926029791
 31
0.0
  0
INSERT
  5
7EF8
  8
3
  6
CONTINUOUS
 62
     0
  2
_OPEN
 10
479.05004899999989
 20
1410.1837926029791
 30
0.0
 41
20.0
 42
20.0
 43
20.0
 50
180.0
  0
INSERT
  5
7EF9
  8
3
  6
CONTINUOUS
 62
     0
  2
_OPEN
 10
679.05004899999994
 20
1410.1837926029791
 30
0.0
 41
20.0
 42
20.0
 43
20.0
  0
TEXT
  8
3
  40
30
  5
7F60
  62
0
  72
0
  71
0
 10
522.620
 20
1382.08
 30
0.000000
  1
200
  0
POINT
  5
7EFB
  8
DEFPOINTS
  6
CONTINUOUS
 62
     0
 10
479.05004899999989
 20
1342.469923602979
 30
0.0
  0
POINT
  5
7EFC
  8
DEFPOINTS
  6
CONTINUOUS
 62
     0
 10
679.05004899999994
 20
1331.469923602979
 30
0.0
  0
POINT
  5
7EFD
  8
DEFPOINTS
  6
CONTINUOUS
 62
     0
 10
679.05004899999994
 20
1410.1837926029791
 30
0.0
  0
ENDBLK
  5
7C36
  8
0
  0
BLOCK
  8
0
  2
*D10
 70
     1
 10
0.0
 20
0.0
 30
0.0
  3
*D10
  1

  0
LINE
  5
7EFE
  8
3
  6
CONTINUOUS
 62
     0
 10
899.03943299999992
 20
1076.469923602979
 30
0.0
 11
899.03943299999992
 21
1420.1837926029791
 31
0.0
  0
LINE
  5
7EFF
  8
3
  6
CONTINUOUS
 62
     0
 10
699.05004899999994
 20
1410.1837926029791
 30
0.0
 11
879.03943299999992
 21
1410.1837926029791
 31
0.0
  0
INSERT
  5
7F00
  8
3
  6
CONTINUOUS
 62
     0
  2
_OPEN
 10
679.05004899999994
 20
1410.1837926029791
 30
0.0
 41
20.0
 42
20.0
 43
20.0
 50
180.0
  0
INSERT
  5
7F01
  8
3
  6
CONTINUOUS
 62
     0
  2
_OPEN
 10
899.03943299999992
 20
1410.1837926029791
 30
0.0
 41
20.0
 42
20.0
 43
20.0
  0
TEXT
  8
3
  40
30
  5
7F61
  62
0
  72
0
  71
0
 10
729.045
 20
1382.08
 30
0.000000
  1
220
  0
POINT
  5
7F03
  8
DEFPOINTS
  6
CONTINUOUS
 62
     0
 10
679.05004899999994
 20
1331.469923602979
 30
0.0
  0
POINT
  5
7F04
  8
DEFPOINTS
  6
CONTINUOUS
 62
     0
 10
899.03943299999992
 20
1071.469923602979
 30
0.0
  0
POINT
  5
7F05
  8
DEFPOINTS
  6
CONTINUOUS
 62
     0
 10
899.03943299999992
 20
1410.1837926029791
 30
0.0
  0
ENDBLK
  5
7C42
  8
0
  0
BLOCK
  8
0
  2
*D11
 70
     1
 10
0.0
 20
0.0
 30
0.0
  3
*D11
  1

  0
LINE
  5
7F06
  8
3
  6
CONTINUOUS
 62
     0
 10
459.050049
 20
1762.894959
 30
0.0
 11
459.050049
 21
1626.8949769999999
 31
0.0
  0
LINE
  5
7F07
  8
3
  6
CONTINUOUS
 62
     0
 10
1229.0500489999999
 20
1762.894959
 30
0.0
 11
1229.0500489999999
 21
1626.8949769999999
 31
0.0
  0
LINE
  5
7F08
  8
3
  6
CONTINUOUS
 62
     0
 10
479.050049
 20
1636.8949769999999
 30
0.0
 11
1209.0500489999999
 21
1636.8949769999999
 31
0.0
  0
INSERT
  5
7F09
  8
3
  6
CONTINUOUS
 62
     0
  2
_OPEN
 10
459.050049
 20
1636.8949769999999
 30
0.0
 41
20.0
 42
20.0
 43
20.0
 50
180.0
  0
INSERT
  5
7F0A
  8
3
  6
CONTINUOUS
 62
     0
  2
_OPEN
 10
1229.0500489999999
 20
1636.8949769999999
 30
0.0
 41
20.0
 42
20.0
 43
20.0
  0
TEXT
  8
3
  40
30
  5
7F62
  62
0
  72
0
  71
0
 10
769.554
 20
1608.79
 30
0.000000
  1
770
  0
POINT
  5
7F0C
  8
DEFPOINTS
  6
CONTINUOUS
 62
     0
 10
459.050049
 20
1767.8949589999991
 30
0.0
  0
POINT
  5
7F0D
  8
DEFPOINTS
  6
CONTINUOUS
 62
     0
 10
1229.0500489999999
 20
1767.8949589999991
 30
0.0
  0
POINT
  5
7F0E
  8
DEFPOINTS
  6
CONTINUOUS
 62
     0
 10
1229.0500489999999
 20
1636.8949769999999
 30
0.0
  0
ENDBLK
  5
7C4F
  8
0
  0
BLOCK
  8
0
  2
*D12
 70
     1
 10
0.0
 20
0.0
 30
0.0
  3
*D12
  1

  0
LINE
  5
7F0F
  8
3
  6
CONTINUOUS
 62
     0
 10
1234.0500489999999
 20
2247.8949590000002
 30
0.0
 11
1334.638412
 21
2247.8949590000002
 31
0.0
  0
LINE
  5
7F10
  8
3
  6
CONTINUOUS
 62
     0
 10
1234.0500489999999
 20
1767.8949589999991
 30
0.0
 11
1334.638412
 21
1767.8949589999991
 31
0.0
  0
LINE
  5
7F11
  8
3
  6
CONTINUOUS
 62
     0
 10
1324.638412
 20
2227.8949590000002
 30
0.0
 11
1324.638412
 21
1787.894959
 31
0.0
  0
INSERT
  5
7F12
  8
3
  6
CONTINUOUS
 62
     0
  2
_OPEN
 10
1324.638412
 20
2247.8949590000002
 30
0.0
 41
20.0
 42
20.0
 43
20.0
 50
90.0
  0
INSERT
  5
7F13
  8
3
  6
CONTINUOUS
 62
     0
  2
_OPEN
 10
1324.638412
 20
1767.8949589999991
 30
0.0
 41
20.0
 42
20.0
 43
20.0
 50
270.0
  0
TEXT
  8
3
  40
30
  5
7F63
  62
0
  72
0
  71
0
 10
1239.64
 20
1975.82
 30
0.000000
  1
480
  0
POINT
  5
7F15
  8
DEFPOINTS
  6
CONTINUOUS
 62
     0
 10
1229.0500489999999
 20
2247.8949590000002
 30
0.0
  0
POINT
  5
7F16
  8
DEFPOINTS
  6
CONTINUOUS
 62
     0
 10
1229.0500489999999
 20
1767.8949589999991
 30
0.0
  0
POINT
  5
7F17
  8
DEFPOINTS
  6
CONTINUOUS
 62
     0
 10
1324.638412
 20
1767.8949589999991
 30
0.0
  0
ENDBLK
  5
7C5C
  8
0
  0
BLOCK
  8
0
  2
*D13
 70
     1
 10
0.0
 20
0.0
 30
0.0
  3
*D13
  1

  0
LINE
  5
7F18
  8
3
  6
CONTINUOUS
 62
     0
 10
1406.4800170000001
 20
669.46992360297963
 30
0.0
 11
1406.4800170000001
 21
591.60732760297969
 31
0.0
  0
LINE
  5
7F19
  8
3
  6
CONTINUOUS
 62
     0
 10
1744.4800170000001
 20
669.46992360297963
 30
0.0
 11
1744.4800170000001
 21
591.60732760297969
 31
0.0
  0
LINE
  5
7F1A
  8
3
  6
CONTINUOUS
 62
     0
 10
1426.4800170000001
 20
601.60732760297958
 30
0.0
 11
1724.4800170000001
 21
601.60732760297958
 31
0.0
  0
INSERT
  5
7F1B
  8
3
  6
CONTINUOUS
 62
     0
  2
_OPEN
 10
1406.4800170000001
 20
601.60732760297958
 30
0.0
 41
20.0
 42
20.0
 43
20.0
 50
180.0
  0
INSERT
  5
7F1C
  8
3
  6
CONTINUOUS
 62
     0
  2
_OPEN
 10
1744.4800170000001
 20
601.60732760297958
 30
0.0
 41
20.0
 42
20.0
 43
20.0
  0
TEXT
  8
3
  40
30
  5
7F64
  62
0
  72
0
  71
0
 10
1531.35
 20
573.507
 30
0.000000
  1
338
  0
POINT
  5
7F1E
  8
DEFPOINTS
  6
CONTINUOUS
 62
     0
 10
1406.4800170000001
 20
674.46992360297963
 30
0.0
  0
POINT
  5
7F1F
  8
DEFPOINTS
  6
CONTINUOUS
 62
     0
 10
1744.4800170000001
 20
674.46992360297963
 30
0.0
  0
POINT
  5
7F20
  8
DEFPOINTS
  6
CONTINUOUS
 62
     0
 10
1744.4800170000001
 20
601.60732760297958
 30
0.0
  0
ENDBLK
  5
7C6C
  8
0
  0
BLOCK
  8
0
  2
*D14
 70
     1
 10
0.0
 20
0.0
 30
0.0
  3
*D14
  1

  0
LINE
  5
7F21
  8
3
  6
CONTINUOUS
 62
     0
 10
1886.4800170000001
 20
669.46992360297963
 30
0.0
 11
1886.4800170000001
 21
591.60732760297969
 31
0.0
  0
LINE
  5
7F22
  8
3
  6
CONTINUOUS
 62
     0
 10
1764.4800170000001
 20
601.60732760297958
 30
0.0
 11
1866.4800170000001
 21
601.60732760297958
 31
0.0
  0
INSERT
  5
7F23
  8
3
  6
CONTINUOUS
 62
     0
  2
_OPEN
 10
1744.4800170000001
 20
601.60732760297958
 30
0.0
 41
20.0
 42
20.0
 43
20.0
 50
180.0
  0
INSERT
  5
7F24
  8
3
  6
CONTINUOUS
 62
     0
  2
_OPEN
 10
1886.4800170000001
 20
601.60732760297958
 30
0.0
 41
20.0
 42
20.0
 43
20.0
  0
TEXT
  8
3
  40
30
  5
7F65
  62
0
  72
0
  71
0
 10
1755.48
 20
573.507
 30
0.000000
  1
142
  0
POINT
  5
7F26
  8
DEFPOINTS
  6
CONTINUOUS
 62
     0
 10
1744.4800170000001
 20
674.46992360297963
 30
0.0
  0
POINT
  5
7F27
  8
DEFPOINTS
  6
CONTINUOUS
 62
     0
 10
1886.4800170000001
 20
674.46992360297963
 30
0.0
  0
POINT
  5
7F28
  8
DEFPOINTS
  6
CONTINUOUS
 62
     0
 10
1886.4800170000001
 20
601.60732760297958
 30
0.0
  0
ENDBLK
  5
7C78
  8
0
  0
BLOCK
  8
0
  2
*D15
 70
     1
 10
0.0
 20
0.0
 30
0.0
  3
*D15
  1

  0
LINE
  5
7F29
  8
3
  6
CONTINUOUS
 62
     0
 10
1654.4800170000001
 20
1327.469923602979
 30
0.0
 11
1654.4800170000001
 21
1380.2786086029789
 31
0.0
  0
LINE
  5
7F2A
  8
3
  6
CONTINUOUS
 62
     0
 10
1834.4800170000001
 20
1327.469923602979
 30
0.0
 11
1834.4800170000001
 21
1380.2786086029789
 31
0.0
  0
LINE
  5
7F2B
  8
3
  6
CONTINUOUS
 62
     0
 10
1674.4800170000001
 20
1370.2786086029789
 30
0.0
 11
1814.4800170000001
 21
1370.2786086029789
 31
0.0
  0
INSERT
  5
7F2C
  8
3
  6
CONTINUOUS
 62
     0
  2
_OPEN
 10
1654.4800170000001
 20
1370.2786086029789
 30
0.0
 41
20.0
 42
20.0
 43
20.0
 50
180.0
  0
INSERT
  5
7F2D
  8
3
  6
CONTINUOUS
 62
     0
  2
_OPEN
 10
1834.4800170000001
 20
1370.2786086029789
 30
0.0
 41
20.0
 42
20.0
 43
20.0
  0
TEXT
  8
3
  40
30
  5
7F66
  62
0
  72
0
  71
0
 10
1675.35
 20
1342.18
 30
0.000000
  1
180
  0
POINT
  5
7F2F
  8
DEFPOINTS
  6
CONTINUOUS
 62
     0
 10
1654.4800170000001
 20
1322.469923602979
 30
0.0
  0
POINT
  5
7F30
  8
DEFPOINTS
  6
CONTINUOUS
 62
     0
 10
1834.4800170000001
 20
1322.469923602979
 30
0.0
  0
POINT
  5
7F31
  8
DEFPOINTS
  6
CONTINUOUS
 62
     0
 10
1834.4800170000001
 20
1370.2786086029789
 30
0.0
  0
ENDBLK
  5
7C85
  8
0
  0
BLOCK
  8
0
  2
*D16
 70
     1
 10
0.0
 20
0.0
 30
0.0
  3
*D16
  1

  0
LINE
  5
7F32
  8
3
  6
CONTINUOUS
 62
     0
 10
1404.4800170000001
 20
1201.469923602979
 30
0.0
 11
1404.4800170000001
 21
1445.111097602979
 31
0.0
  0
LINE
  5
7F33
  8
3
  6
CONTINUOUS
 62
     0
 10
1744.4800170000001
 20
1425.399109602979
 30
0.0
 11
1744.4800170000001
 21
1445.111097602979
 31
0.0
  0
LINE
  5
7F34
  8
3
  6
CONTINUOUS
 62
     0
 10
1424.4800170000001
 20
1435.111097602979
 30
0.0
 11
1724.4800170000001
 21
1435.111097602979
 31
0.0
  0
INSERT
  5
7F35
  8
3
  6
CONTINUOUS
 62
     0
  2
_OPEN
 10
1404.4800170000001
 20
1435.111097602979
 30
0.0
 41
20.0
 42
20.0
 43
20.0
 50
180.0
  0
INSERT
  5
7F36
  8
3
  6
CONTINUOUS
 62
     0
  2
_OPEN
 10
1744.4800170000001
 20
1435.111097602979
 30
0.0
 41
20.0
 42
20.0
 43
20.0
  0
TEXT
  8
3
  40
30
  5
7F67
  62
0
  72
0
  71
0
 10
1525.26
 20
1432.01
 30
0.000000
  1
MAX
  0
TEXT
  8
3
  40
30
  5
7F68
  62
0
  72
0
  71
0
 10
1525.26
 20
1393.01
 30
0.000000
  1
340
  0
POINT
  5
7F38
  8
DEFPOINTS
  6
CONTINUOUS
 62
     0
 10
1404.4800170000001
 20
1196.469923602979
 30
0.0
  0
POINT
  5
7F39
  8
DEFPOINTS
  6
CONTINUOUS
 62
     0
 10
1744.4800170000001
 20
1420.399109602979
 30
0.0
  0
POINT
  5
7F3A
  8
DEFPOINTS
  6
CONTINUOUS
 62
     0
 10
1744.4800170000001
 20
1435.111097602979
 30
0.0
  0
ENDBLK
  5
7D55
  8
0
  0
BLOCK
  8
0
  2
*D17
 70
     1
 10
0.0
 20
0.0
 30
0.0
  3
*D17
  1

  0
LINE
  5
7F3B
  8
3
  6
CONTINUOUS
 62
     0
 10
1843.4800170000001
 20
1223.469923602979
 30
0.0
 11
1843.4800170000001
 21
1445.111097602979
 31
0.0
  0
LINE
  5
7F3C
  8
3
  6
CONTINUOUS
 62
     0
 10
1764.4800170000001
 20
1435.111097602979
 30
0.0
 11
1823.480016999999
 21
1435.111097602979
 31
0.0
  0
TEXT
  8
3
  40
30
  5
7F69
  62
0
  72
0
  71
0
 10
1734.17
 20
1402.96
 30
0.000000
  1
99
  0
INSERT
  5
7F3E
  8
3
  6
CONTINUOUS
 62
     0
  2
_OPEN
 10
1744.4800170000001
 20
1435.111097602979
 30
0.0
 41
20.0
 42
20.0
 43
20.0
 50
180.0
  0
INSERT
  5
7F3F
  8
3
  6
CONTINUOUS
 62
     0
  2
_OPEN
 10
1843.4800170000001
 20
1435.111097602979
 30
0.0
 41
20.0
 42
20.0
 43
20.0
  0
POINT
  5
7F40
  8
DEFPOINTS
  6
CONTINUOUS
 62
     0
 10
1744.4800170000001
 20
1420.399109602979
 30
0.0
  0
POINT
  5
7F41
  8
DEFPOINTS
  6
CONTINUOUS
 62
     0
 10
1843.4800170000001
 20
1218.469923602979
 30
0.0
  0
POINT
  5
7F42
  8
DEFPOINTS
  6
CONTINUOUS
 62
     0
 10
1843.4800170000001
 20
1435.111097602979
 30
0.0
  0
ENDBLK
  5
7CE2
  8
0
  0
BLOCK
  8
0
  2
*D18
 70
     1
 10
0.0
 20
0.0
 30
0.0
  3
*D18
  1

  0
LINE
  5
7F43
  8
3
  6
CONTINUOUS
 62
     0
 10
1848.480016999999
 20
1196.469923602979
 30
0.0
 11
1927.9631220000001
 21
1196.469923602979
 31
0.0
  0
LINE
  5
7F44
  8
3
  6
CONTINUOUS
 62
     0
 10
1848.480016999999
 20
946.46992360297963
 30
0.0
 11
1927.9631220000001
 21
946.46992360297963
 31
0.0
  0
LINE
  5
7F45
  8
3
  6
CONTINUOUS
 62
     0
 10
1917.9631220000001
 20
1176.469923602979
 30
0.0
 11
1917.9631220000001
 21
966.46992360297975
 31
0.0
  0
INSERT
  5
7F46
  8
3
  6
CONTINUOUS
 62
     0
  2
_OPEN
 10
1917.9631220000001
 20
1196.469923602979
 30
0.0
 41
20.0
 42
20.0
 43
20.0
 50
90.0
  0
INSERT
  5
7F47
  8
3
  6
CONTINUOUS
 62
     0
  2
_OPEN
 10
1917.9631220000001
 20
946.46992360297963
 30
0.0
 41
20.0
 42
20.0
 43
20.0
 50
270.0
  0
TEXT
  8
3
  40
30
  5
7F6A
  62
0
  72
0
  71
0
 10
1832.96
 20
1017.77
 30
0.000000
  1
φ250
  0
POINT
  5
7F49
  8
DEFPOINTS
  6
CONTINUOUS
 62
     0
 10
1843.4800170000001
 20
1196.469923602979
 30
0.0
  0
POINT
  5
7F4A
  8
DEFPOINTS
  6
CONTINUOUS
 62
     0
 10
1843.4800170000001
 20
946.46992360297963
 30
0.0
  0
POINT
  5
7F4B
  8
DEFPOINTS
  6
CONTINUOUS
 62
     0
 10
1917.9631220000001
 20
946.46992360297963
 30
0.0
  0
ENDBLK
  5
7D60
  8
0
  0
BLOCK
  8
0
  2
_DOT
 70
     0
 10
0.0
 20
0.0
 30
0.0
  3
_DOT
  1

  0
LINE
  5
7D8F
  8
0
  6
BYBLOCK
 62
     0
 10
0.0
 20
0.0
 30
0.0
 11
-1.0
 21
-0.0000000000000284
 31
0.0
  0
POLYLINE
  5
7D90
  8
0
  6
BYBLOCK
 62
     0
 66
     1
 10
0.0
 20
0.0
 30
0.0
 70
     1
 40
0.1666666666666666
 41
0.1666666666666666
  0
VERTEX
  5
7F4C
  8
0
  6
BYBLOCK
 62
     0
 10
-0.0833333333333286
 20
-0.0000000000000284
 30
0.0
 42
1.0
  0
VERTEX
  5
7F4D
  8
0
  6
BYBLOCK
 62
     0
 10
0.0833333333333286
 20
-0.0000000000000284
 30
0.0
 42
1.0
  0
SEQEND
  5
7F4E
  8
0
  6
BYBLOCK
 62
     0
  0
ENDBLK
  5
7D75
  8
0
  0
BLOCK
  8
0
  2
*D20
 70
     1
 10
0.0
 20
0.0
 30
0.0
  3
*D20
  1

  0
LINE
  5
7F4F
  8
3
 62
     0
 10
479.05004899999989
 20
1347.469923602979
 30
0.0
 11
479.05004899999989
 21
1494.324888985059
 31
0.0
  0
LINE
  5
7F50
  8
3
 62
     0
 10
1229.0500489999999
 20
739.46992360297963
 30
0.0
 11
1229.0500489999999
 21
1494.324888985059
 31
0.0
  0
LINE
  5
7F51
  8
3
 62
     0
 10
499.05004899999989
 20
1484.324888985059
 30
0.0
 11
1209.0500489999999
 21
1484.324888985059
 31
0.0
  0
INSERT
  5
7F52
  8
3
 62
     0
  2
_OPEN
 10
479.05004899999989
 20
1484.324888985059
 30
0.0
 41
20.0
 42
20.0
 43
20.0
 50
180.0
  0
INSERT
  5
7F53
  8
3
 62
     0
  2
_OPEN
 10
1229.0500489999999
 20
1484.324888985059
 30
0.0
 41
20.0
 42
20.0
 43
20.0
  0
TEXT
  8
3
  40
30
  5
7F6B
  62
0
  72
0
  71
0
 10
787.836
 20
1456.22
 30
0.000000
  1
750
  0
POINT
  5
7F55
  8
DEFPOINTS
 62
     0
 10
479.05004899999989
 20
1342.469923602979
 30
0.0
  0
POINT
  5
7F56
  8
DEFPOINTS
 62
     0
 10
1229.0500489999999
 20
734.46992360297963
 30
0.0
  0
POINT
  5
7F57
  8
DEFPOINTS
 62
     0
 10
1229.0500489999999
 20
1484.324888985059
 30
0.0
  0
ENDBLK
  5
7DAB
  8
0
  0
ENDSEC
  0
SECTION
  2
ENTITIES
  0
LINE
  5
7A9D
  8
1
  6
CONTINUOUS
 10
479.050049
 20
2195.6949589999999
 30
0.0
 11
877.95004900000004
 21
2195.6949589999999
 31
0.0
  0
LINE
  5
7A9E
  8
1
  6
CONTINUOUS
 10
479.050049
 20
2016.094959
 30
0.0
 11
877.95004900000004
 21
2016.094959
 31
0.0
  0
LINE
  5
7A9F
  8
1
  6
CONTINUOUS
 10
479.050049
 20
2186.694958999999
 30
0.0
 11
499.050049
 21
2166.694958999999
 31
0.0
  0
LINE
  5
7AA0
  8
1
  6
CONTINUOUS
 10
479.050049
 20
2025.094959
 30
0.0
 11
499.050049
 21
2045.094959
 31
0.0
  0
LINE
  5
7AA1
  8
1
  6
CONTINUOUS
 10
1229.0500489999999
 20
704.46992360297963
 30
0.0
 11
459.05004899999989
 21
704.46992360297963
 31
0.0
  0
LINE
  5
7AA2
  8
1
  6
CONTINUOUS
 10
1229.0500489999999
 20
734.46992360297963
 30
0.0
 11
459.05004899999989
 21
734.46992360297963
 31
0.0
  0
LINE
  5
7AA3
  8
1
  6
CONTINUOUS
 10
479.05004899999989
 20
1321.469923602979
 30
0.0
 11
499.05004899999989
 21
1301.469923602979
 31
0.0
  0
LINE
  5
7AA4
  8
1
  6
CONTINUOUS
 10
479.05004899999989
 20
1071.469923602979
 30
0.0
 11
499.05004899999989
 21
1091.469923602979
 31
0.0
  0
LINE
  5
7AA5
  8
1
  6
CONTINUOUS
 10
459.050049
 20
1847.8949589999991
 30
0.0
 11
667.05004900000006
 21
1847.8949589999991
 31
0.0
  0
LINE
  5
7AA6
  8
1
  6
CONTINUOUS
 10
479.05004899999989
 20
1321.469923602979
 30
0.0
 11
499.05004899999989
 21
1321.469923602979
 31
0.0
  0
LINE
  5
7AA7
  8
1
  6
CONTINUOUS
 10
479.05004899999989
 20
1071.469923602979
 30
0.0
 11
499.05004899999989
 21
1071.469923602979
 31
0.0
  0
LINE
  5
7AA8
  8
1
  6
CONTINUOUS
 10
489.05004899999989
 20
2247.8949590000002
 30
0.0
 11
459.050049
 21
2247.8949590000002
 31
0.0
  0
LINE
  5
7AA9
  8
1
  6
CONTINUOUS
 10
489.05004899999989
 20
1767.8949589999991
 30
0.0
 11
459.050049
 21
1767.8949589999991
 31
0.0
  0
LINE
  5
7AAA
  8
1
  6
CONTINUOUS
 10
459.05004899999989
 20
674.46992360297963
 30
0.0
 11
489.05004899999989
 21
674.46992360297963
 31
0.0
  0
LINE
  5
7AAB
  8
1
  6
CONTINUOUS
 10
459.05004899999989
 20
734.46992360297963
 30
0.0
 11
459.05004899999989
 21
674.46992360297963
 31
0.0
  0
LINE
  5
7AAC
  8
1
  6
CONTINUOUS
 10
479.05004899999989
 20
1050.469923602979
 30
0.0
 11
479.05004899999989
 21
1342.469923602979
 31
0.0
  0
LINE
  5
7AAD
  8
1
  6
CONTINUOUS
 10
479.050049
 20
2216.8949590000002
 30
0.0
 11
479.050049
 21
1994.894959
 31
0.0
  0
LINE
  5
7AAE
  8
1
  6
CONTINUOUS
 10
459.050049
 20
2247.8949590000002
 30
0.0
 11
459.050049
 21
1767.8949589999991
 31
0.0
  0
LINE
  5
7AAF
  8
1
  6
CONTINUOUS
 10
459.050049
 20
2097.8949590000002
 30
0.0
 11
479.050049
 21
2097.8949590000002
 31
0.0
  0
ARC
  5
7AB0
  8
1
  6
CONTINUOUS
 10
696.05004899999994
 20
1088.469923602979
 30
0.0
 40
203.6999999999999
 50
264.5
 51
355.39999999999992
  0
ARC
  5
7AB1
  8
1
  6
CONTINUOUS
 10
659.05004899999994
 20
1091.469923602979
 30
0.0
 40
240.90000000000001
 50
355.39999999999992
 51
85.099999999999994
  0
LINE
  5
7AB2
  8
1
  6
CONTINUOUS
 10
1199.0500489999999
 20
756.46992360297963
 30
0.0
 11
489.05004899999989
 21
756.46992360297963
 31
0.0
  0
LINE
  5
7AB3
  8
1
  6
CONTINUOUS
 10
1199.0500489999999
 20
816.46992360297975
 30
0.0
 11
489.05004899999989
 21
816.46992360297975
 31
0.0
  0
LINE
  5
7AB4
  8
1
  6
CONTINUOUS
 10
678.85004900000013
 20
1196.469923602979
 30
0.0
 11
1134.0500489999999
 21
996.46992360297963
 31
0.0
  0
LINE
  5
7AB5
  8
1
  6
CONTINUOUS
 10
1020.750048999999
 20
855.26992360297947
 30
0.0
 11
653.95004900000004
 21
1013.169923602979
 31
0.0
  0
LINE
  5
7AB6
  8
1
  6
CONTINUOUS
 10
1065.1500490000001
 20
951.46992360297963
 30
0.0
 11
707.15004899999985
 21
1128.369923602979
 31
0.0
  0
CIRCLE
  5
7AB7
  8
1
  6
CONTINUOUS
 10
679.05004899999994
 20
1071.469923602979
 30
0.0
 40
145.0
  0
ARC
  5
7AB8
  8
1
  6
CONTINUOUS
 10
693.05004899999994
 20
1057.469923602979
 30
0.0
 40
172.59999999999991
 50
178.69999999999999
 51
264.5
  0
LINE
  5
7AB9
  8
1
  6
CONTINUOUS
 10
839.05004899999994
 20
1137.5699236029791
 30
0.0
 11
839.05004899999994
 21
816.46992360297975
 31
0.0
  0
LINE
  5
7ABA
  8
1
  6
CONTINUOUS
 10
519.05004899999994
 20
816.46992360297975
 30
0.0
 11
519.05004899999994
 21
1137.5699236029791
 31
0.0
  0
LINE
  5
7ABB
  8
1
  6
CONTINUOUS
 10
554.05004899999994
 20
816.46992360297975
 30
0.0
 11
554.05004899999994
 21
1126.469923602979
 31
0.0
  0
LINE
  5
7ABC
  8
1
  6
CONTINUOUS
 10
489.05004899999989
 20
816.46992360297975
 30
0.0
 11
489.05004899999989
 21
756.46992360297963
 31
0.0
  0
LINE
  5
7ABD
  8
1
  6
CONTINUOUS
 10
489.05004899999989
 20
704.46992360297963
 30
0.0
 11
489.05004899999989
 21
674.46992360297963
 31
0.0
  0
CIRCLE
  5
7ABE
  8
1
  6
CONTINUOUS
 10
679.05004899999994
 20
1071.469923602979
 30
0.0
 40
125.0
  0
LINE
  5
7ABF
  8
2
  6
CENTER
 10
443.75772999999981
 20
1071.469923602979
 30
0.0
 11
1012.6622599999999
 21
1071.469923602979
 31
0.0
  0
LINE
  5
7AC0
  8
1
  6
CONTINUOUS
 10
519.05004899999994
 20
1038.169923602979
 30
0.0
 11
839.05004899999994
 21
1038.169923602979
 31
0.0
  0
LINE
  5
7AC1
  8
1
  6
CONTINUOUS
 10
617.45004900000004
 20
1221.469923602979
 30
0.0
 11
740.65004899999985
 21
1221.469923602979
 31
0.0
  0
CIRCLE
  5
7AC2
  8
1
  6
CONTINUOUS
 10
679.05004899999994
 20
1071.469923602979
 30
0.0
 40
63.5
  0
LINE
  5
7AC3
  8
1
  6
CONTINUOUS
 10
499.05004899999989
 20
1301.469923602979
 30
0.0
 11
499.05004899999989
 21
1091.469923602979
 31
0.0
  0
LINE
  5
7AC4
  8
1
  6
CONTINUOUS
 10
617.45004900000004
 20
1221.469923602979
 30
0.0
 11
519.05004899999994
 21
1137.5699236029791
 31
0.0
  0
LINE
  5
7AC5
  8
1
  6
CONTINUOUS
 10
554.05004899999994
 20
1126.469923602979
 30
0.0
 11
678.85004900000013
 21
1196.469923602979
 31
0.0
  0
LINE
  5
7AC6
  8
1
  6
CONTINUOUS
 10
499.05004899999989
 20
1061.469923602979
 30
0.0
 11
520.45004900000004
 21
1061.469923602979
 31
0.0
  0
LINE
  5
7AC7
  8
1
  6
CONTINUOUS
 10
499.05004899999989
 20
1071.469923602979
 30
0.0
 11
499.05004899999989
 21
1061.469923602979
 31
0.0
  0
LINE
  5
7AC8
  8
2
  6
CENTER
 10
679.05004899999994
 20
2245.5652169999998
 30
0.0
 11
679.05004899999994
 21
1732.3192949999991
 31
0.0
  0
LINE
  5
7AC9
  8
1
  6
CONTINUOUS
 10
499.05004899999989
 20
1331.469923602979
 30
0.0
 11
679.45004900000004
 21
1331.469923602979
 31
0.0
  0
LINE
  5
7ACA
  8
1
  6
CONTINUOUS
 10
499.05004899999989
 20
1331.469923602979
 30
0.0
 11
499.05004899999989
 21
1321.469923602979
 31
0.0
  0
LINE
  5
7ACB
  8
1
  6
CONTINUOUS
 10
740.65004899999985
 20
1221.469923602979
 30
0.0
 11
839.05004899999994
 21
1137.5699236029791
 31
0.0
  0
ARC
  5
7ACC
  8
1
  6
CONTINUOUS
 10
1041.6500490000001
 20
903.96992360297975
 30
0.0
 40
75.799999999999997
 50
322.89999999999992
 51
217.09999999999991
  0
LINE
  5
7ACD
  8
1
  6
CONTINUOUS
 10
1134.0500489999999
 20
816.46992360297975
 30
0.0
 11
1134.0500489999999
 21
996.46992360297963
 31
0.0
  0
CIRCLE
  5
7ACE
  8
1
  6
CONTINUOUS
 10
1041.6500490000001
 20
903.96992360297975
 30
0.0
 40
53.0
  0
LINE
  5
7ACF
  8
2
  6
CENTER
 10
1041.6500490000001
 20
850.96992360297963
 30
0.0
 11
1041.6500490000001
 21
956.96992360297963
 31
0.0
  0
LINE
  5
7AD0
  8
1
  6
CONTINUOUS
 10
944.35004900000013
 20
836.46992360297963
 30
0.0
 11
1199.0500489999999
 21
836.46992360297963
 31
0.0
  0
LINE
  5
7AD1
  8
2
  6
CENTER
 10
1094.6500490000001
 20
903.96992360297975
 30
0.0
 11
988.65004899999985
 21
903.96992360297975
 31
0.0
  0
POINT
  5
7AD2
  8
1
  6
CONTINUOUS
 10
971.25004899999999
 20
903.96992360297975
 30
0.0
  0
LINE
  5
7AD3
  8
1
  6
CONTINUOUS
 10
975.65004899999985
 20
843.96992360297952
 30
0.0
 11
981.25004899999988
 21
858.26992360297959
 31
0.0
  0
LINE
  5
7AD4
  8
1
  6
CONTINUOUS
 10
975.65004899999985
 20
836.46992360297963
 30
0.0
 11
975.65004899999985
 21
843.96992360297952
 31
0.0
  0
LINE
  5
7AD5
  8
1
  6
CONTINUOUS
 10
944.35004900000013
 20
816.46992360297975
 30
0.0
 11
944.35004900000013
 21
836.46992360297963
 31
0.0
  0
LINE
  5
7AD6
  8
1
  6
CONTINUOUS
 10
1107.6500490000001
 20
836.46992360297963
 30
0.0
 11
1107.6500490000001
 21
843.96992360297952
 31
0.0
  0
LINE
  5
7AD7
  8
1
  6
CONTINUOUS
 10
1107.6500490000001
 20
843.96992360297952
 30
0.0
 11
1102.1500490000001
 21
858.26992360297959
 31
0.0
  0
LINE
  5
7AD8
  8
1
  6
CONTINUOUS
 10
1229.0500489999999
 20
734.46992360297963
 30
0.0
 11
1229.0500489999999
 21
674.46992360297963
 31
0.0
  0
LINE
  5
7AD9
  8
1
  6
CONTINUOUS
 10
1199.0500489999999
 20
816.46992360297975
 30
0.0
 11
1199.0500489999999
 21
756.46992360297963
 31
0.0
  0
LINE
  5
7ADA
  8
1
  6
CONTINUOUS
 10
1199.0500489999999
 20
836.46992360297963
 30
0.0
 11
1199.0500489999999
 21
816.46992360297975
 31
0.0
  0
LINE
  5
7ADB
  8
1
  6
CONTINUOUS
 10
1199.0500489999999
 20
704.46992360297963
 30
0.0
 11
1199.0500489999999
 21
674.46992360297963
 31
0.0
  0
LINE
  5
7ADC
  8
1
  6
CONTINUOUS
 10
1229.0500489999999
 20
674.46992360297963
 30
0.0
 11
1199.0500489999999
 21
674.46992360297963
 31
0.0
  0
LINE
  5
7ADD
  8
1
  6
CONTINUOUS
 10
889.95004900000015
 20
2097.8949590000002
 30
0.0
 11
1229.0500489999999
 21
2097.8949590000002
 31
0.0
  0
LINE
  5
7ADE
  8
1
  6
CONTINUOUS
 10
554.05004899999994
 20
1765.8949589999991
 30
0.0
 11
1134.0500489999999
 21
1765.8949589999991
 31
0.0
  0
LINE
  5
7ADF
  8
1
  6
CONTINUOUS
 10
554.05004899999994
 20
1840.8949589999991
 30
0.0
 11
1134.0500489999999
 21
1840.8949589999991
 31
0.0
  0
LINE
  5
7AE0
  8
1
  6
CONTINUOUS
 10
691.05004899999994
 20
1847.8949589999991
 30
0.0
 11
1029.750049
 21
1847.8949589999991
 31
0.0
  0
LINE
  5
7AE1
  8
1
  6
CONTINUOUS
 10
889.95004900000015
 20
2184.6949589999999
 30
0.0
 11
889.95004900000015
 21
2027.094959
 31
0.0
  0
LINE
  5
7AE2
  8
1
  6
CONTINUOUS
 10
889.95004900000015
 20
2183.694958999999
 30
0.0
 11
889.95004900000015
 21
2028.094959
 31
0.0
  0
LINE
  5
7AE3
  8
1
  6
CONTINUOUS
 10
519.05004899999994
 20
2006.8949589999991
 30
0.0
 11
839.05004899999994
 21
2006.8949589999991
 31
0.0
  0
LINE
  5
7AE4
  8
1
  6
CONTINUOUS
 10
615.55004899999994
 20
1820.894959
 30
0.0
 11
742.55004900000006
 21
1820.894959
 31
0.0
  0
LINE
  5
7AE5
  8
1
  6
CONTINUOUS
 10
615.55004899999994
 20
1785.894959
 30
0.0
 11
742.55004900000006
 21
1785.894959
 31
0.0
  0
LINE
  5
7AE6
  8
1
  6
CONTINUOUS
 10
691.05004899999994
 20
1877.8949589999991
 30
0.0
 11
839.05004899999994
 21
1877.8949589999991
 31
0.0
  0
LINE
  5
7AE7
  8
1
  6
CONTINUOUS
 10
519.05004899999994
 20
1877.8949589999991
 30
0.0
 11
667.05004900000006
 21
1877.8949589999991
 31
0.0
  0
LINE
  5
7AE8
  8
1
  6
CONTINUOUS
 10
532.05004899999994
 20
2016.094959
 30
0.0
 11
532.05004899999994
 21
2006.8949589999991
 31
0.0
  0
LINE
  5
7AE9
  8
1
  6
CONTINUOUS
 10
519.05004899999994
 20
1877.8949589999991
 30
0.0
 11
519.05004899999994
 21
2006.8949589999991
 31
0.0
  0
LINE
  5
7AEA
  8
1
  6
CONTINUOUS
 10
554.05004899999994
 20
1765.8949589999991
 30
0.0
 11
554.05004899999994
 21
1840.8949589999991
 31
0.0
  0
LINE
  5
7AEB
  8
1
  6
CONTINUOUS
 10
489.05004899999989
 20
1847.8949589999991
 30
0.0
 11
489.05004899999989
 21
1767.8949589999991
 31
0.0
  0
LINE
  5
7AEC
  8
1
  6
CONTINUOUS
 10
615.55004899999994
 20
1785.894959
 30
0.0
 11
615.55004899999994
 21
1820.894959
 31
0.0
  0
LINE
  5
7AED
  8
1
  6
CONTINUOUS
 10
691.05004899999994
 20
1820.894959
 30
0.0
 11
691.05004899999994
 21
2006.8949589999991
 31
0.0
  0
LINE
  5
7AEE
  8
1
  6
CONTINUOUS
 10
667.05004900000006
 20
1820.894959
 30
0.0
 11
667.05004900000006
 21
2006.8949589999991
 31
0.0
  0
LINE
  5
7AEF
  8
1
  6
CONTINUOUS
 10
742.55004900000006
 20
1785.894959
 30
0.0
 11
742.55004900000006
 21
1820.894959
 31
0.0
  0
ARC
  5
7AF0
  8
1
  6
CONTINUOUS
 10
877.95004900000004
 20
2028.094959
 30
0.0
 40
12.0
 50
270.0
 51
0.0
  0
LINE
  5
7AF1
  8
1
  6
CONTINUOUS
 10
826.05004899999994
 20
2016.094959
 30
0.0
 11
826.05004899999994
 21
2006.8949589999991
 31
0.0
  0
LINE
  5
7AF2
  8
1
  6
CONTINUOUS
 10
839.05004899999994
 20
2006.8949589999991
 30
0.0
 11
839.05004899999994
 21
1877.8949589999991
 31
0.0
  0
LINE
  5
7AF3
  8
1
  6
CONTINUOUS
 10
826.05004899999994
 20
2204.8949590000002
 30
0.0
 11
532.05004899999994
 21
2204.8949590000002
 31
0.0
  0
LINE
  5
7AF4
  8
1
  6
CONTINUOUS
 10
532.05004899999994
 20
2196.694958999999
 30
0.0
 11
532.05004899999994
 21
2204.8949590000002
 31
0.0
  0
LINE
  5
7AF5
  8
1
  6
CONTINUOUS
 10
499.050049
 20
2166.694958999999
 30
0.0
 11
499.050049
 21
2045.094959
 31
0.0
  0
LINE
  5
7AF6
  8
1
  6
CONTINUOUS
 10
489.05004899999989
 20
2247.8949590000002
 30
0.0
 11
489.05004899999989
 21
2196.694958999999
 31
0.0
  0
LINE
  5
7AF7
  8
1
  6
CONTINUOUS
 10
826.05004899999994
 20
2196.694958999999
 30
0.0
 11
826.05004899999994
 21
2204.8949590000002
 31
0.0
  0
ARC
  5
7AF8
  8
1
  6
CONTINUOUS
 10
877.95004900000004
 20
2183.694958999999
 30
0.0
 40
12.0
 50
0.0
 51
90.0
  0
LINE
  5
7AF9
  8
1
  6
CONTINUOUS
 10
1229.0500489999999
 20
2247.8949590000002
 30
0.0
 11
1229.0500489999999
 21
1767.8949589999991
 31
0.0
  0
LINE
  5
7AFA
  8
1
  6
CONTINUOUS
 10
965.05004899999994
 20
1872.1949589999999
 30
0.0
 11
965.05004899999994
 21
2076.194958999999
 31
0.0
  0
LINE
  5
7AFB
  8
1
  6
CONTINUOUS
 10
1116.550048999999
 20
1872.1949589999999
 30
0.0
 11
1116.550048999999
 21
2076.194958999999
 31
0.0
  0
LINE
  5
7AFC
  8
1
  6
CONTINUOUS
 10
1053.750049
 20
1847.8949589999991
 30
0.0
 11
1229.0500489999999
 21
1847.8949589999991
 31
0.0
  0
LINE
  5
7AFD
  8
1
  6
CONTINUOUS
 10
965.05004899999994
 20
1872.1949589999999
 30
0.0
 11
1116.550048999999
 21
1872.1949589999999
 31
0.0
  0
LINE
  5
7AFE
  8
1
  6
CONTINUOUS
 10
988.75004899999999
 20
1820.894959
 30
0.0
 11
1094.7500489999991
 21
1820.894959
 31
0.0
  0
LINE
  5
7AFF
  8
1
  6
CONTINUOUS
 10
988.75004899999999
 20
1785.894959
 30
0.0
 11
1094.7500489999991
 21
1785.894959
 31
0.0
  0
LINE
  5
7B00
  8
1
  6
CONTINUOUS
 10
988.75004899999999
 20
1785.894959
 30
0.0
 11
988.75004899999999
 21
1820.894959
 31
0.0
  0
LINE
  5
7B01
  8
1
  6
CONTINUOUS
 10
1029.750049
 20
1820.894959
 30
0.0
 11
1029.750049
 21
1872.1949589999999
 31
0.0
  0
LINE
  5
7B02
  8
1
  6
CONTINUOUS
 10
1053.750049
 20
1820.894959
 30
0.0
 11
1053.750049
 21
1872.1949589999999
 31
0.0
  0
LINE
  5
7B03
  8
1
  6
CONTINUOUS
 10
1094.7500489999991
 20
1785.894959
 30
0.0
 11
1094.7500489999991
 21
1820.894959
 31
0.0
  0
LINE
  5
7B04
  8
1
  6
CONTINUOUS
 10
1134.0500489999999
 20
1765.8949589999991
 30
0.0
 11
1134.0500489999999
 21
1840.8949589999991
 31
0.0
  0
LINE
  5
7B05
  8
1
  6
CONTINUOUS
 10
1199.0500489999999
 20
1847.8949589999991
 30
0.0
 11
1199.0500489999999
 21
1767.8949589999991
 31
0.0
  0
LINE
  5
7B06
  8
1
  6
CONTINUOUS
 10
1199.0500489999999
 20
1767.8949589999991
 30
0.0
 11
1229.0500489999999
 21
1767.8949589999991
 31
0.0
  0
LINE
  5
7B07
  8
1
  6
CONTINUOUS
 10
965.05004899999994
 20
2076.194958999999
 30
0.0
 11
1116.550048999999
 21
2076.194958999999
 31
0.0
  0
LINE
  5
7B08
  8
1
  6
CONTINUOUS
 10
1199.0500489999999
 20
2247.8949590000002
 30
0.0
 11
1229.0500489999999
 21
2247.8949590000002
 31
0.0
  0
LINE
  5
7B09
  8
1
  6
CONTINUOUS
 10
1199.0500489999999
 20
2247.8949590000002
 30
0.0
 11
1199.0500489999999
 21
2097.8949590000002
 31
0.0
  0
LINE
  5
7B0A
  8
1
  6
CONTINUOUS
 10
1406.4800170000001
 20
674.46992360297963
 30
0.0
 11
1886.4800170000001
 21
674.46992360297963
 31
0.0
  0
LINE
  5
7B0B
  8
1
  6
CONTINUOUS
 10
1516.4800170000001
 20
1033.2699236029789
 30
0.0
 11
1645.4800170000001
 21
1137.5699236029791
 31
0.0
  0
LINE
  5
7B0C
  8
1
  6
CONTINUOUS
 10
1486.4800170000001
 20
756.46992360297963
 30
0.0
 11
1736.4800170000001
 21
756.46992360297963
 31
0.0
  0
LINE
  5
7B0D
  8
1
  6
CONTINUOUS
 10
1404.4800170000001
 20
816.46992360297975
 30
0.0
 11
1736.4800170000001
 21
816.46992360297975
 31
0.0
  0
LINE
  5
7B0E
  8
1
  6
CONTINUOUS
 10
1406.4800170000001
 20
704.46992360297963
 30
0.0
 11
1886.4800170000001
 21
704.46992360297963
 31
0.0
  0
LINE
  5
7B0F
  8
1
  6
CONTINUOUS
 10
1486.4800170000001
 20
734.46992360297963
 30
0.0
 11
1736.4800170000001
 21
734.46992360297963
 31
0.0
  0
LINE
  5
7B10
  8
1
  6
CONTINUOUS
 10
1459.4800170000001
 20
956.96992360297963
 30
0.0
 11
1459.4800170000001
 21
850.96992360297963
 31
0.0
  0
LINE
  5
7B11
  8
1
  6
CONTINUOUS
 10
1424.4800170000001
 20
956.96992360297963
 30
0.0
 11
1424.4800170000001
 21
850.96992360297963
 31
0.0
  0
LINE
  5
7B12
  8
1
  6
CONTINUOUS
 10
1479.4800170000001
 20
816.46992360297975
 30
0.0
 11
1479.4800170000001
 21
1196.469923602979
 31
0.0
  0
LINE
  5
7B13
  8
1
  6
CONTINUOUS
 10
1404.4800170000001
 20
816.46992360297975
 30
0.0
 11
1404.4800170000001
 21
1196.469923602979
 31
0.0
  0
LINE
  5
7B14
  8
1
  6
CONTINUOUS
 10
1516.4800170000001
 20
816.46992360297975
 30
0.0
 11
1516.4800170000001
 21
1033.2699236029789
 31
0.0
  0
LINE
  5
7B19
  8
1
  6
CONTINUOUS
 10
1459.4800170000001
 20
915.96992360297963
 30
0.0
 11
1516.4800170000001
 21
915.96992360297963
 31
0.0
  0
LINE
  5
7B1A
  8
1
  6
CONTINUOUS
 10
1459.4800170000001
 20
891.96992360297963
 30
0.0
 11
1516.4800170000001
 21
891.96992360297963
 31
0.0
  0
LINE
  5
7B1B
  8
1
  6
CONTINUOUS
 10
1406.4800170000001
 20
704.46992360297963
 30
0.0
 11
1406.4800170000001
 21
674.46992360297963
 31
0.0
  0
LINE
  5
7B1C
  8
1
  6
CONTINUOUS
 10
1424.4800170000001
 20
850.96992360297963
 30
0.0
 11
1459.4800170000001
 21
850.96992360297963
 31
0.0
  0
LINE
  5
7B1D
  8
1
  6
CONTINUOUS
 10
1486.4800170000001
 20
816.46992360297975
 30
0.0
 11
1486.4800170000001
 21
756.46992360297963
 31
0.0
  0
LINE
  5
7B1E
  8
1
  6
CONTINUOUS
 10
1486.4800170000001
 20
734.46992360297963
 30
0.0
 11
1486.4800170000001
 21
704.46992360297963
 31
0.0
  0
LINE
  5
7B1F
  8
1
  6
CONTINUOUS
 10
1459.4800170000001
 20
1059.469923602979
 30
0.0
 11
1548.880017
 21
1059.469923602979
 31
0.0
  0
LINE
  5
7B20
  8
1
  6
CONTINUOUS
 10
1459.4800170000001
 20
1083.469923602979
 30
0.0
 11
1578.580017
 21
1083.469923602979
 31
0.0
  0
LINE
  5
7B21
  8
1
  6
CONTINUOUS
 10
1404.4800170000001
 20
1196.469923602979
 30
0.0
 11
1479.4800170000001
 21
1196.469923602979
 31
0.0
  0
LINE
  5
7B22
  8
1
  6
CONTINUOUS
 10
1424.4800170000001
 20
956.96992360297963
 30
0.0
 11
1459.4800170000001
 21
956.96992360297963
 31
0.0
  0
LINE
  5
7B23
  8
1
  6
CONTINUOUS
 10
1459.4800170000001
 20
1134.969923602979
 30
0.0
 11
1459.4800170000001
 21
1007.969923602979
 31
0.0
  0
LINE
  5
7B24
  8
1
  6
CONTINUOUS
 10
1424.4800170000001
 20
1007.969923602979
 30
0.0
 11
1459.4800170000001
 21
1007.969923602979
 31
0.0
  0
LINE
  5
7B25
  8
1
  6
CONTINUOUS
 10
1424.4800170000001
 20
1134.969923602979
 30
0.0
 11
1459.4800170000001
 21
1134.969923602979
 31
0.0
  0
LINE
  5
7B26
  8
1
  6
CONTINUOUS
 10
1424.4800170000001
 20
1134.969923602979
 30
0.0
 11
1424.4800170000001
 21
1007.969923602979
 31
0.0
  0
LINE
  5
7B27
  8
1
  6
CONTINUOUS
 10
1843.4800170000001
 20
1218.469923602979
 30
0.0
 11
1843.4800170000001
 21
924.46992360297975
 31
0.0
  0
LINE
  5
7B28
  8
1
  6
CONTINUOUS
 10
1834.4800170000001
 20
872.56992360297954
 30
0.0
 11
1834.4800170000001
 21
1322.469923602979
 31
0.0
  0
LINE
  5
7B29
  8
1
  6
CONTINUOUS
 10
1654.4800170000001
 20
1322.469923602979
 30
0.0
 11
1654.4800170000001
 21
872.56992360297954
 31
0.0
  0
LINE
  5
7B2A
  8
1
  6
CONTINUOUS
 10
1645.4800170000001
 20
1218.469923602979
 30
0.0
 11
1645.4800170000001
 21
816.46992360297975
 31
0.0
  0
LINE
  5
7B2B
  8
1
  6
CONTINUOUS
 10
1665.4800170000001
 20
860.56992360297966
 30
0.0
 11
1823.480016999999
 21
860.56992360297966
 31
0.0
  0
LINE
  5
7B2C
  8
1
  6
CONTINUOUS
 10
1654.4800170000001
 20
924.46992360297975
 30
0.0
 11
1645.4800170000001
 21
924.46992360297975
 31
0.0
  0
ARC
  5
7B2D
  8
1
  6
CONTINUOUS
 10
1665.4800170000001
 20
872.56992360297954
 30
0.0
 40
12.0
 50
180.0
 51
270.0
  0
ARC
  5
7B2E
  8
1
  6
CONTINUOUS
 10
1666.4800170000001
 20
872.56992360297954
 30
0.0
 40
12.0
 50
180.0
 51
270.0
  0
LINE
  5
7B2F
  8
1
  6
CONTINUOUS
 10
1736.4800170000001
 20
816.46992360297975
 30
0.0
 11
1736.4800170000001
 21
756.46992360297963
 31
0.0
  0
LINE
  5
7B30
  8
1
  6
CONTINUOUS
 10
1736.4800170000001
 20
734.46992360297963
 30
0.0
 11
1736.4800170000001
 21
704.46992360297963
 31
0.0
  0
LINE
  5
7B31
  8
1
  6
CONTINUOUS
 10
1834.4800170000001
 20
924.46992360297975
 30
0.0
 11
1843.4800170000001
 21
924.46992360297975
 31
0.0
  0
ARC
  5
7B32
  8
1
  6
CONTINUOUS
 10
1822.4800170000001
 20
872.56992360297954
 30
0.0
 40
12.0
 50
270.0
 51
0.0
  0
LINE
  5
7B33
  8
1
  6
CONTINUOUS
 10
1886.4800170000001
 20
704.46992360297963
 30
0.0
 11
1886.4800170000001
 21
674.46992360297963
 31
0.0
  0
LINE
  5
7B34
  8
1
  6
CONTINUOUS
 10
1654.4800170000001
 20
1070.469923602979
 30
0.0
 11
1834.4800170000001
 21
1070.469923602979
 31
0.0
  0
LINE
  5
7B35
  8
1
  6
CONTINUOUS
 10
1834.4800170000001
 20
1322.469923602979
 30
0.0
 11
1654.4800170000001
 21
1322.469923602979
 31
0.0
  0
LINE
  5
7B36
  8
1
  6
CONTINUOUS
 10
1654.4800170000001
 20
1322.469923602979
 30
0.0
 11
1834.4800170000001
 21
1070.469923602979
 31
0.0
  0
LINE
  5
7B37
  8
1
  6
CONTINUOUS
 10
1654.4800170000001
 20
1070.469923602979
 30
0.0
 11
1834.4800170000001
 21
1322.469923602979
 31
0.0
  0
LINE
  5
7B38
  8
1
  6
CONTINUOUS
 10
1654.4800170000001
 20
1218.469923602979
 30
0.0
 11
1645.4800170000001
 21
1218.469923602979
 31
0.0
  0
LINE
  5
7B39
  8
1
  6
CONTINUOUS
 10
1834.4800170000001
 20
1218.469923602979
 30
0.0
 11
1843.4800170000001
 21
1218.469923602979
 31
0.0
  0
LINE
  5
7B3A
  8
4
  6
CONTINUOUS
 10
1850.0
 20
500.0
 30
0.0
 11
1850.0
 21
300.0
 31
0.0
  0
LINE
  5
7B3B
  8
4
  6
CONTINUOUS
 10
1150.0
 20
500.0
 30
0.0
 11
1150.0
 21
300.0
 31
0.0
  0
LINE
  5
7B3C
  8
4
  6
CONTINUOUS
 10
650.0
 20
500.0
 30
0.0
 11
650.0
 21
300.0
 31
0.0
  0
LINE
  5
7B3F
  8
4
  6
CONTINUOUS
 10
650.0
 20
300.0
 30
0.0
 11
1850.0
 21
300.0
 31
0.0
  0
LINE
  5
7B40
  8
4
  6
CONTINUOUS
 10
650.0
 20
400.0
 30
0.0
 11
1850.0
 21
400.0
 31
0.0
  0
TEXT
  5
7B41
  8
4
  6
CONTINUOUS
 10
688.50208099999998
 20
431.543026
 30
0.0
 40
50.0
  1
機器名称
  0
TEXT
  5
7B42
  8
4
  6
CONTINUOUS
 10
686.258106
 20
321.64515699999993
 30
0.0
 40
50.0
  1
機器型番
  0
TEXT
  5
7B43
  8
4
  6
CONTINUOUS
 10
1177.678744999999
 20
422.57176900000002
 30
0.0
 40
45.0
  1
ミツヤニューマルチファン
  0
TEXT
  5
7B44
  8
4
  6
CONTINUOUS
 10
1186.6544960000001
 20
317.159584
 30
0.0
 40
50.0
  1
NM#1 1/2-1
  0
TEXT
  5
7B46
  8
4
  6
CONTINUOUS
 10
743.67031399999985
 20
2383.4288409999999
 30
0.0
 40
54.0
  1
天井吊防振ベット
  0
TEXT
  5
7B47
  8
4
  6
CONTINUOUS
 10
316.16759300000001
 20
2533.8809759999999
 30
0.0
 40
72.0
  1
ベルト駆動式片吸込片持多翼ファン
  0
LINE
  5
7B48
  8
4
  6
CONTINUOUS
 10
250.0
 20
2469.408754
 30
0.0
 11
1850.0
 21
2469.408754
 31
0.0
  0
LINE
  5
7B49
  8
4
  6
CONTINUOUS
 10
250.0
 20
2669.408754
 30
0.0
 11
1850.0
 21
2669.408754
 31
0.0
  0
LINE
  5
7B4A
  8
4
  6
CONTINUOUS
 10
650.0
 20
500.0
 30
0.0
 11
1850.0
 21
500.0
 31
0.0
  0
LINE
  5
7B4B
  8
4
  6
CONTINUOUS
 10
250.0
 20
2669.408754
 30
0.0
 11
250.0
 21
2469.408754
 31
0.0
  0
TEXT
  5
7B4C
  8
4
  6
CONTINUOUS
 10
307.8114819999999
 20
2382.3194779999999
 30
0.0
 40
54.0
  1
左回転左横向
  0
TEXT
  5
7B4D
  8
4
  6
CONTINUOUS
 10
1468.9695589999999
 20
2706.0610809999998
 30
0.0
 40
56.0
  1
No.
  0
TEXT
  5
7B4E
  8
4
  6
CONTINUOUS
 10
1395.3562930000001
 20
2383.4288409999999
 30
0.0
 40
54.0
  1
縮尺：1/10
  0
LINE
  5
7B4F
  8
4
  6
CONTINUOUS
 10
1850.0
 20
2669.408754
 30
0.0
 11
1850.0
 21
2469.408754
 31
0.0
  0
LINE
  5
7B51
  8
4
  6
CONTINUOUS
 10
1440.617422
 20
2681.2635829999999
 30
0.0
 11
1440.617422
 21
2786.6522620000001
 31
0.0
  0
LINE
  5
7B52
  8
4
  6
CONTINUOUS
 10
1440.617422
 20
2786.6522620000001
 30
0.0
 11
1850.0
 21
2786.6522620000001
 31
0.0
  0
LINE
  5
7B53
  8
4
  6
CONTINUOUS
 10
1850.0
 20
2786.6522620000001
 30
0.0
 11
1850.0
 21
2681.2635829999999
 31
0.0
  0
LINE
  5
7B54
  8
4
  6
CONTINUOUS
 10
1850.0
 20
2681.2635829999999
 30
0.0
 11
1440.617422
 21
2681.2635829999999
 31
0.0
  0
DIMENSION
  5
7B6C
  8
3
  6
CONTINUOUS
  2
*D1
 10
679.05004899999994
 20
603.41258960297955
 30
0.0
 11
573.02413299999989
 21
603.41258960297955
 31
0.0
 70
   128
 13
459.05004899999989
 23
674.46992360297963
 33
0.0
 14
679.05004899999994
 24
684.30643960297971
 34
0.0
1001
ACAD
1000
DSTYLE
1002
{
1070
   287
1070
     3
1070
   287
1070
     3
1070
    40
1040
10.0
1070
   143
1040
0.039
1070
   172
1070
     1
1070
   271
1070
     0
1070
   279
1070
     0
1070
   288
1070
     1
1002
}
  0
DIMENSION
  5
7B78
  8
3
  6
CONTINUOUS
  2
*D2
 10
1229.0500489999999
 20
603.41258960297955
 30
0.0
 11
954.05004899999994
 21
628.41258960297955
 31
0.0
 70
     0
 13
679.05004899999994
 23
684.30643960297971
 33
0.0
 14
1229.0500489999999
 24
674.46992360297963
 34
0.0
1001
ACAD
1000
DSTYLE
1002
{
1070
   287
1070
     4
1070
   287
1070
     4
1070
    40
1040
10.0
1070
    75
1070
     1
1070
   143
1040
0.039
1070
   172
1070
     1
1070
   271
1070
     0
1070
   279
1070
     1
1070
   288
1070
     1
1002
}
  0
DIMENSION
  5
7B85
  8
3
  6
CONTINUOUS
  2
*D3
 10
449.45498200000043
 20
1071.469923602979
 30
0.0
 11
449.4549820000002
 21
1200.197704602979
 31
0.0
 70
   128
 13
479.05004899999989
 23
1321.469923602979
 33
0.0
 14
479.05004899999989
 24
1071.469923602979
 34
0.0
 50
90.0
1001
ACAD
1000
DSTYLE
1002
{
1070
   287
1070
     3
1070
   287
1070
     3
1070
    40
1040
10.0
1070
   143
1040
0.039
1070
   172
1070
     1
1070
   271
1070
     0
1070
   279
1070
     0
1070
   288
1070
     1
1002
}
  0
DIMENSION
  5
7B93
  8
3
  6
CONTINUOUS
  2
*D4
 10
373.36107200000032
 20
1071.469923602979
 30
0.0
 11
373.36107200000009
 21
1201.472828602979
 31
0.0
 70
   128
 13
499.05004899999989
 23
1331.469923602979
 33
0.0
 14
479.05004899999989
 24
1071.469923602979
 34
0.0
 50
90.0
1001
ACAD
1000
DSTYLE
1002
{
1070
   287
1070
     3
1070
   287
1070
     3
1070
    40
1040
10.0
1070
   143
1040
0.039
1070
   172
1070
     1
1070
   271
1070
     0
1070
   279
1070
     0
1070
   288
1070
     1
1002
}
  0
DIMENSION
  5
7BAF
  8
3
  6
CONTINUOUS
  2
*D5
 10
373.36107200000009
 20
756.46992360297963
 30
0.0
 11
348.36107199999998
 21
913.96992360297963
 31
0.0
 70
     0
 13
479.05004899999989
 23
1071.469923602979
 33
0.0
 14
489.05004899999989
 24
756.46992360297963
 34
0.0
 50
90.0
1001
ACAD
1000
DSTYLE
1002
{
1070
   287
1070
     4
1070
   287
1070
     4
1070
    40
1040
10.0
1070
    75
1070
     1
1070
   143
1040
0.039
1070
   172
1070
     1
1070
   271
1070
     0
1070
   279
1070
     1
1070
   288
1070
     1
1002
}
  0
DIMENSION
  5
7BBF
  8
3
  6
CONTINUOUS
  2
*D6
 10
373.36107200000009
 20
704.46992360297963
 30
0.0
 11
360.612345
 21
736.17190460297957
 31
0.0
 70
   128
 13
489.05004899999989
 23
756.46992360297963
 33
0.0
 14
459.05004899999989
 24
704.46992360297963
 34
0.0
 50
90.0
1001
ACAD
1000
DSTYLE
1002
{
1070
   287
1070
     4
1070
   287
1070
     4
1070
    40
1040
10.0
1070
    75
1070
     1
1070
   143
1040
0.039
1070
   172
1070
     1
1070
   271
1070
     0
1070
   279
1070
     1
1070
   288
1070
     1
1070
     7
1000
DOT
1002
}
  0
DIMENSION
  5
7BCF
  8
3
  6
CONTINUOUS
  2
*D7
 10
373.36107200000021
 20
674.46992360297963
 30
0.0
 11
373.36107200000009
 21
600.18420931726541
 31
0.0
 70
   128
 13
459.05004899999989
 23
704.46992360297963
 33
0.0
 14
459.05004899999989
 24
674.46992360297963
 34
0.0
 50
90.0
1001
ACAD
1000
DSTYLE
1002
{
1070
   287
1070
     3
1070
   287
1070
     3
1070
    40
1040
10.0
1070
   143
1040
0.039
1070
   172
1070
     1
1070
   271
1070
     0
1070
   279
1070
     0
1070
   288
1070
     1
1070
     6
1000
DOT
1002
}
  0
DIMENSION
  5
7C2A
  8
3
  6
CONTINUOUS
  2
*D8
 10
307.22707800000001
 20
674.46992360297963
 30
0.0
 11
307.22707799999978
 21
995.6465806029795
 31
0.0
 70
   128
 13
479.05004899999989
 23
1342.469923602979
 33
0.0
 14
459.05004899999989
 24
674.46992360297963
 34
0.0
 50
90.0
1001
ACAD
1000
DSTYLE
1002
{
1070
   287
1070
     3
1070
   287
1070
     3
1070
    40
1040
10.0
1070
   143
1040
0.039
1070
   172
1070
     1
1070
   271
1070
     0
1070
   279
1070
     0
1070
   288
1070
     1
1002
}
  0
DIMENSION
  5
7C37
  8
3
  6
CONTINUOUS
  2
*D9
 10
679.05004899999994
 20
1410.1837926029791
 30
0.0
 11
582.61972199999991
 21
1410.1837926029791
 31
0.0
 70
   128
 13
479.05004899999989
 23
1342.469923602979
 33
0.0
 14
679.05004899999994
 24
1331.469923602979
 34
0.0
1001
ACAD
1000
DSTYLE
1002
{
1070
   287
1070
     3
1070
   287
1070
     3
1070
    40
1040
10.0
1070
   143
1040
0.039
1070
   172
1070
     1
1070
   271
1070
     0
1070
   279
1070
     0
1070
   288
1070
     1
1002
}
  0
DIMENSION
  5
7C43
  8
3
  6
CONTINUOUS
  2
*D10
 10
899.03943299999992
 20
1410.1837926029791
 30
0.0
 11
789.04474099999993
 21
1435.18379260298
 31
0.0
 70
     0
 13
679.05004899999994
 23
1331.469923602979
 33
0.0
 14
899.03943299999992
 24
1071.469923602979
 34
0.0
1001
ACAD
1000
DSTYLE
1002
{
1070
   287
1070
     4
1070
   287
1070
     4
1070
    40
1040
10.0
1070
    75
1070
     1
1070
   143
1040
0.039
1070
   172
1070
     1
1070
   271
1070
     0
1070
   279
1070
     1
1070
   288
1070
     1
1002
}
  0
DIMENSION
  5
7C50
  8
3
  6
CONTINUOUS
  2
*D11
 10
1229.0500489999999
 20
1636.8949769999999
 30
0.0
 11
829.55374299999994
 21
1636.8949769999999
 31
0.0
 70
   128
 13
459.050049
 23
1767.8949589999991
 33
0.0
 14
1229.0500489999999
 24
1767.8949589999991
 34
0.0
1001
ACAD
1000
DSTYLE
1002
{
1070
   287
1070
     3
1070
   287
1070
     3
1070
    40
1040
10.0
1070
   143
1040
0.039
1070
   172
1070
     1
1070
   271
1070
     0
1070
   279
1070
     0
1070
   288
1070
     1
1002
}
  0
DIMENSION
  5
7C5D
  8
3
  6
CONTINUOUS
  2
*D12
 10
1324.638412
 20
1767.8949589999991
 30
0.0
 11
1324.638412
 21
2028.9237780000001
 31
0.0
 70
   128
 13
1229.0500489999999
 23
2247.8949590000002
 33
0.0
 14
1229.0500489999999
 24
1767.8949589999991
 34
0.0
 50
90.0
1001
ACAD
1000
DSTYLE
1002
{
1070
   287
1070
     3
1070
   287
1070
     3
1070
    40
1040
10.0
1070
   143
1040
0.039
1070
   172
1070
     1
1070
   271
1070
     0
1070
   279
1070
     0
1070
   288
1070
     1
1002
}
  0
LINE
  5
7C5E
  8
2
  6
CENTER
 10
942.68338300000005
 20
2105.8949590000002
 30
0.0
 11
403.83310999999998
 21
2105.8949590000002
 31
0.0
  0
LINE
  5
7C5F
  8
2
  6
CENTER
 10
679.05004899999994
 20
1352.643944602979
 30
0.0
 11
679.05004899999994
 21
684.30643960297971
 31
0.0
  0
LINE
  5
7C60
  8
2
  6
CENTER
 10
1744.4800170000001
 20
1375.6295376029791
 30
0.0
 11
1744.4800170000001
 21
640.10162460297965
 31
0.0
  0
DIMENSION
  5
7C6D
  8
3
  6
CONTINUOUS
  2
*D13
 10
1744.4800170000001
 20
601.60732760297958
 30
0.0
 11
1591.3459290000001
 21
601.60732760297958
 31
0.0
 70
   128
 13
1406.4800170000001
 23
674.46992360297963
 33
0.0
 14
1744.4800170000001
 24
674.46992360297963
 34
0.0
1001
ACAD
1000
DSTYLE
1002
{
1070
   287
1070
     3
1070
   287
1070
     3
1070
    40
1040
10.0
1070
   143
1040
0.039
1070
   172
1070
     1
1070
   271
1070
     0
1070
   279
1070
     0
1070
   288
1070
     1
1002
}
  0
DIMENSION
  5
7C79
  8
3
  6
CONTINUOUS
  2
*D14
 10
1886.4800170000001
 20
601.60732760297958
 30
0.0
 11
1815.4800170000001
 21
626.60732760297958
 31
0.0
 70
     0
 13
1744.4800170000001
 23
674.46992360297963
 33
0.0
 14
1886.4800170000001
 24
674.46992360297963
 34
0.0
1001
ACAD
1000
DSTYLE
1002
{
1070
   287
1070
     4
1070
   287
1070
     4
1070
    40
1040
10.0
1070
    75
1070
     1
1070
   143
1040
0.039
1070
   172
1070
     1
1070
   271
1070
     0
1070
   279
1070
     1
1070
   288
1070
     1
1002
}
  0
DIMENSION
  5
7C86
  8
3
  6
CONTINUOUS
  2
*D15
 10
1834.4800170000001
 20
1370.2786086029789
 30
0.0
 11
1735.34852
 21
1370.2786086029789
 31
0.0
 70
   128
 13
1654.4800170000001
 23
1322.469923602979
 33
0.0
 14
1834.4800170000001
 24
1322.469923602979
 34
0.0
1001
ACAD
1000
DSTYLE
1002
{
1070
   287
1070
     3
1070
   287
1070
     3
1070
    40
1040
10.0
1070
   143
1040
0.039
1070
   172
1070
     1
1070
   271
1070
     0
1070
   279
1070
     0
1070
   288
1070
     1
1002
}
  0
DIMENSION
  5
7C93
  8
3
  6
CONTINUOUS
  2
*D16
 10
1744.4800170000001
 20
1435.111097602979
 30
0.0
 11
1585.261305
 21
1435.111097602979
 31
0.0
 70
   128
  1
MAX\P340
 13
1404.4800170000001
 23
1196.469923602979
 33
0.0
 14
1744.4800170000001
 24
1420.399109602979
 34
0.0
1001
ACAD
1000
DSTYLE
1002
{
1070
   287
1070
     3
1070
   287
1070
     3
1070
    40
1040
10.0
1070
   143
1040
0.039
1070
   172
1070
     1
1070
   271
1070
     0
1070
   279
1070
     0
1070
   288
1070
     1
1002
}
  0
DIMENSION
  5
7CA1
  8
3
  6
CONTINUOUS
  2
*D17
 10
1843.4800170000001
 20
1435.111097602979
 30
0.0
 11
1794.1664780000001
 21
1431.059065602979
 31
0.0
 70
   128
 13
1744.4800170000001
 23
1420.399109602979
 33
0.0
 14
1843.4800170000001
 24
1218.469923602979
 34
0.0
1001
ACAD
1000
DSTYLE
1002
{
1070
   287
1070
     4
1070
   287
1070
     4
1070
    40
1040
10.0
1070
    75
1070
     1
1070
   143
1040
0.039
1070
   172
1070
     1
1070
   271
1070
     0
1070
   279
1070
     1
1070
   288
1070
     1
1002
}
  0
LINE
  5
7CB9
  8
3
  6
CONTINUOUS
 10
1843.4800170000001
 20
1196.469923602979
 30
0.0
 11
1854.780399
 21
1196.469923602979
 31
0.0
  0
LINE
  5
7CBB
  8
3
  6
CONTINUOUS
 10
1843.4800170000001
 20
946.46992360297963
 30
0.0
 11
1856.9892299999999
 21
946.46992360297963
 31
0.0
  0
DIMENSION
  5
7CC8
  8
3
  6
CONTINUOUS
  2
*D18
 10
1917.9631220000001
 20
946.46992360297963
 30
0.0
 11
1917.9631220000001
 21
1070.871686602979
 31
0.0
 70
   128
 13
1843.4800170000001
 23
1196.469923602979
 33
0.0
 14
1843.4800170000001
 24
946.46992360297963
 34
0.0
 50
90.0
1001
ACAD
1000
DSTYLE
1002
{
1070
   287
1070
     3
1070
   287
1070
     3
1070
     3
1000
φ<>
1070
    40
1040
10.0
1070
   143
1040
0.039
1070
   172
1070
     1
1070
   271
1070
     0
1070
   279
1070
     0
1070
   288
1070
     1
1002
}
  0
LINE
  5
7CC9
  8
2
  6
CENTER
 10
1352.822764
 20
1071.469923602979
 30
0.0
 11
1852.736547
 21
1071.469923602979
 31
0.0
  0
DIMENSION
  5
7DA0
  8
3
  2
*D20
 10
1229.0500489999999
 20
1484.324888985059
 30
0.0
 11
847.83573998521194
 21
1484.324888985059
 31
0.0
 70
   128
 13
479.05004899999989
 23
1342.469923602979
 33
0.0
 14
1229.0500489999999
 24
734.46992360297963
 34
0.0
1001
ACAD
1000
DSTYLE
1002
{
1070
   287
1070
     3
1070
   287
1070
     3
1070
    40
1040
10.0
1070
   143
1040
0.039
1070
   172
1070
     1
1070
   271
1070
     0
1070
   279
1070
     0
1070
   288
1070
     1
1002
}
  0
ENDSEC
  0
EOF
