  0
SECTION
  2
HEADER
  9
$ACADVER
  1
AC1009
  9
$INSBASE
 10
0.0
 20
0.0
 30
0.0
  9
$EXTMIN
 10
248.77090899999979
 20
300.0
 30
0.0
  9
$EXTMAX
 10
1868.2126261321521
 20
2786.6522620000001
 30
0.0
  9
$LIMMIN
 10
0.0
 20
0.0
  9
$LIMMAX
 10
297.0
 20
210.0
  9
$ORTHOMODE
 70
     0
  9
$REGENMODE
 70
     1
  9
$FILLMODE
 70
     0
  9
$QTEXTMODE
 70
     0
  9
$MIRRTEXT
 70
     1
  9
$DRAGMODE
 70
     2
  9
$LTSCALE
 40
100.0
  9
$OSMODE
 70
    37
  9
$ATTMODE
 70
     1
  9
$TEXTSIZE
 40
180.0
  9
$TRACEWID
 40
0.05
  9
$TEXTSTYLE
  7
STANDARD
  9
$CLAYER
  8
3
  9
$CELTYPE
  6
BYLAYER
  9
$CECOLOR
 62
   256
  9
$DIMSCALE
 40
10.0
  9
$DIMASZ
 40
2.0
  9
$DIMEXO
 40
0.5
  9
$DIMDLI
 40
10.0
  9
$DIMRND
 40
0.0
  9
$DIMDLE
 40
0.0
  9
$DIMEXE
 40
1.0
  9
$DIMTP
 40
1.0
  9
$DIMTM
 40
1.0
  9
$DIMTXT
 40
3.0
  9
$DIMCEN
 40
0.0
  9
$DIMTSZ
 40
0.0
  9
$DIMTOL
 70
     0
  9
$DIMLIM
 70
     0
  9
$DIMTIH
 70
     0
  9
$DIMTOH
 70
     0
  9
$DIMSE1
 70
     0
  9
$DIMSE2
 70
     0
  9
$DIMTAD
 70
     1
  9
$DIMZIN
 70
     8
  9
$DIMBLK
  1

  9
$DIMASO
 70
     1
  9
$DIMSHO
 70
     1
  9
$DIMPOST
  1

  9
$DIMAPOST
  1

  9
$DIMALT
 70
     0
  9
$DIMALTD
 70
     2
  9
$DIMALTF
 40
0.039
  9
$DIMLFAC
 40
1.0
  9
$DIMTOFL
 70
     1
  9
$DIMTVP
 40
0.0
  9
$DIMTIX
 70
     0
  9
$DIMSOXD
 70
     0
  9
$DIMSAH
 70
     1
  9
$DIMBLK1
  1
OPEN
  9
$DIMBLK2
  1
OPEN
  9
$DIMSTYLE
  2
IGA
  9
$DIMCLRD
 70
     0
  9
$DIMCLRE
 70
     0
  9
$DIMCLRT
 70
     0
  9
$DIMTFAC
 40
10.0
  9
$DIMGAP
 40
1.0
  9
$LUNITS
 70
     2
  9
$LUPREC
 70
     3
  9
$SKETCHINC
 40
0.1
  9
$FILLETRAD
 40
50.0
  9
$AUNITS
 70
     0
  9
$AUPREC
 70
     0
  9
$MENU
  1
acad
  9
$ELEVATION
 40
0.0
  9
$PELEVATION
 40
0.0
  9
$THICKNESS
 40
0.0
  9
$LIMCHECK
 70
     0
  9
$BLIPMODE
 70
     0
  9
$CHAMFERA
 40
0.5
  9
$CHAMFERB
 40
0.5
  9
$SKPOLY
 70
     0
  9
$TDCREATE
 40
2450744.3703490738
  9
$TDUPDATE
 40
2454953.8628466199
  9
$TDINDWG
 40
0.0043780208
  9
$TDUSRTIMER
 40
0.0043780208
  9
$USRTIMER
 70
     1
  9
$ANGBASE
 50
0.0
  9
$ANGDIR
 70
     0
  9
$PDMODE
 70
     0
  9
$PDSIZE
 40
0.0
  9
$PLINEWID
 40
0.0
  9
$COORDS
 70
     1
  9
$SPLFRAME
 70
     0
  9
$SPLINETYPE
 70
     6
  9
$SPLINESEGS
 70
     8
  9
$ATTDIA
 70
     0
  9
$ATTREQ
 70
     1
  9
$HANDLING
 70
 10241
  9
$HANDSEED
  5
7EE6
  9
$SURFTAB1
 70
     6
  9
$SURFTAB2
 70
     6
  9
$SURFTYPE
 70
     6
  9
$SURFU
 70
     6
  9
$SURFV
 70
     6
  9
$UCSNAME
  2

  9
$UCSORG
 10
0.0
 20
0.0
 30
0.0
  9
$UCSXDIR
 10
1.0
 20
0.0
 30
0.0
  9
$UCSYDIR
 10
0.0
 20
1.0
 30
0.0
  9
$PUCSNAME
  2

  9
$PUCSORG
 10
0.0
 20
0.0
 30
0.0
  9
$PUCSXDIR
 10
1.0
 20
0.0
 30
0.0
  9
$PUCSYDIR
 10
0.0
 20
1.0
 30
0.0
  9
$USERI1
 70
     0
  9
$USERI2
 70
     0
  9
$USERI3
 70
     0
  9
$USERI4
 70
     0
  9
$USERI5
 70
     0
  9
$USERR1
 40
0.0
  9
$USERR2
 40
0.0
  9
$USERR3
 40
0.0
  9
$USERR4
 40
0.0
  9
$USERR5
 40
0.0
  9
$WORLDVIEW
 70
     1
  9
$SHADEDGE
 70
     3
  9
$SHADEDIF
 70
    70
  9
$TILEMODE
 70
     1
  9
$MAXACTVP
 70
    16
  9
$PLIMCHECK
 70
     0
  9
$PEXTMIN
 10
1.0000000000000000E+020
 20
1.0000000000000000E+020
 30
1.0000000000000000E+020
  9
$PEXTMAX
 10
-1.0000000000000000E+020
 20
-1.0000000000000000E+020
 30
-1.0000000000000000E+020
  9
$PLIMMIN
 10
0.0
 20
0.0
  9
$PLIMMAX
 10
12.0
 20
9.0
  9
$UNITMODE
 70
     0
  9
$VISRETAIN
 70
     0
  9
$PLINEGEN
 70
     0
  9
$PSLTSCALE
 70
     1
  0
ENDSEC
  0
SECTION
  2
TABLES
  0
TABLE
  2
VPORT
 70
     2
  0
VPORT
  2
*ACTIVE
 70
     0
 10
0.0
 20
0.0
 11
1.0
 21
1.0
 12
2854.6998474990178
 22
1959.8632022433669
 13
0.0
 23
0.0
 14
10.0
 24
10.0
 15
10.0
 25
10.0
 16
0.0
 26
0.0
 36
1.0
 17
0.0
 27
0.0
 37
0.0
 40
3860.4308835425818
 41
1.5051150895140659
 42
50.0
 43
0.0
 44
0.0
 50
0.0
 51
0.0
 71
     0
 72
   100
 73
     1
 74
     0
 75
     0
 76
     0
 77
     0
 78
     0
  0
ENDTAB
  0
TABLE
  2
LTYPE
 70
     2
  0
LTYPE
  2
CONTINUOUS
 70
     0
  3
Solid line
 72
    65
 73
     0
 40
0.0
  0
LTYPE
  2
CENTER
 70
     0
  3
____ _ ____ _ ____ _ ____ _ ____ _ ____ _ ____ 
 72
    65
 73
     4
 40
2.0
 49
1.25
 49
-0.25
 49
0.25
 49
-0.25
  0
ENDTAB
  0
TABLE
  2
LAYER
 70
     6
  0
LAYER
  2
0
 70
     0
 62
     7
  6
CONTINUOUS
  0
LAYER
  2
3
 70
     0
 62
     2
  6
CONTINUOUS
  0
LAYER
  2
2
 70
     0
 62
     3
  6
CENTER
  0
LAYER
  2
1
 70
     0
 62
     4
  6
CONTINUOUS
  0
LAYER
  2
4
 70
     0
 62
     7
  6
CONTINUOUS
  0
LAYER
  2
DEFPOINTS
 70
     0
 62
     7
  6
CONTINUOUS
  0
ENDTAB
  0
TABLE
  2
STYLE
 70
     1
  0
STYLE
  2
STANDARD
 70
     0
 40
0.0
 41
1.0
 50
0.0
 71
     0
 42
180.0
  3
simplex.shx
  4
extfont.shx
  0
ENDTAB
  0
TABLE
  2
VIEW
 70
     0
  0
ENDTAB
  0
TABLE
  2
UCS
 70
     0
  0
ENDTAB
  0
TABLE
  2
APPID
 70
     1
  0
APPID
  2
ACAD
 70
     0
  0
ENDTAB
  0
TABLE
  2
DIMSTYLE
 70
     1
  0
DIMSTYLE
  2
IGA
 70
     0
  3

  4

  5

  6
OPEN
  7
OPEN
 40
2.0
 41
2.0
 42
0.5
 43
10.0
 44
1.0
 45
0.0
 46
0.0
 47
1.0
 48
1.0
140
3.0
141
0.0
142
0.0
143
0.03937
144
1.0
145
0.0
146
10.0
147
1.0
 71
     0
 72
     0
 73
     0
 74
     0
 75
     0
 76
     0
 77
     1
 78
     8
170
     0
171
     2
172
     0
173
     1
174
     0
175
     0
176
     0
177
     0
178
     0
  0
ENDTAB
  0
ENDSEC
  0
SECTION
  2
BLOCKS
  0
BLOCK
  8
0
  2
$MODEL_SPACE
 70
     0
 10
0.0
 20
0.0
 30
0.0
  3
$MODEL_SPACE
  1

  0
ENDBLK
  5
1B
  8
0
  0
BLOCK
 67
     1
  8
0
  2
$PAPER_SPACE
 70
     0
 10
0.0
 20
0.0
 30
0.0
  3
$PAPER_SPACE
  1

  0
ENDBLK
  5
18
 67
     1
  8
0
  0
BLOCK
  8
0
  2
_OPEN
 70
     0
 10
0.0
 20
0.0
 30
0.0
  3
_OPEN
  1

  0
LINE
  5
7B47
  8
0
  6
BYBLOCK
 62
     0
 10
-1.0
 20
0.166667
 30
0.0
 11
0.0
 21
0.0
 31
0.0
  0
LINE
  5
7B48
  8
0
  6
BYBLOCK
 62
     0
 10
0.0
 20
0.0
 30
0.0
 11
-1.0
 21
-0.166667
 31
0.0
  0
LINE
  5
7B49
  8
0
  6
BYBLOCK
 62
     0
 10
0.0
 20
0.0
 30
0.0
 11
-1.0
 21
0.0
 31
0.0
  0
ENDBLK
  5
7B4A
  8
0
  0
BLOCK
  8
0
  2
*D1
 70
     1
 10
0.0
 20
0.0
 30
0.0
  3
*D1
  1

  0
LINE
  5
7E2A
  8
3
  6
CONTINUOUS
 62
     0
 10
551.26099499999987
 20
792.38519900000006
 30
0.0
 11
551.26099499999987
 21
721.17462799999987
 31
0.0
  0
LINE
  5
7E2B
  8
3
  6
CONTINUOUS
 62
     0
 10
741.26099499999998
 20
802.462266
 30
0.0
 11
741.26099499999998
 21
721.17462799999987
 31
0.0
  0
LINE
  5
7E2C
  8
3
  6
CONTINUOUS
 62
     0
 10
571.26099499999998
 20
731.17462799999998
 30
0.0
 11
721.26099499999998
 21
731.17462799999998
 31
0.0
  0
INSERT
  5
7E2D
  8
3
  6
CONTINUOUS
 62
     0
  2
_OPEN
 10
551.26099499999987
 20
731.17462799999998
 30
0.0
 41
20.0
 42
20.0
 43
20.0
 50
180.0
  0
INSERT
  5
7E2E
  8
3
  6
CONTINUOUS
 62
     0
  2
_OPEN
 10
741.26099499999998
 20
731.17462799999998
 30
0.0
 41
20.0
 42
20.0
 43
20.0
  0
TEXT
  8
3
  40
30
  5
7ED2
  62
0
  72
0
  71
0
 10
593.680
 20
703.075
 30
0.000000
  1
190
  0
POINT
  5
7E30
  8
DEFPOINTS
  6
CONTINUOUS
 62
     0
 10
551.26099499999987
 20
797.38519899999994
 30
0.0
  0
POINT
  5
7E31
  8
DEFPOINTS
  6
CONTINUOUS
 62
     0
 10
741.26099499999998
 20
807.46226599999989
 30
0.0
  0
POINT
  5
7E32
  8
DEFPOINTS
  6
CONTINUOUS
 62
     0
 10
741.26099499999998
 20
731.17462799999998
 30
0.0
  0
ENDBLK
  5
7B57
  8
0
  0
BLOCK
  8
0
  2
*D2
 70
     1
 10
0.0
 20
0.0
 30
0.0
  3
*D2
  1

  0
LINE
  5
7E33
  8
3
  6
CONTINUOUS
 62
     0
 10
1261.260994999999
 20
792.38519900000006
 30
0.0
 11
1261.260994999999
 21
721.17462799999987
 31
0.0
  0
LINE
  5
7E34
  8
3
  6
CONTINUOUS
 62
     0
 10
761.26099499999987
 20
731.17462799999998
 30
0.0
 11
1241.260994999999
 21
731.17462799999998
 31
0.0
  0
INSERT
  5
7E35
  8
3
  6
CONTINUOUS
 62
     0
  2
_OPEN
 10
741.26099499999998
 20
731.17462799999998
 30
0.0
 41
20.0
 42
20.0
 43
20.0
 50
180.0
  0
INSERT
  5
7E36
  8
3
  6
CONTINUOUS
 62
     0
  2
_OPEN
 10
1261.260994999999
 20
731.17462799999998
 30
0.0
 41
20.0
 42
20.0
 43
20.0
  0
TEXT
  8
3
  40
30
  5
7ED3
  62
0
  72
0
  71
0
 10
941.261
 20
703.075
 30
0.000000
  1
520
  0
POINT
  5
7E38
  8
DEFPOINTS
  6
CONTINUOUS
 62
     0
 10
741.26099499999998
 20
807.46226599999989
 30
0.0
  0
POINT
  5
7E39
  8
DEFPOINTS
  6
CONTINUOUS
 62
     0
 10
1261.260994999999
 20
797.38519899999994
 30
0.0
  0
POINT
  5
7E3A
  8
DEFPOINTS
  6
CONTINUOUS
 62
     0
 10
1261.260994999999
 20
731.17462799999998
 30
0.0
  0
ENDBLK
  5
7B63
  8
0
  0
BLOCK
  8
0
  2
*D3
 70
     1
 10
0.0
 20
0.0
 30
0.0
  3
*D3
  1

  0
LINE
  5
7E3B
  8
3
  6
CONTINUOUS
 62
     0
 10
536.26099499999987
 20
1142.3851990000001
 30
0.0
 11
469.76079100000021
 21
1142.3851990000001
 31
0.0
  0
LINE
  5
7E3C
  8
3
  6
CONTINUOUS
 62
     0
 10
536.26099499999987
 20
892.38519900000006
 30
0.0
 11
469.7607910000001
 21
892.38519900000006
 31
0.0
  0
LINE
  5
7E3D
  8
3
  6
CONTINUOUS
 62
     0
 10
479.76079100000021
 20
1122.3851990000001
 30
0.0
 11
479.76079100000021
 21
912.38519899999994
 31
0.0
  0
INSERT
  5
7E3E
  8
3
  6
CONTINUOUS
 62
     0
  2
_OPEN
 10
479.76079100000021
 20
1142.3851990000001
 30
0.0
 41
20.0
 42
20.0
 43
20.0
 50
90.0
  0
INSERT
  5
7E3F
  8
3
  6
CONTINUOUS
 62
     0
  2
_OPEN
 10
479.7607910000001
 20
892.38519900000006
 30
0.0
 41
20.0
 42
20.0
 43
20.0
 50
270.0
  0
TEXT
  8
3
  40
30
  5
7ED4
  62
0
  72
0
  71
0
 10
394.761
 20
971.892
 30
0.000000
  1
250
  0
POINT
  5
7E41
  8
DEFPOINTS
  6
CONTINUOUS
 62
     0
 10
541.26099499999998
 20
1142.3851990000001
 30
0.0
  0
POINT
  5
7E42
  8
DEFPOINTS
  6
CONTINUOUS
 62
     0
 10
541.26099499999998
 20
892.38519900000006
 30
0.0
  0
POINT
  5
7E43
  8
DEFPOINTS
  6
CONTINUOUS
 62
     0
 10
479.7607910000001
 20
892.38519900000006
 30
0.0
  0
ENDBLK
  5
7B70
  8
0
  0
BLOCK
  8
0
  2
*D4
 70
     1
 10
0.0
 20
0.0
 30
0.0
  3
*D4
  1

  0
LINE
  5
7E44
  8
3
  6
CONTINUOUS
 62
     0
 10
736.26099499999987
 20
1328.374583
 30
0.0
 11
336.3154610000002
 21
1328.374583
 31
0.0
  0
LINE
  5
7E45
  8
3
  6
CONTINUOUS
 62
     0
 10
536.26099499999987
 20
1142.3851990000001
 30
0.0
 11
336.31546100000008
 21
1142.3851990000001
 31
0.0
  0
LINE
  5
7E46
  8
3
  6
CONTINUOUS
 62
     0
 10
346.31546100000008
 20
1308.374583
 30
0.0
 11
346.31546100000008
 21
1162.3851990000001
 31
0.0
  0
INSERT
  5
7E47
  8
3
  6
CONTINUOUS
 62
     0
  2
_OPEN
 10
346.31546100000008
 20
1328.374583
 30
0.0
 41
20.0
 42
20.0
 43
20.0
 50
90.0
  0
INSERT
  5
7E48
  8
3
  6
CONTINUOUS
 62
     0
  2
_OPEN
 10
346.31546100000008
 20
1142.3851990000001
 30
0.0
 41
20.0
 42
20.0
 43
20.0
 50
270.0
  0
TEXT
  8
3
  40
30
  5
7ED5
  62
0
  72
0
  71
0
 10
261.315
 20
1181.62
 30
0.000000
  1
186
  0
POINT
  5
7E4A
  8
DEFPOINTS
  6
CONTINUOUS
 62
     0
 10
741.26099499999998
 20
1328.374583
 30
0.0
  0
POINT
  5
7E4B
  8
DEFPOINTS
  6
CONTINUOUS
 62
     0
 10
541.26099499999998
 20
1142.3851990000001
 30
0.0
  0
POINT
  5
7E4C
  8
DEFPOINTS
  6
CONTINUOUS
 62
     0
 10
346.31546100000008
 20
1142.3851990000001
 30
0.0
  0
ENDBLK
  5
7CCD
  8
0
  0
BLOCK
  8
0
  2
*D5
 70
     1
 10
0.0
 20
0.0
 30
0.0
  3
*D5
  1

  0
LINE
  5
7E4D
  8
3
  6
CONTINUOUS
 62
     0
 10
546.26099499999998
 20
827.38519899999994
 30
0.0
 11
336.31546099999991
 21
827.38519899999994
 31
0.0
  0
LINE
  5
7E4E
  8
3
  6
CONTINUOUS
 62
     0
 10
346.31546100000003
 20
1122.3851990000001
 30
0.0
 11
346.31546099999991
 21
847.38519899999994
 31
0.0
  0
INSERT
  5
7E4F
  8
3
  6
CONTINUOUS
 62
     0
  2
_OPEN
 10
346.31546100000003
 20
1142.3851990000001
 30
0.0
 41
20.0
 42
20.0
 43
20.0
 50
90.0
  0
INSERT
  5
7E50
  8
3
  6
CONTINUOUS
 62
     0
  2
_OPEN
 10
346.31546099999991
 20
827.38519899999994
 30
0.0
 41
20.0
 42
20.0
 43
20.0
 50
270.0
  0
TEXT
  8
3
  40
30
  5
7ED6
  62
0
  72
0
  71
0
 10
261.315
 20
931.785
 30
0.000000
  1
315
  0
POINT
  5
7E52
  8
DEFPOINTS
  6
CONTINUOUS
 62
     0
 10
541.26099499999998
 20
1142.3851990000001
 30
0.0
  0
POINT
  5
7E53
  8
DEFPOINTS
  6
CONTINUOUS
 62
     0
 10
551.26099499999987
 20
827.38519899999994
 30
0.0
  0
POINT
  5
7E54
  8
DEFPOINTS
  6
CONTINUOUS
 62
     0
 10
346.31546099999991
 20
827.38519899999994
 30
0.0
  0
ENDBLK
  5
7CC2
  8
0
  0
BLOCK
  8
0
  2
*D6
 70
     1
 10
0.0
 20
0.0
 30
0.0
  3
*D6
  1

  0
LINE
  5
7E55
  8
3
  6
CONTINUOUS
 62
     0
 10
546.26099499999998
 20
827.38519899999994
 30
0.0
 11
336.31546100000003
 21
827.38519899999994
 31
0.0
  0
LINE
  5
7E56
  8
3
  6
CONTINUOUS
 62
     0
 10
546.26099499999998
 20
797.38519899999994
 30
0.0
 11
336.31546100000003
 21
797.38519899999994
 31
0.0
  0
LINE
  5
7E57
  8
3
  6
CONTINUOUS
 62
     0
 10
346.31546100000008
 20
847.38519899999994
 30
0.0
 11
346.31546100000008
 21
867.38519900000006
 31
0.0
  0
LINE
  5
7E58
  8
3
  6
CONTINUOUS
 62
     0
 10
346.31546100000008
 20
777.38519899999994
 30
0.0
 11
346.31546100000008
 21
688.8137704285715
 31
0.0
  0
LINE
  5
7E59
  8
3
  6
CONTINUOUS
 62
     0
 10
346.31546100000008
 20
827.38519899999994
 30
0.0
 11
346.31546100000008
 21
797.38519899999994
 31
0.0
  0
INSERT
  5
7E5A
  8
3
  6
CONTINUOUS
 62
     0
  2
_OPEN
 10
346.31546100000008
 20
827.38519899999994
 30
0.0
 41
20.0
 42
20.0
 43
20.0
 50
270.0
  0
INSERT
  5
7E5B
  8
3
  6
CONTINUOUS
 62
     0
  2
_OPEN
 10
346.31546100000008
 20
797.38519899999994
 30
0.0
 41
20.0
 42
20.0
 43
20.0
 50
90.0
  0
TEXT
  8
3
  40
30
  5
7ED7
  62
0
  72
0
  71
0
 10
261.315
 20
669.999
 30
0.000000
  1
30
  0
POINT
  5
7E5D
  8
DEFPOINTS
  6
CONTINUOUS
 62
     0
 10
551.26099499999987
 20
827.38519899999994
 30
0.0
  0
POINT
  5
7E5E
  8
DEFPOINTS
  6
CONTINUOUS
 62
     0
 10
551.26099499999987
 20
797.38519899999994
 30
0.0
  0
POINT
  5
7E5F
  8
DEFPOINTS
  6
CONTINUOUS
 62
     0
 10
346.31546100000008
 20
797.38519899999994
 30
0.0
  0
ENDBLK
  5
7D0E
  8
0
  0
BLOCK
  8
0
  2
*D7
 70
     1
 10
0.0
 20
0.0
 30
0.0
  3
*D7
  1

  0
LINE
  5
7E60
  8
3
  6
CONTINUOUS
 62
     0
 10
736.26099499999987
 20
1328.374583
 30
0.0
 11
278.77090900000019
 21
1328.374583
 31
0.0
  0
LINE
  5
7E61
  8
3
  6
CONTINUOUS
 62
     0
 10
546.26099499999998
 20
797.38519899999994
 30
0.0
 11
278.77090900000002
 21
797.38519899999994
 31
0.0
  0
LINE
  5
7E62
  8
3
  6
CONTINUOUS
 62
     0
 10
288.77090900000007
 20
1308.374583
 30
0.0
 11
288.77090900000002
 21
817.38519900000006
 31
0.0
  0
INSERT
  5
7E63
  8
3
  6
CONTINUOUS
 62
     0
  2
_OPEN
 10
288.77090900000007
 20
1328.374583
 30
0.0
 41
20.0
 42
20.0
 43
20.0
 50
90.0
  0
INSERT
  5
7E64
  8
3
  6
CONTINUOUS
 62
     0
  2
_OPEN
 10
288.77090900000002
 20
797.38519899999994
 30
0.0
 41
20.0
 42
20.0
 43
20.0
 50
270.0
  0
TEXT
  8
3
  40
30
  5
7ED8
  62
0
  72
0
  71
0
 10
203.771
 20
997.614
 30
0.000000
  1
531
  0
POINT
  5
7E66
  8
DEFPOINTS
  6
CONTINUOUS
 62
     0
 10
741.26099499999998
 20
1328.374583
 30
0.0
  0
POINT
  5
7E67
  8
DEFPOINTS
  6
CONTINUOUS
 62
     0
 10
551.26099499999987
 20
797.38519899999994
 30
0.0
  0
POINT
  5
7E68
  8
DEFPOINTS
  6
CONTINUOUS
 62
     0
 10
288.77090900000002
 20
797.38519899999994
 30
0.0
  0
ENDBLK
  5
7CD8
  8
0
  0
BLOCK
  8
0
  2
*D8
 70
     1
 10
0.0
 20
0.0
 30
0.0
  3
*D8
  1

  0
LINE
  5
7E69
  8
3
  6
CONTINUOUS
 62
     0
 10
541.26099499999998
 20
1168.3851990000001
 30
0.0
 11
541.26099499999998
 21
1395.294298999999
 31
0.0
  0
LINE
  5
7E6A
  8
3
  6
CONTINUOUS
 62
     0
 10
741.26099499999998
 20
1333.374583
 30
0.0
 11
741.26099499999998
 21
1395.294298999999
 31
0.0
  0
LINE
  5
7E6B
  8
3
  6
CONTINUOUS
 62
     0
 10
561.26099499999987
 20
1385.294298999999
 30
0.0
 11
721.26099499999998
 21
1385.294298999999
 31
0.0
  0
INSERT
  5
7E6C
  8
3
  6
CONTINUOUS
 62
     0
  2
_OPEN
 10
541.26099499999998
 20
1385.294298999999
 30
0.0
 41
20.0
 42
20.0
 43
20.0
 50
180.0
  0
INSERT
  5
7E6D
  8
3
  6
CONTINUOUS
 62
     0
  2
_OPEN
 10
741.26099499999998
 20
1385.294298999999
 30
0.0
 41
20.0
 42
20.0
 43
20.0
  0
TEXT
  8
3
  40
30
  5
7ED9
  62
0
  72
0
  71
0
 10
581.686
 20
1357.19
 30
0.000000
  1
200
  0
POINT
  5
7E6F
  8
DEFPOINTS
  6
CONTINUOUS
 62
     0
 10
541.26099499999998
 20
1163.3851990000001
 30
0.0
  0
POINT
  5
7E70
  8
DEFPOINTS
  6
CONTINUOUS
 62
     0
 10
741.26099499999998
 20
1328.374583
 30
0.0
  0
POINT
  5
7E71
  8
DEFPOINTS
  6
CONTINUOUS
 62
     0
 10
741.26099499999998
 20
1385.294298999999
 30
0.0
  0
ENDBLK
  5
7BCD
  8
0
  0
BLOCK
  8
0
  2
*D9
 70
     1
 10
0.0
 20
0.0
 30
0.0
  3
*D9
  1

  0
LINE
  5
7E72
  8
3
  6
CONTINUOUS
 62
     0
 10
961.25037899999995
 20
1147.3851990000001
 30
0.0
 11
961.25037899999995
 21
1395.294298999999
 31
0.0
  0
LINE
  5
7E73
  8
3
  6
CONTINUOUS
 62
     0
 10
761.26099499999987
 20
1385.294298999999
 30
0.0
 11
941.25037899999995
 21
1385.294298999999
 31
0.0
  0
INSERT
  5
7E74
  8
3
  6
CONTINUOUS
 62
     0
  2
_OPEN
 10
741.26099499999998
 20
1385.294298999999
 30
0.0
 41
20.0
 42
20.0
 43
20.0
 50
180.0
  0
INSERT
  5
7E75
  8
3
  6
CONTINUOUS
 62
     0
  2
_OPEN
 10
961.25037899999995
 20
1385.294298999999
 30
0.0
 41
20.0
 42
20.0
 43
20.0
  0
TEXT
  8
3
  40
30
  5
7EDA
  62
0
  72
0
  71
0
 10
791.256
 20
1357.19
 30
0.000000
  1
220
  0
POINT
  5
7E77
  8
DEFPOINTS
  6
CONTINUOUS
 62
     0
 10
741.26099499999998
 20
1328.374583
 30
0.0
  0
POINT
  5
7E78
  8
DEFPOINTS
  6
CONTINUOUS
 62
     0
 10
961.25037899999995
 20
1142.3851990000001
 30
0.0
  0
POINT
  5
7E79
  8
DEFPOINTS
  6
CONTINUOUS
 62
     0
 10
961.25037899999995
 20
1385.294298999999
 30
0.0
  0
ENDBLK
  5
7BD9
  8
0
  0
BLOCK
  8
0
  2
*D10
 70
     1
 10
0.0
 20
0.0
 30
0.0
  3
*D10
  1

  0
LINE
  5
7E7A
  8
3
  6
CONTINUOUS
 62
     0
 10
551.26099499999987
 20
1681.0566984187849
 30
0.0
 11
551.26099499999987
 21
1548.4848464187851
 31
0.0
  0
LINE
  5
7E7B
  8
3
  6
CONTINUOUS
 62
     0
 10
1261.260994999999
 20
1681.0566984187849
 30
0.0
 11
1261.260994999999
 21
1548.4848464187851
 31
0.0
  0
LINE
  5
7E7C
  8
3
  6
CONTINUOUS
 62
     0
 10
571.26099499999998
 20
1558.4848464187851
 30
0.0
 11
1241.260994999999
 21
1558.4848464187851
 31
0.0
  0
INSERT
  5
7E7D
  8
3
  6
CONTINUOUS
 62
     0
  2
_OPEN
 10
551.26099499999987
 20
1558.4848464187851
 30
0.0
 41
20.0
 42
20.0
 43
20.0
 50
180.0
  0
INSERT
  5
7E7E
  8
3
  6
CONTINUOUS
 62
     0
  2
_OPEN
 10
1261.260994999999
 20
1558.4848464187851
 30
0.0
 41
20.0
 42
20.0
 43
20.0
  0
TEXT
  8
3
  40
30
  5
7EDB
  62
0
  72
0
  71
0
 10
839.697
 20
1530.38
 30
0.000000
  1
710
  0
POINT
  5
7E80
  8
DEFPOINTS
  6
CONTINUOUS
 62
     0
 10
551.26099499999987
 20
1686.0566984187849
 30
0.0
  0
POINT
  5
7E81
  8
DEFPOINTS
  6
CONTINUOUS
 62
     0
 10
1261.260994999999
 20
1686.0566984187849
 30
0.0
  0
POINT
  5
7E82
  8
DEFPOINTS
  6
CONTINUOUS
 62
     0
 10
1261.260994999999
 20
1558.4848464187851
 30
0.0
  0
ENDBLK
  5
7BE6
  8
0
  0
BLOCK
  8
0
  2
*D11
 70
     1
 10
0.0
 20
0.0
 30
0.0
  3
*D11
  1

  0
LINE
  5
7E83
  8
3
  6
CONTINUOUS
 62
     0
 10
1266.260994999999
 20
2166.0566984187849
 30
0.0
 11
1389.6743980000001
 21
2166.0566984187849
 31
0.0
  0
LINE
  5
7E84
  8
3
  6
CONTINUOUS
 62
     0
 10
1266.260994999999
 20
1686.0566984187849
 30
0.0
 11
1389.6743980000001
 21
1686.0566984187849
 31
0.0
  0
LINE
  5
7E85
  8
3
  6
CONTINUOUS
 62
     0
 10
1379.6743980000001
 20
2146.0566984187849
 30
0.0
 11
1379.6743980000001
 21
1706.0566984187849
 31
0.0
  0
INSERT
  5
7E86
  8
3
  6
CONTINUOUS
 62
     0
  2
_OPEN
 10
1379.6743980000001
 20
2166.0566984187849
 30
0.0
 41
20.0
 42
20.0
 43
20.0
 50
90.0
  0
INSERT
  5
7E87
  8
3
  6
CONTINUOUS
 62
     0
  2
_OPEN
 10
1379.6743980000001
 20
1686.0566984187849
 30
0.0
 41
20.0
 42
20.0
 43
20.0
 50
270.0
  0
TEXT
  8
3
  40
30
  5
7EDC
  62
0
  72
0
  71
0
 10
1294.67
 20
1870.27
 30
0.000000
  1
480
  0
POINT
  5
7E89
  8
DEFPOINTS
  6
CONTINUOUS
 62
     0
 10
1261.260994999999
 20
2166.0566984187849
 30
0.0
  0
POINT
  5
7E8A
  8
DEFPOINTS
  6
CONTINUOUS
 62
     0
 10
1261.260994999999
 20
1686.0566984187849
 30
0.0
  0
POINT
  5
7E8B
  8
DEFPOINTS
  6
CONTINUOUS
 62
     0
 10
1379.6743980000001
 20
1686.0566984187849
 30
0.0
  0
ENDBLK
  5
7BF3
  8
0
  0
BLOCK
  8
0
  2
*D12
 70
     1
 10
0.0
 20
0.0
 30
0.0
  3
*D12
  1

  0
LINE
  5
7E8C
  8
3
  6
CONTINUOUS
 62
     0
 10
1586.6272351321511
 20
1346.285198999999
 30
0.0
 11
1586.6272351321511
 21
1424.9842180000001
 31
0.0
  0
LINE
  5
7E8D
  8
3
  6
CONTINUOUS
 62
     0
 10
1766.6272351321511
 20
1346.285198999999
 30
0.0
 11
1766.6272351321511
 21
1424.9842180000001
 31
0.0
  0
LINE
  5
7E8E
  8
3
  6
CONTINUOUS
 62
     0
 10
1606.6272351321511
 20
1414.9842180000001
 30
0.0
 11
1746.6272351321511
 21
1414.9842180000001
 31
0.0
  0
INSERT
  5
7E8F
  8
3
  6
CONTINUOUS
 62
     0
  2
_OPEN
 10
1586.6272351321511
 20
1414.9842180000001
 30
0.0
 41
20.0
 42
20.0
 43
20.0
 50
180.0
  0
INSERT
  5
7E90
  8
3
  6
CONTINUOUS
 62
     0
  2
_OPEN
 10
1766.6272351321511
 20
1414.9842180000001
 30
0.0
 41
20.0
 42
20.0
 43
20.0
  0
TEXT
  8
3
  40
30
  5
7EDD
  62
0
  72
0
  71
0
 10
1610.24
 20
1386.88
 30
0.000000
  1
180
  0
POINT
  5
7E92
  8
DEFPOINTS
  6
CONTINUOUS
 62
     0
 10
1586.6272351321511
 20
1341.2851989999999
 30
0.0
  0
POINT
  5
7E93
  8
DEFPOINTS
  6
CONTINUOUS
 62
     0
 10
1766.6272351321511
 20
1341.2851989999999
 30
0.0
  0
POINT
  5
7E94
  8
DEFPOINTS
  6
CONTINUOUS
 62
     0
 10
1766.6272351321511
 20
1414.9842180000001
 30
0.0
  0
ENDBLK
  5
7C04
  8
0
  0
BLOCK
  8
0
  2
*D13
 70
     1
 10
0.0
 20
0.0
 30
0.0
  3
*D13
  1

  0
LINE
  5
7E95
  8
3
  6
CONTINUOUS
 62
     0
 10
1336.6272351321511
 20
1272.3851990000001
 30
0.0
 11
1336.6272351321511
 21
1505.4502660000001
 31
0.0
  0
LINE
  5
7E96
  8
3
  6
CONTINUOUS
 62
     0
 10
1676.6272351321511
 20
1468.5914379999999
 30
0.0
 11
1676.6272351321511
 21
1505.4502660000001
 31
0.0
  0
LINE
  5
7E97
  8
3
  6
CONTINUOUS
 62
     0
 10
1356.6272351321511
 20
1495.4502660000001
 30
0.0
 11
1656.627235132152
 21
1495.4502660000001
 31
0.0
  0
INSERT
  5
7E98
  8
3
  6
CONTINUOUS
 62
     0
  2
_OPEN
 10
1336.6272351321511
 20
1495.4502660000001
 30
0.0
 41
20.0
 42
20.0
 43
20.0
 50
180.0
  0
INSERT
  5
7E99
  8
3
  6
CONTINUOUS
 62
     0
  2
_OPEN
 10
1676.6272351321511
 20
1495.4502660000001
 30
0.0
 41
20.0
 42
20.0
 43
20.0
  0
TEXT
  8
3
  40
30
  5
7EDE
  62
0
  72
0
  71
0
 10
1449.14
 20
1492.35
 30
0.000000
  1
MAX
  0
TEXT
  8
3
  40
30
  5
7EDF
  62
0
  72
0
  71
0
 10
1449.14
 20
1453.35
 30
0.000000
  1
340
  0
POINT
  5
7E9B
  8
DEFPOINTS
  6
CONTINUOUS
 62
     0
 10
1336.6272351321511
 20
1267.3851990000001
 30
0.0
  0
POINT
  5
7E9C
  8
DEFPOINTS
  6
CONTINUOUS
 62
     0
 10
1676.6272351321511
 20
1463.5914379999999
 30
0.0
  0
POINT
  5
7E9D
  8
DEFPOINTS
  6
CONTINUOUS
 62
     0
 10
1676.6272351321511
 20
1495.4502660000001
 30
0.0
  0
ENDBLK
  5
7D19
  8
0
  0
BLOCK
  8
0
  2
*D14
 70
     1
 10
0.0
 20
0.0
 30
0.0
  3
*D14
  1

  0
LINE
  5
7E9E
  8
3
  6
CONTINUOUS
 62
     0
 10
1775.6272351321511
 20
1294.3851990000001
 30
0.0
 11
1775.6272351321511
 21
1505.4502660000001
 31
0.0
  0
LINE
  5
7E9F
  8
3
  6
CONTINUOUS
 62
     0
 10
1696.6272351321511
 20
1495.4502660000001
 30
0.0
 11
1755.6272351321511
 21
1495.4502660000001
 31
0.0
  0
TEXT
  8
3
  40
30
  5
7EE0
  62
0
  72
0
  71
0
 10
1664.53
 20
1467.35
 30
0.000000
  1
99
  0
INSERT
  5
7EA1
  8
3
  6
CONTINUOUS
 62
     0
  2
_OPEN
 10
1676.6272351321511
 20
1495.4502660000001
 30
0.0
 41
20.0
 42
20.0
 43
20.0
 50
180.0
  0
INSERT
  5
7EA2
  8
3
  6
CONTINUOUS
 62
     0
  2
_OPEN
 10
1775.6272351321511
 20
1495.4502660000001
 30
0.0
 41
20.0
 42
20.0
 43
20.0
  0
POINT
  5
7EA3
  8
DEFPOINTS
  6
CONTINUOUS
 62
     0
 10
1676.6272351321511
 20
1463.5914379999999
 30
0.0
  0
POINT
  5
7EA4
  8
DEFPOINTS
  6
CONTINUOUS
 62
     0
 10
1775.6272351321511
 20
1289.3851990000001
 30
0.0
  0
POINT
  5
7EA5
  8
DEFPOINTS
  6
CONTINUOUS
 62
     0
 10
1775.6272351321511
 20
1495.4502660000001
 30
0.0
  0
ENDBLK
  5
7CE7
  8
0
  0
BLOCK
  8
0
  2
*D15
 70
     1
 10
0.0
 20
0.0
 30
0.0
  3
*D15
  1

  0
LINE
  5
7EA6
  8
3
  6
CONTINUOUS
 62
     0
 10
1780.6272351321511
 20
1267.3851990000001
 30
0.0
 11
1868.2126261321521
 21
1267.3851990000001
 31
0.0
  0
LINE
  5
7EA7
  8
3
  6
CONTINUOUS
 62
     0
 10
1780.6272351321511
 20
1017.3851989999999
 30
0.0
 11
1868.2126261321521
 21
1017.3851989999999
 31
0.0
  0
LINE
  5
7EA8
  8
3
  6
CONTINUOUS
 62
     0
 10
1858.2126261321521
 20
1247.3851990000001
 30
0.0
 11
1858.2126261321521
 21
1037.3851989999989
 31
0.0
  0
INSERT
  5
7EA9
  8
3
  6
CONTINUOUS
 62
     0
  2
_OPEN
 10
1858.2126261321521
 20
1267.3851990000001
 30
0.0
 41
20.0
 42
20.0
 43
20.0
 50
90.0
  0
INSERT
  5
7EAA
  8
3
  6
CONTINUOUS
 62
     0
  2
_OPEN
 10
1858.2126261321521
 20
1017.3851989999999
 30
0.0
 41
20.0
 42
20.0
 43
20.0
 50
270.0
  0
TEXT
  8
3
  40
30
  5
7EE1
  62
0
  72
0
  71
0
 10
1773.21
 20
1093.71
 30
0.000000
  1
φ250
  0
POINT
  5
7EAC
  8
DEFPOINTS
  6
CONTINUOUS
 62
     0
 10
1775.6272351321511
 20
1267.3851990000001
 30
0.0
  0
POINT
  5
7EAD
  8
DEFPOINTS
  6
CONTINUOUS
 62
     0
 10
1775.6272351321511
 20
1017.3851989999999
 30
0.0
  0
POINT
  5
7EAE
  8
DEFPOINTS
  6
CONTINUOUS
 62
     0
 10
1858.2126261321521
 20
1017.3851989999999
 30
0.0
  0
ENDBLK
  5
7D24
  8
0
  0
BLOCK
  8
0
  2
*D16
 70
     1
 10
0.0
 20
0.0
 30
0.0
  3
*D16
  1

  0
LINE
  5
7EAF
  8
3
  6
CONTINUOUS
 62
     0
 10
1338.6272351321511
 20
792.38519900000006
 30
0.0
 11
1338.6272351321511
 21
695.82095700000002
 31
0.0
  0
LINE
  5
7EB0
  8
3
  6
CONTINUOUS
 62
     0
 10
1676.6272351321511
 20
751.11976800000002
 30
0.0
 11
1676.6272351321511
 21
695.82095700000002
 31
0.0
  0
LINE
  5
7EB1
  8
3
  6
CONTINUOUS
 62
     0
 10
1358.627235132152
 20
705.82095700000002
 30
0.0
 11
1656.627235132152
 21
705.82095700000002
 31
0.0
  0
INSERT
  5
7EB2
  8
3
  6
CONTINUOUS
 62
     0
  2
_OPEN
 10
1338.6272351321511
 20
705.82095700000002
 30
0.0
 41
20.0
 42
20.0
 43
20.0
 50
180.0
  0
INSERT
  5
7EB3
  8
3
  6
CONTINUOUS
 62
     0
  2
_OPEN
 10
1676.6272351321511
 20
705.82095700000002
 30
0.0
 41
20.0
 42
20.0
 43
20.0
  0
TEXT
  8
3
  40
30
  5
7EE2
  62
0
  72
0
  71
0
 10
1450.15
 20
677.721
 30
0.000000
  1
338
  0
POINT
  5
7EB5
  8
DEFPOINTS
  6
CONTINUOUS
 62
     0
 10
1338.6272351321511
 20
797.38519899999994
 30
0.0
  0
POINT
  5
7EB6
  8
DEFPOINTS
  6
CONTINUOUS
 62
     0
 10
1676.6272351321511
 20
756.11976800000002
 30
0.0
  0
POINT
  5
7EB7
  8
DEFPOINTS
  6
CONTINUOUS
 62
     0
 10
1676.6272351321511
 20
705.82095700000002
 30
0.0
  0
ENDBLK
  5
7C56
  8
0
  0
BLOCK
  8
0
  2
*D17
 70
     1
 10
0.0
 20
0.0
 30
0.0
  3
*D17
  1

  0
LINE
  5
7EB8
  8
3
  6
CONTINUOUS
 62
     0
 10
1818.6272351321511
 20
792.38519900000006
 30
0.0
 11
1818.6272351321511
 21
695.82095700000002
 31
0.0
  0
LINE
  5
7EB9
  8
3
  6
CONTINUOUS
 62
     0
 10
1696.6272351321511
 20
705.82095700000002
 30
0.0
 11
1798.6272351321511
 21
705.82095700000002
 31
0.0
  0
INSERT
  5
7EBA
  8
3
  6
CONTINUOUS
 62
     0
  2
_OPEN
 10
1676.6272351321511
 20
705.82095700000002
 30
0.0
 41
20.0
 42
20.0
 43
20.0
 50
180.0
  0
INSERT
  5
7EBB
  8
3
  6
CONTINUOUS
 62
     0
  2
_OPEN
 10
1818.6272351321511
 20
705.82095700000002
 30
0.0
 41
20.0
 42
20.0
 43
20.0
  0
TEXT
  8
3
  40
30
  5
7EE3
  62
0
  72
0
  71
0
 10
1687.63
 20
677.721
 30
0.000000
  1
142
  0
POINT
  5
7EBD
  8
DEFPOINTS
  6
CONTINUOUS
 62
     0
 10
1676.6272351321511
 20
756.11976800000002
 30
0.0
  0
POINT
  5
7EBE
  8
DEFPOINTS
  6
CONTINUOUS
 62
     0
 10
1818.6272351321511
 20
797.38519899999994
 30
0.0
  0
POINT
  5
7EBF
  8
DEFPOINTS
  6
CONTINUOUS
 62
     0
 10
1818.6272351321511
 20
705.82095700000002
 30
0.0
  0
ENDBLK
  5
7C62
  8
0
  0
BLOCK
  8
0
  2
*D18
 70
     1
 10
0.0
 20
0.0
 30
0.0
  3
*D18
  1

  0
LINE
  5
7EC0
  8
3
  6
CONTINUOUS
 62
     0
 10
536.26099499999987
 20
1142.3851990000001
 30
0.0
 11
392.25764100000021
 21
1142.3851990000001
 31
0.0
  0
LINE
  5
7EC1
  8
3
  6
CONTINUOUS
 62
     0
 10
556.26099499999987
 20
882.38519900000006
 30
0.0
 11
392.25764100000009
 21
882.38519900000006
 31
0.0
  0
LINE
  5
7EC2
  8
3
  6
CONTINUOUS
 62
     0
 10
402.25764100000009
 20
1122.3851990000001
 30
0.0
 11
402.25764100000009
 21
902.38519899999994
 31
0.0
  0
INSERT
  5
7EC3
  8
3
  6
CONTINUOUS
 62
     0
  2
_OPEN
 10
402.25764100000009
 20
1142.3851990000001
 30
0.0
 41
20.0
 42
20.0
 43
20.0
 50
90.0
  0
INSERT
  5
7EC4
  8
3
  6
CONTINUOUS
 62
     0
  2
_OPEN
 10
402.25764100000009
 20
882.38519900000006
 30
0.0
 41
20.0
 42
20.0
 43
20.0
 50
270.0
  0
TEXT
  8
3
  40
30
  5
7EE4
  62
0
  72
0
  71
0
 10
317.258
 20
975.606
 30
0.000000
  1
260
  0
POINT
  5
7EC6
  8
DEFPOINTS
  6
CONTINUOUS
 62
     0
 10
541.26099499999998
 20
1142.3851990000001
 30
0.0
  0
POINT
  5
7EC7
  8
DEFPOINTS
  6
CONTINUOUS
 62
     0
 10
561.26099499999987
 20
882.38519900000006
 30
0.0
  0
POINT
  5
7EC8
  8
DEFPOINTS
  6
CONTINUOUS
 62
     0
 10
402.25764100000009
 20
882.38519900000006
 30
0.0
  0
ENDBLK
  5
7CA0
  8
0
  0
BLOCK
  8
0
  2
*D19
 70
     1
 10
0.0
 20
0.0
 30
0.0
  3
*D19
  1

  0
LINE
  5
7EC9
  8
3
 62
     0
 10
541.26099499999998
 20
1168.3851990000001
 30
0.0
 11
541.26099499999998
 21
1472.7148618018359
 31
0.0
  0
LINE
  5
7ECA
  8
3
 62
     0
 10
1261.260994999999
 20
912.38519899999994
 30
0.0
 11
1261.260994999999
 21
1472.7148618018359
 31
0.0
  0
LINE
  5
7ECB
  8
3
 62
     0
 10
561.26099499999987
 20
1462.7148618018359
 30
0.0
 11
1241.260994999999
 21
1462.7148618018359
 31
0.0
  0
INSERT
  5
7ECC
  8
3
 62
     0
  2
_OPEN
 10
541.26099499999998
 20
1462.7148618018359
 30
0.0
 41
20.0
 42
20.0
 43
20.0
 50
180.0
  0
INSERT
  5
7ECD
  8
3
 62
     0
  2
_OPEN
 10
1261.260994999999
 20
1462.7148618018359
 30
0.0
 41
20.0
 42
20.0
 43
20.0
  0
TEXT
  8
3
  40
30
  5
7EE5
  62
0
  72
0
  71
0
 10
778.525
 20
1434.61
 30
0.000000
  1
720
  0
POINT
  5
7ECF
  8
DEFPOINTS
 62
     0
 10
541.26099499999998
 20
1163.3851990000001
 30
0.0
  0
POINT
  5
7ED0
  8
DEFPOINTS
 62
     0
 10
1261.260994999999
 20
907.38519900000006
 30
0.0
  0
POINT
  5
7ED1
  8
DEFPOINTS
 62
     0
 10
1261.260994999999
 20
1462.7148618018359
 30
0.0
  0
ENDBLK
  5
7D30
  8
0
  0
ENDSEC
  0
SECTION
  2
ENTITIES
  0
LINE
  5
7A93
  8
1
  6
CONTINUOUS
 10
1261.260994999999
 20
887.38519899999994
 30
0.0
 11
551.26099499999987
 21
887.38519899999994
 31
0.0
  0
LINE
  5
7A94
  8
1
  6
CONTINUOUS
 10
1006.560994999999
 20
907.38519900000006
 30
0.0
 11
1261.260994999999
 21
907.38519900000006
 31
0.0
  0
LINE
  5
7A95
  8
1
  6
CONTINUOUS
 10
1261.260994999999
 20
827.38519899999994
 30
0.0
 11
551.26099499999987
 21
827.38519899999994
 31
0.0
  0
CIRCLE
  5
7A96
  8
1
  6
CONTINUOUS
 10
741.26099499999998
 20
1142.3851990000001
 30
0.0
 40
145.0
  0
CIRCLE
  5
7A97
  8
1
  6
CONTINUOUS
 10
741.26099499999998
 20
1142.3851990000001
 30
0.0
 40
125.0
  0
CIRCLE
  5
7A98
  8
1
  6
CONTINUOUS
 10
741.26099499999998
 20
1142.3851990000001
 30
0.0
 40
63.5
  0
LINE
  5
7A99
  8
1
  6
CONTINUOUS
 10
741.06099500000005
 20
1267.3851990000001
 30
0.0
 11
1196.2609950000001
 21
1067.3851990000001
 31
0.0
  0
LINE
  5
7A9A
  8
1
  6
CONTINUOUS
 10
1082.9609949999999
 20
926.18519900000001
 30
0.0
 11
716.16099499999996
 21
1084.0851990000001
 31
0.0
  0
LINE
  5
7A9B
  8
1
  6
CONTINUOUS
 10
1127.360995
 20
1022.3851989999999
 30
0.0
 11
769.36099499999989
 21
1199.285198999999
 31
0.0
  0
LINE
  5
7A9C
  8
1
  6
CONTINUOUS
 10
901.26099499999987
 20
827.38519899999994
 30
0.0
 11
581.26099499999987
 21
827.38519899999994
 31
0.0
  0
LINE
  5
7A9D
  8
1
  6
CONTINUOUS
 10
679.66099499999996
 20
1292.3851990000001
 30
0.0
 11
802.86099499999989
 21
1292.3851990000001
 31
0.0
  0
LINE
  5
7A9E
  8
2
  6
CENTER
 10
512.52808499999992
 20
1142.3851990000001
 30
0.0
 11
1088.157858
 21
1142.3851990000001
 31
0.0
  0
ARC
  5
7A9F
  8
1
  6
CONTINUOUS
 10
758.26099499999998
 20
1125.3851990000001
 30
0.0
 40
203.6999999999999
 50
4.5999999999999996
 51
95.5
  0
ARC
  5
7AA0
  8
1
  6
CONTINUOUS
 10
721.26099499999998
 20
1122.3851990000001
 30
0.0
 40
240.90000000000001
 50
274.89999999999992
 51
4.5999999999999996
  0
LINE
  5
7AA1
  8
1
  6
CONTINUOUS
 10
616.26099499999998
 20
887.38519899999994
 30
0.0
 11
616.26099499999998
 21
1197.3851989999989
 31
0.0
  0
LINE
  5
7AA2
  8
1
  6
CONTINUOUS
 10
581.26099499999987
 20
887.38519899999994
 30
0.0
 11
581.26099499999987
 21
1208.485199
 31
0.0
  0
LINE
  5
7AA3
  8
1
  6
CONTINUOUS
 10
541.26099499999998
 20
1163.3851990000001
 30
0.0
 11
541.26099499999998
 21
871.38519899999994
 31
0.0
  0
LINE
  5
7AA4
  8
1
  6
CONTINUOUS
 10
561.26099499999987
 20
912.38519899999994
 30
0.0
 11
561.26099499999987
 21
1122.3851990000001
 31
0.0
  0
LINE
  5
7AA5
  8
1
  6
CONTINUOUS
 10
541.26099499999998
 20
892.38519900000006
 30
0.0
 11
561.26099499999987
 21
892.38519900000006
 31
0.0
  0
LINE
  5
7AA6
  8
1
  6
CONTINUOUS
 10
541.26099499999998
 20
892.38519900000006
 30
0.0
 11
561.26099499999987
 21
912.38519899999994
 31
0.0
  0
LINE
  5
7AA7
  8
1
  6
CONTINUOUS
 10
581.26099499999987
 20
797.38519899999994
 30
0.0
 11
551.26099499999987
 21
797.38519899999994
 31
0.0
  0
LINE
  5
7AA8
  8
1
  6
CONTINUOUS
 10
551.26099499999987
 20
887.38519899999994
 30
0.0
 11
551.26099499999987
 21
797.38519899999994
 31
0.0
  0
LINE
  5
7AA9
  8
1
  6
CONTINUOUS
 10
561.26099499999987
 20
882.38519900000006
 30
0.0
 11
741.66099499999996
 21
882.38519900000006
 31
0.0
  0
LINE
  5
7AAA
  8
1
  6
CONTINUOUS
 10
561.26099499999987
 20
882.38519900000006
 30
0.0
 11
561.26099499999987
 21
892.38519900000006
 31
0.0
  0
LINE
  5
7AAB
  8
1
  6
CONTINUOUS
 10
581.26099499999987
 20
827.38519899999994
 30
0.0
 11
581.26099499999987
 21
797.38519899999994
 31
0.0
  0
LINE
  5
7AAC
  8
1
  6
CONTINUOUS
 10
541.26099499999998
 20
1142.3851990000001
 30
0.0
 11
561.26099499999987
 21
1142.3851990000001
 31
0.0
  0
ARC
  5
7AAD
  8
1
  6
CONTINUOUS
 10
755.26099499999987
 20
1156.3851990000001
 30
0.0
 40
172.59999999999991
 50
95.5
 51
181.2999999999999
  0
LINE
  5
7AAE
  8
1
  6
CONTINUOUS
 10
541.26099499999998
 20
1142.3851990000001
 30
0.0
 11
561.26099499999987
 21
1122.3851990000001
 31
0.0
  0
LINE
  5
7AAF
  8
1
  6
CONTINUOUS
 10
616.26099499999998
 20
1197.3851989999989
 30
0.0
 11
741.06099500000005
 21
1267.3851990000001
 31
0.0
  0
LINE
  5
7AB0
  8
1
  6
CONTINUOUS
 10
679.66099499999996
 20
1292.3851990000001
 30
0.0
 11
581.26099499999987
 21
1208.485199
 31
0.0
  0
LINE
  5
7AB1
  8
1
  6
CONTINUOUS
 10
561.26099499999987
 20
1142.3851990000001
 30
0.0
 11
561.26099499999987
 21
1152.3851990000001
 31
0.0
  0
LINE
  5
7AB2
  8
1
  6
CONTINUOUS
 10
561.26099499999987
 20
1152.3851990000001
 30
0.0
 11
582.66099499999996
 21
1152.3851990000001
 31
0.0
  0
LINE
  5
7AB3
  8
2
  6
CENTER
 10
741.26099499999998
 20
815.37667099999987
 30
0.0
 11
741.26099499999998
 21
1350.1466439999999
 31
0.0
  0
ARC
  5
7AB4
  8
1
  6
CONTINUOUS
 10
1103.860995
 20
974.88519899999994
 30
0.0
 40
75.799999999999997
 50
322.89999999999992
 51
217.09999999999991
  0
LINE
  5
7AB5
  8
1
  6
CONTINUOUS
 10
1196.2609950000001
 20
887.38519899999994
 30
0.0
 11
1196.2609950000001
 21
1067.3851990000001
 31
0.0
  0
LINE
  5
7AB6
  8
1
  6
CONTINUOUS
 10
901.26099499999987
 20
1208.485199
 30
0.0
 11
901.26099499999987
 21
887.38519899999994
 31
0.0
  0
CIRCLE
  5
7AB7
  8
1
  6
CONTINUOUS
 10
1103.860995
 20
974.88519899999994
 30
0.0
 40
53.0
  0
LINE
  5
7AB8
  8
2
  6
CENTER
 10
1156.860995
 20
974.88519899999994
 30
0.0
 11
1050.860995
 21
974.88519899999994
 31
0.0
  0
POINT
  5
7AB9
  8
1
  6
CONTINUOUS
 10
1033.460994999999
 20
974.88519899999994
 30
0.0
  0
LINE
  5
7ABA
  8
1
  6
CONTINUOUS
 10
1037.8609949999991
 20
914.88519899999994
 30
0.0
 11
1043.4609949999999
 21
929.1851989999999
 31
0.0
  0
LINE
  5
7ABB
  8
1
  6
CONTINUOUS
 10
1037.8609949999991
 20
907.38519900000006
 30
0.0
 11
1037.8609949999991
 21
914.88519899999994
 31
0.0
  0
LINE
  5
7ABC
  8
1
  6
CONTINUOUS
 10
1006.560994999999
 20
887.38519899999994
 30
0.0
 11
1006.560994999999
 21
907.38519900000006
 31
0.0
  0
LINE
  5
7ABD
  8
1
  6
CONTINUOUS
 10
1169.860995
 20
907.38519900000006
 30
0.0
 11
1169.860995
 21
914.88519899999994
 31
0.0
  0
LINE
  5
7ABE
  8
1
  6
CONTINUOUS
 10
1169.860995
 20
914.88519899999994
 30
0.0
 11
1164.360995
 21
929.1851989999999
 31
0.0
  0
LINE
  5
7ABF
  8
2
  6
CENTER
 10
1103.860995
 20
921.88519899999994
 30
0.0
 11
1103.860995
 21
1027.8851990000001
 31
0.0
  0
LINE
  5
7AC0
  8
1
  6
CONTINUOUS
 10
802.86099499999989
 20
1292.3851990000001
 30
0.0
 11
901.26099499999987
 21
1208.485199
 31
0.0
  0
LINE
  5
7AC1
  8
1
  6
CONTINUOUS
 10
1261.260994999999
 20
907.38519900000006
 30
0.0
 11
1261.260994999999
 21
887.38519899999994
 31
0.0
  0
LINE
  5
7AC2
  8
1
  6
CONTINUOUS
 10
1261.260994999999
 20
887.38519899999994
 30
0.0
 11
1261.260994999999
 21
797.38519899999994
 31
0.0
  0
LINE
  5
7AC3
  8
1
  6
CONTINUOUS
 10
1231.260994999999
 20
827.38519899999994
 30
0.0
 11
1231.260994999999
 21
797.38519899999994
 31
0.0
  0
LINE
  5
7AC4
  8
1
  6
CONTINUOUS
 10
1261.260994999999
 20
797.38519899999994
 30
0.0
 11
1231.260994999999
 21
797.38519899999994
 31
0.0
  0
LINE
  5
7AC5
  8
1
  6
CONTINUOUS
 10
1115.9609949999999
 20
1766.0566984187849
 30
0.0
 11
1261.260994999999
 21
1766.0566984187849
 31
0.0
  0
LINE
  5
7AC6
  8
1
  6
CONTINUOUS
 10
952.16099499999996
 20
2016.0566984187849
 30
0.0
 11
1261.260994999999
 21
2016.0566984187849
 31
0.0
  0
LINE
  5
7AC7
  8
1
  6
CONTINUOUS
 10
541.26099499999998
 20
2113.8566984187851
 30
0.0
 11
940.16099499999984
 21
2113.8566984187851
 31
0.0
  0
LINE
  5
7AC8
  8
1
  6
CONTINUOUS
 10
940.16099499999984
 20
1934.2566984187849
 30
0.0
 11
741.26099499999998
 21
1934.2566984187849
 31
0.0
  0
LINE
  5
7AC9
  8
1
  6
CONTINUOUS
 10
888.26099499999998
 20
2123.0566984187849
 30
0.0
 11
594.26099499999987
 21
2123.0566984187849
 31
0.0
  0
LINE
  5
7ACA
  8
1
  6
CONTINUOUS
 10
753.26099499999998
 20
1766.0566984187849
 30
0.0
 11
1091.960994999999
 21
1766.0566984187849
 31
0.0
  0
LINE
  5
7ACB
  8
1
  6
CONTINUOUS
 10
753.26099499999998
 20
1796.0566984187849
 30
0.0
 11
901.26099499999987
 21
1796.0566984187849
 31
0.0
  0
LINE
  5
7ACC
  8
1
  6
CONTINUOUS
 10
616.26099499999998
 20
1684.0566984187849
 30
0.0
 11
1196.2609950000001
 21
1684.0566984187849
 31
0.0
  0
LINE
  5
7ACD
  8
1
  6
CONTINUOUS
 10
616.26099499999998
 20
1759.0566984187849
 30
0.0
 11
1196.2609950000001
 21
1759.0566984187849
 31
0.0
  0
LINE
  5
7ACE
  8
1
  6
CONTINUOUS
 10
677.76099499999987
 20
1739.0566984187849
 30
0.0
 11
804.76099499999998
 21
1739.0566984187849
 31
0.0
  0
LINE
  5
7ACF
  8
1
  6
CONTINUOUS
 10
677.76099499999987
 20
1704.0566984187849
 30
0.0
 11
804.76099499999998
 21
1704.0566984187849
 31
0.0
  0
LINE
  5
7AD0
  8
1
  6
CONTINUOUS
 10
901.26099499999987
 20
1925.0566984187849
 30
0.0
 11
581.26099499999987
 21
1925.0566984187849
 31
0.0
  0
LINE
  5
7AD1
  8
1
  6
CONTINUOUS
 10
561.26099499999987
 20
2084.8566984187851
 30
0.0
 11
561.26099499999987
 21
1963.2566984187849
 31
0.0
  0
LINE
  5
7AD2
  8
1
  6
CONTINUOUS
 10
541.26099499999998
 20
2135.0566984187849
 30
0.0
 11
541.26099499999998
 21
1913.0566984187849
 31
0.0
  0
LINE
  5
7AD3
  8
1
  6
CONTINUOUS
 10
541.26099499999998
 20
1934.2566984187849
 30
0.0
 11
741.26099499999998
 21
1934.2566984187849
 31
0.0
  0
LINE
  5
7AD4
  8
1
  6
CONTINUOUS
 10
541.26099499999998
 20
1943.2566984187849
 30
0.0
 11
561.26099499999987
 21
1963.2566984187849
 31
0.0
  0
LINE
  5
7AD5
  8
1
  6
CONTINUOUS
 10
551.26099499999987
 20
1766.0566984187849
 30
0.0
 11
729.26099499999998
 21
1766.0566984187849
 31
0.0
  0
LINE
  5
7AD6
  8
1
  6
CONTINUOUS
 10
581.26099499999987
 20
1686.0566984187849
 30
0.0
 11
551.26099499999987
 21
1686.0566984187849
 31
0.0
  0
LINE
  5
7AD7
  8
1
  6
CONTINUOUS
 10
551.26099499999987
 20
1933.2566984187849
 30
0.0
 11
551.26099499999987
 21
1686.0566984187849
 31
0.0
  0
LINE
  5
7AD8
  8
1
  6
CONTINUOUS
 10
616.26099499999998
 20
1684.0566984187849
 30
0.0
 11
616.26099499999998
 21
1759.0566984187849
 31
0.0
  0
LINE
  5
7AD9
  8
1
  6
CONTINUOUS
 10
677.76099499999987
 20
1704.0566984187849
 30
0.0
 11
677.76099499999987
 21
1739.0566984187849
 31
0.0
  0
LINE
  5
7ADA
  8
1
  6
CONTINUOUS
 10
581.26099499999987
 20
1766.0566984187849
 30
0.0
 11
581.26099499999987
 21
1686.0566984187849
 31
0.0
  0
LINE
  5
7ADB
  8
1
  6
CONTINUOUS
 10
581.26099499999987
 20
1796.0566984187849
 30
0.0
 11
729.26099499999998
 21
1796.0566984187849
 31
0.0
  0
LINE
  5
7ADC
  8
1
  6
CONTINUOUS
 10
594.26099499999987
 20
1934.2566984187849
 30
0.0
 11
594.26099499999987
 21
1925.0566984187849
 31
0.0
  0
LINE
  5
7ADD
  8
1
  6
CONTINUOUS
 10
581.26099499999987
 20
1796.0566984187849
 30
0.0
 11
581.26099499999987
 21
1925.0566984187849
 31
0.0
  0
LINE
  5
7ADE
  8
1
  6
CONTINUOUS
 10
753.26099499999998
 20
1739.0566984187849
 30
0.0
 11
753.26099499999998
 21
1925.0566984187849
 31
0.0
  0
LINE
  5
7ADF
  8
1
  6
CONTINUOUS
 10
729.26099499999998
 20
1739.0566984187849
 30
0.0
 11
729.26099499999998
 21
1925.0566984187849
 31
0.0
  0
LINE
  5
7AE0
  8
1
  6
CONTINUOUS
 10
541.26099499999998
 20
2104.8566984187851
 30
0.0
 11
561.26099499999987
 21
2084.8566984187851
 31
0.0
  0
LINE
  5
7AE1
  8
1
  6
CONTINUOUS
 10
581.26099499999987
 20
2166.0566984187849
 30
0.0
 11
551.26099499999987
 21
2166.0566984187849
 31
0.0
  0
LINE
  5
7AE2
  8
1
  6
CONTINUOUS
 10
551.26099499999987
 20
2166.0566984187849
 30
0.0
 11
551.26099499999987
 21
2114.8566984187851
 31
0.0
  0
LINE
  5
7AE3
  8
1
  6
CONTINUOUS
 10
594.26099499999987
 20
2113.8566984187851
 30
0.0
 11
594.26099499999987
 21
2123.0566984187849
 31
0.0
  0
LINE
  5
7AE4
  8
1
  6
CONTINUOUS
 10
581.26099499999987
 20
2166.0566984187849
 30
0.0
 11
581.26099499999987
 21
2114.8566984187851
 31
0.0
  0
LINE
  5
7AE5
  8
1
  6
CONTINUOUS
 10
952.16099499999996
 20
2101.8566984187851
 30
0.0
 11
952.16099499999996
 21
1946.2566984187849
 31
0.0
  0
LINE
  5
7AE6
  8
1
  6
CONTINUOUS
 10
804.76099499999998
 20
1704.0566984187849
 30
0.0
 11
804.76099499999998
 21
1739.0566984187849
 31
0.0
  0
ARC
  5
7AE7
  8
1
  6
CONTINUOUS
 10
940.16099499999984
 20
1946.2566984187849
 30
0.0
 40
12.0
 50
270.0
 51
0.0
  0
LINE
  5
7AE8
  8
1
  6
CONTINUOUS
 10
888.26099499999998
 20
1934.2566984187849
 30
0.0
 11
888.26099499999998
 21
1925.0566984187849
 31
0.0
  0
LINE
  5
7AE9
  8
1
  6
CONTINUOUS
 10
901.26099499999987
 20
1925.0566984187849
 30
0.0
 11
901.26099499999987
 21
1796.0566984187849
 31
0.0
  0
LINE
  5
7AEA
  8
1
  6
CONTINUOUS
 10
1196.2609950000001
 20
1684.0566984187849
 30
0.0
 11
1196.2609950000001
 21
1759.0566984187849
 31
0.0
  0
LINE
  5
7AEB
  8
1
  6
CONTINUOUS
 10
1156.960994999999
 20
1704.0566984187849
 30
0.0
 11
1156.960994999999
 21
1739.0566984187849
 31
0.0
  0
LINE
  5
7AEC
  8
1
  6
CONTINUOUS
 10
1050.9609949999999
 20
1704.0566984187849
 30
0.0
 11
1050.9609949999999
 21
1739.0566984187849
 31
0.0
  0
LINE
  5
7AED
  8
1
  6
CONTINUOUS
 10
1050.9609949999999
 20
1704.0566984187849
 30
0.0
 11
1156.960994999999
 21
1704.0566984187849
 31
0.0
  0
LINE
  5
7AEE
  8
1
  6
CONTINUOUS
 10
1027.2609950000001
 20
1790.3566984187851
 30
0.0
 11
1178.760994999999
 21
1790.3566984187851
 31
0.0
  0
LINE
  5
7AEF
  8
1
  6
CONTINUOUS
 10
1027.2609950000001
 20
1994.3566984187851
 30
0.0
 11
1178.760994999999
 21
1994.3566984187851
 31
0.0
  0
LINE
  5
7AF0
  8
1
  6
CONTINUOUS
 10
1050.9609949999999
 20
1739.0566984187849
 30
0.0
 11
1156.960994999999
 21
1739.0566984187849
 31
0.0
  0
LINE
  5
7AF1
  8
1
  6
CONTINUOUS
 10
1027.2609950000001
 20
1790.3566984187851
 30
0.0
 11
1027.2609950000001
 21
1994.3566984187851
 31
0.0
  0
LINE
  5
7AF2
  8
1
  6
CONTINUOUS
 10
1091.960994999999
 20
1739.0566984187849
 30
0.0
 11
1091.960994999999
 21
1790.3566984187851
 31
0.0
  0
LINE
  5
7AF3
  8
1
  6
CONTINUOUS
 10
1178.760994999999
 20
1790.3566984187851
 30
0.0
 11
1178.760994999999
 21
1994.3566984187851
 31
0.0
  0
LINE
  5
7AF4
  8
1
  6
CONTINUOUS
 10
1115.9609949999999
 20
1739.0566984187849
 30
0.0
 11
1115.9609949999999
 21
1790.3566984187851
 31
0.0
  0
ARC
  5
7AF5
  8
1
  6
CONTINUOUS
 10
940.16099499999984
 20
2101.8566984187851
 30
0.0
 40
12.0
 50
0.0
 51
90.0
  0
LINE
  5
7AF6
  8
1
  6
CONTINUOUS
 10
888.26099499999998
 20
2113.8566984187851
 30
0.0
 11
888.26099499999998
 21
2123.0566984187849
 31
0.0
  0
LINE
  5
7AF7
  8
1
  6
CONTINUOUS
 10
1261.260994999999
 20
2166.0566984187849
 30
0.0
 11
1261.260994999999
 21
1686.0566984187849
 31
0.0
  0
LINE
  5
7AF8
  8
1
  6
CONTINUOUS
 10
1231.260994999999
 20
2166.0566984187849
 30
0.0
 11
1231.260994999999
 21
2016.0566984187849
 31
0.0
  0
LINE
  5
7AF9
  8
1
  6
CONTINUOUS
 10
1231.260994999999
 20
1766.0566984187849
 30
0.0
 11
1231.260994999999
 21
1686.0566984187849
 31
0.0
  0
LINE
  5
7AFA
  8
1
  6
CONTINUOUS
 10
1231.260994999999
 20
1686.0566984187849
 30
0.0
 11
1261.260994999999
 21
1686.0566984187849
 31
0.0
  0
LINE
  5
7AFB
  8
1
  6
CONTINUOUS
 10
1231.260994999999
 20
2166.0566984187849
 30
0.0
 11
1261.260994999999
 21
2166.0566984187849
 31
0.0
  0
LINE
  5
7AFC
  8
1
  6
CONTINUOUS
 10
1766.6272351321511
 20
891.38519900000006
 30
0.0
 11
1586.6272351321511
 21
891.38519900000006
 31
0.0
  0
LINE
  5
7AFD
  8
1
  6
CONTINUOUS
 10
1766.6272351321511
 20
1143.3851990000001
 30
0.0
 11
1586.6272351321511
 21
891.38519900000006
 31
0.0
  0
LINE
  5
7AFE
  8
1
  6
CONTINUOUS
 10
1586.6272351321511
 20
1143.3851990000001
 30
0.0
 11
1766.6272351321511
 21
891.38519900000006
 31
0.0
  0
LINE
  5
7AFF
  8
1
  6
CONTINUOUS
 10
1598.6272351321511
 20
1353.2851989999999
 30
0.0
 11
1754.627235132152
 21
1353.2851989999999
 31
0.0
  0
LINE
  5
7B00
  8
1
  6
CONTINUOUS
 10
1586.6272351321511
 20
1143.3851990000001
 30
0.0
 11
1766.6272351321511
 21
1143.3851990000001
 31
0.0
  0
LINE
  5
7B01
  8
1
  6
CONTINUOUS
 10
1338.6272351321511
 20
797.38519899999994
 30
0.0
 11
1818.6272351321511
 21
797.38519899999994
 31
0.0
  0
LINE
  5
7B02
  8
1
  6
CONTINUOUS
 10
1338.6272351321511
 20
827.38519899999994
 30
0.0
 11
1818.6272351321511
 21
827.38519899999994
 31
0.0
  0
LINE
  5
7B03
  8
1
  6
CONTINUOUS
 10
1577.6272351321511
 20
1289.3851990000001
 30
0.0
 11
1577.6272351321511
 21
887.38519899999994
 31
0.0
  0
LINE
  5
7B04
  8
1
  6
CONTINUOUS
 10
1577.6272351321511
 20
995.38519899999994
 30
0.0
 11
1577.6272351321511
 21
1142.3851990000001
 31
0.0
  0
LINE
  5
7B05
  8
1
  6
CONTINUOUS
 10
1586.6272351321511
 20
891.38519900000006
 30
0.0
 11
1586.6272351321511
 21
1341.2851989999999
 31
0.0
  0
LINE
  5
7B06
  8
1
  6
CONTINUOUS
 10
1411.6272351321511
 20
887.38519899999994
 30
0.0
 11
1411.6272351321511
 21
1267.3851990000001
 31
0.0
  0
LINE
  5
7B07
  8
1
  6
CONTINUOUS
 10
1336.6272351321511
 20
887.38519899999994
 30
0.0
 11
1336.6272351321511
 21
1267.3851990000001
 31
0.0
  0
LINE
  5
7B08
  8
1
  6
CONTINUOUS
 10
1448.6272351321511
 20
887.38519899999994
 30
0.0
 11
1448.6272351321511
 21
1104.185199
 31
0.0
  0
LINE
  5
7B09
  8
1
  6
CONTINUOUS
 10
1336.6272351321511
 20
887.38519899999994
 30
0.0
 11
1668.6272351321511
 21
887.38519899999994
 31
0.0
  0
LINE
  5
7B0A
  8
1
  6
CONTINUOUS
 10
1391.6272351321511
 20
986.88519900000006
 30
0.0
 11
1448.6272351321511
 21
986.88519900000006
 31
0.0
  0
LINE
  5
7B0B
  8
1
  6
CONTINUOUS
 10
1391.6272351321511
 20
962.88519900000006
 30
0.0
 11
1448.6272351321511
 21
962.88519900000006
 31
0.0
  0
LINE
  5
7B0C
  8
1
  6
CONTINUOUS
 10
1338.6272351321511
 20
827.38519899999994
 30
0.0
 11
1338.6272351321511
 21
797.38519899999994
 31
0.0
  0
LINE
  5
7B0D
  8
1
  6
CONTINUOUS
 10
1418.6272351321511
 20
887.38519899999994
 30
0.0
 11
1418.6272351321511
 21
827.38519899999994
 31
0.0
  0
LINE
  5
7B0E
  8
1
  6
CONTINUOUS
 10
1391.6272351321511
 20
1027.8851990000001
 30
0.0
 11
1391.6272351321511
 21
921.88519899999994
 31
0.0
  0
LINE
  5
7B0F
  8
1
  6
CONTINUOUS
 10
1356.6272351321511
 20
921.88519899999994
 30
0.0
 11
1391.6272351321511
 21
921.88519899999994
 31
0.0
  0
LINE
  5
7B10
  8
1
  6
CONTINUOUS
 10
1356.6272351321511
 20
1027.8851990000001
 30
0.0
 11
1356.6272351321511
 21
921.88519899999994
 31
0.0
  0
LINE
  5
7B11
  8
1
  6
CONTINUOUS
 10
1356.6272351321511
 20
1027.8851990000001
 30
0.0
 11
1391.6272351321511
 21
1027.8851990000001
 31
0.0
  0
LINE
  5
7B12
  8
1
  6
CONTINUOUS
 10
1586.6272351321511
 20
891.38519900000006
 30
0.0
 11
1586.6272351321511
 21
913.36548400000004
 31
0.0
  0
LINE
  5
7B13
  8
1
  6
CONTINUOUS
 10
1586.6272351321511
 20
995.38519899999994
 30
0.0
 11
1577.6272351321511
 21
995.38519899999994
 31
0.0
  0
LINE
  5
7B14
  8
1
  6
CONTINUOUS
 10
1668.6272351321511
 20
887.38519899999994
 30
0.0
 11
1668.6272351321511
 21
827.38519899999994
 31
0.0
  0
LINE
  5
7B15
  8
1
  6
CONTINUOUS
 10
1448.6272351321511
 20
1104.185199
 30
0.0
 11
1577.6272351321511
 21
1208.485199
 31
0.0
  0
LINE
  5
7B16
  8
1
  6
CONTINUOUS
 10
1391.6272351321511
 20
1130.3851990000001
 30
0.0
 11
1481.0272351321521
 21
1130.3851990000001
 31
0.0
  0
LINE
  5
7B17
  8
1
  6
CONTINUOUS
 10
1391.6272351321511
 20
1154.3851990000001
 30
0.0
 11
1510.7272351321519
 21
1154.3851990000001
 31
0.0
  0
LINE
  5
7B18
  8
1
  6
CONTINUOUS
 10
1391.6272351321511
 20
1205.8851990000001
 30
0.0
 11
1391.6272351321511
 21
1078.8851990000001
 31
0.0
  0
LINE
  5
7B19
  8
1
  6
CONTINUOUS
 10
1356.6272351321511
 20
1078.8851990000001
 30
0.0
 11
1391.6272351321511
 21
1078.8851990000001
 31
0.0
  0
LINE
  5
7B1A
  8
1
  6
CONTINUOUS
 10
1356.6272351321511
 20
1205.8851990000001
 30
0.0
 11
1391.6272351321511
 21
1205.8851990000001
 31
0.0
  0
LINE
  5
7B1B
  8
1
  6
CONTINUOUS
 10
1356.6272351321511
 20
1205.8851990000001
 30
0.0
 11
1356.6272351321511
 21
1078.8851990000001
 31
0.0
  0
LINE
  5
7B1C
  8
1
  6
CONTINUOUS
 10
1336.6272351321511
 20
1267.3851990000001
 30
0.0
 11
1411.6272351321511
 21
1267.3851990000001
 31
0.0
  0
LINE
  5
7B1D
  8
1
  6
CONTINUOUS
 10
1586.6272351321511
 20
1289.3851990000001
 30
0.0
 11
1577.6272351321511
 21
1289.3851990000001
 31
0.0
  0
LINE
  5
7B1E
  8
1
  6
CONTINUOUS
 10
1577.6272351321511
 20
1289.3851990000001
 30
0.0
 11
1577.6272351321511
 21
1142.3851990000001
 31
0.0
  0
ARC
  5
7B1F
  8
1
  6
CONTINUOUS
 10
1598.6272351321511
 20
1341.2851989999999
 30
0.0
 40
12.0
 50
90.0
 51
180.0
  0
LINE
  5
7B20
  8
1
  6
CONTINUOUS
 10
1775.6272351321511
 20
995.38519899999994
 30
0.0
 11
1775.6272351321511
 21
1289.3851990000001
 31
0.0
  0
LINE
  5
7B21
  8
1
  6
CONTINUOUS
 10
1766.6272351321511
 20
1341.2851989999999
 30
0.0
 11
1766.6272351321511
 21
891.38519900000006
 31
0.0
  0
LINE
  5
7B22
  8
1
  6
CONTINUOUS
 10
1766.6272351321511
 20
995.38519899999994
 30
0.0
 11
1775.6272351321511
 21
995.38519899999994
 31
0.0
  0
LINE
  5
7B23
  8
1
  6
CONTINUOUS
 10
1818.6272351321511
 20
827.38519899999994
 30
0.0
 11
1818.6272351321511
 21
797.38519899999994
 31
0.0
  0
LINE
  5
7B24
  8
1
  6
CONTINUOUS
 10
1766.6272351321511
 20
1289.3851990000001
 30
0.0
 11
1775.6272351321511
 21
1289.3851990000001
 31
0.0
  0
ARC
  5
7B25
  8
1
  6
CONTINUOUS
 10
1754.627235132152
 20
1341.2851989999999
 30
0.0
 40
12.0
 50
0.0
 51
90.0
  0
LINE
  5
7B26
  8
4
  6
CONTINUOUS
 10
1850.0
 20
500.0
 30
0.0
 11
1850.0
 21
300.0
 31
0.0
  0
LINE
  5
7B27
  8
4
  6
CONTINUOUS
 10
1150.0
 20
500.0
 30
0.0
 11
1150.0
 21
300.0
 31
0.0
  0
LINE
  5
7B28
  8
4
  6
CONTINUOUS
 10
650.0
 20
500.0
 30
0.0
 11
650.0
 21
300.0
 31
0.0
  0
LINE
  5
7B2B
  8
4
  6
CONTINUOUS
 10
650.0
 20
300.0
 30
0.0
 11
1850.0
 21
300.0
 31
0.0
  0
LINE
  5
7B2C
  8
4
  6
CONTINUOUS
 10
650.0
 20
400.0
 30
0.0
 11
1850.0
 21
400.0
 31
0.0
  0
TEXT
  5
7B2D
  8
4
  6
CONTINUOUS
 10
688.50208099999998
 20
431.543026
 30
0.0
 40
50.0
  1
機器名称
  0
TEXT
  5
7B2E
  8
4
  6
CONTINUOUS
 10
686.258106
 20
321.64515699999993
 30
0.0
 40
50.0
  1
機器型番
  0
TEXT
  5
7B2F
  8
4
  6
CONTINUOUS
 10
1177.678744999999
 20
422.57176900000002
 30
0.0
 40
45.0
  1
ミツヤニューマルチファン
  0
TEXT
  5
7B30
  8
4
  6
CONTINUOUS
 10
1186.6544960000001
 20
317.159584
 30
0.0
 40
50.0
  1
NM#1 1/2-1
  0
TEXT
  5
7B32
  8
4
  6
CONTINUOUS
 10
817.211366
 20
2383.4288409999999
 30
0.0
 40
54.0
  1
天井吊ベット
  0
TEXT
  5
7B33
  8
4
  6
CONTINUOUS
 10
316.16759300000001
 20
2533.8809759999999
 30
0.0
 40
72.0
  1
ベルト駆動式片吸込片持多翼ファン
  0
LINE
  5
7B34
  8
4
  6
CONTINUOUS
 10
250.0
 20
2469.408754
 30
0.0
 11
1850.0
 21
2469.408754
 31
0.0
  0
LINE
  5
7B35
  8
4
  6
CONTINUOUS
 10
250.0
 20
2669.408754
 30
0.0
 11
1850.0
 21
2669.408754
 31
0.0
  0
LINE
  5
7B36
  8
4
  6
CONTINUOUS
 10
650.0
 20
500.0
 30
0.0
 11
1850.0
 21
500.0
 31
0.0
  0
LINE
  5
7B37
  8
4
  6
CONTINUOUS
 10
250.0
 20
2669.408754
 30
0.0
 11
250.0
 21
2469.408754
 31
0.0
  0
TEXT
  5
7B38
  8
4
  6
CONTINUOUS
 10
381.35253399999988
 20
2382.3194779999999
 30
0.0
 40
54.0
  1
右回転左横向
  0
TEXT
  5
7B39
  8
4
  6
CONTINUOUS
 10
1468.9695589999999
 20
2706.0610809999998
 30
0.0
 40
56.0
  1
No.
  0
TEXT
  5
7B3A
  8
4
  6
CONTINUOUS
 10
1311.296063
 20
2383.4288409999999
 30
0.0
 40
54.0
  1
縮尺：1/10
  0
LINE
  5
7B3B
  8
4
  6
CONTINUOUS
 10
1850.0
 20
2669.408754
 30
0.0
 11
1850.0
 21
2469.408754
 31
0.0
  0
LINE
  5
7B3D
  8
4
  6
CONTINUOUS
 10
1440.617422
 20
2681.2635829999999
 30
0.0
 11
1440.617422
 21
2786.6522620000001
 31
0.0
  0
LINE
  5
7B3E
  8
4
  6
CONTINUOUS
 10
1440.617422
 20
2786.6522620000001
 30
0.0
 11
1850.0
 21
2786.6522620000001
 31
0.0
  0
LINE
  5
7B3F
  8
4
  6
CONTINUOUS
 10
1850.0
 20
2786.6522620000001
 30
0.0
 11
1850.0
 21
2681.2635829999999
 31
0.0
  0
LINE
  5
7B40
  8
4
  6
CONTINUOUS
 10
1850.0
 20
2681.2635829999999
 30
0.0
 11
1440.617422
 21
2681.2635829999999
 31
0.0
  0
DIMENSION
  5
7B58
  8
3
  6
CONTINUOUS
  2
*D1
 10
741.26099499999998
 20
731.17462799999998
 30
0.0
 11
653.67969100000005
 21
731.17462799999998
 31
0.0
 70
   128
 13
551.26099499999987
 23
797.38519899999994
 33
0.0
 14
741.26099499999998
 24
807.46226599999989
 34
0.0
1001
ACAD
1000
DSTYLE
1002
{
1070
   287
1070
     3
1070
   287
1070
     3
1070
    40
1040
10.0
1070
   143
1040
0.039
1070
   172
1070
     1
1070
   271
1070
     0
1070
   279
1070
     0
1070
   288
1070
     1
1002
}
  0
DIMENSION
  5
7B64
  8
3
  6
CONTINUOUS
  2
*D2
 10
1261.260994999999
 20
731.17462799999998
 30
0.0
 11
1001.260994999999
 21
756.17462799999998
 31
0.0
 70
     0
 13
741.26099499999998
 23
807.46226599999989
 33
0.0
 14
1261.260994999999
 24
797.38519899999994
 34
0.0
1001
ACAD
1000
DSTYLE
1002
{
1070
   287
1070
     4
1070
   287
1070
     4
1070
    40
1040
10.0
1070
    75
1070
     1
1070
   143
1040
0.039
1070
   172
1070
     1
1070
   271
1070
     0
1070
   279
1070
     1
1070
   288
1070
     1
1002
}
  0
DIMENSION
  5
7B71
  8
3
  6
CONTINUOUS
  2
*D3
 10
479.7607910000001
 20
892.38519900000006
 30
0.0
 11
479.76079099999998
 21
1024.9921469999999
 31
0.0
 70
   128
 13
541.26099499999998
 23
1142.3851990000001
 33
0.0
 14
541.26099499999998
 24
892.38519900000006
 34
0.0
 50
90.0
1001
ACAD
1000
DSTYLE
1002
{
1070
   287
1070
     3
1070
   287
1070
     3
1070
    40
1040
10.0
1070
   143
1040
0.039
1070
   172
1070
     1
1070
   271
1070
     0
1070
   279
1070
     0
1070
   288
1070
     1
1002
}
  0
DIMENSION
  5
7B7E
  8
3
  6
CONTINUOUS
  2
*D4
 10
346.31546100000008
 20
1142.3851990000001
 30
0.0
 11
346.31546099999991
 21
1234.723806
 31
0.0
 70
   128
 13
741.26099499999998
 23
1328.374583
 33
0.0
 14
541.26099499999998
 24
1142.3851990000001
 34
0.0
 50
90.0
1001
ACAD
1000
DSTYLE
1002
{
1070
   287
1070
     3
1070
   287
1070
     3
1070
    40
1040
10.0
1070
   143
1040
0.039
1070
   172
1070
     1
1070
   271
1070
     0
1070
   279
1070
     0
1070
   288
1070
     1
1002
}
  0
DIMENSION
  5
7B8A
  8
3
  6
CONTINUOUS
  2
*D5
 10
346.31546099999991
 20
827.38519899999994
 30
0.0
 11
321.3154609999998
 21
984.88519900000028
 31
0.0
 70
     0
 13
541.26099499999998
 23
1142.3851990000001
 33
0.0
 14
551.26099499999987
 24
827.38519899999994
 34
0.0
 50
90.0
1001
ACAD
1000
DSTYLE
1002
{
1070
   287
1070
     4
1070
   287
1070
     4
1070
    40
1040
10.0
1070
    75
1070
     1
1070
   143
1040
0.039
1070
   172
1070
     1
1070
   271
1070
     0
1070
   279
1070
     1
1070
   288
1070
     1
1002
}
  0
DIMENSION
  5
7B9A
  8
3
  6
CONTINUOUS
  2
*D6
 10
346.31546100000008
 20
797.38519899999994
 30
0.0
 11
346.31546099999991
 21
723.09948471428584
 31
0.0
 70
   128
 13
551.26099499999987
 23
827.38519899999994
 33
0.0
 14
551.26099499999987
 24
797.38519899999994
 34
0.0
 50
90.0
1001
ACAD
1000
DSTYLE
1002
{
1070
   287
1070
     3
1070
   287
1070
     3
1070
    40
1040
10.0
1070
   143
1040
0.039
1070
   172
1070
     1
1070
   271
1070
     0
1070
   279
1070
     0
1070
   288
1070
     1
1002
}
  0
DIMENSION
  5
7BC1
  8
3
  6
CONTINUOUS
  2
*D7
 10
288.77090900000002
 20
797.38519899999994
 30
0.0
 11
288.7709089999999
 21
1050.7139529999999
 31
0.0
 70
   128
 13
741.26099499999998
 23
1328.374583
 33
0.0
 14
551.26099499999987
 24
797.38519899999994
 34
0.0
 50
90.0
1001
ACAD
1000
DSTYLE
1002
{
1070
   287
1070
     3
1070
   287
1070
     3
1070
    40
1040
10.0
1070
   143
1040
0.039
1070
   172
1070
     1
1070
   271
1070
     0
1070
   279
1070
     0
1070
   288
1070
     1
1002
}
  0
DIMENSION
  5
7BCE
  8
3
  6
CONTINUOUS
  2
*D8
 10
741.26099499999998
 20
1385.294298999999
 30
0.0
 11
641.686241
 21
1385.294298999999
 31
0.0
 70
   128
 13
541.26099499999998
 23
1163.3851990000001
 33
0.0
 14
741.26099499999998
 24
1328.374583
 34
0.0
1001
ACAD
1000
DSTYLE
1002
{
1070
   287
1070
     3
1070
   287
1070
     3
1070
    40
1040
10.0
1070
   143
1040
0.039
1070
   172
1070
     1
1070
   271
1070
     0
1070
   279
1070
     0
1070
   288
1070
     1
1002
}
  0
DIMENSION
  5
7BDA
  8
3
  6
CONTINUOUS
  2
*D9
 10
961.25037899999995
 20
1385.294298999999
 30
0.0
 11
851.25568699999985
 21
1410.2942989999999
 31
0.0
 70
     0
 13
741.26099499999998
 23
1328.374583
 33
0.0
 14
961.25037899999995
 24
1142.3851990000001
 34
0.0
1001
ACAD
1000
DSTYLE
1002
{
1070
   287
1070
     4
1070
   287
1070
     4
1070
    40
1040
10.0
1070
    75
1070
     1
1070
   143
1040
0.039
1070
   172
1070
     1
1070
   271
1070
     0
1070
   279
1070
     1
1070
   288
1070
     1
1002
}
  0
DIMENSION
  5
7BE7
  8
3
  6
CONTINUOUS
  2
*D10
 10
1261.260994999999
 20
1558.4848464187851
 30
0.0
 11
899.69685500000003
 21
1558.4848464187851
 31
0.0
 70
   128
 13
551.26099499999987
 23
1686.0566984187849
 33
0.0
 14
1261.260994999999
 24
1686.0566984187849
 34
0.0
1001
ACAD
1000
DSTYLE
1002
{
1070
   287
1070
     3
1070
   287
1070
     3
1070
    40
1040
10.0
1070
   143
1040
0.039
1070
   172
1070
     1
1070
   271
1070
     0
1070
   279
1070
     0
1070
   288
1070
     1
1002
}
  0
DIMENSION
  5
7BF4
  8
3
  6
CONTINUOUS
  2
*D11
 10
1379.6743980000001
 20
1686.0566984187849
 30
0.0
 11
1379.6743980000001
 21
1923.3674344187859
 31
0.0
 70
   128
 13
1261.260994999999
 23
2166.0566984187849
 33
0.0
 14
1261.260994999999
 24
1686.0566984187849
 34
0.0
 50
90.0
1001
ACAD
1000
DSTYLE
1002
{
1070
   287
1070
     3
1070
   287
1070
     3
1070
    40
1040
10.0
1070
   143
1040
0.039
1070
   172
1070
     1
1070
   271
1070
     0
1070
   279
1070
     0
1070
   288
1070
     1
1002
}
  0
LINE
  5
7BF5
  8
2
  6
CENTER
 10
976.865723
 20
2024.0566984187849
 30
0.0
 11
520.12664699999993
 21
2024.0566984187849
 31
0.0
  0
LINE
  5
7BF6
  8
2
  6
CENTER
 10
741.26099499999998
 20
1646.6207384187851
 30
0.0
 11
741.26099499999998
 21
2174.826932418785
 31
0.0
  0
LINE
  5
7BF7
  8
2
  6
CENTER
 10
1676.6272351321511
 20
1420.8750239999999
 30
0.0
 11
1676.6272351321511
 21
756.11976800000002
 31
0.0
  0
LINE
  5
7BF8
  8
2
  6
CENTER
 10
1295.0778831321511
 20
1142.3851990000001
 30
0.0
 11
1799.983793132152
 21
1142.3851990000001
 31
0.0
  0
DIMENSION
  5
7C05
  8
3
  6
CONTINUOUS
  2
*D12
 10
1766.6272351321511
 20
1414.9842180000001
 30
0.0
 11
1670.2421831321519
 21
1414.9842180000001
 31
0.0
 70
   128
 13
1586.6272351321511
 23
1341.2851989999999
 33
0.0
 14
1766.6272351321511
 24
1341.2851989999999
 34
0.0
1001
ACAD
1000
DSTYLE
1002
{
1070
   287
1070
     3
1070
   287
1070
     3
1070
    40
1040
10.0
1070
   143
1040
0.039
1070
   172
1070
     1
1070
   271
1070
     0
1070
   279
1070
     0
1070
   288
1070
     1
1002
}
  0
DIMENSION
  5
7C12
  8
3
  6
CONTINUOUS
  2
*D13
 10
1676.6272351321511
 20
1495.4502660000001
 30
0.0
 11
1509.1361151321521
 21
1495.4502660000001
 31
0.0
 70
   128
  1
MAX\P340
 13
1336.6272351321511
 23
1267.3851990000001
 33
0.0
 14
1676.6272351321511
 24
1463.5914379999999
 34
0.0
1001
ACAD
1000
DSTYLE
1002
{
1070
   287
1070
     3
1070
   287
1070
     3
1070
    40
1040
10.0
1070
   143
1040
0.039
1070
   172
1070
     1
1070
   271
1070
     0
1070
   279
1070
     0
1070
   288
1070
     1
1002
}
  0
DIMENSION
  5
7C20
  8
3
  6
CONTINUOUS
  2
*D14
 10
1775.6272351321511
 20
1495.4502660000001
 30
0.0
 11
1724.5279201321509
 21
1495.4502660000001
 31
0.0
 70
   128
 13
1676.6272351321511
 23
1463.5914379999999
 33
0.0
 14
1775.6272351321511
 24
1289.3851990000001
 34
0.0
1001
ACAD
1000
DSTYLE
1002
{
1070
   287
1070
     4
1070
   287
1070
     4
1070
    40
1040
10.0
1070
    75
1070
     1
1070
   143
1040
0.039
1070
   172
1070
     1
1070
   271
1070
     0
1070
   279
1070
     1
1070
   288
1070
     1
1002
}
  0
LINE
  5
7C3B
  8
3
  6
CONTINUOUS
 10
1775.6272351321511
 20
1267.3851990000001
 30
0.0
 11
1787.0079851321509
 21
1267.3851990000001
 31
0.0
  0
LINE
  5
7C3D
  8
3
  6
CONTINUOUS
 10
1775.6272351321511
 20
1017.3851989999999
 30
0.0
 11
1787.0079851321509
 21
1017.3851989999999
 31
0.0
  0
DIMENSION
  5
7C4A
  8
3
  6
CONTINUOUS
  2
*D15
 10
1858.2126261321521
 20
1017.3851989999999
 30
0.0
 11
1858.2126261321521
 21
1146.813014999999
 31
0.0
 70
   128
 13
1775.6272351321511
 23
1267.3851990000001
 33
0.0
 14
1775.6272351321511
 24
1017.3851989999999
 34
0.0
 50
90.0
1001
ACAD
1000
DSTYLE
1002
{
1070
   287
1070
     3
1070
   287
1070
     3
1070
     3
1000
φ<>
1070
    40
1040
10.0
1070
   143
1040
0.039
1070
   172
1070
     1
1070
   271
1070
     0
1070
   279
1070
     0
1070
   288
1070
     1
1002
}
  0
DIMENSION
  5
7C57
  8
3
  6
CONTINUOUS
  2
*D16
 10
1676.6272351321511
 20
705.82095700000002
 30
0.0
 11
1510.147591132152
 21
705.82095700000002
 31
0.0
 70
   128
 13
1338.6272351321511
 23
797.38519899999994
 33
0.0
 14
1676.6272351321511
 24
756.11976800000002
 34
0.0
1001
ACAD
1000
DSTYLE
1002
{
1070
   287
1070
     3
1070
   287
1070
     3
1070
    40
1040
10.0
1070
   143
1040
0.039
1070
   172
1070
     1
1070
   271
1070
     0
1070
   279
1070
     0
1070
   288
1070
     1
1002
}
  0
DIMENSION
  5
7C63
  8
3
  6
CONTINUOUS
  2
*D17
 10
1818.6272351321511
 20
705.82095700000002
 30
0.0
 11
1747.627235132152
 21
730.82095700000002
 31
0.0
 70
     0
 13
1676.6272351321511
 23
756.11976800000002
 33
0.0
 14
1818.6272351321511
 24
797.38519899999994
 34
0.0
1001
ACAD
1000
DSTYLE
1002
{
1070
   287
1070
     4
1070
   287
1070
     4
1070
    40
1040
10.0
1070
    75
1070
     1
1070
   143
1040
0.039
1070
   172
1070
     1
1070
   271
1070
     0
1070
   279
1070
     1
1070
   288
1070
     1
1002
}
  0
DIMENSION
  5
7CA1
  8
3
  6
CONTINUOUS
  2
*D18
 10
402.25764100000009
 20
882.38519900000006
 30
0.0
 11
402.25764099999998
 21
1028.706036999999
 31
0.0
 70
   128
 13
541.26099499999998
 23
1142.3851990000001
 33
0.0
 14
561.26099499999987
 24
882.38519900000006
 34
0.0
 50
90.0
1001
ACAD
1000
DSTYLE
1002
{
1070
   287
1070
     3
1070
   287
1070
     3
1070
    40
1040
10.0
1070
   143
1040
0.039
1070
   172
1070
     1
1070
   271
1070
     0
1070
   279
1070
     0
1070
   288
1070
     1
1002
}
  0
DIMENSION
  5
7D31
  8
3
  2
*D19
 10
1261.260994999999
 20
1462.7148618018359
 30
0.0
 11
838.5245261457967
 21
1462.7148618018359
 31
0.0
 70
   128
 13
541.26099499999998
 23
1163.3851990000001
 33
0.0
 14
1261.260994999999
 24
907.38519900000006
 34
0.0
1001
ACAD
1000
DSTYLE
1002
{
1070
   287
1070
     3
1070
   287
1070
     3
1070
    40
1040
10.0
1070
   143
1040
0.039
1070
   172
1070
     1
1070
   271
1070
     0
1070
   279
1070
     0
1070
   288
1070
     1
1002
}
  0
ENDSEC
  0
EOF
