  0
SECTION
  2
HEADER
  9
$ACADVER
  1
AC1009
  9
$INSBASE
 10
0.0
 20
0.0
 30
0.0
  9
$EXTMIN
 10
-162.499111
 20
-2405.4432339999989
 30
0.0
  9
$EXTMAX
 10
1437.5008889999999
 20
81.209028000000004
 30
0.0
  9
$LIMMIN
 10
0.0
 20
0.0
  9
$LIMMAX
 10
297.0
 20
210.0
  9
$ORTHOMODE
 70
     0
  9
$REGENMODE
 70
     1
  9
$FILLMODE
 70
     0
  9
$QTEXTMODE
 70
     0
  9
$MIRRTEXT
 70
     1
  9
$DRAGMODE
 70
     2
  9
$LTSCALE
 40
100.0
  9
$OSMODE
 70
    37
  9
$ATTMODE
 70
     1
  9
$TEXTSIZE
 40
180.0
  9
$TRACEWID
 40
0.05
  9
$TEXTSTYLE
  7
STANDARD
  9
$CLAYER
  8
3
  9
$CELTYPE
  6
BYLAYER
  9
$CECOLOR
 62
   256
  9
$DIMSCALE
 40
10.0
  9
$DIMASZ
 40
2.0
  9
$DIMEXO
 40
0.5
  9
$DIMDLI
 40
10.0
  9
$DIMRND
 40
0.0
  9
$DIMDLE
 40
0.0
  9
$DIMEXE
 40
1.0
  9
$DIMTP
 40
1.0
  9
$DIMTM
 40
1.0
  9
$DIMTXT
 40
3.0
  9
$DIMCEN
 40
0.0
  9
$DIMTSZ
 40
0.0
  9
$DIMTOL
 70
     0
  9
$DIMLIM
 70
     0
  9
$DIMTIH
 70
     0
  9
$DIMTOH
 70
     0
  9
$DIMSE1
 70
     0
  9
$DIMSE2
 70
     0
  9
$DIMTAD
 70
     1
  9
$DIMZIN
 70
     8
  9
$DIMBLK
  1

  9
$DIMASO
 70
     1
  9
$DIMSHO
 70
     1
  9
$DIMPOST
  1

  9
$DIMAPOST
  1

  9
$DIMALT
 70
     0
  9
$DIMALTD
 70
     2
  9
$DIMALTF
 40
0.039
  9
$DIMLFAC
 40
1.0
  9
$DIMTOFL
 70
     1
  9
$DIMTVP
 40
0.0
  9
$DIMTIX
 70
     0
  9
$DIMSOXD
 70
     0
  9
$DIMSAH
 70
     1
  9
$DIMBLK1
  1
OPEN
  9
$DIMBLK2
  1
OPEN
  9
$DIMSTYLE
  2
IGA
  9
$DIMCLRD
 70
     0
  9
$DIMCLRE
 70
     0
  9
$DIMCLRT
 70
     0
  9
$DIMTFAC
 40
10.0
  9
$DIMGAP
 40
1.0
  9
$LUNITS
 70
     2
  9
$LUPREC
 70
     3
  9
$SKETCHINC
 40
0.1
  9
$FILLETRAD
 40
50.0
  9
$AUNITS
 70
     0
  9
$AUPREC
 70
     0
  9
$MENU
  1
acad
  9
$ELEVATION
 40
0.0
  9
$PELEVATION
 40
0.0
  9
$THICKNESS
 40
0.0
  9
$LIMCHECK
 70
     0
  9
$BLIPMODE
 70
     0
  9
$CHAMFERA
 40
0.5
  9
$CHAMFERB
 40
0.5
  9
$SKPOLY
 70
     0
  9
$TDCREATE
 40
2450742.40610081
  9
$TDUPDATE
 40
2454953.8627253929
  9
$TDINDWG
 40
0.0107939815
  9
$TDUSRTIMER
 40
0.0107939815
  9
$USRTIMER
 70
     1
  9
$ANGBASE
 50
0.0
  9
$ANGDIR
 70
     0
  9
$PDMODE
 70
     0
  9
$PDSIZE
 40
0.0
  9
$PLINEWID
 40
0.0
  9
$COORDS
 70
     1
  9
$SPLFRAME
 70
     0
  9
$SPLINETYPE
 70
     6
  9
$SPLINESEGS
 70
     8
  9
$ATTDIA
 70
     0
  9
$ATTREQ
 70
     1
  9
$HANDLING
 70
 10241
  9
$HANDSEED
  5
7E7E
  9
$SURFTAB1
 70
     6
  9
$SURFTAB2
 70
     6
  9
$SURFTYPE
 70
     6
  9
$SURFU
 70
     6
  9
$SURFV
 70
     6
  9
$UCSNAME
  2

  9
$UCSORG
 10
0.0
 20
0.0
 30
0.0
  9
$UCSXDIR
 10
1.0
 20
0.0
 30
0.0
  9
$UCSYDIR
 10
0.0
 20
1.0
 30
0.0
  9
$PUCSNAME
  2

  9
$PUCSORG
 10
0.0
 20
0.0
 30
0.0
  9
$PUCSXDIR
 10
1.0
 20
0.0
 30
0.0
  9
$PUCSYDIR
 10
0.0
 20
1.0
 30
0.0
  9
$USERI1
 70
     0
  9
$USERI2
 70
     0
  9
$USERI3
 70
     0
  9
$USERI4
 70
     0
  9
$USERI5
 70
     0
  9
$USERR1
 40
0.0
  9
$USERR2
 40
0.0
  9
$USERR3
 40
0.0
  9
$USERR4
 40
0.0
  9
$USERR5
 40
0.0
  9
$WORLDVIEW
 70
     1
  9
$SHADEDGE
 70
     3
  9
$SHADEDIF
 70
    70
  9
$TILEMODE
 70
     1
  9
$MAXACTVP
 70
    16
  9
$PLIMCHECK
 70
     0
  9
$PEXTMIN
 10
1.0000000000000000E+020
 20
1.0000000000000000E+020
 30
1.0000000000000000E+020
  9
$PEXTMAX
 10
-1.0000000000000000E+020
 20
-1.0000000000000000E+020
 30
-1.0000000000000000E+020
  9
$PLIMMIN
 10
0.0
 20
0.0
  9
$PLIMMAX
 10
12.0
 20
9.0
  9
$UNITMODE
 70
     0
  9
$VISRETAIN
 70
     0
  9
$PLINEGEN
 70
     0
  9
$PSLTSCALE
 70
     1
  0
ENDSEC
  0
SECTION
  2
TABLES
  0
TABLE
  2
VPORT
 70
     2
  0
VPORT
  2
*ACTIVE
 70
     0
 10
0.0
 20
0.0
 11
1.0
 21
1.0
 12
2526.3038892934669
 22
-699.53887406303875
 13
0.0
 23
0.0
 14
10.0
 24
10.0
 15
10.0
 25
10.0
 16
0.0
 26
0.0
 36
1.0
 17
0.0
 27
0.0
 37
0.0
 40
3860.4308998952438
 41
1.5051150895140659
 42
50.0
 43
0.0
 44
0.0
 50
0.0
 51
0.0
 71
     0
 72
   100
 73
     1
 74
     0
 75
     0
 76
     0
 77
     0
 78
     0
  0
ENDTAB
  0
TABLE
  2
LTYPE
 70
     2
  0
LTYPE
  2
CONTINUOUS
 70
     0
  3
Solid line
 72
    65
 73
     0
 40
0.0
  0
LTYPE
  2
CENTER
 70
     0
  3
____ _ ____ _ ____ _ ____ _ ____ _ ____ _ ____ 
 72
    65
 73
     4
 40
2.0
 49
1.25
 49
-0.25
 49
0.25
 49
-0.25
  0
ENDTAB
  0
TABLE
  2
LAYER
 70
     6
  0
LAYER
  2
0
 70
     0
 62
     7
  6
CONTINUOUS
  0
LAYER
  2
3
 70
     0
 62
     2
  6
CONTINUOUS
  0
LAYER
  2
2
 70
     0
 62
     3
  6
CENTER
  0
LAYER
  2
1
 70
     0
 62
     4
  6
CONTINUOUS
  0
LAYER
  2
4
 70
     0
 62
     7
  6
CONTINUOUS
  0
LAYER
  2
DEFPOINTS
 70
     0
 62
     7
  6
CONTINUOUS
  0
ENDTAB
  0
TABLE
  2
STYLE
 70
     1
  0
STYLE
  2
STANDARD
 70
     0
 40
0.0
 41
1.0
 50
0.0
 71
     0
 42
180.0
  3
simplex.shx
  4
extfont.shx
  0
ENDTAB
  0
TABLE
  2
VIEW
 70
     0
  0
ENDTAB
  0
TABLE
  2
UCS
 70
     0
  0
ENDTAB
  0
TABLE
  2
APPID
 70
     1
  0
APPID
  2
ACAD
 70
     0
  0
ENDTAB
  0
TABLE
  2
DIMSTYLE
 70
     1
  0
DIMSTYLE
  2
IGA
 70
     0
  3

  4

  5

  6
OPEN
  7
OPEN
 40
2.0
 41
2.0
 42
0.5
 43
10.0
 44
1.0
 45
0.0
 46
0.0
 47
1.0
 48
1.0
140
3.0
141
0.0
142
0.0
143
0.03937
144
1.0
145
0.0
146
10.0
147
1.0
 71
     0
 72
     0
 73
     0
 74
     0
 75
     0
 76
     0
 77
     1
 78
     8
170
     0
171
     2
172
     0
173
     1
174
     0
175
     0
176
     0
177
     0
178
     0
  0
ENDTAB
  0
ENDSEC
  0
SECTION
  2
BLOCKS
  0
BLOCK
  8
0
  2
$MODEL_SPACE
 70
     0
 10
0.0
 20
0.0
 30
0.0
  3
$MODEL_SPACE
  1

  0
ENDBLK
  5
1B
  8
0
  0
BLOCK
 67
     1
  8
0
  2
$PAPER_SPACE
 70
     0
 10
0.0
 20
0.0
 30
0.0
  3
$PAPER_SPACE
  1

  0
ENDBLK
  5
18
 67
     1
  8
0
  0
BLOCK
  8
0
  2
_OPEN
 70
     0
 10
0.0
 20
0.0
 30
0.0
  3
_OPEN
  1

  0
LINE
  5
7B41
  8
0
  6
BYBLOCK
 62
     0
 10
-1.0
 20
0.166667
 30
0.0
 11
0.0
 21
0.0
 31
0.0
  0
LINE
  5
7B42
  8
0
  6
BYBLOCK
 62
     0
 10
0.0
 20
0.0
 30
0.0
 11
-1.0
 21
-0.166667
 31
0.0
  0
LINE
  5
7B43
  8
0
  6
BYBLOCK
 62
     0
 10
0.0
 20
0.0
 30
0.0
 11
-1.0
 21
0.0
 31
0.0
  0
ENDBLK
  5
7B44
  8
0
  0
BLOCK
  8
0
  2
*D1
 70
     1
 10
0.0
 20
0.0
 30
0.0
  3
*D1
  1

  0
LINE
  5
7DCC
  8
3
  6
CONTINUOUS
 62
     0
 10
-119.567968340089
 20
-2046.736693079441
 30
0.0
 11
-119.567968340089
 21
-2119.8582900794408
 31
0.0
  0
LINE
  5
7DCD
  8
3
  6
CONTINUOUS
 62
     0
 10
400.43203165991099
 20
-2016.7366930794401
 30
0.0
 11
400.43203165991099
 21
-2119.8582900794408
 31
0.0
  0
LINE
  5
7DCE
  8
3
  6
CONTINUOUS
 62
     0
 10
-99.56796834008901
 20
-2109.8582900794399
 30
0.0
 11
380.43203165991099
 21
-2109.8582900794399
 31
0.0
  0
INSERT
  5
7DCF
  8
3
  6
CONTINUOUS
 62
     0
  2
_OPEN
 10
-119.567968340089
 20
-2109.8582900794399
 30
0.0
 41
20.0
 42
20.0
 43
20.0
 50
180.0
  0
INSERT
  5
7DD0
  8
3
  6
CONTINUOUS
 62
     0
  2
_OPEN
 10
400.43203165991099
 20
-2109.8582900794399
 30
0.0
 41
20.0
 42
20.0
 43
20.0
  0
TEXT
  8
3
  40
30
  5
7E6B
  62
0
  72
0
  71
0
 10
98.0407
 20
-2137.96
 30
0.000000
  1
520
  0
POINT
  5
7DD2
  8
DEFPOINTS
  6
CONTINUOUS
 62
     0
 10
-119.567968340089
 20
-2041.7366930794401
 30
0.0
  0
POINT
  5
7DD3
  8
DEFPOINTS
  6
CONTINUOUS
 62
     0
 10
400.43203165991099
 20
-2011.7366930794401
 30
0.0
  0
POINT
  5
7DD4
  8
DEFPOINTS
  6
CONTINUOUS
 62
     0
 10
400.43203165991099
 20
-2109.8582900794399
 30
0.0
  0
ENDBLK
  5
7B51
  8
0
  0
BLOCK
  8
0
  2
*D2
 70
     1
 10
0.0
 20
0.0
 30
0.0
  3
*D2
  1

  0
LINE
  5
7DD5
  8
3
  6
CONTINUOUS
 62
     0
 10
590.43203165991088
 20
-2046.736693079441
 30
0.0
 11
590.43203165991088
 21
-2119.8582900794408
 31
0.0
  0
LINE
  5
7DD6
  8
3
  6
CONTINUOUS
 62
     0
 10
420.43203165991088
 20
-2109.8582900794399
 30
0.0
 11
570.43203165991088
 21
-2109.8582900794399
 31
0.0
  0
INSERT
  5
7DD7
  8
3
  6
CONTINUOUS
 62
     0
  2
_OPEN
 10
400.43203165991099
 20
-2109.8582900794399
 30
0.0
 41
20.0
 42
20.0
 43
20.0
 50
180.0
  0
INSERT
  5
7DD8
  8
3
  6
CONTINUOUS
 62
     0
  2
_OPEN
 10
590.43203165991088
 20
-2109.8582900794399
 30
0.0
 41
20.0
 42
20.0
 43
20.0
  0
TEXT
  8
3
  40
30
  5
7E6C
  62
0
  72
0
  71
0
 10
435.432
 20
-2137.96
 30
0.000000
  1
190
  0
POINT
  5
7DDA
  8
DEFPOINTS
  6
CONTINUOUS
 62
     0
 10
400.43203165991099
 20
-2011.7366930794401
 30
0.0
  0
POINT
  5
7DDB
  8
DEFPOINTS
  6
CONTINUOUS
 62
     0
 10
590.43203165991088
 20
-2041.7366930794401
 30
0.0
  0
POINT
  5
7DDC
  8
DEFPOINTS
  6
CONTINUOUS
 62
     0
 10
590.43203165991088
 20
-2109.8582900794399
 30
0.0
  0
ENDBLK
  5
7B5D
  8
0
  0
BLOCK
  8
0
  2
*D3
 70
     1
 10
0.0
 20
0.0
 30
0.0
  3
*D3
  1

  0
LINE
  5
7DDD
  8
3
  6
CONTINUOUS
 62
     0
 10
605.43203165991099
 20
-1446.7366930794401
 30
0.0
 11
687.70192065991068
 21
-1446.7366930794401
 31
0.0
  0
LINE
  5
7DDE
  8
3
  6
CONTINUOUS
 62
     0
 10
605.43203165991099
 20
-1696.7366930794401
 30
0.0
 11
687.70192065991068
 21
-1696.7366930794401
 31
0.0
  0
LINE
  5
7DDF
  8
3
  6
CONTINUOUS
 62
     0
 10
677.70192065991057
 20
-1466.7366930794401
 30
0.0
 11
677.70192065991057
 21
-1676.7366930794401
 31
0.0
  0
INSERT
  5
7DE0
  8
3
  6
CONTINUOUS
 62
     0
  2
_OPEN
 10
677.70192065991057
 20
-1446.7366930794401
 30
0.0
 41
20.0
 42
20.0
 43
20.0
 50
90.0
  0
INSERT
  5
7DE1
  8
3
  6
CONTINUOUS
 62
     0
  2
_OPEN
 10
677.70192065991057
 20
-1696.7366930794401
 30
0.0
 41
20.0
 42
20.0
 43
20.0
 50
270.0
  0
TEXT
  8
3
  40
30
  5
7E6D
  62
0
  72
0
  71
0
 10
592.702
 20
-1628.50
 30
0.000000
  1
250
  0
POINT
  5
7DE3
  8
DEFPOINTS
  6
CONTINUOUS
 62
     0
 10
600.43203165991099
 20
-1446.7366930794401
 30
0.0
  0
POINT
  5
7DE4
  8
DEFPOINTS
  6
CONTINUOUS
 62
     0
 10
600.43203165991099
 20
-1696.7366930794401
 30
0.0
  0
POINT
  5
7DE5
  8
DEFPOINTS
  6
CONTINUOUS
 62
     0
 10
677.70192065991057
 20
-1696.7366930794401
 30
0.0
  0
ENDBLK
  5
7B6B
  8
0
  0
BLOCK
  8
0
  2
*D4
 70
     1
 10
0.0
 20
0.0
 30
0.0
  3
*D4
  1

  0
LINE
  5
7DE6
  8
3
  6
CONTINUOUS
 62
     0
 10
585.43203165991099
 20
-1436.7366930794401
 30
0.0
 11
754.22451665991071
 21
-1436.7366930794401
 31
0.0
  0
LINE
  5
7DE7
  8
3
  6
CONTINUOUS
 62
     0
 10
605.43203165991099
 20
-1696.7366930794401
 30
0.0
 11
754.22451665991071
 21
-1696.7366930794401
 31
0.0
  0
LINE
  5
7DE8
  8
3
  6
CONTINUOUS
 62
     0
 10
744.22451665991071
 20
-1456.736693079441
 30
0.0
 11
744.22451665991071
 21
-1676.7366930794401
 31
0.0
  0
INSERT
  5
7DE9
  8
3
  6
CONTINUOUS
 62
     0
  2
_OPEN
 10
744.22451665991071
 20
-1436.7366930794401
 30
0.0
 41
20.0
 42
20.0
 43
20.0
 50
90.0
  0
INSERT
  5
7DEA
  8
3
  6
CONTINUOUS
 62
     0
  2
_OPEN
 10
744.22451665991071
 20
-1696.7366930794401
 30
0.0
 41
20.0
 42
20.0
 43
20.0
 50
270.0
  0
TEXT
  8
3
  40
30
  5
7E6E
  62
0
  72
0
  71
0
 10
659.225
 20
-1621.94
 30
0.000000
  1
260
  0
POINT
  5
7DEC
  8
DEFPOINTS
  6
CONTINUOUS
 62
     0
 10
580.43203165991099
 20
-1436.7366930794401
 30
0.0
  0
POINT
  5
7DED
  8
DEFPOINTS
  6
CONTINUOUS
 62
     0
 10
600.43203165991099
 20
-1696.7366930794401
 30
0.0
  0
POINT
  5
7DEE
  8
DEFPOINTS
  6
CONTINUOUS
 62
     0
 10
744.22451665991071
 20
-1696.7366930794401
 30
0.0
  0
ENDBLK
  5
7B78
  8
0
  0
BLOCK
  8
0
  2
*D5
 70
     1
 10
0.0
 20
0.0
 30
0.0
  3
*D5
  1

  0
LINE
  5
7DEF
  8
3
  6
CONTINUOUS
 62
     0
 10
595.43203165991088
 20
-2011.7366930794401
 30
0.0
 11
754.22451665991093
 21
-2011.7366930794401
 31
0.0
  0
LINE
  5
7DF0
  8
3
  6
CONTINUOUS
 62
     0
 10
744.22451665991105
 20
-1716.7366930794401
 30
0.0
 11
744.22451665991093
 21
-1991.7366930794401
 31
0.0
  0
INSERT
  5
7DF1
  8
3
  6
CONTINUOUS
 62
     0
  2
_OPEN
 10
744.22451665991105
 20
-1696.7366930794401
 30
0.0
 41
20.0
 42
20.0
 43
20.0
 50
90.0
  0
INSERT
  5
7DF2
  8
3
  6
CONTINUOUS
 62
     0
  2
_OPEN
 10
744.22451665991093
 20
-2011.7366930794401
 30
0.0
 41
20.0
 42
20.0
 43
20.0
 50
270.0
  0
TEXT
  8
3
  40
30
  5
7E6F
  62
0
  72
0
  71
0
 10
659.225
 20
-1907.34
 30
0.000000
  1
315
  0
POINT
  5
7DF4
  8
DEFPOINTS
  6
CONTINUOUS
 62
     0
 10
600.43203165991099
 20
-1696.7366930794401
 30
0.0
  0
POINT
  5
7DF5
  8
DEFPOINTS
  6
CONTINUOUS
 62
     0
 10
590.43203165991088
 20
-2011.7366930794401
 30
0.0
  0
POINT
  5
7DF6
  8
DEFPOINTS
  6
CONTINUOUS
 62
     0
 10
744.22451665991093
 20
-2011.7366930794401
 30
0.0
  0
ENDBLK
  5
7B84
  8
0
  0
BLOCK
  8
0
  2
*D6
 70
     1
 10
0.0
 20
0.0
 30
0.0
  3
*D6
  1

  0
LINE
  5
7DF7
  8
3
  6
CONTINUOUS
 62
     0
 10
595.43203165991088
 20
-2011.7366930794401
 30
0.0
 11
752.25392465991035
 21
-2011.7366930794401
 31
0.0
  0
LINE
  5
7DF8
  8
3
  6
CONTINUOUS
 62
     0
 10
595.43203165991088
 20
-2041.7366930794401
 30
0.0
 11
752.25392465991035
 21
-2041.7366930794401
 31
0.0
  0
LINE
  5
7DF9
  8
3
  6
CONTINUOUS
 62
     0
 10
742.25392465991047
 20
-1991.7366930794401
 30
0.0
 11
742.25392465991047
 21
-1971.7366930794401
 31
0.0
  0
LINE
  5
7DFA
  8
3
  6
CONTINUOUS
 62
     0
 10
742.25392465991047
 20
-2061.7366930794401
 30
0.0
 11
742.25392465991047
 21
-2150.308121650869
 31
0.0
  0
LINE
  5
7DFB
  8
3
  6
CONTINUOUS
 62
     0
 10
742.25392465991047
 20
-2011.7366930794401
 30
0.0
 11
742.25392465991047
 21
-2041.7366930794401
 31
0.0
  0
INSERT
  5
7DFC
  8
3
  6
CONTINUOUS
 62
     0
  2
_OPEN
 10
742.25392465991047
 20
-2011.7366930794401
 30
0.0
 41
20.0
 42
20.0
 43
20.0
 50
270.0
  0
INSERT
  5
7DFD
  8
3
  6
CONTINUOUS
 62
     0
  2
_OPEN
 10
742.25392465991047
 20
-2041.7366930794401
 30
0.0
 41
20.0
 42
20.0
 43
20.0
 50
90.0
  0
TEXT
  8
3
  40
30
  5
7E70
  62
0
  72
0
  71
0
 10
657.254
 20
-2169.12
 30
0.000000
  1
30
  0
POINT
  5
7DFF
  8
DEFPOINTS
  6
CONTINUOUS
 62
     0
 10
590.43203165991088
 20
-2011.7366930794401
 30
0.0
  0
POINT
  5
7E00
  8
DEFPOINTS
  6
CONTINUOUS
 62
     0
 10
590.43203165991088
 20
-2041.7366930794401
 30
0.0
  0
POINT
  5
7E01
  8
DEFPOINTS
  6
CONTINUOUS
 62
     0
 10
742.25392465991047
 20
-2041.7366930794401
 30
0.0
  0
ENDBLK
  5
7CC5
  8
0
  0
BLOCK
  8
0
  2
*D7
 70
     1
 10
0.0
 20
0.0
 30
0.0
  3
*D7
  1

  0
LINE
  5
7E02
  8
3
  6
CONTINUOUS
 62
     0
 10
605.43203165991099
 20
-1425.7366930794401
 30
0.0
 11
818.13296681266775
 21
-1425.7366930794401
 31
0.0
  0
LINE
  5
7E03
  8
3
  6
CONTINUOUS
 62
     0
 10
595.43203165991088
 20
-2041.7366930794401
 30
0.0
 11
818.13296681266752
 21
-2041.7366930794401
 31
0.0
  0
LINE
  5
7E04
  8
3
  6
CONTINUOUS
 62
     0
 10
808.13296681266775
 20
-1445.7366930794401
 30
0.0
 11
808.13296681266752
 21
-2021.736693079441
 31
0.0
  0
INSERT
  5
7E05
  8
3
  6
CONTINUOUS
 62
     0
  2
_OPEN
 10
808.13296681266775
 20
-1425.7366930794401
 30
0.0
 41
20.0
 42
20.0
 43
20.0
 50
90.0
  0
INSERT
  5
7E06
  8
3
  6
CONTINUOUS
 62
     0
  2
_OPEN
 10
808.13296681266752
 20
-2041.7366930794401
 30
0.0
 41
20.0
 42
20.0
 43
20.0
 50
270.0
  0
TEXT
  8
3
  40
30
  5
7E71
  62
0
  72
0
  71
0
 10
723.133
 20
-1812.90
 30
0.000000
  1
616
  0
POINT
  5
7E08
  8
DEFPOINTS
  6
CONTINUOUS
 62
     0
 10
600.43203165991099
 20
-1425.7366930794401
 30
0.0
  0
POINT
  5
7E09
  8
DEFPOINTS
  6
CONTINUOUS
 62
     0
 10
590.43203165991088
 20
-2041.7366930794401
 30
0.0
  0
POINT
  5
7E0A
  8
DEFPOINTS
  6
CONTINUOUS
 62
     0
 10
808.13296681266752
 20
-2041.7366930794401
 30
0.0
  0
ENDBLK
  5
7C9B
  8
0
  0
BLOCK
  8
0
  2
*D8
 70
     1
 10
0.0
 20
0.0
 30
0.0
  3
*D8
  1

  0
LINE
  5
7E0B
  8
3
  6
CONTINUOUS
 62
     0
 10
-119.567968340089
 20
-1010.7899083428219
 30
0.0
 11
-119.567968340089
 21
-1114.6294953428221
 31
0.0
  0
LINE
  5
7E0C
  8
3
  6
CONTINUOUS
 62
     0
 10
590.43203165991076
 20
-1010.7899083428219
 30
0.0
 11
590.43203165991076
 21
-1114.6294953428221
 31
0.0
  0
LINE
  5
7E0D
  8
3
  6
CONTINUOUS
 62
     0
 10
-99.56796834008901
 20
-1104.6294953428221
 30
0.0
 11
570.43203165991076
 21
-1104.6294953428221
 31
0.0
  0
INSERT
  5
7E0E
  8
3
  6
CONTINUOUS
 62
     0
  2
_OPEN
 10
-119.567968340089
 20
-1104.6294953428221
 30
0.0
 41
20.0
 42
20.0
 43
20.0
 50
180.0
  0
INSERT
  5
7E0F
  8
3
  6
CONTINUOUS
 62
     0
  2
_OPEN
 10
590.43203165991076
 20
-1104.6294953428221
 30
0.0
 41
20.0
 42
20.0
 43
20.0
  0
TEXT
  8
3
  40
30
  5
7E72
  62
0
  72
0
  71
0
 10
139.751
 20
-1132.73
 30
0.000000
  1
710
  0
POINT
  5
7E11
  8
DEFPOINTS
  6
CONTINUOUS
 62
     0
 10
-119.567968340089
 20
-1005.789908342823
 30
0.0
  0
POINT
  5
7E12
  8
DEFPOINTS
  6
CONTINUOUS
 62
     0
 10
590.43203165991076
 20
-1005.789908342823
 30
0.0
  0
POINT
  5
7E13
  8
DEFPOINTS
  6
CONTINUOUS
 62
     0
 10
590.43203165991076
 20
-1104.6294953428221
 30
0.0
  0
ENDBLK
  5
7BC8
  8
0
  0
BLOCK
  8
0
  2
*D9
 70
     1
 10
0.0
 20
0.0
 30
0.0
  3
*D9
  1

  0
LINE
  5
7E14
  8
3
  6
CONTINUOUS
 62
     0
 10
595.43203165991076
 20
-525.78990834282263
 30
0.0
 11
696.48711265991085
 21
-525.78990834282263
 31
0.0
  0
LINE
  5
7E15
  8
3
  6
CONTINUOUS
 62
     0
 10
595.43203165991076
 20
-1005.789908342823
 30
0.0
 11
696.48711265991074
 21
-1005.789908342823
 31
0.0
  0
LINE
  5
7E16
  8
3
  6
CONTINUOUS
 62
     0
 10
686.48711265991085
 20
-545.78990834282263
 30
0.0
 11
686.48711265991074
 21
-985.78990834282286
 31
0.0
  0
INSERT
  5
7E17
  8
3
  6
CONTINUOUS
 62
     0
  2
_OPEN
 10
686.48711265991085
 20
-525.78990834282263
 30
0.0
 41
20.0
 42
20.0
 43
20.0
 50
90.0
  0
INSERT
  5
7E18
  8
3
  6
CONTINUOUS
 62
     0
  2
_OPEN
 10
686.48711265991074
 20
-1005.789908342823
 30
0.0
 41
20.0
 42
20.0
 43
20.0
 50
270.0
  0
TEXT
  8
3
  40
30
  5
7E73
  62
0
  72
0
  71
0
 10
601.487
 20
-831.934
 30
0.000000
  1
480
  0
POINT
  5
7E1A
  8
DEFPOINTS
  6
CONTINUOUS
 62
     0
 10
590.43203165991076
 20
-525.78990834282263
 30
0.0
  0
POINT
  5
7E1B
  8
DEFPOINTS
  6
CONTINUOUS
 62
     0
 10
590.43203165991076
 20
-1005.789908342823
 30
0.0
  0
POINT
  5
7E1C
  8
DEFPOINTS
  6
CONTINUOUS
 62
     0
 10
686.48711265991074
 20
-1005.789908342823
 30
0.0
  0
ENDBLK
  5
7BD5
  8
0
  0
BLOCK
  8
0
  2
*D10
 70
     1
 10
0.0
 20
0.0
 30
0.0
  3
*D10
  1

  0
LINE
  5
7E1D
  8
3
  6
CONTINUOUS
 62
     0
 10
894.3994676599109
 20
-2046.736693079441
 30
0.0
 11
894.3994676599109
 21
-2132.4049740794399
 31
0.0
  0
LINE
  5
7E1E
  8
3
  6
CONTINUOUS
 62
     0
 10
1232.3994676599109
 20
-2046.736693079441
 30
0.0
 11
1232.3994676599109
 21
-2132.4049740794399
 31
0.0
  0
LINE
  5
7E1F
  8
3
  6
CONTINUOUS
 62
     0
 10
914.39946765991078
 20
-2122.4049740794412
 30
0.0
 11
1212.3994676599109
 21
-2122.4049740794412
 31
0.0
  0
INSERT
  5
7E20
  8
3
  6
CONTINUOUS
 62
     0
  2
_OPEN
 10
894.3994676599109
 20
-2122.4049740794412
 30
0.0
 41
20.0
 42
20.0
 43
20.0
 50
180.0
  0
INSERT
  5
7E21
  8
3
  6
CONTINUOUS
 62
     0
  2
_OPEN
 10
1232.3994676599109
 20
-2122.4049740794412
 30
0.0
 41
20.0
 42
20.0
 43
20.0
  0
TEXT
  8
3
  40
30
  5
7E74
  62
0
  72
0
  71
0
 10
1020.01
 20
-2150.50
 30
0.000000
  1
338
  0
POINT
  5
7E23
  8
DEFPOINTS
  6
CONTINUOUS
 62
     0
 10
894.3994676599109
 20
-2041.7366930794401
 30
0.0
  0
POINT
  5
7E24
  8
DEFPOINTS
  6
CONTINUOUS
 62
     0
 10
1232.3994676599109
 20
-2041.7366930794401
 30
0.0
  0
POINT
  5
7E25
  8
DEFPOINTS
  6
CONTINUOUS
 62
     0
 10
1232.3994676599109
 20
-2122.4049740794412
 30
0.0
  0
ENDBLK
  5
7BE5
  8
0
  0
BLOCK
  8
0
  2
*D11
 70
     1
 10
0.0
 20
0.0
 30
0.0
  3
*D11
  1

  0
LINE
  5
7E26
  8
3
  6
CONTINUOUS
 62
     0
 10
1374.3994676599109
 20
-2046.736693079441
 30
0.0
 11
1374.3994676599109
 21
-2132.4049740794399
 31
0.0
  0
LINE
  5
7E27
  8
3
  6
CONTINUOUS
 62
     0
 10
1252.3994676599109
 20
-2122.4049740794412
 30
0.0
 11
1354.39946765991
 21
-2122.4049740794412
 31
0.0
  0
INSERT
  5
7E28
  8
3
  6
CONTINUOUS
 62
     0
  2
_OPEN
 10
1232.3994676599109
 20
-2122.4049740794412
 30
0.0
 41
20.0
 42
20.0
 43
20.0
 50
180.0
  0
INSERT
  5
7E29
  8
3
  6
CONTINUOUS
 62
     0
  2
_OPEN
 10
1374.3994676599109
 20
-2122.4049740794412
 30
0.0
 41
20.0
 42
20.0
 43
20.0
  0
TEXT
  8
3
  40
30
  5
7E75
  62
0
  72
0
  71
0
 10
1243.40
 20
-2150.50
 30
0.000000
  1
142
  0
POINT
  5
7E2B
  8
DEFPOINTS
  6
CONTINUOUS
 62
     0
 10
1232.3994676599109
 20
-2041.7366930794401
 30
0.0
  0
POINT
  5
7E2C
  8
DEFPOINTS
  6
CONTINUOUS
 62
     0
 10
1374.3994676599109
 20
-2041.7366930794401
 30
0.0
  0
POINT
  5
7E2D
  8
DEFPOINTS
  6
CONTINUOUS
 62
     0
 10
1374.3994676599109
 20
-2122.4049740794412
 30
0.0
  0
ENDBLK
  5
7BF1
  8
0
  0
BLOCK
  8
0
  2
*D12
 70
     1
 10
0.0
 20
0.0
 30
0.0
  3
*D12
  1

  0
LINE
  5
7E2E
  8
3
  6
CONTINUOUS
 62
     0
 10
1142.39946765991
 20
-1440.736693079441
 30
0.0
 11
1142.39946765991
 21
-1384.0143100794401
 31
0.0
  0
LINE
  5
7E2F
  8
3
  6
CONTINUOUS
 62
     0
 10
1322.39946765991
 20
-1440.736693079441
 30
0.0
 11
1322.39946765991
 21
-1384.0143100794401
 31
0.0
  0
LINE
  5
7E30
  8
3
  6
CONTINUOUS
 62
     0
 10
1162.39946765991
 20
-1394.0143100794401
 30
0.0
 11
1302.3994676599109
 21
-1394.0143100794401
 31
0.0
  0
INSERT
  5
7E31
  8
3
  6
CONTINUOUS
 62
     0
  2
_OPEN
 10
1142.39946765991
 20
-1394.0143100794401
 30
0.0
 41
20.0
 42
20.0
 43
20.0
 50
180.0
  0
INSERT
  5
7E32
  8
3
  6
CONTINUOUS
 62
     0
  2
_OPEN
 10
1322.39946765991
 20
-1394.0143100794401
 30
0.0
 41
20.0
 42
20.0
 43
20.0
  0
TEXT
  8
3
  40
30
  5
7E76
  62
0
  72
0
  71
0
 10
1165.84
 20
-1422.11
 30
0.000000
  1
180
  0
POINT
  5
7E34
  8
DEFPOINTS
  6
CONTINUOUS
 62
     0
 10
1142.39946765991
 20
-1445.7366930794401
 30
0.0
  0
POINT
  5
7E35
  8
DEFPOINTS
  6
CONTINUOUS
 62
     0
 10
1322.39946765991
 20
-1445.7366930794401
 30
0.0
  0
POINT
  5
7E36
  8
DEFPOINTS
  6
CONTINUOUS
 62
     0
 10
1322.39946765991
 20
-1394.0143100794401
 30
0.0
  0
ENDBLK
  5
7BFE
  8
0
  0
BLOCK
  8
0
  2
*D13
 70
     1
 10
0.0
 20
0.0
 30
0.0
  3
*D13
  1

  0
LINE
  5
7E37
  8
3
  6
CONTINUOUS
 62
     0
 10
892.3994676599109
 20
-1566.7366930794401
 30
0.0
 11
892.3994676599109
 21
-1317.0811180794401
 31
0.0
  0
LINE
  5
7E38
  8
3
  6
CONTINUOUS
 62
     0
 10
1232.3994676599109
 20
-1341.9312260794411
 30
0.0
 11
1232.3994676599109
 21
-1317.0811180794401
 31
0.0
  0
LINE
  5
7E39
  8
3
  6
CONTINUOUS
 62
     0
 10
912.39946765991078
 20
-1327.081118079441
 30
0.0
 11
1212.3994676599109
 21
-1327.081118079441
 31
0.0
  0
INSERT
  5
7E3A
  8
3
  6
CONTINUOUS
 62
     0
  2
_OPEN
 10
892.3994676599109
 20
-1327.081118079441
 30
0.0
 41
20.0
 42
20.0
 43
20.0
 50
180.0
  0
INSERT
  5
7E3B
  8
3
  6
CONTINUOUS
 62
     0
  2
_OPEN
 10
1232.3994676599109
 20
-1327.081118079441
 30
0.0
 41
20.0
 42
20.0
 43
20.0
  0
TEXT
  8
3
  40
30
  5
7E77
  62
0
  72
0
  71
0
 10
992.425
 20
-1330.18
 30
0.000000
  1
MAX
  0
TEXT
  8
3
  40
30
  5
7E78
  62
0
  72
0
  71
0
 10
992.425
 20
-1369.18
 30
0.000000
  1
340
  0
POINT
  5
7E3D
  8
DEFPOINTS
  6
CONTINUOUS
 62
     0
 10
892.3994676599109
 20
-1571.7366930794401
 30
0.0
  0
POINT
  5
7E3E
  8
DEFPOINTS
  6
CONTINUOUS
 62
     0
 10
1232.3994676599109
 20
-1346.9312260794411
 30
0.0
  0
POINT
  5
7E3F
  8
DEFPOINTS
  6
CONTINUOUS
 62
     0
 10
1232.3994676599109
 20
-1327.081118079441
 30
0.0
  0
ENDBLK
  5
7CAD
  8
0
  0
BLOCK
  8
0
  2
*D14
 70
     1
 10
0.0
 20
0.0
 30
0.0
  3
*D14
  1

  0
LINE
  5
7E40
  8
3
  6
CONTINUOUS
 62
     0
 10
1331.3994676599109
 20
-1544.7366930794401
 30
0.0
 11
1331.3994676599109
 21
-1317.0811180794401
 31
0.0
  0
LINE
  5
7E41
  8
3
  6
CONTINUOUS
 62
     0
 10
1252.3994676599109
 20
-1327.081118079441
 30
0.0
 11
1311.3994676599109
 21
-1327.081118079441
 31
0.0
  0
TEXT
  8
3
  40
30
  5
7E79
  62
0
  72
0
  71
0
 10
1219.78
 20
-1354.67
 30
0.000000
  1
99
  0
INSERT
  5
7E43
  8
3
  6
CONTINUOUS
 62
     0
  2
_OPEN
 10
1232.3994676599109
 20
-1327.081118079441
 30
0.0
 41
20.0
 42
20.0
 43
20.0
 50
180.0
  0
INSERT
  5
7E44
  8
3
  6
CONTINUOUS
 62
     0
  2
_OPEN
 10
1331.3994676599109
 20
-1327.081118079441
 30
0.0
 41
20.0
 42
20.0
 43
20.0
  0
POINT
  5
7E45
  8
DEFPOINTS
  6
CONTINUOUS
 62
     0
 10
1232.3994676599109
 20
-1346.9312260794411
 30
0.0
  0
POINT
  5
7E46
  8
DEFPOINTS
  6
CONTINUOUS
 62
     0
 10
1331.3994676599109
 20
-1549.7366930794401
 30
0.0
  0
POINT
  5
7E47
  8
DEFPOINTS
  6
CONTINUOUS
 62
     0
 10
1331.3994676599109
 20
-1327.081118079441
 30
0.0
  0
ENDBLK
  5
7C7B
  8
0
  0
BLOCK
  8
0
  2
*D15
 70
     1
 10
0.0
 20
0.0
 30
0.0
  3
*D15
  1

  0
LINE
  5
7E48
  8
3
  6
CONTINUOUS
 62
     0
 10
1336.39946765991
 20
-1571.7366930794401
 30
0.0
 11
1417.9177976599101
 21
-1571.7366930794401
 31
0.0
  0
LINE
  5
7E49
  8
3
  6
CONTINUOUS
 62
     0
 10
1336.39946765991
 20
-1821.7366930794401
 30
0.0
 11
1417.9177976599101
 21
-1821.7366930794401
 31
0.0
  0
LINE
  5
7E4A
  8
3
  6
CONTINUOUS
 62
     0
 10
1407.9177976599101
 20
-1591.7366930794401
 30
0.0
 11
1407.9177976599101
 21
-1801.7366930794401
 31
0.0
  0
INSERT
  5
7E4B
  8
3
  6
CONTINUOUS
 62
     0
  2
_OPEN
 10
1407.9177976599101
 20
-1571.7366930794401
 30
0.0
 41
20.0
 42
20.0
 43
20.0
 50
90.0
  0
INSERT
  5
7E4C
  8
3
  6
CONTINUOUS
 62
     0
  2
_OPEN
 10
1407.9177976599101
 20
-1821.7366930794401
 30
0.0
 41
20.0
 42
20.0
 43
20.0
 50
270.0
  0
TEXT
  8
3
  40
30
  5
7E7A
  62
0
  72
0
  71
0
 10
1322.92
 20
-1743.76
 30
0.000000
  1
φ250
  0
POINT
  5
7E4E
  8
DEFPOINTS
  6
CONTINUOUS
 62
     0
 10
1331.3994676599109
 20
-1571.7366930794401
 30
0.0
  0
POINT
  5
7E4F
  8
DEFPOINTS
  6
CONTINUOUS
 62
     0
 10
1331.3994676599109
 20
-1821.7366930794401
 30
0.0
  0
POINT
  5
7E50
  8
DEFPOINTS
  6
CONTINUOUS
 62
     0
 10
1407.9177976599101
 20
-1821.7366930794401
 30
0.0
  0
ENDBLK
  5
7CB8
  8
0
  0
BLOCK
  8
0
  2
*D16
 70
     1
 10
0.0
 20
0.0
 30
0.0
  3
*D16
  1

  0
LINE
  5
7E51
  8
3
  6
CONTINUOUS
 62
     0
 10
180.44264765991099
 20
-1691.7366930794401
 30
0.0
 11
180.44264765991099
 21
-1354.8382590794399
 31
0.0
  0
LINE
  5
7E52
  8
3
  6
CONTINUOUS
 62
     0
 10
400.43203165991099
 20
-1431.7366930794401
 30
0.0
 11
400.43203165991099
 21
-1354.8382590794399
 31
0.0
  0
LINE
  5
7E53
  8
3
  6
CONTINUOUS
 62
     0
 10
200.44264765991099
 20
-1364.8382590794411
 30
0.0
 11
380.43203165991099
 21
-1364.8382590794411
 31
0.0
  0
INSERT
  5
7E54
  8
3
  6
CONTINUOUS
 62
     0
  2
_OPEN
 10
180.44264765991099
 20
-1364.8382590794411
 30
0.0
 41
20.0
 42
20.0
 43
20.0
 50
180.0
  0
INSERT
  5
7E55
  8
3
  6
CONTINUOUS
 62
     0
  2
_OPEN
 10
400.43203165991099
 20
-1364.8382590794411
 30
0.0
 41
20.0
 42
20.0
 43
20.0
  0
TEXT
  8
3
  40
30
  5
7E7B
  62
0
  72
0
  71
0
 10
231.050
 20
-1392.94
 30
0.000000
  1
220
  0
POINT
  5
7E57
  8
DEFPOINTS
  6
CONTINUOUS
 62
     0
 10
180.44264765991099
 20
-1696.7366930794401
 30
0.0
  0
POINT
  5
7E58
  8
DEFPOINTS
  6
CONTINUOUS
 62
     0
 10
400.43203165991099
 20
-1436.7366930794401
 30
0.0
  0
POINT
  5
7E59
  8
DEFPOINTS
  6
CONTINUOUS
 62
     0
 10
400.43203165991099
 20
-1364.8382590794411
 30
0.0
  0
ENDBLK
  5
7C5F
  8
0
  0
BLOCK
  8
0
  2
*D17
 70
     1
 10
0.0
 20
0.0
 30
0.0
  3
*D17
  1

  0
LINE
  5
7E5A
  8
3
  6
CONTINUOUS
 62
     0
 10
600.43203165991099
 20
-1420.7366930794401
 30
0.0
 11
600.43203165991099
 21
-1354.8382590794399
 31
0.0
  0
LINE
  5
7E5B
  8
3
  6
CONTINUOUS
 62
     0
 10
420.43203165991088
 20
-1364.8382590794411
 30
0.0
 11
580.43203165991099
 21
-1364.8382590794411
 31
0.0
  0
INSERT
  5
7E5C
  8
3
  6
CONTINUOUS
 62
     0
  2
_OPEN
 10
400.43203165991099
 20
-1364.8382590794411
 30
0.0
 41
20.0
 42
20.0
 43
20.0
 50
180.0
  0
INSERT
  5
7E5D
  8
3
  6
CONTINUOUS
 62
     0
  2
_OPEN
 10
600.43203165991099
 20
-1364.8382590794411
 30
0.0
 41
20.0
 42
20.0
 43
20.0
  0
TEXT
  8
3
  40
30
  5
7E7C
  62
0
  72
0
  71
0
 10
440.432
 20
-1392.94
 30
0.000000
  1
200
  0
POINT
  5
7E5F
  8
DEFPOINTS
  6
CONTINUOUS
 62
     0
 10
400.43203165991099
 20
-1436.7366930794401
 30
0.0
  0
POINT
  5
7E60
  8
DEFPOINTS
  6
CONTINUOUS
 62
     0
 10
600.43203165991099
 20
-1425.7366930794401
 30
0.0
  0
POINT
  5
7E61
  8
DEFPOINTS
  6
CONTINUOUS
 62
     0
 10
600.43203165991099
 20
-1364.8382590794411
 30
0.0
  0
ENDBLK
  5
7C6B
  8
0
  0
BLOCK
  8
0
  2
*D18
 70
     1
 10
0.0
 20
0.0
 30
0.0
  3
*D18
  1

  0
LINE
  5
7E62
  8
3
 62
     0
 10
600.43203165991099
 20
-1420.7366930794401
 30
0.0
 11
600.43203165991099
 21
-1268.441519094144
 31
0.0
  0
LINE
  5
7E63
  8
3
 62
     0
 10
-119.567968340089
 20
-1926.7366930794401
 30
0.0
 11
-119.5679683400889
 21
-1268.441519094144
 31
0.0
  0
LINE
  5
7E64
  8
3
 62
     0
 10
580.43203165991099
 20
-1278.441519094144
 30
0.0
 11
-99.567968340088981
 21
-1278.441519094144
 31
0.0
  0
INSERT
  5
7E65
  8
3
 62
     0
  2
_OPEN
 10
600.43203165991099
 20
-1278.441519094144
 30
0.0
 41
20.0
 42
20.0
 43
20.0
  0
INSERT
  5
7E66
  8
3
 62
     0
  2
_OPEN
 10
-119.5679683400889
 20
-1278.441519094144
 30
0.0
 41
20.0
 42
20.0
 43
20.0
 50
180.0
  0
TEXT
  8
3
  40
30
  5
7E7D
  62
0
  72
0
  71
0
 10
157.905
 20
-1306.54
 30
0.000000
  1
720
  0
POINT
  5
7E68
  8
DEFPOINTS
 62
     0
 10
600.43203165991099
 20
-1425.7366930794401
 30
0.0
  0
POINT
  5
7E69
  8
DEFPOINTS
 62
     0
 10
-119.567968340089
 20
-1931.7366930794401
 30
0.0
  0
POINT
  5
7E6A
  8
DEFPOINTS
 62
     0
 10
-119.5679683400889
 20
-1278.441519094144
 30
0.0
  0
ENDBLK
  5
7CDD
  8
0
  0
ENDSEC
  0
SECTION
  2
ENTITIES
  0
ARC
  5
7A90
  8
1
  6
CONTINUOUS
 10
383.43203165991088
 20
-1679.7366930794401
 30
0.0
 40
203.6999999999999
 50
184.59999999999999
 51
275.49999999999989
  0
ARC
  5
7A91
  8
1
  6
CONTINUOUS
 10
420.43203165991088
 20
-1676.7366930794401
 30
0.0
 40
240.90000000000001
 50
94.900000000000006
 51
184.59999999999999
  0
LINE
  5
7A92
  8
1
  6
CONTINUOUS
 10
-119.567968340089
 20
-2011.7366930794401
 30
0.0
 11
590.43203165991088
 21
-2011.7366930794401
 31
0.0
  0
LINE
  5
7A93
  8
1
  6
CONTINUOUS
 10
-119.567968340089
 20
-1951.736693079441
 30
0.0
 11
590.43203165991088
 21
-1951.736693079441
 31
0.0
  0
LINE
  5
7A94
  8
1
  6
CONTINUOUS
 10
400.63203165991081
 20
-1571.7366930794401
 30
0.0
 11
-54.56796834008901
 21
-1771.7366930794401
 31
0.0
  0
LINE
  5
7A95
  8
1
  6
CONTINUOUS
 10
58.732031659910938
 20
-1912.9366930794399
 30
0.0
 11
425.53203165991079
 21
-1755.036693079441
 31
0.0
  0
LINE
  5
7A96
  8
1
  6
CONTINUOUS
 10
14.33203165991085
 20
-1816.7366930794401
 30
0.0
 11
372.3320316599108
 21
-1639.83669307944
 31
0.0
  0
ARC
  5
7A97
  8
1
  6
CONTINUOUS
 10
37.832031659910847
 20
-1864.2366930794401
 30
0.0
 40
75.799999999999997
 50
322.89999999999992
 51
217.09999999999991
  0
LINE
  5
7A98
  8
1
  6
CONTINUOUS
 10
-54.56796834008901
 20
-1951.736693079441
 30
0.0
 11
-54.56796834008901
 21
-1771.7366930794401
 31
0.0
  0
LINE
  5
7A99
  8
1
  6
CONTINUOUS
 10
135.13203165991081
 20
-1931.7366930794401
 30
0.0
 11
-119.567968340089
 21
-1931.7366930794401
 31
0.0
  0
LINE
  5
7A9A
  8
1
  6
CONTINUOUS
 10
-89.56796834008901
 20
-2011.7366930794401
 30
0.0
 11
-89.56796834008901
 21
-2041.7366930794401
 31
0.0
  0
LINE
  5
7A9B
  8
1
  6
CONTINUOUS
 10
-119.567968340089
 20
-2041.7366930794401
 30
0.0
 11
-89.56796834008901
 21
-2041.7366930794401
 31
0.0
  0
LINE
  5
7A9C
  8
1
  6
CONTINUOUS
 10
-119.567968340089
 20
-1951.736693079441
 30
0.0
 11
-119.567968340089
 21
-2041.7366930794401
 31
0.0
  0
LINE
  5
7A9D
  8
1
  6
CONTINUOUS
 10
-119.567968340089
 20
-1931.7366930794401
 30
0.0
 11
-119.567968340089
 21
-1951.736693079441
 31
0.0
  0
CIRCLE
  5
7A9E
  8
1
  6
CONTINUOUS
 10
37.832031659910847
 20
-1864.2366930794401
 30
0.0
 40
53.0
  0
LINE
  5
7A9F
  8
2
  6
CENTER
 10
-15.167968340089139
 20
-1864.2366930794401
 30
0.0
 11
90.832031659910854
 21
-1864.2366930794401
 31
0.0
  0
LINE
  5
7AA0
  8
1
  6
CONTINUOUS
 10
-28.167968340089139
 20
-1931.7366930794401
 30
0.0
 11
-28.167968340089139
 21
-1924.2366930794401
 31
0.0
  0
LINE
  5
7AA1
  8
1
  6
CONTINUOUS
 10
-28.167968340089139
 20
-1924.2366930794401
 30
0.0
 11
-22.667968340089139
 21
-1909.9366930794411
 31
0.0
  0
LINE
  5
7AA2
  8
2
  6
CENTER
 10
37.832031659910847
 20
-1917.2366930794401
 30
0.0
 11
37.832031659910847
 21
-1811.236693079441
 31
0.0
  0
POINT
  5
7AA3
  8
1
  6
CONTINUOUS
 10
108.2320316599109
 20
-1864.2366930794401
 30
0.0
  0
LINE
  5
7AA4
  8
1
  6
CONTINUOUS
 10
103.8320316599108
 20
-1924.2366930794401
 30
0.0
 11
98.232031659910945
 21
-1909.9366930794411
 31
0.0
  0
LINE
  5
7AA5
  8
1
  6
CONTINUOUS
 10
103.8320316599108
 20
-1931.7366930794401
 30
0.0
 11
103.8320316599108
 21
-1924.2366930794401
 31
0.0
  0
LINE
  5
7AA6
  8
1
  6
CONTINUOUS
 10
135.13203165991081
 20
-1951.736693079441
 30
0.0
 11
135.13203165991081
 21
-1931.7366930794401
 31
0.0
  0
CIRCLE
  5
7AA7
  8
1
  6
CONTINUOUS
 10
400.43203165991099
 20
-1696.7366930794401
 30
0.0
 40
145.0
  0
CIRCLE
  5
7AA8
  8
1
  6
CONTINUOUS
 10
400.43203165991099
 20
-1696.7366930794401
 30
0.0
 40
125.0
  0
ARC
  5
7AA9
  8
1
  6
CONTINUOUS
 10
386.43203165991088
 20
-1710.7366930794401
 30
0.0
 40
172.59999999999991
 50
275.49999999999989
 51
1.3
  0
LINE
  5
7AAA
  8
1
  6
CONTINUOUS
 10
240.4320316599109
 20
-1630.63669307944
 30
0.0
 11
240.4320316599109
 21
-1951.736693079441
 31
0.0
  0
LINE
  5
7AAB
  8
1
  6
CONTINUOUS
 10
560.43203165991099
 20
-1951.736693079441
 30
0.0
 11
560.43203165991099
 21
-1630.63669307944
 31
0.0
  0
LINE
  5
7AAC
  8
1
  6
CONTINUOUS
 10
525.43203165991099
 20
-1951.736693079441
 30
0.0
 11
525.43203165991099
 21
-1641.7366930794401
 31
0.0
  0
LINE
  5
7AAD
  8
1
  6
CONTINUOUS
 10
560.43203165991099
 20
-2041.7366930794401
 30
0.0
 11
590.43203165991088
 21
-2041.7366930794401
 31
0.0
  0
LINE
  5
7AAE
  8
1
  6
CONTINUOUS
 10
560.43203165991099
 20
-2011.7366930794401
 30
0.0
 11
560.43203165991099
 21
-2041.7366930794401
 31
0.0
  0
LINE
  5
7AAF
  8
1
  6
CONTINUOUS
 10
590.43203165991088
 20
-1951.736693079441
 30
0.0
 11
590.43203165991088
 21
-2041.7366930794401
 31
0.0
  0
LINE
  5
7AB0
  8
2
  6
CENTER
 10
1341.98147665991
 20
-1696.7366930794401
 30
0.0
 11
865.78323065991094
 21
-1696.7366930794401
 31
0.0
  0
LINE
  5
7AB1
  8
1
  6
CONTINUOUS
 10
560.43203165991099
 20
-1730.036693079441
 30
0.0
 11
240.4320316599109
 21
-1730.036693079441
 31
0.0
  0
LINE
  5
7AB2
  8
1
  6
CONTINUOUS
 10
462.0320316599109
 20
-1546.736693079441
 30
0.0
 11
338.8320316599108
 21
-1546.736693079441
 31
0.0
  0
CIRCLE
  5
7AB3
  8
1
  6
CONTINUOUS
 10
400.43203165991099
 20
-1696.7366930794401
 30
0.0
 40
63.5
  0
LINE
  5
7AB4
  8
1
  6
CONTINUOUS
 10
338.8320316599108
 20
-1546.736693079441
 30
0.0
 11
240.4320316599109
 21
-1630.63669307944
 31
0.0
  0
LINE
  5
7AB5
  8
1
  6
CONTINUOUS
 10
600.43203165991099
 20
-1717.736693079441
 30
0.0
 11
600.43203165991099
 21
-1425.7366930794401
 31
0.0
  0
LINE
  5
7AB6
  8
1
  6
CONTINUOUS
 10
580.43203165991099
 20
-1466.7366930794401
 30
0.0
 11
580.43203165991099
 21
-1676.7366930794401
 31
0.0
  0
LINE
  5
7AB7
  8
1
  6
CONTINUOUS
 10
462.0320316599109
 20
-1546.736693079441
 30
0.0
 11
560.43203165991099
 21
-1630.63669307944
 31
0.0
  0
LINE
  5
7AB8
  8
1
  6
CONTINUOUS
 10
525.43203165991099
 20
-1641.7366930794401
 30
0.0
 11
400.63203165991081
 21
-1571.7366930794401
 31
0.0
  0
LINE
  5
7AB9
  8
2
  6
CENTER
 10
400.43203165991082
 20
-542.61370534282264
 30
0.0
 11
400.43203165991082
 21
-1055.608346342822
 31
0.0
  0
LINE
  5
7ABA
  8
1
  6
CONTINUOUS
 10
580.43203165991099
 20
-1706.7366930794401
 30
0.0
 11
559.03203165991079
 21
-1706.7366930794401
 31
0.0
  0
LINE
  5
7ABB
  8
1
  6
CONTINUOUS
 10
600.43203165991099
 20
-1696.7366930794401
 30
0.0
 11
580.43203165991099
 21
-1676.7366930794401
 31
0.0
  0
LINE
  5
7ABC
  8
1
  6
CONTINUOUS
 10
600.43203165991099
 20
-1696.7366930794401
 30
0.0
 11
580.43203165991099
 21
-1696.7366930794401
 31
0.0
  0
LINE
  5
7ABD
  8
1
  6
CONTINUOUS
 10
580.43203165991099
 20
-1696.7366930794401
 30
0.0
 11
580.43203165991099
 21
-1706.7366930794401
 31
0.0
  0
LINE
  5
7ABE
  8
1
  6
CONTINUOUS
 10
580.43203165991099
 20
-1436.7366930794401
 30
0.0
 11
400.0320316599109
 21
-1436.7366930794401
 31
0.0
  0
LINE
  5
7ABF
  8
1
  6
CONTINUOUS
 10
600.43203165991099
 20
-1446.7366930794401
 30
0.0
 11
580.43203165991099
 21
-1466.7366930794401
 31
0.0
  0
LINE
  5
7AC0
  8
1
  6
CONTINUOUS
 10
580.43203165991099
 20
-1436.7366930794401
 30
0.0
 11
580.43203165991099
 21
-1446.7366930794401
 31
0.0
  0
LINE
  5
7AC1
  8
1
  6
CONTINUOUS
 10
600.43203165991099
 20
-1446.7366930794401
 30
0.0
 11
580.43203165991099
 21
-1446.7366930794401
 31
0.0
  0
LINE
  5
7AC2
  8
1
  6
CONTINUOUS
 10
894.3994676599109
 20
-2041.7366930794401
 30
0.0
 11
1374.3994676599109
 21
-2041.7366930794401
 31
0.0
  0
LINE
  5
7AC3
  8
1
  6
CONTINUOUS
 10
892.3994676599109
 20
-1951.736693079441
 30
0.0
 11
1224.3994676599109
 21
-1951.736693079441
 31
0.0
  0
LINE
  5
7AC4
  8
1
  6
CONTINUOUS
 10
894.3994676599109
 20
-2011.7366930794401
 30
0.0
 11
1374.3994676599109
 21
-2011.7366930794401
 31
0.0
  0
LINE
  5
7AC5
  8
1
  6
CONTINUOUS
 10
1004.39946765991
 20
-1734.9366930794411
 30
0.0
 11
1133.3994676599109
 21
-1630.63669307944
 31
0.0
  0
LINE
  5
7AC6
  8
1
  6
CONTINUOUS
 10
1004.39946765991
 20
-1951.736693079441
 30
0.0
 11
1004.39946765991
 21
-1734.9366930794411
 31
0.0
  0
LINE
  5
7AC7
  8
1
  6
CONTINUOUS
 10
892.3994676599109
 20
-1951.736693079441
 30
0.0
 11
892.3994676599109
 21
-1571.7366930794401
 31
0.0
  0
LINE
  5
7AC8
  8
1
  6
CONTINUOUS
 10
967.3994676599109
 20
-1951.736693079441
 30
0.0
 11
967.3994676599109
 21
-1571.7366930794401
 31
0.0
  0
LINE
  5
7AC9
  8
1
  6
CONTINUOUS
 10
947.39946765991078
 20
-1876.2366930794401
 30
0.0
 11
1004.39946765991
 21
-1876.2366930794401
 31
0.0
  0
LINE
  5
7ACA
  8
1
  6
CONTINUOUS
 10
947.39946765991078
 20
-1852.2366930794401
 30
0.0
 11
1004.39946765991
 21
-1852.2366930794401
 31
0.0
  0
LINE
  5
7ACB
  8
1
  6
CONTINUOUS
 10
894.3994676599109
 20
-2011.7366930794401
 30
0.0
 11
894.3994676599109
 21
-2041.7366930794401
 31
0.0
  0
LINE
  5
7ACC
  8
1
  6
CONTINUOUS
 10
912.39946765991078
 20
-1811.236693079441
 30
0.0
 11
947.39946765991078
 21
-1811.236693079441
 31
0.0
  0
LINE
  5
7ACD
  8
1
  6
CONTINUOUS
 10
912.39946765991078
 20
-1811.236693079441
 30
0.0
 11
912.39946765991078
 21
-1917.2366930794401
 31
0.0
  0
LINE
  5
7ACE
  8
1
  6
CONTINUOUS
 10
912.39946765991078
 20
-1917.2366930794401
 30
0.0
 11
947.39946765991078
 21
-1917.2366930794401
 31
0.0
  0
LINE
  5
7ACF
  8
1
  6
CONTINUOUS
 10
947.39946765991078
 20
-1811.236693079441
 30
0.0
 11
947.39946765991078
 21
-1917.2366930794401
 31
0.0
  0
LINE
  5
7AD0
  8
1
  6
CONTINUOUS
 10
974.3994676599109
 20
-1951.736693079441
 30
0.0
 11
974.3994676599109
 21
-2011.7366930794401
 31
0.0
  0
LINE
  5
7AD1
  8
1
  6
CONTINUOUS
 10
892.3994676599109
 20
-1571.7366930794401
 30
0.0
 11
967.3994676599109
 21
-1571.7366930794401
 31
0.0
  0
LINE
  5
7AD2
  8
1
  6
CONTINUOUS
 10
947.39946765991078
 20
-1684.7366930794401
 30
0.0
 11
1066.4994676599099
 21
-1684.7366930794401
 31
0.0
  0
LINE
  5
7AD3
  8
1
  6
CONTINUOUS
 10
947.39946765991078
 20
-1708.7366930794401
 30
0.0
 11
1036.799467659911
 21
-1708.7366930794401
 31
0.0
  0
LINE
  5
7AD4
  8
1
  6
CONTINUOUS
 10
912.39946765991078
 20
-1633.2366930794401
 30
0.0
 11
912.39946765991078
 21
-1760.2366930794401
 31
0.0
  0
LINE
  5
7AD5
  8
1
  6
CONTINUOUS
 10
912.39946765991078
 20
-1633.2366930794401
 30
0.0
 11
947.39946765991078
 21
-1633.2366930794401
 31
0.0
  0
LINE
  5
7AD6
  8
1
  6
CONTINUOUS
 10
912.39946765991078
 20
-1760.2366930794401
 30
0.0
 11
947.39946765991078
 21
-1760.2366930794401
 31
0.0
  0
LINE
  5
7AD7
  8
1
  6
CONTINUOUS
 10
947.39946765991078
 20
-1633.2366930794401
 30
0.0
 11
947.39946765991078
 21
-1760.2366930794401
 31
0.0
  0
LINE
  5
7AD8
  8
1
  6
CONTINUOUS
 10
1142.39946765991
 20
-1445.7366930794401
 30
0.0
 11
1142.39946765991
 21
-1895.63669307944
 31
0.0
  0
LINE
  5
7AD9
  8
1
  6
CONTINUOUS
 10
1322.39946765991
 20
-1895.63669307944
 30
0.0
 11
1322.39946765991
 21
-1445.7366930794401
 31
0.0
  0
LINE
  5
7ADA
  8
1
  6
CONTINUOUS
 10
1331.3994676599109
 20
-1549.7366930794401
 30
0.0
 11
1331.3994676599109
 21
-1843.7366930794401
 31
0.0
  0
LINE
  5
7ADB
  8
1
  6
CONTINUOUS
 10
1133.3994676599109
 20
-1549.7366930794401
 30
0.0
 11
1133.3994676599109
 21
-1951.736693079441
 31
0.0
  0
LINE
  5
7ADC
  8
1
  6
CONTINUOUS
 10
1153.39946765991
 20
-1907.6366930794411
 30
0.0
 11
1311.3994676599109
 21
-1907.6366930794411
 31
0.0
  0
ARC
  5
7ADD
  8
1
  6
CONTINUOUS
 10
1154.39946765991
 20
-1895.63669307944
 30
0.0
 40
12.0
 50
180.0
 51
270.0
  0
ARC
  5
7ADE
  8
1
  6
CONTINUOUS
 10
1153.39946765991
 20
-1895.63669307944
 30
0.0
 40
12.0
 50
180.0
 51
270.0
  0
LINE
  5
7ADF
  8
1
  6
CONTINUOUS
 10
1142.39946765991
 20
-1843.7366930794401
 30
0.0
 11
1133.3994676599109
 21
-1843.7366930794401
 31
0.0
  0
LINE
  5
7AE0
  8
1
  6
CONTINUOUS
 10
1224.3994676599109
 20
-1951.736693079441
 30
0.0
 11
1224.3994676599109
 21
-2011.7366930794401
 31
0.0
  0
ARC
  5
7AE1
  8
1
  6
CONTINUOUS
 10
1310.3994676599109
 20
-1895.63669307944
 30
0.0
 40
12.0
 50
270.0
 51
0.0
  0
LINE
  5
7AE2
  8
1
  6
CONTINUOUS
 10
1322.39946765991
 20
-1843.7366930794401
 30
0.0
 11
1331.3994676599109
 21
-1843.7366930794401
 31
0.0
  0
LINE
  5
7AE3
  8
1
  6
CONTINUOUS
 10
1374.3994676599109
 20
-2011.7366930794401
 30
0.0
 11
1374.3994676599109
 21
-2041.7366930794401
 31
0.0
  0
LINE
  5
7AE4
  8
1
  6
CONTINUOUS
 10
1142.39946765991
 20
-1697.7366930794401
 30
0.0
 11
1322.39946765991
 21
-1445.7366930794401
 31
0.0
  0
LINE
  5
7AE5
  8
1
  6
CONTINUOUS
 10
1142.39946765991
 20
-1445.7366930794401
 30
0.0
 11
1322.39946765991
 21
-1697.7366930794401
 31
0.0
  0
LINE
  5
7AE6
  8
1
  6
CONTINUOUS
 10
1322.39946765991
 20
-1445.7366930794401
 30
0.0
 11
1142.39946765991
 21
-1445.7366930794401
 31
0.0
  0
LINE
  5
7AE7
  8
1
  6
CONTINUOUS
 10
1142.39946765991
 20
-1697.7366930794401
 30
0.0
 11
1322.39946765991
 21
-1697.7366930794401
 31
0.0
  0
LINE
  5
7AE8
  8
1
  6
CONTINUOUS
 10
1142.39946765991
 20
-1549.7366930794401
 30
0.0
 11
1133.3994676599109
 21
-1549.7366930794401
 31
0.0
  0
LINE
  5
7AE9
  8
1
  6
CONTINUOUS
 10
1322.39946765991
 20
-1549.7366930794401
 30
0.0
 11
1331.3994676599109
 21
-1549.7366930794401
 31
0.0
  0
LINE
  5
7AEA
  8
1
  6
CONTINUOUS
 10
189.5320316599109
 20
-675.78990834282274
 30
0.0
 11
-119.567968340089
 21
-675.78990834282274
 31
0.0
  0
LINE
  5
7AEB
  8
1
  6
CONTINUOUS
 10
525.43203165991076
 20
-1007.7899083428219
 30
0.0
 11
-54.56796834008901
 21
-1007.7899083428219
 31
0.0
  0
LINE
  5
7AEC
  8
1
  6
CONTINUOUS
 10
525.43203165991076
 20
-932.78990834282286
 30
0.0
 11
-54.56796834008901
 21
-932.78990834282286
 31
0.0
  0
LINE
  5
7AED
  8
1
  6
CONTINUOUS
 10
388.43203165991088
 20
-925.78990834282274
 30
0.0
 11
49.832031659910847
 21
-925.78990834282274
 31
0.0
  0
LINE
  5
7AEE
  8
1
  6
CONTINUOUS
 10
-89.56796834008901
 20
-525.78990834282263
 30
0.0
 11
-89.56796834008901
 21
-675.78990834282274
 31
0.0
  0
LINE
  5
7AEF
  8
1
  6
CONTINUOUS
 10
-119.567968340089
 20
-525.78990834282263
 30
0.0
 11
-119.567968340089
 21
-1005.789908342823
 31
0.0
  0
LINE
  5
7AF0
  8
1
  6
CONTINUOUS
 10
25.732031659910941
 20
-925.78990834282274
 30
0.0
 11
-119.567968340089
 21
-925.78990834282274
 31
0.0
  0
LINE
  5
7AF1
  8
1
  6
CONTINUOUS
 10
-89.56796834008901
 20
-925.78990834282274
 30
0.0
 11
-89.56796834008901
 21
-1005.789908342823
 31
0.0
  0
LINE
  5
7AF2
  8
1
  6
CONTINUOUS
 10
-54.56796834008901
 20
-1007.7899083428219
 30
0.0
 11
-54.56796834008901
 21
-932.78990834282286
 31
0.0
  0
LINE
  5
7AF3
  8
1
  6
CONTINUOUS
 10
-89.56796834008901
 20
-1005.789908342823
 30
0.0
 11
-119.567968340089
 21
-1005.789908342823
 31
0.0
  0
LINE
  5
7AF4
  8
1
  6
CONTINUOUS
 10
-15.167968340089139
 20
-987.78990834282286
 30
0.0
 11
-15.167968340089139
 21
-952.78990834282274
 31
0.0
  0
LINE
  5
7AF5
  8
1
  6
CONTINUOUS
 10
90.832031659910854
 20
-987.78990834282286
 30
0.0
 11
90.832031659910854
 21
-952.78990834282274
 31
0.0
  0
LINE
  5
7AF6
  8
1
  6
CONTINUOUS
 10
90.832031659910854
 20
-987.78990834282286
 30
0.0
 11
-15.167968340089139
 21
-987.78990834282286
 31
0.0
  0
LINE
  5
7AF7
  8
1
  6
CONTINUOUS
 10
114.4320316599109
 20
-901.48990834282267
 30
0.0
 11
-37.06796834008901
 21
-901.48990834282267
 31
0.0
  0
LINE
  5
7AF8
  8
1
  6
CONTINUOUS
 10
114.4320316599109
 20
-697.48990834282256
 30
0.0
 11
-37.06796834008901
 21
-697.48990834282256
 31
0.0
  0
LINE
  5
7AF9
  8
1
  6
CONTINUOUS
 10
90.832031659910854
 20
-952.78990834282274
 30
0.0
 11
-15.167968340089139
 21
-952.78990834282274
 31
0.0
  0
LINE
  5
7AFA
  8
1
  6
CONTINUOUS
 10
49.732031659910938
 20
-952.78990834282274
 30
0.0
 11
49.832031659910847
 21
-901.48990834282267
 31
0.0
  0
LINE
  5
7AFB
  8
1
  6
CONTINUOUS
 10
25.83203165991085
 20
-952.78990834282274
 30
0.0
 11
25.732031659910941
 21
-901.48990834282267
 31
0.0
  0
LINE
  5
7AFC
  8
1
  6
CONTINUOUS
 10
-37.06796834008901
 20
-901.48990834282267
 30
0.0
 11
-37.06796834008901
 21
-697.48990834282256
 31
0.0
  0
LINE
  5
7AFD
  8
1
  6
CONTINUOUS
 10
114.4320316599109
 20
-901.48990834282267
 30
0.0
 11
114.4320316599109
 21
-697.48990834282256
 31
0.0
  0
LINE
  5
7AFE
  8
1
  6
CONTINUOUS
 10
-89.56796834008901
 20
-525.78990834282263
 30
0.0
 11
-119.567968340089
 21
-525.78990834282263
 31
0.0
  0
LINE
  5
7AFF
  8
1
  6
CONTINUOUS
 10
600.43203165991076
 20
-556.78990834282263
 30
0.0
 11
600.43203165991076
 21
-778.78990834282274
 31
0.0
  0
LINE
  5
7B00
  8
1
  6
CONTINUOUS
 10
580.43203165991088
 20
-606.98990834282256
 30
0.0
 11
580.43203165991088
 21
-728.58990834282258
 31
0.0
  0
LINE
  5
7B01
  8
1
  6
CONTINUOUS
 10
189.5320316599109
 20
-589.98990834282256
 30
0.0
 11
189.5320316599109
 21
-745.5899083428227
 31
0.0
  0
LINE
  5
7B02
  8
1
  6
CONTINUOUS
 10
600.43203165991076
 20
-757.58990834282258
 30
0.0
 11
201.5320316599109
 21
-757.58990834282258
 31
0.0
  0
LINE
  5
7B03
  8
1
  6
CONTINUOUS
 10
560.43203165991088
 20
-766.78990834282274
 30
0.0
 11
240.4320316599109
 21
-766.78990834282274
 31
0.0
  0
LINE
  5
7B04
  8
1
  6
CONTINUOUS
 10
463.93203165991088
 20
-952.78990834282274
 30
0.0
 11
336.93203165991099
 21
-952.78990834282274
 31
0.0
  0
LINE
  5
7B05
  8
1
  6
CONTINUOUS
 10
463.93203165991088
 20
-987.78990834282286
 30
0.0
 11
336.93203165991099
 21
-987.78990834282286
 31
0.0
  0
LINE
  5
7B06
  8
1
  6
CONTINUOUS
 10
388.43203165991088
 20
-895.78990834282274
 30
0.0
 11
240.4320316599109
 21
-895.78990834282274
 31
0.0
  0
LINE
  5
7B07
  8
1
  6
CONTINUOUS
 10
336.93203165991099
 20
-987.78990834282286
 30
0.0
 11
336.93203165991099
 21
-952.78990834282274
 31
0.0
  0
ARC
  5
7B08
  8
1
  6
CONTINUOUS
 10
201.5320316599109
 20
-745.5899083428227
 30
0.0
 40
12.0
 50
180.0
 51
270.0
  0
LINE
  5
7B09
  8
1
  6
CONTINUOUS
 10
253.43203165991099
 20
-757.58990834282258
 30
0.0
 11
253.43203165991099
 21
-766.78990834282274
 31
0.0
  0
LINE
  5
7B0A
  8
1
  6
CONTINUOUS
 10
240.4320316599109
 20
-766.78990834282274
 30
0.0
 11
240.4320316599109
 21
-895.78990834282274
 31
0.0
  0
LINE
  5
7B0B
  8
1
  6
CONTINUOUS
 10
560.43203165991088
 20
-925.78990834282274
 30
0.0
 11
560.43203165991088
 21
-1005.789908342823
 31
0.0
  0
LINE
  5
7B0C
  8
1
  6
CONTINUOUS
 10
590.43203165991076
 20
-758.5899083428227
 30
0.0
 11
590.43203165991076
 21
-1005.789908342823
 31
0.0
  0
LINE
  5
7B0D
  8
1
  6
CONTINUOUS
 10
525.43203165991076
 20
-1007.7899083428219
 30
0.0
 11
525.43203165991076
 21
-932.78990834282286
 31
0.0
  0
LINE
  5
7B0E
  8
1
  6
CONTINUOUS
 10
463.93203165991088
 20
-987.78990834282286
 30
0.0
 11
463.93203165991088
 21
-952.78990834282274
 31
0.0
  0
LINE
  5
7B0F
  8
1
  6
CONTINUOUS
 10
560.43203165991088
 20
-1005.789908342823
 30
0.0
 11
590.43203165991076
 21
-1005.789908342823
 31
0.0
  0
LINE
  5
7B10
  8
1
  6
CONTINUOUS
 10
590.43203165991076
 20
-925.78990834282274
 30
0.0
 11
412.43203165991082
 21
-925.78990834282274
 31
0.0
  0
LINE
  5
7B11
  8
1
  6
CONTINUOUS
 10
560.43203165991088
 20
-895.78990834282274
 30
0.0
 11
412.43203165991082
 21
-895.78990834282274
 31
0.0
  0
LINE
  5
7B12
  8
1
  6
CONTINUOUS
 10
388.43203165991088
 20
-952.78990834282274
 30
0.0
 11
388.43203165991088
 21
-766.78990834282274
 31
0.0
  0
LINE
  5
7B13
  8
1
  6
CONTINUOUS
 10
412.43203165991082
 20
-952.78990834282274
 30
0.0
 11
412.43203165991082
 21
-766.78990834282274
 31
0.0
  0
LINE
  5
7B14
  8
1
  6
CONTINUOUS
 10
600.43203165991076
 20
-748.58990834282258
 30
0.0
 11
580.43203165991088
 21
-728.58990834282258
 31
0.0
  0
LINE
  5
7B15
  8
1
  6
CONTINUOUS
 10
547.43203165991088
 20
-757.58990834282258
 30
0.0
 11
547.43203165991088
 21
-766.78990834282274
 31
0.0
  0
LINE
  5
7B16
  8
1
  6
CONTINUOUS
 10
560.43203165991088
 20
-895.78990834282274
 30
0.0
 11
560.43203165991088
 21
-766.78990834282274
 31
0.0
  0
LINE
  5
7B17
  8
1
  6
CONTINUOUS
 10
253.43203165991099
 20
-568.78990834282263
 30
0.0
 11
547.43203165991088
 21
-568.78990834282263
 31
0.0
  0
LINE
  5
7B18
  8
1
  6
CONTINUOUS
 10
600.43203165991076
 20
-577.98990834282256
 30
0.0
 11
201.5320316599109
 21
-577.98990834282256
 31
0.0
  0
LINE
  5
7B19
  8
1
  6
CONTINUOUS
 10
253.43203165991099
 20
-576.98990834282256
 30
0.0
 11
253.43203165991099
 21
-568.78990834282263
 31
0.0
  0
ARC
  5
7B1A
  8
1
  6
CONTINUOUS
 10
201.5320316599109
 20
-589.98990834282256
 30
0.0
 40
12.0
 50
90.0
 51
180.0
  0
LINE
  5
7B1B
  8
1
  6
CONTINUOUS
 10
547.43203165991088
 20
-576.98990834282256
 30
0.0
 11
547.43203165991088
 21
-568.78990834282263
 31
0.0
  0
LINE
  5
7B1C
  8
1
  6
CONTINUOUS
 10
600.43203165991076
 20
-586.98990834282267
 30
0.0
 11
580.43203165991088
 21
-606.98990834282256
 31
0.0
  0
LINE
  5
7B1D
  8
1
  6
CONTINUOUS
 10
560.43203165991088
 20
-525.78990834282263
 30
0.0
 11
560.43203165991088
 21
-576.98990834282256
 31
0.0
  0
LINE
  5
7B1E
  8
1
  6
CONTINUOUS
 10
560.43203165991088
 20
-525.78990834282263
 30
0.0
 11
590.43203165991076
 21
-525.78990834282263
 31
0.0
  0
LINE
  5
7B1F
  8
1
  6
CONTINUOUS
 10
590.43203165991076
 20
-525.78990834282263
 30
0.0
 11
590.43203165991076
 21
-576.98990834282256
 31
0.0
  0
LINE
  5
7B20
  8
4
  6
CONTINUOUS
 10
1437.5008889999999
 20
-2205.4432339999998
 30
0.0
 11
1437.5008889999999
 21
-2405.4432339999989
 31
0.0
  0
LINE
  5
7B21
  8
4
  6
CONTINUOUS
 10
737.50088899999992
 20
-2205.4432339999998
 30
0.0
 11
737.50088899999992
 21
-2405.4432339999989
 31
0.0
  0
LINE
  5
7B22
  8
4
  6
CONTINUOUS
 10
237.500889
 20
-2205.4432339999998
 30
0.0
 11
237.500889
 21
-2405.4432339999989
 31
0.0
  0
LINE
  5
7B25
  8
4
  6
CONTINUOUS
 10
237.500889
 20
-2405.4432339999989
 30
0.0
 11
1437.5008889999999
 21
-2405.4432339999989
 31
0.0
  0
LINE
  5
7B26
  8
4
  6
CONTINUOUS
 10
237.500889
 20
-2305.4432339999989
 30
0.0
 11
1437.5008889999999
 21
-2305.4432339999989
 31
0.0
  0
TEXT
  5
7B27
  8
4
  6
CONTINUOUS
 10
276.00296900000001
 20
-2273.900208
 30
0.0
 40
50.0
  1
機器名称
  0
TEXT
  5
7B28
  8
4
  6
CONTINUOUS
 10
273.75899500000003
 20
-2383.798076999999
 30
0.0
 40
50.0
  1
機器型番
  0
TEXT
  5
7B29
  8
4
  6
CONTINUOUS
 10
765.17963399999985
 20
-2282.8714649999988
 30
0.0
 40
45.0
  1
ミツヤニューマルチファン
  0
TEXT
  5
7B2A
  8
4
  6
CONTINUOUS
 10
774.15538400000003
 20
-2388.2836499999989
 30
0.0
 40
50.0
  1
NM#1 1/2-1
  0
TEXT
  5
7B2C
  8
4
  6
CONTINUOUS
 10
429.85824699999989
 20
-322.01439299999998
 30
0.0
 40
54.0
  1
天井吊ベット
  0
TEXT
  5
7B2D
  8
4
  6
CONTINUOUS
 10
-96.331518000000003
 20
-171.56225800000001
 30
0.0
 40
72.0
  1
ベルト駆動式片吸込片持多翼ファン
  0
LINE
  5
7B2E
  8
4
  6
CONTINUOUS
 10
-162.499111
 20
-236.03447999999989
 30
0.0
 11
1437.5008889999999
 21
-236.03447999999989
 31
0.0
  0
LINE
  5
7B2F
  8
4
  6
CONTINUOUS
 10
-162.499111
 20
-36.034480000000002
 30
0.0
 11
1437.5008889999999
 21
-36.034480000000002
 31
0.0
  0
LINE
  5
7B30
  8
4
  6
CONTINUOUS
 10
237.500889
 20
-2205.4432339999998
 30
0.0
 11
1437.5008889999999
 21
-2205.4432339999998
 31
0.0
  0
LINE
  5
7B31
  8
4
  6
CONTINUOUS
 10
-162.499111
 20
-36.034480000000002
 30
0.0
 11
-162.499111
 21
-236.03447999999989
 31
0.0
  0
TEXT
  5
7B32
  8
4
  6
CONTINUOUS
 10
-6.0005850000000001
 20
-323.12375600000001
 30
0.0
 40
54.0
  1
右回転右横向
  0
TEXT
  5
7B33
  8
4
  6
CONTINUOUS
 10
1056.470448
 20
0.617848
 30
0.0
 40
56.0
  1
No.
  0
TEXT
  5
7B34
  8
4
  6
CONTINUOUS
 10
898.79695099999992
 20
-322.01439299999998
 30
0.0
 40
54.0
  1
縮尺：1/10
  0
LINE
  5
7B35
  8
4
  6
CONTINUOUS
 10
1437.5008889999999
 20
-36.034480000000002
 30
0.0
 11
1437.5008889999999
 21
-236.03447999999989
 31
0.0
  0
LINE
  5
7B37
  8
4
  6
CONTINUOUS
 10
1028.118310999999
 20
-24.179650999999989
 30
0.0
 11
1028.118310999999
 21
81.209028000000004
 31
0.0
  0
LINE
  5
7B38
  8
4
  6
CONTINUOUS
 10
1028.118310999999
 20
81.209028000000004
 30
0.0
 11
1437.5008889999999
 21
81.209028000000004
 31
0.0
  0
LINE
  5
7B39
  8
4
  6
CONTINUOUS
 10
1437.5008889999999
 20
81.209028000000004
 30
0.0
 11
1437.5008889999999
 21
-24.179650999999989
 31
0.0
  0
LINE
  5
7B3A
  8
4
  6
CONTINUOUS
 10
1437.5008889999999
 20
-24.179650999999989
 30
0.0
 11
1028.118310999999
 21
-24.179650999999989
 31
0.0
  0
DIMENSION
  5
7B52
  8
3
  6
CONTINUOUS
  2
*D1
 10
400.43203165991099
 20
-2109.8582900794399
 30
0.0
 11
158.04066665991101
 21
-2109.8582900794399
 31
0.0
 70
   128
 13
-119.567968340089
 23
-2041.7366930794401
 33
0.0
 14
400.43203165991099
 24
-2011.7366930794401
 34
0.0
1001
ACAD
1000
DSTYLE
1002
{
1070
   287
1070
     3
1070
   287
1070
     3
1070
    40
1040
10.0
1070
   143
1040
0.039
1070
   172
1070
     1
1070
   271
1070
     0
1070
   279
1070
     0
1070
   288
1070
     1
1002
}
  0
DIMENSION
  5
7B5E
  8
3
  6
CONTINUOUS
  2
*D2
 10
590.43203165991088
 20
-2109.8582900794399
 30
0.0
 11
495.43203165991088
 21
-2084.8582900794408
 31
0.0
 70
     0
 13
400.43203165991099
 23
-2011.7366930794401
 33
0.0
 14
590.43203165991088
 24
-2041.7366930794401
 34
0.0
1001
ACAD
1000
DSTYLE
1002
{
1070
   287
1070
     4
1070
   287
1070
     4
1070
    40
1040
10.0
1070
    75
1070
     1
1070
   143
1040
0.039
1070
   172
1070
     1
1070
   271
1070
     0
1070
   279
1070
     1
1070
   288
1070
     1
1002
}
  0
DIMENSION
  5
7B6C
  8
3
  6
CONTINUOUS
  2
*D3
 10
677.70192065991057
 20
-1696.7366930794401
 30
0.0
 11
677.70192065991091
 21
-1575.39603107944
 31
0.0
 70
   128
 13
600.43203165991099
 23
-1446.7366930794401
 33
0.0
 14
600.43203165991099
 24
-1696.7366930794401
 34
0.0
 50
90.0
1001
ACAD
1000
DSTYLE
1002
{
1070
   287
1070
     3
1070
   287
1070
     3
1070
    40
1040
10.0
1070
   143
1040
0.039
1070
   172
1070
     1
1070
   271
1070
     0
1070
   279
1070
     0
1070
   288
1070
     1
1002
}
  0
DIMENSION
  5
7B79
  8
3
  6
CONTINUOUS
  2
*D4
 10
744.22451665991071
 20
-1696.7366930794401
 30
0.0
 11
744.22451665991093
 21
-1568.8402100794401
 31
0.0
 70
   128
 13
580.43203165991099
 23
-1436.7366930794401
 33
0.0
 14
600.43203165991099
 24
-1696.7366930794401
 34
0.0
 50
90.0
1001
ACAD
1000
DSTYLE
1002
{
1070
   287
1070
     3
1070
   287
1070
     3
1070
    40
1040
10.0
1070
   143
1040
0.039
1070
   172
1070
     1
1070
   271
1070
     0
1070
   279
1070
     0
1070
   288
1070
     1
1002
}
  0
DIMENSION
  5
7B85
  8
3
  6
CONTINUOUS
  2
*D5
 10
744.22451665991093
 20
-2011.7366930794401
 30
0.0
 11
719.22451665991116
 21
-1854.2366930794401
 31
0.0
 70
     0
 13
600.43203165991099
 23
-1696.7366930794401
 33
0.0
 14
590.43203165991088
 24
-2011.7366930794401
 34
0.0
 50
90.0
1001
ACAD
1000
DSTYLE
1002
{
1070
   287
1070
     4
1070
   287
1070
     4
1070
    40
1040
10.0
1070
    75
1070
     1
1070
   143
1040
0.039
1070
   172
1070
     1
1070
   271
1070
     0
1070
   279
1070
     1
1070
   288
1070
     1
1002
}
  0
DIMENSION
  5
7B95
  8
3
  6
CONTINUOUS
  2
*D6
 10
742.25392465991047
 20
-2041.7366930794401
 30
0.0
 11
742.25392465991069
 21
-2116.0224073651548
 31
0.0
 70
   128
 13
590.43203165991088
 23
-2011.7366930794401
 33
0.0
 14
590.43203165991088
 24
-2041.7366930794401
 34
0.0
 50
90.0
1001
ACAD
1000
DSTYLE
1002
{
1070
   287
1070
     3
1070
   287
1070
     3
1070
    40
1040
10.0
1070
   143
1040
0.039
1070
   172
1070
     1
1070
   271
1070
     0
1070
   279
1070
     0
1070
   288
1070
     1
1002
}
  0
DIMENSION
  5
7BBC
  8
3
  6
CONTINUOUS
  2
*D7
 10
808.13296681266752
 20
-2041.7366930794401
 30
0.0
 11
808.13296681266786
 21
-1759.79668207944
 31
0.0
 70
   128
 13
600.43203165991099
 23
-1425.7366930794401
 33
0.0
 14
590.43203165991088
 24
-2041.7366930794401
 34
0.0
 50
90.0
1001
ACAD
1000
DSTYLE
1002
{
1070
   287
1070
     3
1070
   287
1070
     3
1070
    40
1040
10.0
1070
   143
1040
0.039
1070
   172
1070
     1
1070
   271
1070
     0
1070
   279
1070
     0
1070
   288
1070
     1
1002
}
  0
DIMENSION
  5
7BC9
  8
3
  6
CONTINUOUS
  2
*D8
 10
590.43203165991076
 20
-1104.6294953428221
 30
0.0
 11
199.7512476599108
 21
-1104.6294953428221
 31
0.0
 70
   128
 13
-119.567968340089
 23
-1005.789908342823
 33
0.0
 14
590.43203165991076
 24
-1005.789908342823
 34
0.0
1001
ACAD
1000
DSTYLE
1002
{
1070
   287
1070
     3
1070
   287
1070
     3
1070
    40
1040
10.0
1070
   143
1040
0.039
1070
   172
1070
     1
1070
   271
1070
     0
1070
   279
1070
     0
1070
   288
1070
     1
1002
}
  0
DIMENSION
  5
7BD6
  8
3
  6
CONTINUOUS
  2
*D9
 10
686.48711265991074
 20
-1005.789908342823
 30
0.0
 11
686.48711265991085
 21
-778.83448234282275
 31
0.0
 70
   128
 13
590.43203165991076
 23
-525.78990834282263
 33
0.0
 14
590.43203165991076
 24
-1005.789908342823
 34
0.0
 50
90.0
1001
ACAD
1000
DSTYLE
1002
{
1070
   287
1070
     3
1070
   287
1070
     3
1070
    40
1040
10.0
1070
   143
1040
0.039
1070
   172
1070
     1
1070
   271
1070
     0
1070
   279
1070
     0
1070
   288
1070
     1
1002
}
  0
LINE
  5
7BD7
  8
2
  6
CENTER
 10
171.79672565991081
 20
-667.78990834282274
 30
0.0
 11
623.42822565991094
 21
-667.78990834282274
 31
0.0
  0
LINE
  5
7BD8
  8
2
  6
CENTER
 10
400.43203165991099
 20
-1415.875759079441
 30
0.0
 11
400.43203165991099
 21
-2045.3584744049199
 31
0.0
  0
LINE
  5
7BD9
  8
2
  6
CENTER
 10
1232.3994676599109
 20
-1388.8014100794401
 30
0.0
 11
1232.3994676599109
 21
-2050.832679290806
 31
0.0
  0
DIMENSION
  5
7BE6
  8
3
  6
CONTINUOUS
  2
*D10
 10
1232.3994676599109
 20
-2122.4049740794412
 30
0.0
 11
1080.0134766599101
 21
-2122.4049740794412
 31
0.0
 70
   128
 13
894.3994676599109
 23
-2041.7366930794401
 33
0.0
 14
1232.3994676599109
 24
-2041.7366930794401
 34
0.0
1001
ACAD
1000
DSTYLE
1002
{
1070
   287
1070
     3
1070
   287
1070
     3
1070
    40
1040
10.0
1070
   143
1040
0.039
1070
   172
1070
     1
1070
   271
1070
     0
1070
   279
1070
     0
1070
   288
1070
     1
1002
}
  0
DIMENSION
  5
7BF2
  8
3
  6
CONTINUOUS
  2
*D11
 10
1374.3994676599109
 20
-2122.4049740794412
 30
0.0
 11
1303.39946765991
 21
-2097.4049740794412
 31
0.0
 70
     0
 13
1232.3994676599109
 23
-2041.7366930794401
 33
0.0
 14
1374.3994676599109
 24
-2041.7366930794401
 34
0.0
1001
ACAD
1000
DSTYLE
1002
{
1070
   287
1070
     4
1070
   287
1070
     4
1070
    40
1040
10.0
1070
    75
1070
     1
1070
   143
1040
0.039
1070
   172
1070
     1
1070
   271
1070
     0
1070
   279
1070
     1
1070
   288
1070
     1
1002
}
  0
DIMENSION
  5
7BFF
  8
3
  6
CONTINUOUS
  2
*D12
 10
1322.39946765991
 20
-1394.0143100794401
 30
0.0
 11
1225.8371806599109
 21
-1394.0143100794401
 31
0.0
 70
   128
 13
1142.39946765991
 23
-1445.7366930794401
 33
0.0
 14
1322.39946765991
 24
-1445.7366930794401
 34
0.0
1001
ACAD
1000
DSTYLE
1002
{
1070
   287
1070
     3
1070
   287
1070
     3
1070
    40
1040
10.0
1070
   143
1040
0.039
1070
   172
1070
     1
1070
   271
1070
     0
1070
   279
1070
     0
1070
   288
1070
     1
1002
}
  0
DIMENSION
  5
7C0C
  8
3
  6
CONTINUOUS
  2
*D13
 10
1232.3994676599109
 20
-1327.081118079441
 30
0.0
 11
1052.4252116599109
 21
-1327.081118079441
 31
0.0
 70
   128
  1
MAX\P340
 13
892.3994676599109
 23
-1571.7366930794401
 33
0.0
 14
1232.3994676599109
 24
-1346.9312260794411
 34
0.0
1001
ACAD
1000
DSTYLE
1002
{
1070
   287
1070
     3
1070
   287
1070
     3
1070
    40
1040
10.0
1070
   143
1040
0.039
1070
   172
1070
     1
1070
   271
1070
     0
1070
   279
1070
     0
1070
   288
1070
     1
1002
}
  0
DIMENSION
  5
7C1A
  8
3
  6
CONTINUOUS
  2
*D14
 10
1331.3994676599109
 20
-1327.081118079441
 30
0.0
 11
1279.780876659911
 21
-1326.5671420794399
 31
0.0
 70
   128
 13
1232.3994676599109
 23
-1346.9312260794411
 33
0.0
 14
1331.3994676599109
 24
-1549.7366930794401
 34
0.0
1001
ACAD
1000
DSTYLE
1002
{
1070
   287
1070
     4
1070
   287
1070
     4
1070
    40
1040
10.0
1070
    75
1070
     1
1070
   143
1040
0.039
1070
   172
1070
     1
1070
   271
1070
     0
1070
   279
1070
     1
1070
   288
1070
     1
1002
}
  0
LINE
  5
7C3E
  8
3
  6
CONTINUOUS
 10
1331.3994676599109
 20
-1571.7366930794401
 30
0.0
 11
1346.7615356599099
 21
-1571.7366930794401
 31
0.0
  0
LINE
  5
7C40
  8
3
  6
CONTINUOUS
 10
1331.3994676599109
 20
-1821.7366930794401
 30
0.0
 11
1349.67374465991
 21
-1821.7366930794401
 31
0.0
  0
DIMENSION
  5
7C4D
  8
3
  6
CONTINUOUS
  2
*D15
 10
1407.9177976599101
 20
-1821.7366930794401
 30
0.0
 11
1407.917797659911
 21
-1690.66009307944
 31
0.0
 70
   128
 13
1331.3994676599109
 23
-1571.7366930794401
 33
0.0
 14
1331.3994676599109
 24
-1821.7366930794401
 34
0.0
 50
90.0
1001
ACAD
1000
DSTYLE
1002
{
1070
   287
1070
     3
1070
   287
1070
     3
1070
     3
1000
φ<>
1070
    40
1040
10.0
1070
   143
1040
0.039
1070
   172
1070
     1
1070
   271
1070
     0
1070
   279
1070
     0
1070
   288
1070
     1
1002
}
  0
LINE
  5
7C4E
  8
2
  6
CENTER
 10
648.81788065991066
 20
-1696.7366930794401
 30
0.0
 11
54.770178659910933
 21
-1696.7366930794401
 31
0.0
  0
DIMENSION
  5
7C60
  8
3
  6
CONTINUOUS
  2
*D16
 10
400.43203165991099
 20
-1364.8382590794411
 30
0.0
 11
291.05026465991091
 21
-1364.8382590794411
 31
0.0
 70
   128
 13
180.44264765991099
 23
-1696.7366930794401
 33
0.0
 14
400.43203165991099
 24
-1436.7366930794401
 34
0.0
1001
ACAD
1000
DSTYLE
1002
{
1070
   287
1070
     3
1070
   287
1070
     3
1070
    40
1040
10.0
1070
   143
1040
0.039
1070
   172
1070
     1
1070
   271
1070
     0
1070
   279
1070
     0
1070
   288
1070
     1
1002
}
  0
DIMENSION
  5
7C6C
  8
3
  6
CONTINUOUS
  2
*D17
 10
600.43203165991099
 20
-1364.8382590794411
 30
0.0
 11
500.43203165991099
 21
-1339.8382590794399
 31
0.0
 70
     0
 13
400.43203165991099
 23
-1436.7366930794401
 33
0.0
 14
600.43203165991099
 24
-1425.7366930794401
 34
0.0
1001
ACAD
1000
DSTYLE
1002
{
1070
   287
1070
     4
1070
   287
1070
     4
1070
    40
1040
10.0
1070
    75
1070
     1
1070
   143
1040
0.039
1070
   172
1070
     1
1070
   271
1070
     0
1070
   279
1070
     1
1070
   288
1070
     1
1002
}
  0
DIMENSION
  5
7CD2
  8
3
  2
*D18
 10
-119.5679683400889
 20
-1278.441519094144
 30
0.0
 11
217.9047379253806
 21
-1278.441519094144
 31
0.0
 70
   128
 13
600.43203165991099
 23
-1425.7366930794401
 33
0.0
 14
-119.567968340089
 24
-1931.7366930794401
 34
0.0
1001
ACAD
1000
DSTYLE
1002
{
1070
   287
1070
     3
1070
   287
1070
     3
1070
    40
1040
10.0
1070
   143
1040
0.039
1070
   172
1070
     1
1070
   271
1070
     0
1070
   279
1070
     0
1070
   288
1070
     1
1002
}
  0
ENDSEC
  0
EOF
