  0
SECTION
  2
HEADER
  9
$ACADVER
  1
AC1009
  9
$INSBASE
 10
0.0
 20
0.0
 30
0.0
  9
$EXTMIN
 10
250.0
 20
300.0
 30
0.0
  9
$EXTMAX
 10
1850.0
 20
2786.6522620000001
 30
0.0
  9
$LIMMIN
 10
0.0
 20
0.0
  9
$LIMMAX
 10
297.0
 20
210.0
  9
$ORTHOMODE
 70
     0
  9
$REGENMODE
 70
     1
  9
$FILLMODE
 70
     0
  9
$QTEXTMODE
 70
     0
  9
$MIRRTEXT
 70
     1
  9
$DRAGMODE
 70
     2
  9
$LTSCALE
 40
100.0
  9
$OSMODE
 70
    37
  9
$ATTMODE
 70
     1
  9
$TEXTSIZE
 40
180.0
  9
$TRACEWID
 40
0.05
  9
$TEXTSTYLE
  7
STANDARD
  9
$CLAYER
  8
3
  9
$CELTYPE
  6
BYLAYER
  9
$CECOLOR
 62
   256
  9
$DIMSCALE
 40
10.0
  9
$DIMASZ
 40
2.0
  9
$DIMEXO
 40
0.5
  9
$DIMDLI
 40
10.0
  9
$DIMRND
 40
0.0
  9
$DIMDLE
 40
0.0
  9
$DIMEXE
 40
1.0
  9
$DIMTP
 40
1.0
  9
$DIMTM
 40
1.0
  9
$DIMTXT
 40
3.0
  9
$DIMCEN
 40
0.0
  9
$DIMTSZ
 40
0.0
  9
$DIMTOL
 70
     0
  9
$DIMLIM
 70
     0
  9
$DIMTIH
 70
     0
  9
$DIMTOH
 70
     0
  9
$DIMSE1
 70
     0
  9
$DIMSE2
 70
     0
  9
$DIMTAD
 70
     1
  9
$DIMZIN
 70
     8
  9
$DIMBLK
  1

  9
$DIMASO
 70
     1
  9
$DIMSHO
 70
     1
  9
$DIMPOST
  1

  9
$DIMAPOST
  1

  9
$DIMALT
 70
     0
  9
$DIMALTD
 70
     2
  9
$DIMALTF
 40
0.039
  9
$DIMLFAC
 40
1.0
  9
$DIMTOFL
 70
     1
  9
$DIMTVP
 40
0.0
  9
$DIMTIX
 70
     0
  9
$DIMSOXD
 70
     0
  9
$DIMSAH
 70
     1
  9
$DIMBLK1
  1
OPEN
  9
$DIMBLK2
  1
OPEN
  9
$DIMSTYLE
  2
IGA
  9
$DIMCLRD
 70
     0
  9
$DIMCLRE
 70
     0
  9
$DIMCLRT
 70
     0
  9
$DIMTFAC
 40
10.0
  9
$DIMGAP
 40
1.0
  9
$LUNITS
 70
     2
  9
$LUPREC
 70
     3
  9
$SKETCHINC
 40
0.1
  9
$FILLETRAD
 40
50.0
  9
$AUNITS
 70
     0
  9
$AUPREC
 70
     0
  9
$MENU
  1
acad
  9
$ELEVATION
 40
0.0
  9
$PELEVATION
 40
0.0
  9
$THICKNESS
 40
0.0
  9
$LIMCHECK
 70
     0
  9
$BLIPMODE
 70
     0
  9
$CHAMFERA
 40
0.5
  9
$CHAMFERB
 40
0.5
  9
$SKPOLY
 70
     0
  9
$TDCREATE
 40
2450744.3908412042
  9
$TDUPDATE
 40
2454953.862664687
  9
$TDINDWG
 40
0.0076608912
  9
$TDUSRTIMER
 40
0.0076608912
  9
$USRTIMER
 70
     1
  9
$ANGBASE
 50
0.0
  9
$ANGDIR
 70
     0
  9
$PDMODE
 70
     0
  9
$PDSIZE
 40
0.0
  9
$PLINEWID
 40
0.0
  9
$COORDS
 70
     1
  9
$SPLFRAME
 70
     0
  9
$SPLINETYPE
 70
     6
  9
$SPLINESEGS
 70
     8
  9
$ATTDIA
 70
     0
  9
$ATTREQ
 70
     1
  9
$HANDLING
 70
 10241
  9
$HANDSEED
  5
7EC3
  9
$SURFTAB1
 70
     6
  9
$SURFTAB2
 70
     6
  9
$SURFTYPE
 70
     6
  9
$SURFU
 70
     6
  9
$SURFV
 70
     6
  9
$UCSNAME
  2

  9
$UCSORG
 10
0.0
 20
0.0
 30
0.0
  9
$UCSXDIR
 10
1.0
 20
0.0
 30
0.0
  9
$UCSYDIR
 10
0.0
 20
1.0
 30
0.0
  9
$PUCSNAME
  2

  9
$PUCSORG
 10
0.0
 20
0.0
 30
0.0
  9
$PUCSXDIR
 10
1.0
 20
0.0
 30
0.0
  9
$PUCSYDIR
 10
0.0
 20
1.0
 30
0.0
  9
$USERI1
 70
     0
  9
$USERI2
 70
     0
  9
$USERI3
 70
     0
  9
$USERI4
 70
     0
  9
$USERI5
 70
     0
  9
$USERR1
 40
0.0
  9
$USERR2
 40
0.0
  9
$USERR3
 40
0.0
  9
$USERR4
 40
0.0
  9
$USERR5
 40
0.0
  9
$WORLDVIEW
 70
     1
  9
$SHADEDGE
 70
     3
  9
$SHADEDIF
 70
    70
  9
$TILEMODE
 70
     1
  9
$MAXACTVP
 70
    16
  9
$PLIMCHECK
 70
     0
  9
$PEXTMIN
 10
1.0000000000000000E+020
 20
1.0000000000000000E+020
 30
1.0000000000000000E+020
  9
$PEXTMAX
 10
-1.0000000000000000E+020
 20
-1.0000000000000000E+020
 30
-1.0000000000000000E+020
  9
$PLIMMIN
 10
0.0
 20
0.0
  9
$PLIMMAX
 10
12.0
 20
9.0
  9
$UNITMODE
 70
     0
  9
$VISRETAIN
 70
     0
  9
$PLINEGEN
 70
     0
  9
$PSLTSCALE
 70
     1
  0
ENDSEC
  0
SECTION
  2
TABLES
  0
TABLE
  2
VPORT
 70
     2
  0
VPORT
  2
*ACTIVE
 70
     0
 10
0.0
 20
0.0
 11
1.0
 21
1.0
 12
2906.574203270307
 22
1959.8632022433681
 13
0.0
 23
0.0
 14
10.0
 24
10.0
 15
10.0
 25
10.0
 16
0.0
 26
0.0
 36
1.0
 17
0.0
 27
0.0
 37
0.0
 40
3860.4308835425832
 41
1.5051150895140659
 42
50.0
 43
0.0
 44
0.0
 50
0.0
 51
0.0
 71
     0
 72
   100
 73
     1
 74
     0
 75
     0
 76
     0
 77
     0
 78
     0
  0
ENDTAB
  0
TABLE
  2
LTYPE
 70
     2
  0
LTYPE
  2
CONTINUOUS
 70
     0
  3
Solid line
 72
    65
 73
     0
 40
0.0
  0
LTYPE
  2
CENTER
 70
     0
  3
____ _ ____ _ ____ _ ____ _ ____ _ ____ _ ____ 
 72
    65
 73
     4
 40
2.0
 49
1.25
 49
-0.25
 49
0.25
 49
-0.25
  0
ENDTAB
  0
TABLE
  2
LAYER
 70
     6
  0
LAYER
  2
0
 70
     0
 62
     7
  6
CONTINUOUS
  0
LAYER
  2
3
 70
     0
 62
     2
  6
CONTINUOUS
  0
LAYER
  2
2
 70
     0
 62
     3
  6
CENTER
  0
LAYER
  2
1
 70
     0
 62
     4
  6
CONTINUOUS
  0
LAYER
  2
4
 70
     0
 62
     7
  6
CONTINUOUS
  0
LAYER
  2
DEFPOINTS
 70
     0
 62
     7
  6
CONTINUOUS
  0
ENDTAB
  0
TABLE
  2
STYLE
 70
     1
  0
STYLE
  2
STANDARD
 70
     0
 40
0.0
 41
1.0
 50
0.0
 71
     0
 42
180.0
  3
simplex.shx
  4
extfont.shx
  0
ENDTAB
  0
TABLE
  2
VIEW
 70
     0
  0
ENDTAB
  0
TABLE
  2
UCS
 70
     0
  0
ENDTAB
  0
TABLE
  2
APPID
 70
     1
  0
APPID
  2
ACAD
 70
     0
  0
ENDTAB
  0
TABLE
  2
DIMSTYLE
 70
     1
  0
DIMSTYLE
  2
IGA
 70
     0
  3

  4

  5

  6
OPEN
  7
OPEN
 40
2.0
 41
2.0
 42
0.5
 43
10.0
 44
1.0
 45
0.0
 46
0.0
 47
1.0
 48
1.0
140
3.0
141
0.0
142
0.0
143
0.03937
144
1.0
145
0.0
146
10.0
147
1.0
 71
     0
 72
     0
 73
     0
 74
     0
 75
     0
 76
     0
 77
     1
 78
     8
170
     0
171
     2
172
     0
173
     1
174
     0
175
     0
176
     0
177
     0
178
     0
  0
ENDTAB
  0
ENDSEC
  0
SECTION
  2
BLOCKS
  0
BLOCK
  8
0
  2
$MODEL_SPACE
 70
     0
 10
0.0
 20
0.0
 30
0.0
  3
$MODEL_SPACE
  1

  0
ENDBLK
  5
1B
  8
0
  0
BLOCK
 67
     1
  8
0
  2
$PAPER_SPACE
 70
     0
 10
0.0
 20
0.0
 30
0.0
  3
$PAPER_SPACE
  1

  0
ENDBLK
  5
18
 67
     1
  8
0
  0
BLOCK
  8
0
  2
_OPEN
 70
     0
 10
0.0
 20
0.0
 30
0.0
  3
_OPEN
  1

  0
LINE
  5
7B47
  8
0
  6
BYBLOCK
 62
     0
 10
-1.0
 20
0.166667
 30
0.0
 11
0.0
 21
0.0
 31
0.0
  0
LINE
  5
7B48
  8
0
  6
BYBLOCK
 62
     0
 10
0.0
 20
0.0
 30
0.0
 11
-1.0
 21
-0.166667
 31
0.0
  0
LINE
  5
7B49
  8
0
  6
BYBLOCK
 62
     0
 10
0.0
 20
0.0
 30
0.0
 11
-1.0
 21
0.0
 31
0.0
  0
ENDBLK
  5
7B4A
  8
0
  0
BLOCK
  8
0
  2
*D1
 70
     1
 10
0.0
 20
0.0
 30
0.0
  3
*D1
  1

  0
LINE
  5
7E07
  8
3
  6
CONTINUOUS
 62
     0
 10
291.95398999999992
 20
672.93043670769168
 30
0.0
 11
291.95398999999992
 21
590.97867970769175
 31
0.0
  0
LINE
  5
7E08
  8
3
  6
CONTINUOUS
 62
     0
 10
811.95398999999986
 20
658.18701070769157
 30
0.0
 11
811.95398999999986
 21
590.97867970769175
 31
0.0
  0
LINE
  5
7E09
  8
3
  6
CONTINUOUS
 62
     0
 10
311.95398999999992
 20
600.97867970769175
 30
0.0
 11
791.95398999999998
 21
600.97867970769175
 31
0.0
  0
INSERT
  5
7E0A
  8
3
  6
CONTINUOUS
 62
     0
  2
_OPEN
 10
291.95398999999992
 20
600.97867970769175
 30
0.0
 41
20.0
 42
20.0
 43
20.0
 50
180.0
  0
INSERT
  5
7E0B
  8
3
  6
CONTINUOUS
 62
     0
  2
_OPEN
 10
811.95398999999986
 20
600.97867970769175
 30
0.0
 41
20.0
 42
20.0
 43
20.0
  0
TEXT
  8
3
  40
30
  5
7EAF
  62
0
  72
0
  71
0
 10
480.637
 20
572.879
 30
0.000000
  1
520
  0
POINT
  5
7E0D
  8
DEFPOINTS
  6
CONTINUOUS
 62
     0
 10
291.95398999999992
 20
677.93043670769168
 30
0.0
  0
POINT
  5
7E0E
  8
DEFPOINTS
  6
CONTINUOUS
 62
     0
 10
811.95398999999986
 20
663.18701070769168
 30
0.0
  0
POINT
  5
7E0F
  8
DEFPOINTS
  6
CONTINUOUS
 62
     0
 10
811.95398999999986
 20
600.97867970769175
 30
0.0
  0
ENDBLK
  5
7B57
  8
0
  0
BLOCK
  8
0
  2
*D2
 70
     1
 10
0.0
 20
0.0
 30
0.0
  3
*D2
  1

  0
LINE
  5
7E10
  8
3
  6
CONTINUOUS
 62
     0
 10
1001.95399
 20
672.93043670769168
 30
0.0
 11
1001.95399
 21
590.97867970769175
 31
0.0
  0
LINE
  5
7E11
  8
3
  6
CONTINUOUS
 62
     0
 10
831.95398999999998
 20
600.97867970769175
 30
0.0
 11
981.95398999999998
 21
600.97867970769175
 31
0.0
  0
INSERT
  5
7E12
  8
3
  6
CONTINUOUS
 62
     0
  2
_OPEN
 10
811.95398999999986
 20
600.97867970769175
 30
0.0
 41
20.0
 42
20.0
 43
20.0
 50
180.0
  0
INSERT
  5
7E13
  8
3
  6
CONTINUOUS
 62
     0
  2
_OPEN
 10
1001.95399
 20
600.97867970769175
 30
0.0
 41
20.0
 42
20.0
 43
20.0
  0
TEXT
  8
3
  40
30
  5
7EB0
  62
0
  72
0
  71
0
 10
846.954
 20
572.879
 30
0.000000
  1
190
  0
POINT
  5
7E15
  8
DEFPOINTS
  6
CONTINUOUS
 62
     0
 10
811.95398999999986
 20
663.18701070769168
 30
0.0
  0
POINT
  5
7E16
  8
DEFPOINTS
  6
CONTINUOUS
 62
     0
 10
1001.95399
 20
677.93043670769168
 30
0.0
  0
POINT
  5
7E17
  8
DEFPOINTS
  6
CONTINUOUS
 62
     0
 10
1001.95399
 20
600.97867970769175
 30
0.0
  0
ENDBLK
  5
7B63
  8
0
  0
BLOCK
  8
0
  2
*D3
 70
     1
 10
0.0
 20
0.0
 30
0.0
  3
*D3
  1

  0
LINE
  5
7E18
  8
3
  6
CONTINUOUS
 62
     0
 10
1016.953989999999
 20
1022.930436707691
 30
0.0
 11
1097.4438279999999
 21
1022.930436707691
 31
0.0
  0
LINE
  5
7E19
  8
3
  6
CONTINUOUS
 62
     0
 10
1016.953989999999
 20
772.93043670769168
 30
0.0
 11
1097.4438279999999
 21
772.93043670769168
 31
0.0
  0
LINE
  5
7E1A
  8
3
  6
CONTINUOUS
 62
     0
 10
1087.4438279999999
 20
1002.930436707691
 30
0.0
 11
1087.4438279999999
 21
792.93043670769168
 31
0.0
  0
INSERT
  5
7E1B
  8
3
  6
CONTINUOUS
 62
     0
  2
_OPEN
 10
1087.4438279999999
 20
1022.930436707691
 30
0.0
 41
20.0
 42
20.0
 43
20.0
 50
90.0
  0
INSERT
  5
7E1C
  8
3
  6
CONTINUOUS
 62
     0
  2
_OPEN
 10
1087.4438279999999
 20
772.93043670769168
 30
0.0
 41
20.0
 42
20.0
 43
20.0
 50
270.0
  0
TEXT
  8
3
  40
30
  5
7EB1
  62
0
  72
0
  71
0
 10
1002.44
 20
846.432
 30
0.000000
  1
250
  0
POINT
  5
7E1E
  8
DEFPOINTS
  6
CONTINUOUS
 62
     0
 10
1011.95399
 20
1022.930436707691
 30
0.0
  0
POINT
  5
7E1F
  8
DEFPOINTS
  6
CONTINUOUS
 62
     0
 10
1011.95399
 20
772.93043670769168
 30
0.0
  0
POINT
  5
7E20
  8
DEFPOINTS
  6
CONTINUOUS
 62
     0
 10
1087.4438279999999
 20
772.93043670769168
 30
0.0
  0
ENDBLK
  5
7B70
  8
0
  0
BLOCK
  8
0
  2
*D4
 70
     1
 10
0.0
 20
0.0
 30
0.0
  3
*D4
  1

  0
LINE
  5
7E21
  8
3
  6
CONTINUOUS
 62
     0
 10
816.95398999999998
 20
1208.9198207076911
 30
0.0
 11
1216.8045010000001
 21
1208.9198207076911
 31
0.0
  0
LINE
  5
7E22
  8
3
  6
CONTINUOUS
 62
     0
 10
1016.953989999999
 20
1022.930436707691
 30
0.0
 11
1216.8045010000001
 21
1022.930436707691
 31
0.0
  0
LINE
  5
7E23
  8
3
  6
CONTINUOUS
 62
     0
 10
1206.8045010000001
 20
1188.9198207076911
 30
0.0
 11
1206.8045010000001
 21
1042.9304367076909
 31
0.0
  0
INSERT
  5
7E24
  8
3
  6
CONTINUOUS
 62
     0
  2
_OPEN
 10
1206.8045010000001
 20
1208.9198207076911
 30
0.0
 41
20.0
 42
20.0
 43
20.0
 50
90.0
  0
INSERT
  5
7E25
  8
3
  6
CONTINUOUS
 62
     0
  2
_OPEN
 10
1206.8045010000001
 20
1022.930436707691
 30
0.0
 41
20.0
 42
20.0
 43
20.0
 50
270.0
  0
TEXT
  8
3
  40
30
  5
7EB2
  62
0
  72
0
  71
0
 10
1121.80
 20
1069.27
 30
0.000000
  1
186
  0
POINT
  5
7E27
  8
DEFPOINTS
  6
CONTINUOUS
 62
     0
 10
811.95398999999986
 20
1208.9198207076911
 30
0.0
  0
POINT
  5
7E28
  8
DEFPOINTS
  6
CONTINUOUS
 62
     0
 10
1011.95399
 20
1022.930436707691
 30
0.0
  0
POINT
  5
7E29
  8
DEFPOINTS
  6
CONTINUOUS
 62
     0
 10
1206.8045010000001
 20
1022.930436707691
 30
0.0
  0
ENDBLK
  5
7C92
  8
0
  0
BLOCK
  8
0
  2
*D5
 70
     1
 10
0.0
 20
0.0
 30
0.0
  3
*D5
  1

  0
LINE
  5
7E2A
  8
3
  6
CONTINUOUS
 62
     0
 10
1006.95399
 20
707.93043670769157
 30
0.0
 11
1216.8045010000001
 21
707.93043670769157
 31
0.0
  0
LINE
  5
7E2B
  8
3
  6
CONTINUOUS
 62
     0
 10
1206.8045010000001
 20
1002.930436707691
 30
0.0
 11
1206.8045010000001
 21
727.93043670769168
 31
0.0
  0
INSERT
  5
7E2C
  8
3
  6
CONTINUOUS
 62
     0
  2
_OPEN
 10
1206.8045010000001
 20
1022.930436707691
 30
0.0
 41
20.0
 42
20.0
 43
20.0
 50
90.0
  0
INSERT
  5
7E2D
  8
3
  6
CONTINUOUS
 62
     0
  2
_OPEN
 10
1206.8045010000001
 20
707.93043670769157
 30
0.0
 41
20.0
 42
20.0
 43
20.0
 50
270.0
  0
TEXT
  8
3
  40
30
  5
7EB3
  62
0
  72
0
  71
0
 10
1121.80
 20
812.330
 30
0.000000
  1
315
  0
POINT
  5
7E2F
  8
DEFPOINTS
  6
CONTINUOUS
 62
     0
 10
1011.95399
 20
1022.930436707691
 30
0.0
  0
POINT
  5
7E30
  8
DEFPOINTS
  6
CONTINUOUS
 62
     0
 10
1001.95399
 20
707.93043670769157
 30
0.0
  0
POINT
  5
7E31
  8
DEFPOINTS
  6
CONTINUOUS
 62
     0
 10
1206.8045010000001
 20
707.93043670769157
 30
0.0
  0
ENDBLK
  5
7C87
  8
0
  0
BLOCK
  8
0
  2
*D6
 70
     1
 10
0.0
 20
0.0
 30
0.0
  3
*D6
  1

  0
LINE
  5
7E32
  8
3
  6
CONTINUOUS
 62
     0
 10
1006.95399
 20
707.93043670769157
 30
0.0
 11
1216.8045010000001
 21
707.93043670769157
 31
0.0
  0
LINE
  5
7E33
  8
3
  6
CONTINUOUS
 62
     0
 10
1006.95399
 20
677.93043670769168
 30
0.0
 11
1216.8045010000001
 21
677.93043670769168
 31
0.0
  0
LINE
  5
7E34
  8
3
  6
CONTINUOUS
 62
     0
 10
1206.8045010000001
 20
727.93043670769168
 30
0.0
 11
1206.8045010000001
 21
747.93043670769168
 31
0.0
  0
LINE
  5
7E35
  8
3
  6
CONTINUOUS
 62
     0
 10
1206.8045010000001
 20
657.93043670769157
 30
0.0
 11
1206.8045010000001
 21
569.35900813626313
 31
0.0
  0
LINE
  5
7E36
  8
3
  6
CONTINUOUS
 62
     0
 10
1206.8045010000001
 20
707.93043670769157
 30
0.0
 11
1206.8045010000001
 21
677.93043670769168
 31
0.0
  0
INSERT
  5
7E37
  8
3
  6
CONTINUOUS
 62
     0
  2
_OPEN
 10
1206.8045010000001
 20
707.93043670769157
 30
0.0
 41
20.0
 42
20.0
 43
20.0
 50
270.0
  0
INSERT
  5
7E38
  8
3
  6
CONTINUOUS
 62
     0
  2
_OPEN
 10
1206.8045010000001
 20
677.93043670769168
 30
0.0
 41
20.0
 42
20.0
 43
20.0
 50
90.0
  0
TEXT
  8
3
  40
30
  5
7EB4
  62
0
  72
0
  71
0
 10
1121.80
 20
550.545
 30
0.000000
  1
30
  0
POINT
  5
7E3A
  8
DEFPOINTS
  6
CONTINUOUS
 62
     0
 10
1001.95399
 20
707.93043670769157
 30
0.0
  0
POINT
  5
7E3B
  8
DEFPOINTS
  6
CONTINUOUS
 62
     0
 10
1001.95399
 20
677.93043670769168
 30
0.0
  0
POINT
  5
7E3C
  8
DEFPOINTS
  6
CONTINUOUS
 62
     0
 10
1206.8045010000001
 20
677.93043670769168
 30
0.0
  0
ENDBLK
  5
7CF1
  8
0
  0
BLOCK
  8
0
  2
*D7
 70
     1
 10
0.0
 20
0.0
 30
0.0
  3
*D7
  1

  0
LINE
  5
7E3D
  8
3
  6
CONTINUOUS
 62
     0
 10
816.95398999999998
 20
1208.9198207076911
 30
0.0
 11
1274.6519075951101
 21
1208.9198207076911
 31
0.0
  0
LINE
  5
7E3E
  8
3
  6
CONTINUOUS
 62
     0
 10
1006.95399
 20
677.93043670769168
 30
0.0
 11
1274.6519075951101
 21
677.93043670769168
 31
0.0
  0
LINE
  5
7E3F
  8
3
  6
CONTINUOUS
 62
     0
 10
1264.6519075951101
 20
1188.9198207076911
 30
0.0
 11
1264.6519075951101
 21
697.93043670769168
 31
0.0
  0
INSERT
  5
7E40
  8
3
  6
CONTINUOUS
 62
     0
  2
_OPEN
 10
1264.6519075951101
 20
1208.9198207076911
 30
0.0
 41
20.0
 42
20.0
 43
20.0
 50
90.0
  0
INSERT
  5
7E41
  8
3
  6
CONTINUOUS
 62
     0
  2
_OPEN
 10
1264.6519075951101
 20
677.93043670769168
 30
0.0
 41
20.0
 42
20.0
 43
20.0
 50
270.0
  0
TEXT
  8
3
  40
30
  5
7EB5
  62
0
  72
0
  71
0
 10
1179.65
 20
882.459
 30
0.000000
  1
531
  0
POINT
  5
7E43
  8
DEFPOINTS
  6
CONTINUOUS
 62
     0
 10
811.95398999999986
 20
1208.9198207076911
 30
0.0
  0
POINT
  5
7E44
  8
DEFPOINTS
  6
CONTINUOUS
 62
     0
 10
1001.95399
 20
677.93043670769168
 30
0.0
  0
POINT
  5
7E45
  8
DEFPOINTS
  6
CONTINUOUS
 62
     0
 10
1264.6519075951101
 20
677.93043670769168
 30
0.0
  0
ENDBLK
  5
7CC9
  8
0
  0
BLOCK
  8
0
  2
*D8
 70
     1
 10
0.0
 20
0.0
 30
0.0
  3
*D8
  1

  0
LINE
  5
7E46
  8
3
  6
CONTINUOUS
 62
     0
 10
591.75251800000001
 20
1026.2624547076909
 30
0.0
 11
591.75251800000001
 21
1265.9779167076911
 31
0.0
  0
LINE
  5
7E47
  8
3
  6
CONTINUOUS
 62
     0
 10
811.95398999999986
 20
1213.9198207076911
 30
0.0
 11
811.95398999999986
 21
1265.9779167076911
 31
0.0
  0
LINE
  5
7E48
  8
3
  6
CONTINUOUS
 62
     0
 10
611.75251800000001
 20
1255.9779167076911
 30
0.0
 11
791.95398999999998
 21
1255.9779167076911
 31
0.0
  0
INSERT
  5
7E49
  8
3
  6
CONTINUOUS
 62
     0
  2
_OPEN
 10
591.75251800000001
 20
1255.9779167076911
 30
0.0
 41
20.0
 42
20.0
 43
20.0
 50
180.0
  0
INSERT
  5
7E4A
  8
3
  6
CONTINUOUS
 62
     0
  2
_OPEN
 10
811.95398999999986
 20
1255.9779167076911
 30
0.0
 41
20.0
 42
20.0
 43
20.0
  0
TEXT
  8
3
  40
30
  5
7EB6
  62
0
  72
0
  71
0
 10
641.139
 20
1227.88
 30
0.000000
  1
220
  0
POINT
  5
7E4C
  8
DEFPOINTS
  6
CONTINUOUS
 62
     0
 10
591.75251800000001
 20
1021.2624547076909
 30
0.0
  0
POINT
  5
7E4D
  8
DEFPOINTS
  6
CONTINUOUS
 62
     0
 10
811.95398999999986
 20
1208.9198207076911
 30
0.0
  0
POINT
  5
7E4E
  8
DEFPOINTS
  6
CONTINUOUS
 62
     0
 10
811.95398999999986
 20
1255.9779167076911
 30
0.0
  0
ENDBLK
  5
7BCD
  8
0
  0
BLOCK
  8
0
  2
*D9
 70
     1
 10
0.0
 20
0.0
 30
0.0
  3
*D9
  1

  0
LINE
  5
7E4F
  8
3
  6
CONTINUOUS
 62
     0
 10
1011.95399
 20
1048.9304367076909
 30
0.0
 11
1011.95399
 21
1265.9779167076911
 31
0.0
  0
LINE
  5
7E50
  8
3
  6
CONTINUOUS
 62
     0
 10
831.95398999999998
 20
1255.9779167076911
 30
0.0
 11
991.95398999999998
 21
1255.9779167076911
 31
0.0
  0
INSERT
  5
7E51
  8
3
  6
CONTINUOUS
 62
     0
  2
_OPEN
 10
811.95398999999986
 20
1255.9779167076911
 30
0.0
 41
20.0
 42
20.0
 43
20.0
 50
180.0
  0
INSERT
  5
7E52
  8
3
  6
CONTINUOUS
 62
     0
  2
_OPEN
 10
1011.95399
 20
1255.9779167076911
 30
0.0
 41
20.0
 42
20.0
 43
20.0
  0
TEXT
  8
3
  40
30
  5
7EB7
  62
0
  72
0
  71
0
 10
851.954
 20
1227.88
 30
0.000000
  1
200
  0
POINT
  5
7E54
  8
DEFPOINTS
  6
CONTINUOUS
 62
     0
 10
811.95398999999986
 20
1208.9198207076911
 30
0.0
  0
POINT
  5
7E55
  8
DEFPOINTS
  6
CONTINUOUS
 62
     0
 10
1011.95399
 20
1043.9304367076909
 30
0.0
  0
POINT
  5
7E56
  8
DEFPOINTS
  6
CONTINUOUS
 62
     0
 10
1011.95399
 20
1255.9779167076911
 30
0.0
  0
ENDBLK
  5
7BD9
  8
0
  0
BLOCK
  8
0
  2
*D10
 70
     1
 10
0.0
 20
0.0
 30
0.0
  3
*D10
  1

  0
LINE
  5
7E57
  8
3
  6
CONTINUOUS
 62
     0
 10
1006.95399
 20
2207.1134499999998
 30
0.0
 11
1110.051217
 21
2207.1134499999989
 31
0.0
  0
LINE
  5
7E58
  8
3
  6
CONTINUOUS
 62
     0
 10
1006.95399
 20
1727.1134500000001
 30
0.0
 11
1110.051217
 21
1727.1134500000001
 31
0.0
  0
LINE
  5
7E59
  8
3
  6
CONTINUOUS
 62
     0
 10
1100.051217
 20
2187.1134499999989
 30
0.0
 11
1100.051217
 21
1747.1134500000001
 31
0.0
  0
INSERT
  5
7E5A
  8
3
  6
CONTINUOUS
 62
     0
  2
_OPEN
 10
1100.051217
 20
2207.1134499999989
 30
0.0
 41
20.0
 42
20.0
 43
20.0
 50
90.0
  0
INSERT
  5
7E5B
  8
3
  6
CONTINUOUS
 62
     0
  2
_OPEN
 10
1100.051217
 20
1727.1134500000001
 30
0.0
 41
20.0
 42
20.0
 43
20.0
 50
270.0
  0
TEXT
  8
3
  40
30
  5
7EB8
  62
0
  72
0
  71
0
 10
1015.05
 20
1922.47
 30
0.000000
  1
480
  0
POINT
  5
7E5D
  8
DEFPOINTS
  6
CONTINUOUS
 62
     0
 10
1001.95399
 20
2207.1134499999998
 30
0.0
  0
POINT
  5
7E5E
  8
DEFPOINTS
  6
CONTINUOUS
 62
     0
 10
1001.95399
 20
1727.1134500000001
 30
0.0
  0
POINT
  5
7E5F
  8
DEFPOINTS
  6
CONTINUOUS
 62
     0
 10
1100.051217
 20
1727.1134500000001
 30
0.0
  0
ENDBLK
  5
7BE6
  8
0
  0
BLOCK
  8
0
  2
*D11
 70
     1
 10
0.0
 20
0.0
 30
0.0
  3
*D11
  1

  0
LINE
  5
7E60
  8
3
  6
CONTINUOUS
 62
     0
 10
291.95398999999992
 20
1722.1134500000001
 30
0.0
 11
291.95398999999992
 21
1615.1267699999989
 31
0.0
  0
LINE
  5
7E61
  8
3
  6
CONTINUOUS
 62
     0
 10
1001.95399
 20
1722.1134500000001
 30
0.0
 11
1001.95399
 21
1615.1267699999989
 31
0.0
  0
LINE
  5
7E62
  8
3
  6
CONTINUOUS
 62
     0
 10
311.95398999999992
 20
1625.1267700000001
 30
0.0
 11
981.95398999999998
 21
1625.1267700000001
 31
0.0
  0
INSERT
  5
7E63
  8
3
  6
CONTINUOUS
 62
     0
  2
_OPEN
 10
291.95398999999992
 20
1625.1267700000001
 30
0.0
 41
20.0
 42
20.0
 43
20.0
 50
180.0
  0
INSERT
  5
7E64
  8
3
  6
CONTINUOUS
 62
     0
  2
_OPEN
 10
1001.95399
 20
1625.1267700000001
 30
0.0
 41
20.0
 42
20.0
 43
20.0
  0
TEXT
  8
3
  40
30
  5
7EB9
  62
0
  72
0
  71
0
 10
567.168
 20
1597.03
 30
0.000000
  1
710
  0
POINT
  5
7E66
  8
DEFPOINTS
  6
CONTINUOUS
 62
     0
 10
291.95398999999992
 20
1727.1134500000001
 30
0.0
  0
POINT
  5
7E67
  8
DEFPOINTS
  6
CONTINUOUS
 62
     0
 10
1001.95399
 20
1727.1134500000001
 30
0.0
  0
POINT
  5
7E68
  8
DEFPOINTS
  6
CONTINUOUS
 62
     0
 10
1001.95399
 20
1625.1267700000001
 30
0.0
  0
ENDBLK
  5
7BF3
  8
0
  0
BLOCK
  8
0
  2
*D12
 70
     1
 10
0.0
 20
0.0
 30
0.0
  3
*D12
  1

  0
LINE
  5
7E69
  8
3
  6
CONTINUOUS
 62
     0
 10
1322.9891259999999
 20
672.93043670769168
 30
0.0
 11
1322.9891259999999
 21
594.96669770769165
 31
0.0
  0
LINE
  5
7E6A
  8
3
  6
CONTINUOUS
 62
     0
 10
1660.9891259999999
 20
672.93043670769168
 30
0.0
 11
1660.9891259999999
 21
594.96669770769165
 31
0.0
  0
LINE
  5
7E6B
  8
3
  6
CONTINUOUS
 62
     0
 10
1342.989125999999
 20
604.96669770769165
 30
0.0
 11
1640.9891259999999
 21
604.96669770769165
 31
0.0
  0
INSERT
  5
7E6C
  8
3
  6
CONTINUOUS
 62
     0
  2
_OPEN
 10
1322.9891259999999
 20
604.96669770769165
 30
0.0
 41
20.0
 42
20.0
 43
20.0
 50
180.0
  0
INSERT
  5
7E6D
  8
3
  6
CONTINUOUS
 62
     0
  2
_OPEN
 10
1660.9891259999999
 20
604.96669770769165
 30
0.0
 41
20.0
 42
20.0
 43
20.0
  0
TEXT
  8
3
  40
30
  5
7EBA
  62
0
  72
0
  71
0
 10
1424.04
 20
576.867
 30
0.000000
  1
338
  0
POINT
  5
7E6F
  8
DEFPOINTS
  6
CONTINUOUS
 62
     0
 10
1322.9891259999999
 20
677.93043670769168
 30
0.0
  0
POINT
  5
7E70
  8
DEFPOINTS
  6
CONTINUOUS
 62
     0
 10
1660.9891259999999
 20
677.93043670769168
 30
0.0
  0
POINT
  5
7E71
  8
DEFPOINTS
  6
CONTINUOUS
 62
     0
 10
1660.9891259999999
 20
604.96669770769165
 30
0.0
  0
ENDBLK
  5
7C02
  8
0
  0
BLOCK
  8
0
  2
*D13
 70
     1
 10
0.0
 20
0.0
 30
0.0
  3
*D13
  1

  0
LINE
  5
7E72
  8
3
  6
CONTINUOUS
 62
     0
 10
1802.9891259999999
 20
672.93043670769168
 30
0.0
 11
1802.9891259999999
 21
594.96669770769165
 31
0.0
  0
LINE
  5
7E73
  8
3
  6
CONTINUOUS
 62
     0
 10
1680.9891259999999
 20
604.96669770769165
 30
0.0
 11
1782.9891259999999
 21
604.96669770769165
 31
0.0
  0
INSERT
  5
7E74
  8
3
  6
CONTINUOUS
 62
     0
  2
_OPEN
 10
1660.9891259999999
 20
604.96669770769165
 30
0.0
 41
20.0
 42
20.0
 43
20.0
 50
180.0
  0
INSERT
  5
7E75
  8
3
  6
CONTINUOUS
 62
     0
  2
_OPEN
 10
1802.9891259999999
 20
604.96669770769165
 30
0.0
 41
20.0
 42
20.0
 43
20.0
  0
TEXT
  8
3
  40
30
  5
7EBB
  62
0
  72
0
  71
0
 10
1671.99
 20
576.867
 30
0.000000
  1
142
  0
POINT
  5
7E77
  8
DEFPOINTS
  6
CONTINUOUS
 62
     0
 10
1660.9891259999999
 20
677.93043670769168
 30
0.0
  0
POINT
  5
7E78
  8
DEFPOINTS
  6
CONTINUOUS
 62
     0
 10
1802.9891259999999
 20
677.93043670769168
 30
0.0
  0
POINT
  5
7E79
  8
DEFPOINTS
  6
CONTINUOUS
 62
     0
 10
1802.9891259999999
 20
604.96669770769165
 30
0.0
  0
ENDBLK
  5
7C0E
  8
0
  0
BLOCK
  8
0
  2
*D14
 70
     1
 10
0.0
 20
0.0
 30
0.0
  3
*D14
  1

  0
LINE
  5
7E7A
  8
3
  6
CONTINUOUS
 62
     0
 10
1570.989125999999
 20
1226.830436707691
 30
0.0
 11
1570.989125999999
 21
1286.8277547076909
 31
0.0
  0
LINE
  5
7E7B
  8
3
  6
CONTINUOUS
 62
     0
 10
1750.9891259999999
 20
1226.830436707691
 30
0.0
 11
1750.9891259999999
 21
1286.8277547076909
 31
0.0
  0
LINE
  5
7E7C
  8
3
  6
CONTINUOUS
 62
     0
 10
1590.9891259999999
 20
1276.8277547076909
 30
0.0
 11
1730.9891259999999
 21
1276.8277547076909
 31
0.0
  0
INSERT
  5
7E7D
  8
3
  6
CONTINUOUS
 62
     0
  2
_OPEN
 10
1570.989125999999
 20
1276.8277547076909
 30
0.0
 41
20.0
 42
20.0
 43
20.0
 50
180.0
  0
INSERT
  5
7E7E
  8
3
  6
CONTINUOUS
 62
     0
  2
_OPEN
 10
1750.9891259999999
 20
1276.8277547076909
 30
0.0
 41
20.0
 42
20.0
 43
20.0
  0
TEXT
  8
3
  40
30
  5
7EBC
  62
0
  72
0
  71
0
 10
1589.35
 20
1248.73
 30
0.000000
  1
180
  0
POINT
  5
7E80
  8
DEFPOINTS
  6
CONTINUOUS
 62
     0
 10
1570.989125999999
 20
1221.830436707691
 30
0.0
  0
POINT
  5
7E81
  8
DEFPOINTS
  6
CONTINUOUS
 62
     0
 10
1750.9891259999999
 20
1221.830436707691
 30
0.0
  0
POINT
  5
7E82
  8
DEFPOINTS
  6
CONTINUOUS
 62
     0
 10
1750.9891259999999
 20
1276.8277547076909
 30
0.0
  0
ENDBLK
  5
7C1B
  8
0
  0
BLOCK
  8
0
  2
*D15
 70
     1
 10
0.0
 20
0.0
 30
0.0
  3
*D15
  1

  0
LINE
  5
7E83
  8
3
  6
CONTINUOUS
 62
     0
 10
1320.989125999999
 20
1152.9304367076909
 30
0.0
 11
1320.989125999999
 21
1345.207167707691
 31
0.0
  0
LINE
  5
7E84
  8
3
  6
CONTINUOUS
 62
     0
 10
1660.9891259999999
 20
1327.970836707691
 30
0.0
 11
1660.9891259999999
 21
1345.207167707691
 31
0.0
  0
LINE
  5
7E85
  8
3
  6
CONTINUOUS
 62
     0
 10
1340.9891259999999
 20
1335.207167707691
 30
0.0
 11
1640.9891259999999
 21
1335.207167707691
 31
0.0
  0
INSERT
  5
7E86
  8
3
  6
CONTINUOUS
 62
     0
  2
_OPEN
 10
1320.989125999999
 20
1335.207167707691
 30
0.0
 41
20.0
 42
20.0
 43
20.0
 50
180.0
  0
INSERT
  5
7E87
  8
3
  6
CONTINUOUS
 62
     0
  2
_OPEN
 10
1660.9891259999999
 20
1335.207167707691
 30
0.0
 41
20.0
 42
20.0
 43
20.0
  0
TEXT
  8
3
  40
30
  5
7EBD
  62
0
  72
0
  71
0
 10
1425.71
 20
1332.11
 30
0.000000
  1
MAX
  0
TEXT
  8
3
  40
30
  5
7EBE
  62
0
  72
0
  71
0
 10
1425.71
 20
1293.11
 30
0.000000
  1
340
  0
POINT
  5
7E89
  8
DEFPOINTS
  6
CONTINUOUS
 62
     0
 10
1320.989125999999
 20
1147.9304367076909
 30
0.0
  0
POINT
  5
7E8A
  8
DEFPOINTS
  6
CONTINUOUS
 62
     0
 10
1660.9891259999999
 20
1322.970836707691
 30
0.0
  0
POINT
  5
7E8B
  8
DEFPOINTS
  6
CONTINUOUS
 62
     0
 10
1660.9891259999999
 20
1335.207167707691
 30
0.0
  0
ENDBLK
  5
7CD9
  8
0
  0
BLOCK
  8
0
  2
*D16
 70
     1
 10
0.0
 20
0.0
 30
0.0
  3
*D16
  1

  0
LINE
  5
7E8C
  8
3
  6
CONTINUOUS
 62
     0
 10
1759.9891259999999
 20
1174.9304367076909
 30
0.0
 11
1759.9891259999999
 21
1345.207167707691
 31
0.0
  0
LINE
  5
7E8D
  8
3
  6
CONTINUOUS
 62
     0
 10
1680.9891259999999
 20
1335.207167707691
 30
0.0
 11
1739.9891259999999
 21
1335.207167707691
 31
0.0
  0
TEXT
  8
3
  40
30
  5
7EBF
  62
0
  72
0
  71
0
 10
1652.80
 20
1305.44
 30
0.000000
  1
99
  0
INSERT
  5
7E8F
  8
3
  6
CONTINUOUS
 62
     0
  2
_OPEN
 10
1660.9891259999999
 20
1335.207167707691
 30
0.0
 41
20.0
 42
20.0
 43
20.0
 50
180.0
  0
INSERT
  5
7E90
  8
3
  6
CONTINUOUS
 62
     0
  2
_OPEN
 10
1759.9891259999999
 20
1335.207167707691
 30
0.0
 41
20.0
 42
20.0
 43
20.0
  0
POINT
  5
7E91
  8
DEFPOINTS
  6
CONTINUOUS
 62
     0
 10
1660.9891259999999
 20
1322.970836707691
 30
0.0
  0
POINT
  5
7E92
  8
DEFPOINTS
  6
CONTINUOUS
 62
     0
 10
1759.9891259999999
 20
1169.9304367076909
 30
0.0
  0
POINT
  5
7E93
  8
DEFPOINTS
  6
CONTINUOUS
 62
     0
 10
1759.9891259999999
 20
1335.207167707691
 30
0.0
  0
ENDBLK
  5
7CAE
  8
0
  0
BLOCK
  8
0
  2
*D17
 70
     1
 10
0.0
 20
0.0
 30
0.0
  3
*D17
  1

  0
LINE
  5
7E94
  8
3
  6
CONTINUOUS
 62
     0
 10
1764.9891259999999
 20
1146.2624547076909
 30
0.0
 11
1845.2733920000001
 21
1146.2624547076909
 31
0.0
  0
LINE
  5
7E95
  8
3
  6
CONTINUOUS
 62
     0
 10
1764.9891259999999
 20
896.26245470769175
 30
0.0
 11
1845.2733920000001
 21
896.26245470769175
 31
0.0
  0
LINE
  5
7E96
  8
3
  6
CONTINUOUS
 62
     0
 10
1835.2733920000001
 20
1126.2624547076909
 30
0.0
 11
1835.2733920000001
 21
916.26245470769163
 31
0.0
  0
INSERT
  5
7E97
  8
3
  6
CONTINUOUS
 62
     0
  2
_OPEN
 10
1835.2733920000001
 20
1146.2624547076909
 30
0.0
 41
20.0
 42
20.0
 43
20.0
 50
90.0
  0
INSERT
  5
7E98
  8
3
  6
CONTINUOUS
 62
     0
  2
_OPEN
 10
1835.2733920000001
 20
896.26245470769175
 30
0.0
 41
20.0
 42
20.0
 43
20.0
 50
270.0
  0
TEXT
  8
3
  40
30
  5
7EC0
  62
0
  72
0
  71
0
 10
1750.27
 20
958.458
 30
0.000000
  1
φ250
  0
POINT
  5
7E9A
  8
DEFPOINTS
  6
CONTINUOUS
 62
     0
 10
1759.9891259999999
 20
1146.2624547076909
 30
0.0
  0
POINT
  5
7E9B
  8
DEFPOINTS
  6
CONTINUOUS
 62
     0
 10
1759.9891259999999
 20
896.26245470769175
 30
0.0
  0
POINT
  5
7E9C
  8
DEFPOINTS
  6
CONTINUOUS
 62
     0
 10
1835.2733920000001
 20
896.26245470769175
 30
0.0
  0
ENDBLK
  5
7CE4
  8
0
  0
BLOCK
  8
0
  2
*D18
 70
     1
 10
0.0
 20
0.0
 30
0.0
  3
*D18
  1

  0
LINE
  5
7E9D
  8
3
  6
CONTINUOUS
 62
     0
 10
1057.0747550000001
 20
1022.930436707691
 30
0.0
 11
1163.0893920000001
 21
1022.930436707691
 31
0.0
  0
LINE
  5
7E9E
  8
3
  6
CONTINUOUS
 62
     0
 10
996.95398999999986
 20
762.93043670769157
 30
0.0
 11
1163.0893920000001
 21
762.93043670769157
 31
0.0
  0
LINE
  5
7E9F
  8
3
  6
CONTINUOUS
 62
     0
 10
1153.0893920000001
 20
1002.930436707691
 30
0.0
 11
1153.0893920000001
 21
782.93043670769157
 31
0.0
  0
INSERT
  5
7EA0
  8
3
  6
CONTINUOUS
 62
     0
  2
_OPEN
 10
1153.0893920000001
 20
1022.930436707691
 30
0.0
 41
20.0
 42
20.0
 43
20.0
 50
90.0
  0
INSERT
  5
7EA1
  8
3
  6
CONTINUOUS
 62
     0
  2
_OPEN
 10
1153.0893920000001
 20
762.93043670769157
 30
0.0
 41
20.0
 42
20.0
 43
20.0
 50
270.0
  0
TEXT
  8
3
  40
30
  5
7EC1
  62
0
  72
0
  71
0
 10
1068.09
 20
849.217
 30
0.000000
  1
260
  0
POINT
  5
7EA3
  8
DEFPOINTS
  6
CONTINUOUS
 62
     0
 10
1052.0747550000001
 20
1022.930436707691
 30
0.0
  0
POINT
  5
7EA4
  8
DEFPOINTS
  6
CONTINUOUS
 62
     0
 10
991.95398999999998
 20
762.93043670769157
 30
0.0
  0
POINT
  5
7EA5
  8
DEFPOINTS
  6
CONTINUOUS
 62
     0
 10
1153.0893920000001
 20
762.93043670769157
 30
0.0
  0
ENDBLK
  5
7D0E
  8
0
  0
BLOCK
  8
0
  2
*D19
 70
     1
 10
0.0
 20
0.0
 30
0.0
  3
*D19
  1

  0
LINE
  5
7EA6
  8
3
 62
     0
 10
1011.95399
 20
1048.9304367076909
 30
0.0
 11
1011.95399
 21
1340.0660296135461
 31
0.0
  0
LINE
  5
7EA7
  8
3
 62
     0
 10
291.95398999999992
 20
792.93043670769168
 30
0.0
 11
291.95398999999998
 21
1340.0660296135461
 31
0.0
  0
LINE
  5
7EA8
  8
3
 62
     0
 10
991.95398999999998
 20
1330.0660296135461
 30
0.0
 11
311.95398999999998
 21
1330.0660296135461
 31
0.0
  0
INSERT
  5
7EA9
  8
3
 62
     0
  2
_OPEN
 10
1011.95399
 20
1330.0660296135461
 30
0.0
 41
20.0
 42
20.0
 43
20.0
  0
INSERT
  5
7EAA
  8
3
 62
     0
  2
_OPEN
 10
291.95398999999998
 20
1330.0660296135461
 30
0.0
 41
20.0
 42
20.0
 43
20.0
 50
180.0
  0
TEXT
  8
3
  40
30
  5
7EC2
  62
0
  72
0
  71
0
 10
590.828
 20
1301.97
 30
0.000000
  1
720
  0
POINT
  5
7EAC
  8
DEFPOINTS
 62
     0
 10
1011.95399
 20
1043.9304367076909
 30
0.0
  0
POINT
  5
7EAD
  8
DEFPOINTS
 62
     0
 10
291.95398999999992
 20
787.93043670769157
 30
0.0
  0
POINT
  5
7EAE
  8
DEFPOINTS
 62
     0
 10
291.95398999999998
 20
1330.0660296135461
 30
0.0
  0
ENDBLK
  5
7CFD
  8
0
  0
ENDSEC
  0
SECTION
  2
ENTITIES
  0
LINE
  5
7A93
  8
1
  6
CONTINUOUS
 10
1750.9891259999999
 20
771.93043670769157
 30
0.0
 11
1570.989125999999
 21
771.93043670769157
 31
0.0
  0
LINE
  5
7A94
  8
1
  6
CONTINUOUS
 10
1750.9891259999999
 20
1023.930436707692
 30
0.0
 11
1570.989125999999
 21
771.93043670769157
 31
0.0
  0
LINE
  5
7A95
  8
1
  6
CONTINUOUS
 10
1570.989125999999
 20
1023.930436707692
 30
0.0
 11
1750.9891259999999
 21
771.93043670769157
 31
0.0
  0
LINE
  5
7A96
  8
1
  6
CONTINUOUS
 10
1582.9891259999999
 20
1233.830436707691
 30
0.0
 11
1738.9891259999999
 21
1233.830436707691
 31
0.0
  0
LINE
  5
7A97
  8
1
  6
CONTINUOUS
 10
1570.989125999999
 20
1023.930436707692
 30
0.0
 11
1750.9891259999999
 21
1023.930436707692
 31
0.0
  0
LINE
  5
7A98
  8
1
  6
CONTINUOUS
 10
1322.9891259999999
 20
677.93043670769168
 30
0.0
 11
1802.9891259999999
 21
677.93043670769168
 31
0.0
  0
LINE
  5
7A99
  8
1
  6
CONTINUOUS
 10
1322.9891259999999
 20
707.93043670769157
 30
0.0
 11
1802.9891259999999
 21
707.93043670769157
 31
0.0
  0
CIRCLE
  5
7A9A
  8
1
  6
CONTINUOUS
 10
811.95398999999986
 20
1022.930436707691
 30
0.0
 40
125.0
  0
CIRCLE
  5
7A9B
  8
1
  6
CONTINUOUS
 10
811.95398999999986
 20
1022.930436707691
 30
0.0
 40
145.0
  0
LINE
  5
7A9C
  8
1
  6
CONTINUOUS
 10
991.95398999999998
 20
762.93043670769157
 30
0.0
 11
811.55398999999977
 21
762.93043670769157
 31
0.0
  0
ARC
  5
7A9D
  8
1
  6
CONTINUOUS
 10
794.95398999999986
 20
1005.930436707691
 30
0.0
 40
203.6999999999999
 50
84.500000000000014
 51
175.40000000000001
  0
LINE
  5
7A9E
  8
2
  6
CENTER
 10
1778.2886469999989
 20
1021.2624547076909
 30
0.0
 11
1314.7828939999999
 21
1021.2624547076909
 31
0.0
  0
LINE
  5
7A9F
  8
1
  6
CONTINUOUS
 10
873.55398999999989
 20
1172.930436707692
 30
0.0
 11
750.35398999999995
 21
1172.930436707692
 31
0.0
  0
LINE
  5
7AA0
  8
1
  6
CONTINUOUS
 10
651.95398999999986
 20
707.93043670769157
 30
0.0
 11
971.95398999999986
 21
707.93043670769157
 31
0.0
  0
LINE
  5
7AA1
  8
1
  6
CONTINUOUS
 10
291.95398999999992
 20
707.93043670769157
 30
0.0
 11
1001.95399
 21
707.93043670769157
 31
0.0
  0
LINE
  5
7AA2
  8
1
  6
CONTINUOUS
 10
470.2539900000001
 20
806.73043670769175
 30
0.0
 11
837.05398999999977
 21
964.63043670769184
 31
0.0
  0
LINE
  5
7AA3
  8
1
  6
CONTINUOUS
 10
291.95398999999992
 20
767.93043670769157
 30
0.0
 11
1001.95399
 21
767.93043670769157
 31
0.0
  0
CIRCLE
  5
7AA4
  8
1
  6
CONTINUOUS
 10
811.95398999999986
 20
1022.930436707691
 30
0.0
 40
63.5
  0
LINE
  5
7AA5
  8
1
  6
CONTINUOUS
 10
936.95398999999986
 20
1077.9304367076909
 30
0.0
 11
812.15399000000002
 21
1147.9304367076909
 31
0.0
  0
LINE
  5
7AA6
  8
1
  6
CONTINUOUS
 10
812.15399000000002
 20
1147.9304367076909
 30
0.0
 11
356.95398999999992
 21
947.93043670769191
 31
0.0
  0
LINE
  5
7AA7
  8
1
  6
CONTINUOUS
 10
546.65398999999991
 20
787.93043670769157
 30
0.0
 11
291.95398999999992
 21
787.93043670769157
 31
0.0
  0
ARC
  5
7AA8
  8
1
  6
CONTINUOUS
 10
449.35399000000001
 20
855.43043670769157
 30
0.0
 40
75.799999999999997
 50
322.89999999999992
 51
217.09999999999991
  0
LINE
  5
7AA9
  8
1
  6
CONTINUOUS
 10
356.95398999999992
 20
767.93043670769157
 30
0.0
 11
356.95398999999992
 21
947.93043670769191
 31
0.0
  0
LINE
  5
7AAA
  8
1
  6
CONTINUOUS
 10
291.95398999999992
 20
677.93043670769168
 30
0.0
 11
321.95398999999998
 21
677.93043670769168
 31
0.0
  0
LINE
  5
7AAB
  8
1
  6
CONTINUOUS
 10
321.95398999999998
 20
707.93043670769157
 30
0.0
 11
321.95398999999998
 21
677.93043670769168
 31
0.0
  0
LINE
  5
7AAC
  8
1
  6
CONTINUOUS
 10
291.95398999999992
 20
767.93043670769157
 30
0.0
 11
291.95398999999992
 21
677.93043670769168
 31
0.0
  0
LINE
  5
7AAD
  8
1
  6
CONTINUOUS
 10
291.95398999999992
 20
787.93043670769157
 30
0.0
 11
291.95398999999992
 21
767.93043670769157
 31
0.0
  0
ARC
  5
7AAE
  8
1
  6
CONTINUOUS
 10
831.95398999999998
 20
1002.930436707691
 30
0.0
 40
240.90000000000001
 50
175.40000000000001
 51
265.10000000000002
  0
LINE
  5
7AAF
  8
1
  6
CONTINUOUS
 10
651.95398999999986
 20
1089.030436707691
 30
0.0
 11
651.95398999999986
 21
767.93043670769157
 31
0.0
  0
LINE
  5
7AB0
  8
1
  6
CONTINUOUS
 10
425.85399000000001
 20
902.93043670769157
 30
0.0
 11
783.85398999999995
 21
1079.830436707691
 31
0.0
  0
LINE
  5
7AB1
  8
2
  6
CENTER
 10
396.35399000000001
 20
855.43043670769157
 30
0.0
 11
502.35399000000012
 21
855.43043670769157
 31
0.0
  0
CIRCLE
  5
7AB2
  8
1
  6
CONTINUOUS
 10
449.35399000000001
 20
855.43043670769157
 30
0.0
 40
53.0
  0
LINE
  5
7AB3
  8
2
  6
CENTER
 10
449.35399000000001
 20
802.43043670769168
 30
0.0
 11
449.35399000000001
 21
908.43043670769168
 31
0.0
  0
LINE
  5
7AB4
  8
1
  6
CONTINUOUS
 10
383.35399000000001
 20
795.43043670769157
 30
0.0
 11
388.85399000000012
 21
809.73043670769175
 31
0.0
  0
LINE
  5
7AB5
  8
1
  6
CONTINUOUS
 10
383.35399000000001
 20
787.93043670769157
 30
0.0
 11
383.35399000000001
 21
795.43043670769157
 31
0.0
  0
LINE
  5
7AB6
  8
1
  6
CONTINUOUS
 10
546.65398999999991
 20
767.93043670769157
 30
0.0
 11
546.65398999999991
 21
787.93043670769157
 31
0.0
  0
LINE
  5
7AB7
  8
1
  6
CONTINUOUS
 10
515.35399000000007
 20
787.93043670769157
 30
0.0
 11
515.35399000000007
 21
795.43043670769157
 31
0.0
  0
LINE
  5
7AB8
  8
1
  6
CONTINUOUS
 10
515.35399000000007
 20
795.43043670769157
 30
0.0
 11
509.7539900000001
 21
809.73043670769175
 31
0.0
  0
POINT
  5
7AB9
  8
1
  6
CONTINUOUS
 10
519.75399000000004
 20
855.43043670769157
 30
0.0
  0
LINE
  5
7ABA
  8
1
  6
CONTINUOUS
 10
750.35398999999995
 20
1172.930436707692
 30
0.0
 11
651.95398999999986
 21
1089.030436707691
 31
0.0
  0
LINE
  5
7ABB
  8
2
  6
CENTER
 10
811.95398999999986
 20
676.53087170769174
 30
0.0
 11
811.95398999999986
 21
1240.1508307076911
 31
0.0
  0
LINE
  5
7ABC
  8
1
  6
CONTINUOUS
 10
991.95398999999998
 20
792.93043670769168
 30
0.0
 11
991.95398999999998
 21
1002.930436707691
 31
0.0
  0
LINE
  5
7ABD
  8
1
  6
CONTINUOUS
 10
1011.95399
 20
1043.9304367076909
 30
0.0
 11
1011.95399
 21
751.93043670769168
 31
0.0
  0
LINE
  5
7ABE
  8
1
  6
CONTINUOUS
 10
971.95398999999986
 20
767.93043670769157
 30
0.0
 11
971.95398999999986
 21
1089.030436707691
 31
0.0
  0
LINE
  5
7ABF
  8
1
  6
CONTINUOUS
 10
936.95398999999986
 20
767.93043670769157
 30
0.0
 11
936.95398999999986
 21
1077.9304367076909
 31
0.0
  0
LINE
  5
7AC0
  8
1
  6
CONTINUOUS
 10
971.95398999999986
 20
707.93043670769157
 30
0.0
 11
971.95398999999986
 21
677.93043670769168
 31
0.0
  0
LINE
  5
7AC1
  8
1
  6
CONTINUOUS
 10
971.95398999999986
 20
677.93043670769168
 30
0.0
 11
1001.95399
 21
677.93043670769168
 31
0.0
  0
LINE
  5
7AC2
  8
1
  6
CONTINUOUS
 10
1011.95399
 20
772.93043670769168
 30
0.0
 11
991.95398999999998
 21
792.93043670769168
 31
0.0
  0
LINE
  5
7AC3
  8
1
  6
CONTINUOUS
 10
1001.95399
 20
767.93043670769157
 30
0.0
 11
1001.95399
 21
677.93043670769168
 31
0.0
  0
LINE
  5
7AC4
  8
1
  6
CONTINUOUS
 10
1011.95399
 20
772.93043670769168
 30
0.0
 11
991.95398999999998
 21
772.93043670769168
 31
0.0
  0
LINE
  5
7AC5
  8
1
  6
CONTINUOUS
 10
991.95398999999998
 20
762.93043670769157
 30
0.0
 11
991.95398999999998
 21
772.93043670769168
 31
0.0
  0
ARC
  5
7AC6
  8
1
  6
CONTINUOUS
 10
797.95398999999986
 20
1036.9304367076909
 30
0.0
 40
172.59999999999991
 50
358.69999999999987
 51
84.500000000000014
  0
LINE
  5
7AC7
  8
1
  6
CONTINUOUS
 10
873.55398999999989
 20
1172.930436707692
 30
0.0
 11
971.95398999999986
 21
1089.030436707691
 31
0.0
  0
LINE
  5
7AC8
  8
1
  6
CONTINUOUS
 10
1011.95399
 20
1022.930436707691
 30
0.0
 11
991.95398999999998
 21
1002.930436707691
 31
0.0
  0
LINE
  5
7AC9
  8
1
  6
CONTINUOUS
 10
991.95398999999998
 20
1032.9304367076909
 30
0.0
 11
970.55398999999989
 21
1032.9304367076909
 31
0.0
  0
LINE
  5
7ACA
  8
1
  6
CONTINUOUS
 10
1011.95399
 20
1022.930436707691
 30
0.0
 11
991.95398999999998
 21
1022.930436707691
 31
0.0
  0
LINE
  5
7ACB
  8
1
  6
CONTINUOUS
 10
991.95398999999998
 20
1022.930436707691
 30
0.0
 11
991.95398999999998
 21
1032.9304367076909
 31
0.0
  0
LINE
  5
7ACC
  8
1
  6
CONTINUOUS
 10
1561.9891259999999
 20
1169.9304367076909
 30
0.0
 11
1561.9891259999999
 21
767.93043670769157
 31
0.0
  0
LINE
  5
7ACD
  8
1
  6
CONTINUOUS
 10
1561.9891259999999
 20
875.93043670769157
 30
0.0
 11
1561.9891259999999
 21
1022.930436707691
 31
0.0
  0
LINE
  5
7ACE
  8
1
  6
CONTINUOUS
 10
1570.989125999999
 20
771.93043670769157
 30
0.0
 11
1570.989125999999
 21
1221.830436707691
 31
0.0
  0
LINE
  5
7ACF
  8
1
  6
CONTINUOUS
 10
1395.989125999999
 20
767.93043670769157
 30
0.0
 11
1395.989125999999
 21
1147.9304367076909
 31
0.0
  0
LINE
  5
7AD0
  8
1
  6
CONTINUOUS
 10
1320.989125999999
 20
767.93043670769157
 30
0.0
 11
1320.989125999999
 21
1147.9304367076909
 31
0.0
  0
LINE
  5
7AD1
  8
1
  6
CONTINUOUS
 10
1432.9891259999999
 20
767.93043670769157
 30
0.0
 11
1432.9891259999999
 21
984.73043670769175
 31
0.0
  0
LINE
  5
7AD2
  8
1
  6
CONTINUOUS
 10
1320.989125999999
 20
767.93043670769157
 30
0.0
 11
1652.9891259999999
 21
767.93043670769157
 31
0.0
  0
LINE
  5
7AD3
  8
1
  6
CONTINUOUS
 10
1375.9891259999999
 20
867.43043670769168
 30
0.0
 11
1432.9891259999999
 21
867.43043670769168
 31
0.0
  0
LINE
  5
7AD4
  8
1
  6
CONTINUOUS
 10
1375.9891259999999
 20
843.43043670769168
 30
0.0
 11
1432.9891259999999
 21
843.43043670769168
 31
0.0
  0
LINE
  5
7AD5
  8
1
  6
CONTINUOUS
 10
1322.9891259999999
 20
707.93043670769157
 30
0.0
 11
1322.9891259999999
 21
677.93043670769168
 31
0.0
  0
LINE
  5
7AD6
  8
1
  6
CONTINUOUS
 10
1402.9891259999999
 20
767.93043670769157
 30
0.0
 11
1402.9891259999999
 21
707.93043670769157
 31
0.0
  0
LINE
  5
7AD7
  8
1
  6
CONTINUOUS
 10
1375.9891259999999
 20
908.43043670769168
 30
0.0
 11
1375.9891259999999
 21
802.43043670769168
 31
0.0
  0
LINE
  5
7AD8
  8
1
  6
CONTINUOUS
 10
1340.9891259999999
 20
802.43043670769168
 30
0.0
 11
1375.9891259999999
 21
802.43043670769168
 31
0.0
  0
LINE
  5
7AD9
  8
1
  6
CONTINUOUS
 10
1340.9891259999999
 20
908.43043670769168
 30
0.0
 11
1340.9891259999999
 21
802.43043670769168
 31
0.0
  0
LINE
  5
7ADA
  8
1
  6
CONTINUOUS
 10
1340.9891259999999
 20
908.43043670769168
 30
0.0
 11
1375.9891259999999
 21
908.43043670769168
 31
0.0
  0
LINE
  5
7ADB
  8
1
  6
CONTINUOUS
 10
1570.989125999999
 20
771.93043670769157
 30
0.0
 11
1570.989125999999
 21
793.91072170769166
 31
0.0
  0
LINE
  5
7ADC
  8
1
  6
CONTINUOUS
 10
1570.989125999999
 20
875.93043670769157
 30
0.0
 11
1561.9891259999999
 21
875.93043670769157
 31
0.0
  0
LINE
  5
7ADD
  8
1
  6
CONTINUOUS
 10
1652.9891259999999
 20
767.93043670769157
 30
0.0
 11
1652.9891259999999
 21
707.93043670769157
 31
0.0
  0
LINE
  5
7ADE
  8
1
  6
CONTINUOUS
 10
1432.9891259999999
 20
984.73043670769175
 30
0.0
 11
1561.9891259999999
 21
1089.030436707691
 31
0.0
  0
LINE
  5
7ADF
  8
1
  6
CONTINUOUS
 10
1375.9891259999999
 20
1010.930436707691
 30
0.0
 11
1465.3891259999989
 21
1010.930436707691
 31
0.0
  0
LINE
  5
7AE0
  8
1
  6
CONTINUOUS
 10
1375.9891259999999
 20
1034.9304367076909
 30
0.0
 11
1495.0891260000001
 21
1034.9304367076909
 31
0.0
  0
LINE
  5
7AE1
  8
1
  6
CONTINUOUS
 10
1375.9891259999999
 20
1086.430436707692
 30
0.0
 11
1375.9891259999999
 21
959.43043670769168
 31
0.0
  0
LINE
  5
7AE2
  8
1
  6
CONTINUOUS
 10
1340.9891259999999
 20
959.43043670769168
 30
0.0
 11
1375.9891259999999
 21
959.43043670769168
 31
0.0
  0
LINE
  5
7AE3
  8
1
  6
CONTINUOUS
 10
1340.9891259999999
 20
1086.430436707692
 30
0.0
 11
1375.9891259999999
 21
1086.430436707692
 31
0.0
  0
LINE
  5
7AE4
  8
1
  6
CONTINUOUS
 10
1340.9891259999999
 20
1086.430436707692
 30
0.0
 11
1340.9891259999999
 21
959.43043670769168
 31
0.0
  0
LINE
  5
7AE5
  8
1
  6
CONTINUOUS
 10
1320.989125999999
 20
1147.9304367076909
 30
0.0
 11
1395.989125999999
 21
1147.9304367076909
 31
0.0
  0
LINE
  5
7AE6
  8
1
  6
CONTINUOUS
 10
1570.989125999999
 20
1169.9304367076909
 30
0.0
 11
1561.9891259999999
 21
1169.9304367076909
 31
0.0
  0
LINE
  5
7AE7
  8
1
  6
CONTINUOUS
 10
1561.9891259999999
 20
1169.9304367076909
 30
0.0
 11
1561.9891259999999
 21
1022.930436707691
 31
0.0
  0
ARC
  5
7AE8
  8
1
  6
CONTINUOUS
 10
1582.9891259999999
 20
1221.830436707691
 30
0.0
 40
12.0
 50
90.0
 51
180.0
  0
LINE
  5
7AE9
  8
1
  6
CONTINUOUS
 10
1759.9891259999999
 20
875.93043670769157
 30
0.0
 11
1759.9891259999999
 21
1169.9304367076909
 31
0.0
  0
LINE
  5
7AEA
  8
1
  6
CONTINUOUS
 10
1750.9891259999999
 20
1221.830436707691
 30
0.0
 11
1750.9891259999999
 21
771.93043670769157
 31
0.0
  0
LINE
  5
7AEB
  8
1
  6
CONTINUOUS
 10
1750.9891259999999
 20
875.93043670769157
 30
0.0
 11
1759.9891259999999
 21
875.93043670769157
 31
0.0
  0
LINE
  5
7AEC
  8
1
  6
CONTINUOUS
 10
1802.9891259999999
 20
707.93043670769157
 30
0.0
 11
1802.9891259999999
 21
677.93043670769168
 31
0.0
  0
LINE
  5
7AED
  8
1
  6
CONTINUOUS
 10
1750.9891259999999
 20
1169.9304367076909
 30
0.0
 11
1759.9891259999999
 21
1169.9304367076909
 31
0.0
  0
ARC
  5
7AEE
  8
1
  6
CONTINUOUS
 10
1738.9891259999999
 20
1221.830436707691
 30
0.0
 40
12.0
 50
0.0
 51
90.0
  0
LINE
  5
7AEF
  8
1
  6
CONTINUOUS
 10
1011.95399
 20
1975.3134500000001
 30
0.0
 11
811.95399000000009
 21
1975.3134500000001
 31
0.0
  0
LINE
  5
7AF0
  8
1
  6
CONTINUOUS
 10
664.95398999999998
 20
2164.1134499999989
 30
0.0
 11
958.95399000000009
 21
2164.1134499999989
 31
0.0
  0
LINE
  5
7AF1
  8
1
  6
CONTINUOUS
 10
1011.95399
 20
2154.91345
 30
0.0
 11
613.05399
 21
2154.91345
 31
0.0
  0
LINE
  5
7AF2
  8
1
  6
CONTINUOUS
 10
651.95398999999998
 20
1966.1134499999989
 30
0.0
 11
971.95398999999998
 21
1966.1134499999989
 31
0.0
  0
LINE
  5
7AF3
  8
1
  6
CONTINUOUS
 10
875.45399000000009
 20
1745.1134500000001
 30
0.0
 11
748.45399000000009
 21
1745.1134500000001
 31
0.0
  0
LINE
  5
7AF4
  8
1
  6
CONTINUOUS
 10
875.45399000000009
 20
1780.1134499999989
 30
0.0
 11
748.45399000000009
 21
1780.1134499999989
 31
0.0
  0
LINE
  5
7AF5
  8
1
  6
CONTINUOUS
 10
936.95399000000009
 20
1800.1134500000001
 30
0.0
 11
356.95398999999992
 21
1800.1134500000001
 31
0.0
  0
LINE
  5
7AF6
  8
1
  6
CONTINUOUS
 10
936.95399000000009
 20
1725.1134500000001
 30
0.0
 11
356.95398999999992
 21
1725.1134500000001
 31
0.0
  0
LINE
  5
7AF7
  8
1
  6
CONTINUOUS
 10
601.05399
 20
2057.1134499999998
 30
0.0
 11
291.95398999999992
 21
2057.1134499999998
 31
0.0
  0
LINE
  5
7AF8
  8
1
  6
CONTINUOUS
 10
525.95398999999998
 20
2035.41345
 30
0.0
 11
374.45398999999992
 21
2035.41345
 31
0.0
  0
LINE
  5
7AF9
  8
1
  6
CONTINUOUS
 10
525.95398999999998
 20
1831.41345
 30
0.0
 11
374.45398999999992
 21
1831.41345
 31
0.0
  0
LINE
  5
7AFA
  8
1
  6
CONTINUOUS
 10
437.3539899999999
 20
1807.1134500000001
 30
0.0
 11
291.95398999999992
 21
1807.1134500000001
 31
0.0
  0
LINE
  5
7AFB
  8
1
  6
CONTINUOUS
 10
321.95398999999998
 20
2207.1134499999998
 30
0.0
 11
321.95398999999998
 21
2057.1134499999998
 31
0.0
  0
LINE
  5
7AFC
  8
1
  6
CONTINUOUS
 10
291.95398999999992
 20
2207.1134499999998
 30
0.0
 11
291.95398999999992
 21
1727.1134500000001
 31
0.0
  0
LINE
  5
7AFD
  8
1
  6
CONTINUOUS
 10
321.95398999999998
 20
1807.1134500000001
 30
0.0
 11
321.95398999999998
 21
1727.1134500000001
 31
0.0
  0
LINE
  5
7AFE
  8
1
  6
CONTINUOUS
 10
356.95398999999992
 20
1725.1134500000001
 30
0.0
 11
356.95398999999992
 21
1800.1134500000001
 31
0.0
  0
LINE
  5
7AFF
  8
1
  6
CONTINUOUS
 10
321.95398999999998
 20
1727.1134500000001
 30
0.0
 11
291.95398999999992
 21
1727.1134500000001
 31
0.0
  0
LINE
  5
7B00
  8
1
  6
CONTINUOUS
 10
374.45398999999992
 20
1831.41345
 30
0.0
 11
374.45398999999992
 21
2035.41345
 31
0.0
  0
LINE
  5
7B01
  8
1
  6
CONTINUOUS
 10
321.95398999999998
 20
2207.1134499999998
 30
0.0
 11
291.95398999999992
 21
2207.1134499999998
 31
0.0
  0
LINE
  5
7B02
  8
1
  6
CONTINUOUS
 10
601.05399
 20
2142.9134499999991
 30
0.0
 11
601.05399
 21
1987.3134500000001
 31
0.0
  0
LINE
  5
7B03
  8
1
  6
CONTINUOUS
 10
799.95399000000009
 20
1807.1134500000001
 30
0.0
 11
461.35399000000001
 21
1807.1134500000001
 31
0.0
  0
LINE
  5
7B04
  8
1
  6
CONTINUOUS
 10
502.35399000000001
 20
1745.1134500000001
 30
0.0
 11
502.35399000000001
 21
1780.1134499999989
 31
0.0
  0
LINE
  5
7B05
  8
1
  6
CONTINUOUS
 10
396.35399000000001
 20
1745.1134500000001
 30
0.0
 11
396.35399000000001
 21
1780.1134499999989
 31
0.0
  0
LINE
  5
7B06
  8
1
  6
CONTINUOUS
 10
502.35399000000001
 20
1745.1134500000001
 30
0.0
 11
396.35399000000001
 21
1745.1134500000001
 31
0.0
  0
LINE
  5
7B07
  8
1
  6
CONTINUOUS
 10
502.35399000000001
 20
1780.1134499999989
 30
0.0
 11
396.35399000000001
 21
1780.1134499999989
 31
0.0
  0
LINE
  5
7B08
  8
1
  6
CONTINUOUS
 10
437.3539899999999
 20
1780.1134499999989
 30
0.0
 11
437.25398999999999
 21
1831.41345
 31
0.0
  0
LINE
  5
7B09
  8
1
  6
CONTINUOUS
 10
461.35399000000001
 20
1780.1134499999989
 30
0.0
 11
461.35399000000001
 21
1831.41345
 31
0.0
  0
LINE
  5
7B0A
  8
1
  6
CONTINUOUS
 10
525.95398999999998
 20
1831.41345
 30
0.0
 11
525.95398999999998
 21
2035.41345
 31
0.0
  0
LINE
  5
7B0B
  8
1
  6
CONTINUOUS
 10
748.45399000000009
 20
1745.1134500000001
 30
0.0
 11
748.45399000000009
 21
1780.1134499999989
 31
0.0
  0
LINE
  5
7B0C
  8
1
  6
CONTINUOUS
 10
613.05399
 20
1975.3134500000001
 30
0.0
 11
811.95399000000009
 21
1975.3134500000001
 31
0.0
  0
LINE
  5
7B0D
  8
1
  6
CONTINUOUS
 10
799.95399000000009
 20
1837.1134500000001
 30
0.0
 11
651.95398999999998
 21
1837.1134500000001
 31
0.0
  0
ARC
  5
7B0E
  8
1
  6
CONTINUOUS
 10
613.05399
 20
1987.3134500000001
 30
0.0
 40
12.0
 50
180.0
 51
270.0
  0
LINE
  5
7B0F
  8
1
  6
CONTINUOUS
 10
664.95398999999998
 20
1975.3134500000001
 30
0.0
 11
664.95398999999998
 21
1966.1134499999989
 31
0.0
  0
LINE
  5
7B10
  8
1
  6
CONTINUOUS
 10
651.95398999999998
 20
1966.1134499999989
 30
0.0
 11
651.95398999999998
 21
1837.1134500000001
 31
0.0
  0
LINE
  5
7B11
  8
1
  6
CONTINUOUS
 10
799.95399000000009
 20
1780.1134499999989
 30
0.0
 11
799.95399000000009
 21
1966.1134499999989
 31
0.0
  0
ARC
  5
7B12
  8
1
  6
CONTINUOUS
 10
613.05399
 20
2142.9134499999991
 30
0.0
 40
12.0
 50
90.0
 51
180.0
  0
LINE
  5
7B13
  8
1
  6
CONTINUOUS
 10
664.95398999999998
 20
2154.91345
 30
0.0
 11
664.95398999999998
 21
2164.1134499999989
 31
0.0
  0
LINE
  5
7B14
  8
1
  6
CONTINUOUS
 10
1011.95399
 20
2176.1134499999989
 30
0.0
 11
1011.95399
 21
1954.1134500000001
 31
0.0
  0
LINE
  5
7B15
  8
1
  6
CONTINUOUS
 10
991.95399000000009
 20
2125.91345
 30
0.0
 11
991.95399000000009
 21
2004.3134500000001
 31
0.0
  0
LINE
  5
7B16
  8
1
  6
CONTINUOUS
 10
971.95398999999998
 20
1807.1134500000001
 30
0.0
 11
971.95398999999998
 21
1727.1134500000001
 31
0.0
  0
LINE
  5
7B17
  8
1
  6
CONTINUOUS
 10
875.45399000000009
 20
1745.1134500000001
 30
0.0
 11
875.45399000000009
 21
1780.1134499999989
 31
0.0
  0
LINE
  5
7B18
  8
1
  6
CONTINUOUS
 10
936.95399000000009
 20
1725.1134500000001
 30
0.0
 11
936.95399000000009
 21
1800.1134500000001
 31
0.0
  0
LINE
  5
7B19
  8
1
  6
CONTINUOUS
 10
1001.95399
 20
1974.3134500000001
 30
0.0
 11
1001.95399
 21
1727.1134500000001
 31
0.0
  0
LINE
  5
7B1A
  8
1
  6
CONTINUOUS
 10
971.95398999999998
 20
1727.1134500000001
 30
0.0
 11
1001.95399
 21
1727.1134500000001
 31
0.0
  0
LINE
  5
7B1B
  8
1
  6
CONTINUOUS
 10
1001.95399
 20
1807.1134500000001
 30
0.0
 11
823.95398999999998
 21
1807.1134500000001
 31
0.0
  0
LINE
  5
7B1C
  8
1
  6
CONTINUOUS
 10
971.95398999999998
 20
1837.1134500000001
 30
0.0
 11
823.95398999999998
 21
1837.1134500000001
 31
0.0
  0
LINE
  5
7B1D
  8
1
  6
CONTINUOUS
 10
823.95398999999998
 20
1780.1134499999989
 30
0.0
 11
823.95398999999998
 21
1966.1134499999989
 31
0.0
  0
LINE
  5
7B1E
  8
1
  6
CONTINUOUS
 10
958.95399000000009
 20
1975.3134500000001
 30
0.0
 11
958.95399000000009
 21
1966.1134499999989
 31
0.0
  0
LINE
  5
7B1F
  8
1
  6
CONTINUOUS
 10
1011.95399
 20
1984.3134500000001
 30
0.0
 11
991.95399000000009
 21
2004.3134500000001
 31
0.0
  0
LINE
  5
7B20
  8
1
  6
CONTINUOUS
 10
971.95398999999998
 20
1837.1134500000001
 30
0.0
 11
971.95398999999998
 21
1966.1134499999989
 31
0.0
  0
LINE
  5
7B21
  8
1
  6
CONTINUOUS
 10
958.95399000000009
 20
2154.91345
 30
0.0
 11
958.95399000000009
 21
2164.1134499999989
 31
0.0
  0
LINE
  5
7B22
  8
1
  6
CONTINUOUS
 10
1011.95399
 20
2145.91345
 30
0.0
 11
991.95399000000009
 21
2125.91345
 31
0.0
  0
LINE
  5
7B23
  8
1
  6
CONTINUOUS
 10
1001.95399
 20
2207.1134499999998
 30
0.0
 11
1001.95399
 21
2155.9134499999991
 31
0.0
  0
LINE
  5
7B24
  8
1
  6
CONTINUOUS
 10
971.95398999999998
 20
2207.1134499999998
 30
0.0
 11
1001.95399
 21
2207.1134499999998
 31
0.0
  0
LINE
  5
7B25
  8
1
  6
CONTINUOUS
 10
971.95398999999998
 20
2207.1134499999998
 30
0.0
 11
971.95398999999998
 21
2155.9134499999991
 31
0.0
  0
LINE
  5
7B26
  8
4
  6
CONTINUOUS
 10
1850.0
 20
500.0
 30
0.0
 11
1850.0
 21
300.0
 31
0.0
  0
LINE
  5
7B27
  8
4
  6
CONTINUOUS
 10
1150.0
 20
500.0
 30
0.0
 11
1150.0
 21
300.0
 31
0.0
  0
LINE
  5
7B28
  8
4
  6
CONTINUOUS
 10
650.0
 20
500.0
 30
0.0
 11
650.0
 21
300.0
 31
0.0
  0
LINE
  5
7B2B
  8
4
  6
CONTINUOUS
 10
650.0
 20
300.0
 30
0.0
 11
1850.0
 21
300.0
 31
0.0
  0
LINE
  5
7B2C
  8
4
  6
CONTINUOUS
 10
650.0
 20
400.0
 30
0.0
 11
1850.0
 21
400.0
 31
0.0
  0
TEXT
  5
7B2D
  8
4
  6
CONTINUOUS
 10
688.50208099999998
 20
431.543026
 30
0.0
 40
50.0
  1
機器名称
  0
TEXT
  5
7B2E
  8
4
  6
CONTINUOUS
 10
686.258106
 20
321.64515699999993
 30
0.0
 40
50.0
  1
機器型番
  0
TEXT
  5
7B2F
  8
4
  6
CONTINUOUS
 10
1177.678744999999
 20
422.57176900000002
 30
0.0
 40
45.0
  1
ミツヤニューマルチファン
  0
TEXT
  5
7B30
  8
4
  6
CONTINUOUS
 10
1186.6544960000001
 20
317.159584
 30
0.0
 40
50.0
  1
NM#1 1/2-1
  0
TEXT
  5
7B32
  8
4
  6
CONTINUOUS
 10
904.78576499999997
 20
2383.4288409999999
 30
0.0
 40
54.0
  1
天井吊ベット
  0
TEXT
  5
7B33
  8
4
  6
CONTINUOUS
 10
316.16759300000001
 20
2533.8809759999999
 30
0.0
 40
72.0
  1
ベルト駆動式片吸込片持多翼ファン
  0
LINE
  5
7B34
  8
4
  6
CONTINUOUS
 10
250.0
 20
2469.408754
 30
0.0
 11
1850.0
 21
2469.408754
 31
0.0
  0
LINE
  5
7B35
  8
4
  6
CONTINUOUS
 10
250.0
 20
2669.408754
 30
0.0
 11
1850.0
 21
2669.408754
 31
0.0
  0
LINE
  5
7B36
  8
4
  6
CONTINUOUS
 10
650.0
 20
500.0
 30
0.0
 11
1850.0
 21
500.0
 31
0.0
  0
LINE
  5
7B37
  8
4
  6
CONTINUOUS
 10
250.0
 20
2669.408754
 30
0.0
 11
250.0
 21
2469.408754
 31
0.0
  0
TEXT
  5
7B38
  8
4
  6
CONTINUOUS
 10
468.92693300000002
 20
2382.3194779999999
 30
0.0
 40
54.0
  1
左回転右横向
  0
TEXT
  5
7B39
  8
4
  6
CONTINUOUS
 10
1468.9695589999999
 20
2706.0610809999998
 30
0.0
 40
56.0
  1
No.
  0
TEXT
  5
7B3A
  8
4
  6
CONTINUOUS
 10
1311.296063
 20
2383.4288409999999
 30
0.0
 40
54.0
  1
縮尺：1/10
  0
LINE
  5
7B3B
  8
4
  6
CONTINUOUS
 10
1850.0
 20
2669.408754
 30
0.0
 11
1850.0
 21
2469.408754
 31
0.0
  0
LINE
  5
7B3D
  8
4
  6
CONTINUOUS
 10
1440.617422
 20
2681.2635829999999
 30
0.0
 11
1440.617422
 21
2786.6522620000001
 31
0.0
  0
LINE
  5
7B3E
  8
4
  6
CONTINUOUS
 10
1440.617422
 20
2786.6522620000001
 30
0.0
 11
1850.0
 21
2786.6522620000001
 31
0.0
  0
LINE
  5
7B3F
  8
4
  6
CONTINUOUS
 10
1850.0
 20
2786.6522620000001
 30
0.0
 11
1850.0
 21
2681.2635829999999
 31
0.0
  0
LINE
  5
7B40
  8
4
  6
CONTINUOUS
 10
1850.0
 20
2681.2635829999999
 30
0.0
 11
1440.617422
 21
2681.2635829999999
 31
0.0
  0
DIMENSION
  5
7B58
  8
3
  6
CONTINUOUS
  2
*D1
 10
811.95398999999986
 20
600.97867970769175
 30
0.0
 11
540.63701299999991
 21
600.97867970769175
 31
0.0
 70
   128
 13
291.95398999999992
 23
677.93043670769168
 33
0.0
 14
811.95398999999986
 24
663.18701070769168
 34
0.0
1001
ACAD
1000
DSTYLE
1002
{
1070
   287
1070
     3
1070
   287
1070
     3
1070
    40
1040
10.0
1070
   143
1040
0.039
1070
   172
1070
     1
1070
   271
1070
     0
1070
   279
1070
     0
1070
   288
1070
     1
1002
}
  0
DIMENSION
  5
7B64
  8
3
  6
CONTINUOUS
  2
*D2
 10
1001.95399
 20
600.97867970769175
 30
0.0
 11
906.95398999999998
 21
625.97867970769175
 31
0.0
 70
     0
 13
811.95398999999986
 23
663.18701070769168
 33
0.0
 14
1001.95399
 24
677.93043670769168
 34
0.0
1001
ACAD
1000
DSTYLE
1002
{
1070
   287
1070
     4
1070
   287
1070
     4
1070
    40
1040
10.0
1070
    75
1070
     1
1070
   143
1040
0.039
1070
   172
1070
     1
1070
   271
1070
     0
1070
   279
1070
     1
1070
   288
1070
     1
1002
}
  0
DIMENSION
  5
7B71
  8
3
  6
CONTINUOUS
  2
*D3
 10
1087.4438279999999
 20
772.93043670769168
 30
0.0
 11
1087.4438279999999
 21
899.53161970769168
 31
0.0
 70
   128
 13
1011.95399
 23
1022.930436707691
 33
0.0
 14
1011.95399
 24
772.93043670769168
 34
0.0
 50
90.0
1001
ACAD
1000
DSTYLE
1002
{
1070
   287
1070
     3
1070
   287
1070
     3
1070
    40
1040
10.0
1070
   143
1040
0.039
1070
   172
1070
     1
1070
   271
1070
     0
1070
   279
1070
     0
1070
   288
1070
     1
1002
}
  0
DIMENSION
  5
7B7E
  8
3
  6
CONTINUOUS
  2
*D4
 10
1206.8045010000001
 20
1022.930436707691
 30
0.0
 11
1206.8045010000001
 21
1122.3733157076911
 31
0.0
 70
   128
 13
811.95398999999986
 23
1208.9198207076911
 33
0.0
 14
1011.95399
 24
1022.930436707691
 34
0.0
 50
90.0
1001
ACAD
1000
DSTYLE
1002
{
1070
   287
1070
     3
1070
   287
1070
     3
1070
    40
1040
10.0
1070
   143
1040
0.039
1070
   172
1070
     1
1070
   271
1070
     0
1070
   279
1070
     0
1070
   288
1070
     1
1002
}
  0
DIMENSION
  5
7B8A
  8
3
  6
CONTINUOUS
  2
*D5
 10
1206.8045010000001
 20
707.93043670769157
 30
0.0
 11
1181.8045010000001
 21
865.43043670769191
 31
0.0
 70
     0
 13
1011.95399
 23
1022.930436707691
 33
0.0
 14
1001.95399
 24
707.93043670769157
 34
0.0
 50
90.0
1001
ACAD
1000
DSTYLE
1002
{
1070
   287
1070
     4
1070
   287
1070
     4
1070
    40
1040
10.0
1070
    75
1070
     1
1070
   143
1040
0.039
1070
   172
1070
     1
1070
   271
1070
     0
1070
   279
1070
     1
1070
   288
1070
     1
1002
}
  0
DIMENSION
  5
7B9A
  8
3
  6
CONTINUOUS
  2
*D6
 10
1206.8045010000001
 20
677.93043670769168
 30
0.0
 11
1206.8045010000001
 21
603.64472242197746
 31
0.0
 70
   128
 13
1001.95399
 23
707.93043670769157
 33
0.0
 14
1001.95399
 24
677.93043670769168
 34
0.0
 50
90.0
1001
ACAD
1000
DSTYLE
1002
{
1070
   287
1070
     3
1070
   287
1070
     3
1070
    40
1040
10.0
1070
   143
1040
0.039
1070
   172
1070
     1
1070
   271
1070
     0
1070
   279
1070
     0
1070
   288
1070
     1
1002
}
  0
DIMENSION
  5
7BC1
  8
3
  6
CONTINUOUS
  2
*D7
 10
1264.6519075951101
 20
677.93043670769168
 30
0.0
 11
1264.6519075951101
 21
935.55920370769172
 31
0.0
 70
   128
 13
811.95398999999986
 23
1208.9198207076911
 33
0.0
 14
1001.95399
 24
677.93043670769168
 34
0.0
 50
90.0
1001
ACAD
1000
DSTYLE
1002
{
1070
   287
1070
     3
1070
   287
1070
     3
1070
    40
1040
10.0
1070
   143
1040
0.039
1070
   172
1070
     1
1070
   271
1070
     0
1070
   279
1070
     0
1070
   288
1070
     1
1002
}
  0
DIMENSION
  5
7BCE
  8
3
  6
CONTINUOUS
  2
*D8
 10
811.95398999999986
 20
1255.9779167076911
 30
0.0
 11
701.13902599999983
 21
1255.9779167076911
 31
0.0
 70
   128
 13
591.75251800000001
 23
1021.2624547076909
 33
0.0
 14
811.95398999999986
 24
1208.9198207076911
 34
0.0
1001
ACAD
1000
DSTYLE
1002
{
1070
   287
1070
     3
1070
   287
1070
     3
1070
    40
1040
10.0
1070
   143
1040
0.039
1070
   172
1070
     1
1070
   271
1070
     0
1070
   279
1070
     0
1070
   288
1070
     1
1002
}
  0
DIMENSION
  5
7BDA
  8
3
  6
CONTINUOUS
  2
*D9
 10
1011.95399
 20
1255.9779167076911
 30
0.0
 11
911.95398999999986
 21
1280.9779167076911
 31
0.0
 70
     0
 13
811.95398999999986
 23
1208.9198207076911
 33
0.0
 14
1011.95399
 24
1043.9304367076909
 34
0.0
1001
ACAD
1000
DSTYLE
1002
{
1070
   287
1070
     4
1070
   287
1070
     4
1070
    40
1040
10.0
1070
    75
1070
     1
1070
   143
1040
0.039
1070
   172
1070
     1
1070
   271
1070
     0
1070
   279
1070
     1
1070
   288
1070
     1
1002
}
  0
DIMENSION
  5
7BE7
  8
3
  6
CONTINUOUS
  2
*D10
 10
1100.051217
 20
1727.1134500000001
 30
0.0
 11
1100.051217
 21
1975.5691699999991
 31
0.0
 70
   128
 13
1001.95399
 23
2207.1134499999998
 33
0.0
 14
1001.95399
 24
1727.1134500000001
 34
0.0
 50
90.0
1001
ACAD
1000
DSTYLE
1002
{
1070
   287
1070
     3
1070
   287
1070
     3
1070
    40
1040
10.0
1070
   143
1040
0.039
1070
   172
1070
     1
1070
   271
1070
     0
1070
   279
1070
     0
1070
   288
1070
     1
1002
}
  0
DIMENSION
  5
7BF4
  8
3
  6
CONTINUOUS
  2
*D11
 10
1001.95399
 20
1625.1267700000001
 30
0.0
 11
627.16824899999995
 21
1625.1267700000001
 31
0.0
 70
   128
 13
291.95398999999992
 23
1727.1134500000001
 33
0.0
 14
1001.95399
 24
1727.1134500000001
 34
0.0
1001
ACAD
1000
DSTYLE
1002
{
1070
   287
1070
     3
1070
   287
1070
     3
1070
    40
1040
10.0
1070
   143
1040
0.039
1070
   172
1070
     1
1070
   271
1070
     0
1070
   279
1070
     0
1070
   288
1070
     1
1002
}
  0
LINE
  5
7BF5
  8
2
  6
CENTER
 10
574.33741500000008
 20
2065.1134499999989
 30
0.0
 11
1037.9356680000001
 21
2065.1134499999989
 31
0.0
  0
LINE
  5
7BF6
  8
2
  6
CENTER
 10
1660.9891259999999
 20
1281.8810647076909
 30
0.0
 11
1660.9891259999999
 21
635.32227070769147
 31
0.0
  0
DIMENSION
  5
7C03
  8
3
  6
CONTINUOUS
  2
*D12
 10
1660.9891259999999
 20
604.96669770769165
 30
0.0
 11
1484.043993
 21
604.96669770769165
 31
0.0
 70
   128
 13
1322.9891259999999
 23
677.93043670769168
 33
0.0
 14
1660.9891259999999
 24
677.93043670769168
 34
0.0
1001
ACAD
1000
DSTYLE
1002
{
1070
   287
1070
     3
1070
   287
1070
     3
1070
    40
1040
10.0
1070
   143
1040
0.039
1070
   172
1070
     1
1070
   271
1070
     0
1070
   279
1070
     0
1070
   288
1070
     1
1002
}
  0
DIMENSION
  5
7C0F
  8
3
  6
CONTINUOUS
  2
*D13
 10
1802.9891259999999
 20
604.96669770769165
 30
0.0
 11
1731.9891259999999
 21
629.96669770769165
 31
0.0
 70
     0
 13
1660.9891259999999
 23
677.93043670769168
 33
0.0
 14
1802.9891259999999
 24
677.93043670769168
 34
0.0
1001
ACAD
1000
DSTYLE
1002
{
1070
   287
1070
     4
1070
   287
1070
     4
1070
    40
1040
10.0
1070
    75
1070
     1
1070
   143
1040
0.039
1070
   172
1070
     1
1070
   271
1070
     0
1070
   279
1070
     1
1070
   288
1070
     1
1002
}
  0
DIMENSION
  5
7C1C
  8
3
  6
CONTINUOUS
  2
*D14
 10
1750.9891259999999
 20
1276.8277547076909
 30
0.0
 11
1649.3528389999999
 21
1276.8277547076909
 31
0.0
 70
   128
 13
1570.989125999999
 23
1221.830436707691
 33
0.0
 14
1750.9891259999999
 24
1221.830436707691
 34
0.0
1001
ACAD
1000
DSTYLE
1002
{
1070
   287
1070
     3
1070
   287
1070
     3
1070
    40
1040
10.0
1070
   143
1040
0.039
1070
   172
1070
     1
1070
   271
1070
     0
1070
   279
1070
     0
1070
   288
1070
     1
1002
}
  0
DIMENSION
  5
7C29
  8
3
  6
CONTINUOUS
  2
*D15
 10
1660.9891259999999
 20
1335.207167707691
 30
0.0
 11
1485.7137829999999
 21
1335.207167707691
 31
0.0
 70
   128
  1
MAX\P340
 13
1320.989125999999
 23
1147.9304367076909
 33
0.0
 14
1660.9891259999999
 24
1322.970836707691
 34
0.0
1001
ACAD
1000
DSTYLE
1002
{
1070
   287
1070
     3
1070
   287
1070
     3
1070
    40
1040
10.0
1070
   143
1040
0.039
1070
   172
1070
     1
1070
   271
1070
     0
1070
   279
1070
     0
1070
   288
1070
     1
1002
}
  0
DIMENSION
  5
7C37
  8
3
  6
CONTINUOUS
  2
*D16
 10
1759.9891259999999
 20
1335.207167707691
 30
0.0
 11
1712.804707999999
 21
1333.539178707691
 31
0.0
 70
   128
 13
1660.9891259999999
 23
1322.970836707691
 33
0.0
 14
1759.9891259999999
 24
1169.9304367076909
 34
0.0
1001
ACAD
1000
DSTYLE
1002
{
1070
   287
1070
     4
1070
   287
1070
     4
1070
    40
1040
10.0
1070
    75
1070
     1
1070
   143
1040
0.039
1070
   172
1070
     1
1070
   271
1070
     0
1070
   279
1070
     1
1070
   288
1070
     1
1002
}
  0
LINE
  5
7C4F
  8
3
  6
CONTINUOUS
 10
1759.9891259999999
 20
1146.2624547076909
 30
0.0
 11
1768.4748739999991
 21
1146.2624547076909
 31
0.0
  0
LINE
  5
7C51
  8
3
  6
CONTINUOUS
 10
1759.9891259999999
 20
896.26245470769175
 30
0.0
 11
1768.9128619999999
 21
896.26245470769175
 31
0.0
  0
DIMENSION
  5
7C5E
  8
3
  6
CONTINUOUS
  2
*D17
 10
1835.2733920000001
 20
896.26245470769175
 30
0.0
 11
1835.2733920000001
 21
1011.5583847076909
 31
0.0
 70
   128
 13
1759.9891259999999
 23
1146.2624547076909
 33
0.0
 14
1759.9891259999999
 24
896.26245470769175
 34
0.0
 50
90.0
1001
ACAD
1000
DSTYLE
1002
{
1070
   287
1070
     3
1070
   287
1070
     3
1070
     3
1000
φ<>
1070
    40
1040
10.0
1070
   143
1040
0.039
1070
   172
1070
     1
1070
   271
1070
     0
1070
   279
1070
     0
1070
   288
1070
     1
1002
}
  0
LINE
  5
7C5F
  8
2
  6
CENTER
 10
811.95399000000009
 20
1665.9669180000001
 30
0.0
 11
811.95399000000009
 21
2227.4625799999999
 31
0.0
  0
LINE
  5
7C60
  8
2
  6
CENTER
 10
1052.0747550000001
 20
1022.930436707691
 30
0.0
 11
460.431937
 21
1022.930436707691
 31
0.0
  0
DIMENSION
  5
7C9F
  8
3
  6
CONTINUOUS
  2
*D18
 10
1153.0893920000001
 20
762.93043670769157
 30
0.0
 11
1153.0893920000001
 21
902.31665370769156
 31
0.0
 70
   128
 13
1052.0747550000001
 23
1022.930436707691
 33
0.0
 14
991.95398999999998
 24
762.93043670769157
 34
0.0
 50
90.0
1001
ACAD
1000
DSTYLE
1002
{
1070
   287
1070
     3
1070
   287
1070
     3
1070
    40
1040
10.0
1070
   143
1040
0.039
1070
   172
1070
     1
1070
   271
1070
     0
1070
   279
1070
     0
1070
   288
1070
     1
1002
}
  0
DIMENSION
  5
7CFE
  8
3
  2
*D19
 10
291.95398999999998
 20
1330.0660296135461
 30
0.0
 11
650.82821201057595
 21
1330.0660296135461
 31
0.0
 70
   128
 13
1011.95399
 23
1043.9304367076909
 33
0.0
 14
291.95398999999992
 24
787.93043670769157
 34
0.0
1001
ACAD
1000
DSTYLE
1002
{
1070
   287
1070
     3
1070
   287
1070
     3
1070
    40
1040
10.0
1070
   143
1040
0.039
1070
   172
1070
     1
1070
   271
1070
     0
1070
   279
1070
     0
1070
   288
1070
     1
1002
}
  0
ENDSEC
  0
EOF
