  0
SECTION
  2
HEADER
  9
$ACADVER
  1
AC1009
  9
$INSBASE
 10
0.0
 20
0.0
 30
0.0
  9
$EXTMIN
 10
250.0
 20
300.0
 30
0.0
  9
$EXTMAX
 10
1850.0
 20
2786.6522620000001
 30
0.0
  9
$LIMMIN
 10
0.0
 20
0.0
  9
$LIMMAX
 10
297.0
 20
210.0
  9
$ORTHOMODE
 70
     0
  9
$REGENMODE
 70
     1
  9
$FILLMODE
 70
     0
  9
$QTEXTMODE
 70
     0
  9
$MIRRTEXT
 70
     1
  9
$DRAGMODE
 70
     2
  9
$LTSCALE
 40
100.0
  9
$OSMODE
 70
    37
  9
$ATTMODE
 70
     1
  9
$TEXTSIZE
 40
180.0
  9
$TRACEWID
 40
0.05
  9
$TEXTSTYLE
  7
STANDARD
  9
$CLAYER
  8
3
  9
$CELTYPE
  6
BYLAYER
  9
$CECOLOR
 62
   256
  9
$DIMSCALE
 40
10.0
  9
$DIMASZ
 40
2.0
  9
$DIMEXO
 40
0.5
  9
$DIMDLI
 40
10.0
  9
$DIMRND
 40
0.0
  9
$DIMDLE
 40
0.0
  9
$DIMEXE
 40
1.0
  9
$DIMTP
 40
1.0
  9
$DIMTM
 40
1.0
  9
$DIMTXT
 40
3.0
  9
$DIMCEN
 40
0.0
  9
$DIMTSZ
 40
0.0
  9
$DIMTOL
 70
     0
  9
$DIMLIM
 70
     0
  9
$DIMTIH
 70
     0
  9
$DIMTOH
 70
     0
  9
$DIMSE1
 70
     0
  9
$DIMSE2
 70
     0
  9
$DIMTAD
 70
     1
  9
$DIMZIN
 70
     8
  9
$DIMBLK
  1

  9
$DIMASO
 70
     1
  9
$DIMSHO
 70
     1
  9
$DIMPOST
  1

  9
$DIMAPOST
  1

  9
$DIMALT
 70
     0
  9
$DIMALTD
 70
     2
  9
$DIMALTF
 40
0.039
  9
$DIMLFAC
 40
1.0
  9
$DIMTOFL
 70
     1
  9
$DIMTVP
 40
0.0
  9
$DIMTIX
 70
     0
  9
$DIMSOXD
 70
     0
  9
$DIMSAH
 70
     1
  9
$DIMBLK1
  1
OPEN
  9
$DIMBLK2
  1
OPEN
  9
$DIMSTYLE
  2
IGA
  9
$DIMCLRD
 70
     0
  9
$DIMCLRE
 70
     0
  9
$DIMCLRT
 70
     0
  9
$DIMTFAC
 40
10.0
  9
$DIMGAP
 40
1.0
  9
$LUNITS
 70
     2
  9
$LUPREC
 70
     3
  9
$SKETCHINC
 40
0.1
  9
$FILLETRAD
 40
50.0
  9
$AUNITS
 70
     0
  9
$AUPREC
 70
     0
  9
$MENU
  1
acad
  9
$ELEVATION
 40
0.0
  9
$PELEVATION
 40
0.0
  9
$THICKNESS
 40
0.0
  9
$LIMCHECK
 70
     0
  9
$BLIPMODE
 70
     0
  9
$CHAMFERA
 40
0.5
  9
$CHAMFERB
 40
0.5
  9
$SKPOLY
 70
     0
  9
$TDCREATE
 40
2450742.4271333329
  9
$TDUPDATE
 40
2454953.8626037962
  9
$TDINDWG
 40
0.1926389583
  9
$TDUSRTIMER
 40
0.1926389583
  9
$USRTIMER
 70
     1
  9
$ANGBASE
 50
0.0
  9
$ANGDIR
 70
     0
  9
$PDMODE
 70
     0
  9
$PDSIZE
 40
0.0
  9
$PLINEWID
 40
0.0
  9
$COORDS
 70
     1
  9
$SPLFRAME
 70
     0
  9
$SPLINETYPE
 70
     6
  9
$SPLINESEGS
 70
     8
  9
$ATTDIA
 70
     0
  9
$ATTREQ
 70
     1
  9
$HANDLING
 70
 10241
  9
$HANDSEED
  5
7EA7
  9
$SURFTAB1
 70
     6
  9
$SURFTAB2
 70
     6
  9
$SURFTYPE
 70
     6
  9
$SURFU
 70
     6
  9
$SURFV
 70
     6
  9
$UCSNAME
  2

  9
$UCSORG
 10
0.0
 20
0.0
 30
0.0
  9
$UCSXDIR
 10
1.0
 20
0.0
 30
0.0
  9
$UCSYDIR
 10
0.0
 20
1.0
 30
0.0
  9
$PUCSNAME
  2

  9
$PUCSORG
 10
0.0
 20
0.0
 30
0.0
  9
$PUCSXDIR
 10
1.0
 20
0.0
 30
0.0
  9
$PUCSYDIR
 10
0.0
 20
1.0
 30
0.0
  9
$USERI1
 70
     0
  9
$USERI2
 70
     0
  9
$USERI3
 70
     0
  9
$USERI4
 70
     0
  9
$USERI5
 70
     0
  9
$USERR1
 40
0.0
  9
$USERR2
 40
0.0
  9
$USERR3
 40
0.0
  9
$USERR4
 40
0.0
  9
$USERR5
 40
0.0
  9
$WORLDVIEW
 70
     1
  9
$SHADEDGE
 70
     3
  9
$SHADEDIF
 70
    70
  9
$TILEMODE
 70
     1
  9
$MAXACTVP
 70
    16
  9
$PLIMCHECK
 70
     0
  9
$PEXTMIN
 10
1.0000000000000000E+020
 20
1.0000000000000000E+020
 30
1.0000000000000000E+020
  9
$PEXTMAX
 10
-1.0000000000000000E+020
 20
-1.0000000000000000E+020
 30
-1.0000000000000000E+020
  9
$PLIMMIN
 10
0.0
 20
0.0
  9
$PLIMMAX
 10
12.0
 20
9.0
  9
$UNITMODE
 70
     0
  9
$VISRETAIN
 70
     0
  9
$PLINEGEN
 70
     0
  9
$PSLTSCALE
 70
     1
  0
ENDSEC
  0
SECTION
  2
TABLES
  0
TABLE
  2
VPORT
 70
     2
  0
VPORT
  2
*ACTIVE
 70
     0
 10
0.0
 20
0.0
 11
1.0
 21
1.0
 12
2920.3865386985012
 22
1992.0920061632801
 13
0.0
 23
0.0
 14
10.0
 24
10.0
 15
10.0
 25
10.0
 16
0.0
 26
0.0
 36
1.0
 17
0.0
 27
0.0
 37
0.0
 40
3860.4308917189128
 41
1.5051150895140659
 42
50.0
 43
0.0
 44
0.0
 50
0.0
 51
0.0
 71
     0
 72
   100
 73
     1
 74
     0
 75
     0
 76
     0
 77
     0
 78
     0
  0
ENDTAB
  0
TABLE
  2
LTYPE
 70
     2
  0
LTYPE
  2
CONTINUOUS
 70
     0
  3
Solid line
 72
    65
 73
     0
 40
0.0
  0
LTYPE
  2
CENTER
 70
     0
  3
____ _ ____ _ ____ _ ____ _ ____ _ ____ _ ____ 
 72
    65
 73
     4
 40
2.0
 49
1.25
 49
-0.25
 49
0.25
 49
-0.25
  0
ENDTAB
  0
TABLE
  2
LAYER
 70
     6
  0
LAYER
  2
0
 70
     0
 62
     7
  6
CONTINUOUS
  0
LAYER
  2
3
 70
     0
 62
     2
  6
CONTINUOUS
  0
LAYER
  2
2
 70
     0
 62
     3
  6
CENTER
  0
LAYER
  2
1
 70
     0
 62
     4
  6
CONTINUOUS
  0
LAYER
  2
4
 70
     0
 62
     7
  6
CONTINUOUS
  0
LAYER
  2
DEFPOINTS
 70
     0
 62
     7
  6
CONTINUOUS
  0
ENDTAB
  0
TABLE
  2
STYLE
 70
     1
  0
STYLE
  2
STANDARD
 70
     0
 40
0.0
 41
1.0
 50
0.0
 71
     0
 42
180.0
  3
simplex.shx
  4
extfont.shx
  0
ENDTAB
  0
TABLE
  2
VIEW
 70
     0
  0
ENDTAB
  0
TABLE
  2
UCS
 70
     0
  0
ENDTAB
  0
TABLE
  2
APPID
 70
     1
  0
APPID
  2
ACAD
 70
     0
  0
ENDTAB
  0
TABLE
  2
DIMSTYLE
 70
     1
  0
DIMSTYLE
  2
IGA
 70
     0
  3

  4

  5

  6
OPEN
  7
OPEN
 40
2.0
 41
2.0
 42
0.5
 43
10.0
 44
1.0
 45
0.0
 46
0.0
 47
1.0
 48
1.0
140
3.0
141
0.0
142
0.0
143
0.03937
144
1.0
145
0.0
146
10.0
147
1.0
 71
     0
 72
     0
 73
     0
 74
     0
 75
     0
 76
     0
 77
     1
 78
     8
170
     0
171
     2
172
     0
173
     1
174
     0
175
     0
176
     0
177
     0
178
     0
  0
ENDTAB
  0
ENDSEC
  0
SECTION
  2
BLOCKS
  0
BLOCK
  8
0
  2
$MODEL_SPACE
 70
     0
 10
0.0
 20
0.0
 30
0.0
  3
$MODEL_SPACE
  1

  0
ENDBLK
  5
1B
  8
0
  0
BLOCK
 67
     1
  8
0
  2
$PAPER_SPACE
 70
     0
 10
0.0
 20
0.0
 30
0.0
  3
$PAPER_SPACE
  1

  0
ENDBLK
  5
18
 67
     1
  8
0
  0
BLOCK
  8
0
  2
_OPEN
 70
     0
 10
0.0
 20
0.0
 30
0.0
  3
_OPEN
  1

  0
LINE
  5
7B43
  8
0
  6
BYBLOCK
 62
     0
 10
-1.0
 20
0.166667
 30
0.0
 11
0.0
 21
0.0
 31
0.0
  0
LINE
  5
7B44
  8
0
  6
BYBLOCK
 62
     0
 10
0.0
 20
0.0
 30
0.0
 11
-1.0
 21
-0.166667
 31
0.0
  0
LINE
  5
7B45
  8
0
  6
BYBLOCK
 62
     0
 10
0.0
 20
0.0
 30
0.0
 11
-1.0
 21
0.0
 31
0.0
  0
ENDBLK
  5
7B46
  8
0
  0
BLOCK
  8
0
  2
*D1
 70
     1
 10
0.0
 20
0.0
 30
0.0
  3
*D1
  1

  0
LINE
  5
7DF5
  8
3
  6
CONTINUOUS
 62
     0
 10
433.79061428757541
 20
667.76913811630789
 30
0.0
 11
433.79061428757541
 21
610.59673711630785
 31
0.0
  0
LINE
  5
7DF6
  8
3
  6
CONTINUOUS
 62
     0
 10
623.79061428757541
 20
672.49403311630783
 30
0.0
 11
623.79061428757541
 21
610.59673711630785
 31
0.0
  0
LINE
  5
7DF7
  8
3
  6
CONTINUOUS
 62
     0
 10
453.79061428757541
 20
620.59673711630785
 30
0.0
 11
603.79061428757541
 21
620.59673711630785
 31
0.0
  0
INSERT
  5
7DF8
  8
3
  6
CONTINUOUS
 62
     0
  2
_OPEN
 10
433.79061428757541
 20
620.59673711630785
 30
0.0
 41
20.0
 42
20.0
 43
20.0
 50
180.0
  0
INSERT
  5
7DF9
  8
3
  6
CONTINUOUS
 62
     0
  2
_OPEN
 10
623.79061428757541
 20
620.59673711630785
 30
0.0
 41
20.0
 42
20.0
 43
20.0
  0
TEXT
  8
3
  40
30
  5
7E94
  62
0
  72
0
  71
0
 10
467.780
 20
592.497
 30
0.000000
  1
190
  0
POINT
  5
7DFB
  8
DEFPOINTS
  6
CONTINUOUS
 62
     0
 10
433.79061428757541
 20
672.76913811630777
 30
0.0
  0
POINT
  5
7DFC
  8
DEFPOINTS
  6
CONTINUOUS
 62
     0
 10
623.79061428757541
 20
677.49403311630783
 30
0.0
  0
POINT
  5
7DFD
  8
DEFPOINTS
  6
CONTINUOUS
 62
     0
 10
623.79061428757541
 20
620.59673711630785
 30
0.0
  0
ENDBLK
  5
7B53
  8
0
  0
BLOCK
  8
0
  2
*D2
 70
     1
 10
0.0
 20
0.0
 30
0.0
  3
*D2
  1

  0
LINE
  5
7DFE
  8
3
  6
CONTINUOUS
 62
     0
 10
1143.790614287575
 20
667.76913811630789
 30
0.0
 11
1143.790614287575
 21
610.59673711630785
 31
0.0
  0
LINE
  5
7DFF
  8
3
  6
CONTINUOUS
 62
     0
 10
643.79061428757529
 20
620.59673711630785
 30
0.0
 11
1123.790614287575
 21
620.59673711630785
 31
0.0
  0
INSERT
  5
7E00
  8
3
  6
CONTINUOUS
 62
     0
  2
_OPEN
 10
623.79061428757541
 20
620.59673711630785
 30
0.0
 41
20.0
 42
20.0
 43
20.0
 50
180.0
  0
INSERT
  5
7E01
  8
3
  6
CONTINUOUS
 62
     0
  2
_OPEN
 10
1143.790614287575
 20
620.59673711630785
 30
0.0
 41
20.0
 42
20.0
 43
20.0
  0
TEXT
  8
3
  40
30
  5
7E95
  62
0
  72
0
  71
0
 10
823.791
 20
592.497
 30
0.000000
  1
520
  0
POINT
  5
7E03
  8
DEFPOINTS
  6
CONTINUOUS
 62
     0
 10
623.79061428757541
 20
677.49403311630783
 30
0.0
  0
POINT
  5
7E04
  8
DEFPOINTS
  6
CONTINUOUS
 62
     0
 10
1143.790614287575
 20
672.76913811630777
 30
0.0
  0
POINT
  5
7E05
  8
DEFPOINTS
  6
CONTINUOUS
 62
     0
 10
1143.790614287575
 20
620.59673711630785
 30
0.0
  0
ENDBLK
  5
7B5F
  8
0
  0
BLOCK
  8
0
  2
*D3
 70
     1
 10
0.0
 20
0.0
 30
0.0
  3
*D3
  1

  0
LINE
  5
7E06
  8
3
  6
CONTINUOUS
 62
     0
 10
623.79061428757541
 20
1222.7691381163081
 30
0.0
 11
623.79061428757541
 21
1273.5058611163081
 31
0.0
  0
LINE
  5
7E07
  8
3
  6
CONTINUOUS
 62
     0
 10
873.79061428757541
 20
1222.7691381163081
 30
0.0
 11
873.79061428757541
 21
1273.5058611163081
 31
0.0
  0
LINE
  5
7E08
  8
3
  6
CONTINUOUS
 62
     0
 10
643.79061428757529
 20
1263.505861116307
 30
0.0
 11
853.79061428757529
 21
1263.505861116307
 31
0.0
  0
INSERT
  5
7E09
  8
3
  6
CONTINUOUS
 62
     0
  2
_OPEN
 10
623.79061428757541
 20
1263.505861116307
 30
0.0
 41
20.0
 42
20.0
 43
20.0
 50
180.0
  0
INSERT
  5
7E0A
  8
3
  6
CONTINUOUS
 62
     0
  2
_OPEN
 10
873.79061428757541
 20
1263.505861116307
 30
0.0
 41
20.0
 42
20.0
 43
20.0
  0
TEXT
  8
3
  40
30
  5
7E96
  62
0
  72
0
  71
0
 10
689.421
 20
1235.41
 30
0.000000
  1
250
  0
POINT
  5
7E0C
  8
DEFPOINTS
  6
CONTINUOUS
 62
     0
 10
623.79061428757541
 20
1217.7691381163081
 30
0.0
  0
POINT
  5
7E0D
  8
DEFPOINTS
  6
CONTINUOUS
 62
     0
 10
873.79061428757541
 20
1217.7691381163081
 30
0.0
  0
POINT
  5
7E0E
  8
DEFPOINTS
  6
CONTINUOUS
 62
     0
 10
873.79061428757541
 20
1263.505861116307
 30
0.0
  0
ENDBLK
  5
7B6C
  8
0
  0
BLOCK
  8
0
  2
*D4
 70
     1
 10
0.0
 20
0.0
 30
0.0
  3
*D4
  1

  0
LINE
  5
7E0F
  8
3
  6
CONTINUOUS
 62
     0
 10
437.80123028757538
 20
1022.769138116307
 30
0.0
 11
437.80123028757538
 21
1330.1788701163071
 31
0.0
  0
LINE
  5
7E10
  8
3
  6
CONTINUOUS
 62
     0
 10
623.79061428757541
 20
1222.7691381163081
 30
0.0
 11
623.79061428757541
 21
1330.1788701163071
 31
0.0
  0
LINE
  5
7E11
  8
3
  6
CONTINUOUS
 62
     0
 10
457.80123028757538
 20
1320.178870116308
 30
0.0
 11
603.79061428757541
 21
1320.178870116308
 31
0.0
  0
INSERT
  5
7E12
  8
3
  6
CONTINUOUS
 62
     0
  2
_OPEN
 10
437.80123028757538
 20
1320.178870116308
 30
0.0
 41
20.0
 42
20.0
 43
20.0
 50
180.0
  0
INSERT
  5
7E13
  8
3
  6
CONTINUOUS
 62
     0
  2
_OPEN
 10
623.79061428757541
 20
1320.178870116308
 30
0.0
 41
20.0
 42
20.0
 43
20.0
  0
TEXT
  8
3
  40
30
  5
7E97
  62
0
  72
0
  71
0
 10
461.183
 20
1292.08
 30
0.000000
  1
186
  0
POINT
  5
7E15
  8
DEFPOINTS
  6
CONTINUOUS
 62
     0
 10
437.80123028757538
 20
1017.769138116307
 30
0.0
  0
POINT
  5
7E16
  8
DEFPOINTS
  6
CONTINUOUS
 62
     0
 10
623.79061428757541
 20
1217.7691381163081
 30
0.0
  0
POINT
  5
7E17
  8
DEFPOINTS
  6
CONTINUOUS
 62
     0
 10
623.79061428757541
 20
1320.178870116308
 30
0.0
  0
ENDBLK
  5
7B79
  8
0
  0
BLOCK
  8
0
  2
*D5
 70
     1
 10
0.0
 20
0.0
 30
0.0
  3
*D5
  1

  0
LINE
  5
7E18
  8
3
  6
CONTINUOUS
 62
     0
 10
883.79061428757541
 20
1202.769138116307
 30
0.0
 11
883.79061428757541
 21
1330.1788701163071
 31
0.0
  0
LINE
  5
7E19
  8
3
  6
CONTINUOUS
 62
     0
 10
643.79061428757529
 20
1320.178870116308
 30
0.0
 11
863.79061428757541
 21
1320.178870116308
 31
0.0
  0
INSERT
  5
7E1A
  8
3
  6
CONTINUOUS
 62
     0
  2
_OPEN
 10
623.79061428757541
 20
1320.178870116308
 30
0.0
 41
20.0
 42
20.0
 43
20.0
 50
180.0
  0
INSERT
  5
7E1B
  8
3
  6
CONTINUOUS
 62
     0
  2
_OPEN
 10
883.79061428757541
 20
1320.178870116308
 30
0.0
 41
20.0
 42
20.0
 43
20.0
  0
TEXT
  8
3
  40
30
  5
7E98
  62
0
  72
0
  71
0
 10
693.791
 20
1292.08
 30
0.000000
  1
260
  0
POINT
  5
7E1D
  8
DEFPOINTS
  6
CONTINUOUS
 62
     0
 10
623.79061428757541
 20
1217.7691381163081
 30
0.0
  0
POINT
  5
7E1E
  8
DEFPOINTS
  6
CONTINUOUS
 62
     0
 10
883.79061428757541
 20
1197.7691381163081
 30
0.0
  0
POINT
  5
7E1F
  8
DEFPOINTS
  6
CONTINUOUS
 62
     0
 10
883.79061428757541
 20
1320.178870116308
 30
0.0
  0
ENDBLK
  5
7B85
  8
0
  0
BLOCK
  8
0
  2
*D6
 70
     1
 10
0.0
 20
0.0
 30
0.0
  3
*D6
  1

  0
LINE
  5
7E20
  8
3
  6
CONTINUOUS
 62
     0
 10
433.79061428757541
 20
1726.371096464278
 30
0.0
 11
433.79061428757541
 21
1632.442657464278
 31
0.0
  0
LINE
  5
7E21
  8
3
  6
CONTINUOUS
 62
     0
 10
1143.790614287575
 20
1726.371096464278
 30
0.0
 11
1143.790614287575
 21
1632.442657464278
 31
0.0
  0
LINE
  5
7E22
  8
3
  6
CONTINUOUS
 62
     0
 10
453.79061428757541
 20
1642.442657464278
 30
0.0
 11
1123.790614287575
 21
1642.442657464278
 31
0.0
  0
INSERT
  5
7E23
  8
3
  6
CONTINUOUS
 62
     0
  2
_OPEN
 10
433.79061428757541
 20
1642.442657464278
 30
0.0
 41
20.0
 42
20.0
 43
20.0
 50
180.0
  0
INSERT
  5
7E24
  8
3
  6
CONTINUOUS
 62
     0
  2
_OPEN
 10
1143.790614287575
 20
1642.442657464278
 30
0.0
 41
20.0
 42
20.0
 43
20.0
  0
TEXT
  8
3
  40
30
  5
7E99
  62
0
  72
0
  71
0
 10
703.405
 20
1614.34
 30
0.000000
  1
710
  0
POINT
  5
7E26
  8
DEFPOINTS
  6
CONTINUOUS
 62
     0
 10
433.79061428757541
 20
1731.371096464278
 30
0.0
  0
POINT
  5
7E27
  8
DEFPOINTS
  6
CONTINUOUS
 62
     0
 10
1143.790614287575
 20
1731.371096464278
 30
0.0
  0
POINT
  5
7E28
  8
DEFPOINTS
  6
CONTINUOUS
 62
     0
 10
1143.790614287575
 20
1642.442657464278
 30
0.0
  0
ENDBLK
  5
7BE3
  8
0
  0
BLOCK
  8
0
  2
*D7
 70
     1
 10
0.0
 20
0.0
 30
0.0
  3
*D7
  1

  0
LINE
  5
7E29
  8
3
  6
CONTINUOUS
 62
     0
 10
1148.790614287575
 20
2211.3710964642778
 30
0.0
 11
1250.989624287575
 21
2211.3710964642778
 31
0.0
  0
LINE
  5
7E2A
  8
3
  6
CONTINUOUS
 62
     0
 10
1148.790614287575
 20
1731.371096464278
 30
0.0
 11
1250.989624287575
 21
1731.371096464278
 31
0.0
  0
LINE
  5
7E2B
  8
3
  6
CONTINUOUS
 62
     0
 10
1240.989624287575
 20
2191.3710964642778
 30
0.0
 11
1240.989624287575
 21
1751.371096464278
 31
0.0
  0
INSERT
  5
7E2C
  8
3
  6
CONTINUOUS
 62
     0
  2
_OPEN
 10
1240.989624287575
 20
2211.3710964642778
 30
0.0
 41
20.0
 42
20.0
 43
20.0
 50
90.0
  0
INSERT
  5
7E2D
  8
3
  6
CONTINUOUS
 62
     0
  2
_OPEN
 10
1240.989624287575
 20
1731.371096464278
 30
0.0
 41
20.0
 42
20.0
 43
20.0
 50
270.0
  0
TEXT
  8
3
  40
30
  5
7E9A
  62
0
  72
0
  71
0
 10
1155.99
 20
1911.19
 30
0.000000
  1
480
  0
POINT
  5
7E2F
  8
DEFPOINTS
  6
CONTINUOUS
 62
     0
 10
1143.790614287575
 20
2211.3710964642778
 30
0.0
  0
POINT
  5
7E30
  8
DEFPOINTS
  6
CONTINUOUS
 62
     0
 10
1143.790614287575
 20
1731.371096464278
 30
0.0
  0
POINT
  5
7E31
  8
DEFPOINTS
  6
CONTINUOUS
 62
     0
 10
1240.989624287575
 20
1731.371096464278
 30
0.0
  0
ENDBLK
  5
7BF0
  8
0
  0
BLOCK
  8
0
  2
*D8
 70
     1
 10
0.0
 20
0.0
 30
0.0
  3
*D8
  1

  0
LINE
  5
7E32
  8
3
  6
CONTINUOUS
 62
     0
 10
1286.710083965424
 20
667.76913811630789
 30
0.0
 11
1286.710083965424
 21
576.49045911630776
 31
0.0
  0
LINE
  5
7E33
  8
3
  6
CONTINUOUS
 62
     0
 10
1624.710083965424
 20
667.76913811630789
 30
0.0
 11
1624.710083965424
 21
576.49045911630776
 31
0.0
  0
LINE
  5
7E34
  8
3
  6
CONTINUOUS
 62
     0
 10
1306.710083965424
 20
586.49045911630776
 30
0.0
 11
1604.710083965424
 21
586.49045911630776
 31
0.0
  0
INSERT
  5
7E35
  8
3
  6
CONTINUOUS
 62
     0
  2
_OPEN
 10
1286.710083965424
 20
586.49045911630776
 30
0.0
 41
20.0
 42
20.0
 43
20.0
 50
180.0
  0
INSERT
  5
7E36
  8
3
  6
CONTINUOUS
 62
     0
  2
_OPEN
 10
1624.710083965424
 20
586.49045911630776
 30
0.0
 41
20.0
 42
20.0
 43
20.0
  0
TEXT
  8
3
  40
30
  5
7E9B
  62
0
  72
0
  71
0
 10
1394.46
 20
558.390
 30
0.000000
  1
338
  0
POINT
  5
7E38
  8
DEFPOINTS
  6
CONTINUOUS
 62
     0
 10
1286.710083965424
 20
672.76913811630777
 30
0.0
  0
POINT
  5
7E39
  8
DEFPOINTS
  6
CONTINUOUS
 62
     0
 10
1624.710083965424
 20
672.76913811630777
 30
0.0
  0
POINT
  5
7E3A
  8
DEFPOINTS
  6
CONTINUOUS
 62
     0
 10
1624.710083965424
 20
586.49045911630776
 30
0.0
  0
ENDBLK
  5
7C01
  8
0
  0
BLOCK
  8
0
  2
*D9
 70
     1
 10
0.0
 20
0.0
 30
0.0
  3
*D9
  1

  0
LINE
  5
7E3B
  8
3
  6
CONTINUOUS
 62
     0
 10
1766.710083965424
 20
667.76913811630789
 30
0.0
 11
1766.710083965424
 21
576.49045911630776
 31
0.0
  0
LINE
  5
7E3C
  8
3
  6
CONTINUOUS
 62
     0
 10
1644.710083965424
 20
586.49045911630776
 30
0.0
 11
1746.710083965424
 21
586.49045911630776
 31
0.0
  0
INSERT
  5
7E3D
  8
3
  6
CONTINUOUS
 62
     0
  2
_OPEN
 10
1624.710083965424
 20
586.49045911630776
 30
0.0
 41
20.0
 42
20.0
 43
20.0
 50
180.0
  0
INSERT
  5
7E3E
  8
3
  6
CONTINUOUS
 62
     0
  2
_OPEN
 10
1766.710083965424
 20
586.49045911630776
 30
0.0
 41
20.0
 42
20.0
 43
20.0
  0
TEXT
  8
3
  40
30
  5
7E9C
  62
0
  72
0
  71
0
 10
1635.71
 20
558.390
 30
0.000000
  1
142
  0
POINT
  5
7E40
  8
DEFPOINTS
  6
CONTINUOUS
 62
     0
 10
1624.710083965424
 20
672.76913811630777
 30
0.0
  0
POINT
  5
7E41
  8
DEFPOINTS
  6
CONTINUOUS
 62
     0
 10
1766.710083965424
 20
672.76913811630777
 30
0.0
  0
POINT
  5
7E42
  8
DEFPOINTS
  6
CONTINUOUS
 62
     0
 10
1766.710083965424
 20
586.49045911630776
 30
0.0
  0
ENDBLK
  5
7C12
  8
0
  0
BLOCK
  8
0
  2
*D10
 70
     1
 10
0.0
 20
0.0
 30
0.0
  3
*D10
  1

  0
LINE
  5
7E43
  8
3
  6
CONTINUOUS
 62
     0
 10
1534.9100839654241
 20
1222.7691381163081
 30
0.0
 11
1534.9100839654241
 21
1270.9503661163069
 31
0.0
  0
LINE
  5
7E44
  8
3
  6
CONTINUOUS
 62
     0
 10
1714.510083965424
 20
1222.7691381163081
 30
0.0
 11
1714.510083965424
 21
1270.9503661163069
 31
0.0
  0
LINE
  5
7E45
  8
3
  6
CONTINUOUS
 62
     0
 10
1554.9100839654241
 20
1260.9503661163069
 30
0.0
 11
1694.510083965424
 21
1260.9503661163069
 31
0.0
  0
INSERT
  5
7E46
  8
3
  6
CONTINUOUS
 62
     0
  2
_OPEN
 10
1534.9100839654241
 20
1260.9503661163069
 30
0.0
 41
20.0
 42
20.0
 43
20.0
 50
180.0
  0
INSERT
  5
7E47
  8
3
  6
CONTINUOUS
 62
     0
  2
_OPEN
 10
1714.510083965424
 20
1260.9503661163069
 30
0.0
 41
20.0
 42
20.0
 43
20.0
  0
TEXT
  8
3
  40
30
  5
7E9D
  62
0
  72
0
  71
0
 10
1553.91
 20
1232.85
 30
0.000000
  1
180
  0
POINT
  5
7E49
  8
DEFPOINTS
  6
CONTINUOUS
 62
     0
 10
1534.9100839654241
 20
1217.7691381163081
 30
0.0
  0
POINT
  5
7E4A
  8
DEFPOINTS
  6
CONTINUOUS
 62
     0
 10
1714.510083965424
 20
1217.7691381163081
 30
0.0
  0
POINT
  5
7E4B
  8
DEFPOINTS
  6
CONTINUOUS
 62
     0
 10
1714.510083965424
 20
1260.9503661163069
 30
0.0
  0
ENDBLK
  5
7C1F
  8
0
  0
BLOCK
  8
0
  2
*D11
 70
     1
 10
0.0
 20
0.0
 30
0.0
  3
*D11
  1

  0
LINE
  5
7E4C
  8
3
  6
CONTINUOUS
 62
     0
 10
1284.710083965424
 20
1147.769138116307
 30
0.0
 11
1284.710083965424
 21
1339.636010116307
 31
0.0
  0
LINE
  5
7E4D
  8
3
  6
CONTINUOUS
 62
     0
 10
1624.710083965424
 20
1321.149702116307
 30
0.0
 11
1624.710083965424
 21
1339.636010116307
 31
0.0
  0
LINE
  5
7E4E
  8
3
  6
CONTINUOUS
 62
     0
 10
1304.710083965424
 20
1329.636010116307
 30
0.0
 11
1604.710083965424
 21
1329.636010116307
 31
0.0
  0
INSERT
  5
7E4F
  8
3
  6
CONTINUOUS
 62
     0
  2
_OPEN
 10
1284.710083965424
 20
1329.636010116307
 30
0.0
 41
20.0
 42
20.0
 43
20.0
 50
180.0
  0
INSERT
  5
7E50
  8
3
  6
CONTINUOUS
 62
     0
  2
_OPEN
 10
1624.710083965424
 20
1329.636010116307
 30
0.0
 41
20.0
 42
20.0
 43
20.0
  0
TEXT
  8
3
  40
30
  5
7E9E
  62
0
  72
0
  71
0
 10
1401.33
 20
1326.54
 30
0.000000
  1
MAX
  0
TEXT
  8
3
  40
30
  5
7E9F
  62
0
  72
0
  71
0
 10
1401.33
 20
1287.54
 30
0.000000
  1
340
  0
POINT
  5
7E52
  8
DEFPOINTS
  6
CONTINUOUS
 62
     0
 10
1284.710083965424
 20
1142.769138116307
 30
0.0
  0
POINT
  5
7E53
  8
DEFPOINTS
  6
CONTINUOUS
 62
     0
 10
1624.710083965424
 20
1316.149702116307
 30
0.0
  0
POINT
  5
7E54
  8
DEFPOINTS
  6
CONTINUOUS
 62
     0
 10
1624.710083965424
 20
1329.636010116307
 30
0.0
  0
ENDBLK
  5
7CA6
  8
0
  0
BLOCK
  8
0
  2
*D12
 70
     1
 10
0.0
 20
0.0
 30
0.0
  3
*D12
  1

  0
LINE
  5
7E55
  8
3
  6
CONTINUOUS
 62
     0
 10
1723.710083965424
 20
1169.7691381163081
 30
0.0
 11
1723.710083965424
 21
1339.636010116307
 31
0.0
  0
LINE
  5
7E56
  8
3
  6
CONTINUOUS
 62
     0
 10
1644.710083965424
 20
1329.636010116307
 30
0.0
 11
1703.710083965424
 21
1329.636010116307
 31
0.0
  0
TEXT
  8
3
  40
30
  5
7EA0
  62
0
  72
0
  71
0
 10
1616.24
 20
1301.54
 30
0.000000
  1
99
  0
INSERT
  5
7E58
  8
3
  6
CONTINUOUS
 62
     0
  2
_OPEN
 10
1624.710083965424
 20
1329.636010116307
 30
0.0
 41
20.0
 42
20.0
 43
20.0
 50
180.0
  0
INSERT
  5
7E59
  8
3
  6
CONTINUOUS
 62
     0
  2
_OPEN
 10
1723.710083965424
 20
1329.636010116307
 30
0.0
 41
20.0
 42
20.0
 43
20.0
  0
POINT
  5
7E5A
  8
DEFPOINTS
  6
CONTINUOUS
 62
     0
 10
1624.710083965424
 20
1316.149702116307
 30
0.0
  0
POINT
  5
7E5B
  8
DEFPOINTS
  6
CONTINUOUS
 62
     0
 10
1723.710083965424
 20
1164.7691381163081
 30
0.0
  0
POINT
  5
7E5C
  8
DEFPOINTS
  6
CONTINUOUS
 62
     0
 10
1723.710083965424
 20
1329.636010116307
 30
0.0
  0
ENDBLK
  5
7C72
  8
0
  0
BLOCK
  8
0
  2
*D13
 70
     1
 10
0.0
 20
0.0
 30
0.0
  3
*D13
  1

  0
LINE
  5
7E5D
  8
3
  6
CONTINUOUS
 62
     0
 10
1728.710083965424
 20
1142.769138116307
 30
0.0
 11
1808.980672965424
 21
1142.769138116307
 31
0.0
  0
LINE
  5
7E5E
  8
3
  6
CONTINUOUS
 62
     0
 10
1728.710083965424
 20
892.76913811630789
 30
0.0
 11
1808.980672965424
 21
892.76913811630766
 31
0.0
  0
LINE
  5
7E5F
  8
3
  6
CONTINUOUS
 62
     0
 10
1798.980672965424
 20
1122.7691381163081
 30
0.0
 11
1798.980672965424
 21
912.76913811630777
 31
0.0
  0
INSERT
  5
7E60
  8
3
  6
CONTINUOUS
 62
     0
  2
_OPEN
 10
1798.980672965424
 20
1142.769138116307
 30
0.0
 41
20.0
 42
20.0
 43
20.0
 50
90.0
  0
INSERT
  5
7E61
  8
3
  6
CONTINUOUS
 62
     0
  2
_OPEN
 10
1798.980672965424
 20
892.76913811630766
 30
0.0
 41
20.0
 42
20.0
 43
20.0
 50
270.0
  0
TEXT
  8
3
  40
30
  5
7EA1
  62
0
  72
0
  71
0
 10
1713.98
 20
970.755
 30
0.000000
  1
φ250
  0
POINT
  5
7E63
  8
DEFPOINTS
  6
CONTINUOUS
 62
     0
 10
1723.710083965424
 20
1142.769138116307
 30
0.0
  0
POINT
  5
7E64
  8
DEFPOINTS
  6
CONTINUOUS
 62
     0
 10
1723.710083965424
 20
892.76913811630789
 30
0.0
  0
POINT
  5
7E65
  8
DEFPOINTS
  6
CONTINUOUS
 62
     0
 10
1798.980672965424
 20
892.76913811630766
 30
0.0
  0
ENDBLK
  5
7CB1
  8
0
  0
BLOCK
  8
0
  2
*D14
 70
     1
 10
0.0
 20
0.0
 30
0.0
  3
*D14
  1

  0
LINE
  5
7E66
  8
3
 62
     0
 10
437.80123028757538
 20
1335.178870116308
 30
0.0
 11
437.80123028757538
 21
1401.288568009873
 31
0.0
  0
LINE
  5
7E67
  8
3
 62
     0
 10
1143.790614287575
 20
787.76913811630789
 30
0.0
 11
1143.790614287575
 21
1401.288568009873
 31
0.0
  0
LINE
  5
7E68
  8
3
 62
     0
 10
457.80123028757538
 20
1391.288568009873
 30
0.0
 11
1123.790614287575
 21
1391.288568009873
 31
0.0
  0
INSERT
  5
7E69
  8
3
 62
     0
  2
_OPEN
 10
437.80123028757538
 20
1391.288568009873
 30
0.0
 41
20.0
 42
20.0
 43
20.0
 50
180.0
  0
INSERT
  5
7E6A
  8
3
 62
     0
  2
_OPEN
 10
1143.790614287575
 20
1391.288568009873
 30
0.0
 41
20.0
 42
20.0
 43
20.0
  0
TEXT
  8
3
  40
30
  5
7EA2
  62
0
  72
0
  71
0
 10
779.754
 20
1363.19
 30
0.000000
  1
706
  0
POINT
  5
7E6C
  8
DEFPOINTS
 62
     0
 10
437.80123028757538
 20
1330.1788701163071
 30
0.0
  0
POINT
  5
7E6D
  8
DEFPOINTS
 62
     0
 10
1143.790614287575
 20
782.76913811630777
 30
0.0
  0
POINT
  5
7E6E
  8
DEFPOINTS
 62
     0
 10
1143.790614287575
 20
1391.288568009873
 30
0.0
  0
ENDBLK
  5
7CBD
  8
0
  0
BLOCK
  8
0
  2
*D15
 70
     1
 10
0.0
 20
0.0
 30
0.0
  3
*D15
  1

  0
LINE
  5
7E6F
  8
3
 62
     0
 10
597.79061428757529
 20
1217.7691381163081
 30
0.0
 11
354.7793133473553
 21
1217.7691381163081
 31
0.0
  0
LINE
  5
7E70
  8
3
 62
     0
 10
412.34770528757548
 20
1017.769138116307
 30
0.0
 11
354.7793133473553
 21
1017.769138116307
 31
0.0
  0
LINE
  5
7E71
  8
3
 62
     0
 10
364.7793133473553
 20
1197.7691381163081
 30
0.0
 11
364.7793133473553
 21
1037.7691381163081
 31
0.0
  0
INSERT
  5
7E72
  8
3
 62
     0
  2
_OPEN
 10
364.7793133473553
 20
1217.7691381163081
 30
0.0
 41
20.0
 42
20.0
 43
20.0
 50
90.0
  0
INSERT
  5
7E73
  8
3
 62
     0
  2
_OPEN
 10
364.7793133473553
 20
1017.769138116307
 30
0.0
 41
20.0
 42
20.0
 43
20.0
 50
270.0
  0
TEXT
  8
3
  40
30
  5
7EA3
  62
0
  72
0
  71
0
 10
279.779
 20
1061.85
 30
0.000000
  1
200
  0
POINT
  5
7E75
  8
DEFPOINTS
 62
     0
 10
602.79061428757541
 20
1217.7691381163081
 30
0.0
  0
POINT
  5
7E76
  8
DEFPOINTS
 62
     0
 10
417.34770528757548
 20
1017.769138116307
 30
0.0
  0
POINT
  5
7E77
  8
DEFPOINTS
 62
     0
 10
364.7793133473553
 20
1017.769138116307
 30
0.0
  0
ENDBLK
  5
7CCE
  8
0
  0
BLOCK
  8
0
  2
*D16
 70
     1
 10
0.0
 20
0.0
 30
0.0
  3
*D16
  1

  0
LINE
  5
7E78
  8
3
 62
     0
 10
428.79061428757541
 20
702.76913811630777
 30
0.0
 11
354.77931334735513
 21
702.76913811630777
 31
0.0
  0
LINE
  5
7E79
  8
3
 62
     0
 10
364.77931334735513
 20
997.76913811630789
 30
0.0
 11
364.77931334735513
 21
722.76913811630777
 31
0.0
  0
INSERT
  5
7E7A
  8
3
 62
     0
  2
_OPEN
 10
364.77931334735513
 20
1017.769138116307
 30
0.0
 41
20.0
 42
20.0
 43
20.0
 50
90.0
  0
INSERT
  5
7E7B
  8
3
 62
     0
  2
_OPEN
 10
364.77931334735513
 20
702.76913811630777
 30
0.0
 41
20.0
 42
20.0
 43
20.0
 50
270.0
  0
TEXT
  8
3
  40
30
  5
7EA4
  62
0
  72
0
  71
0
 10
279.779
 20
807.169
 30
0.000000
  1
315
  0
POINT
  5
7E7D
  8
DEFPOINTS
 62
     0
 10
417.34770528757548
 20
1017.769138116307
 30
0.0
  0
POINT
  5
7E7E
  8
DEFPOINTS
 62
     0
 10
433.79061428757541
 20
702.76913811630777
 30
0.0
  0
POINT
  5
7E7F
  8
DEFPOINTS
 62
     0
 10
364.77931334735513
 20
702.76913811630777
 30
0.0
  0
ENDBLK
  5
7CDA
  8
0
  0
BLOCK
  8
0
  2
*D17
 70
     1
 10
0.0
 20
0.0
 30
0.0
  3
*D17
  1

  0
LINE
  5
7E80
  8
3
 62
     0
 10
428.79061428757541
 20
702.76913811630777
 30
0.0
 11
354.77931334735513
 21
702.76913811630777
 31
0.0
  0
LINE
  5
7E81
  8
3
 62
     0
 10
428.79061428757541
 20
672.76913811630777
 30
0.0
 11
354.77931334735513
 21
672.76913811630777
 31
0.0
  0
LINE
  5
7E82
  8
3
 62
     0
 10
364.77931334735513
 20
722.76913811630777
 30
0.0
 11
364.77931334735513
 21
742.76913811630789
 31
0.0
  0
LINE
  5
7E83
  8
3
 62
     0
 10
364.77931334735513
 20
652.76913811630777
 30
0.0
 11
364.77931334735501
 21
564.19770954487933
 31
0.0
  0
LINE
  5
7E84
  8
3
 62
     0
 10
364.77931334735513
 20
702.76913811630777
 30
0.0
 11
364.77931334735513
 21
672.76913811630777
 31
0.0
  0
INSERT
  5
7E85
  8
3
 62
     0
  2
_OPEN
 10
364.77931334735513
 20
702.76913811630777
 30
0.0
 41
20.0
 42
20.0
 43
20.0
 50
270.0
  0
INSERT
  5
7E86
  8
3
 62
     0
  2
_OPEN
 10
364.77931334735513
 20
672.76913811630777
 30
0.0
 41
20.0
 42
20.0
 43
20.0
 50
90.0
  0
TEXT
  8
3
  40
30
  5
7EA5
  62
0
  72
0
  71
0
 10
279.779
 20
545.383
 30
0.000000
  1
30
  0
POINT
  5
7E88
  8
DEFPOINTS
 62
     0
 10
433.79061428757541
 20
702.76913811630777
 30
0.0
  0
POINT
  5
7E89
  8
DEFPOINTS
 62
     0
 10
433.79061428757541
 20
672.76913811630777
 30
0.0
  0
POINT
  5
7E8A
  8
DEFPOINTS
 62
     0
 10
364.77931334735513
 20
672.76913811630777
 30
0.0
  0
ENDBLK
  5
7CF8
  8
0
  0
BLOCK
  8
0
  2
*D18
 70
     1
 10
0.0
 20
0.0
 30
0.0
  3
*D18
  1

  0
LINE
  5
7E8B
  8
3
 62
     0
 10
428.79061428757541
 20
672.76913811630777
 30
0.0
 11
289.35688171683069
 21
672.76913811630777
 31
0.0
  0
LINE
  5
7E8C
  8
3
 62
     0
 10
592.79061428757541
 20
1217.7691381163081
 30
0.0
 11
289.35688171683091
 21
1217.7691381163081
 31
0.0
  0
LINE
  5
7E8D
  8
3
 62
     0
 10
299.35688171683069
 20
692.76913811630789
 30
0.0
 11
299.35688171683091
 21
1197.7691381163081
 31
0.0
  0
INSERT
  5
7E8E
  8
3
 62
     0
  2
_OPEN
 10
299.35688171683069
 20
672.76913811630777
 30
0.0
 41
20.0
 42
20.0
 43
20.0
 50
270.0
  0
INSERT
  5
7E8F
  8
3
 62
     0
  2
_OPEN
 10
299.35688171683091
 20
1217.7691381163081
 30
0.0
 41
20.0
 42
20.0
 43
20.0
 50
90.0
  0
TEXT
  8
3
  40
30
  5
7EA6
  62
0
  72
0
  71
0
 10
214.357
 20
883.779
 30
0.000000
  1
545
  0
POINT
  5
7E91
  8
DEFPOINTS
 62
     0
 10
433.79061428757541
 20
672.76913811630777
 30
0.0
  0
POINT
  5
7E92
  8
DEFPOINTS
 62
     0
 10
597.79061428757529
 20
1217.7691381163081
 30
0.0
  0
POINT
  5
7E93
  8
DEFPOINTS
 62
     0
 10
299.35688171683091
 20
1217.7691381163081
 30
0.0
  0
ENDBLK
  5
7D04
  8
0
  0
ENDSEC
  0
SECTION
  2
ENTITIES
  0
LINE
  5
7A91
  8
1
  6
CONTINUOUS
 10
874.79061428757541
 20
2159.3710964642778
 30
0.0
 11
424.89061428757537
 21
2159.3710964642778
 31
0.0
  0
LINE
  5
7A92
  8
1
  6
CONTINUOUS
 10
770.79061428757541
 20
2168.3710964642778
 30
0.0
 11
476.79061428757529
 21
2168.3710964642778
 31
0.0
  0
LINE
  5
7A93
  8
1
  6
CONTINUOUS
 10
874.79061428757541
 20
2159.3710964642778
 30
0.0
 11
622.79061428757529
 21
1979.371096464278
 31
0.0
  0
LINE
  5
7A94
  8
1
  6
CONTINUOUS
 10
622.79061428757529
 20
2159.3710964642778
 30
0.0
 11
874.79061428757541
 21
1979.371096464278
 31
0.0
  0
LINE
  5
7A95
  8
1
  6
CONTINUOUS
 10
424.89061428757537
 20
1979.371096464278
 30
0.0
 11
874.79061428757541
 21
1979.371096464278
 31
0.0
  0
CIRCLE
  5
7A96
  8
1
  6
CONTINUOUS
 10
623.79061428757541
 20
1017.769138116307
 30
0.0
 40
145.0
  0
LINE
  5
7A97
  8
1
  6
CONTINUOUS
 10
635.79061428757541
 20
1811.371096464278
 30
0.0
 11
974.49061428757545
 21
1811.371096464278
 31
0.0
  0
LINE
  5
7A98
  8
1
  6
CONTINUOUS
 10
635.79061428757541
 20
1841.371096464278
 30
0.0
 11
783.79061428757541
 21
1841.371096464278
 31
0.0
  0
LINE
  5
7A99
  8
1
  6
CONTINUOUS
 10
498.79061428757541
 20
1729.371096464278
 30
0.0
 11
1078.790614287575
 21
1729.371096464278
 31
0.0
  0
LINE
  5
7A9A
  8
1
  6
CONTINUOUS
 10
498.79061428757541
 20
1804.371096464278
 30
0.0
 11
1078.790614287575
 21
1804.371096464278
 31
0.0
  0
LINE
  5
7A9B
  8
1
  6
CONTINUOUS
 10
1143.790614287575
 20
762.76913811630789
 30
0.0
 11
433.79061428757541
 21
762.76913811630789
 31
0.0
  0
LINE
  5
7A9C
  8
1
  6
CONTINUOUS
 10
623.59061428757525
 20
1142.769138116307
 30
0.0
 11
1078.790614287575
 21
942.76913811630789
 31
0.0
  0
LINE
  5
7A9D
  8
1
  6
CONTINUOUS
 10
965.49061428757523
 20
801.56913811630784
 30
0.0
 11
598.6906142875755
 21
959.46913811630782
 31
0.0
  0
LINE
  5
7A9E
  8
1
  6
CONTINUOUS
 10
1009.890614287575
 20
897.76913811630789
 30
0.0
 11
651.89061428757532
 21
1074.669138116308
 31
0.0
  0
LINE
  5
7A9F
  8
1
  6
CONTINUOUS
 10
1143.790614287575
 20
702.76913811630777
 30
0.0
 11
433.79061428757541
 21
702.76913811630777
 31
0.0
  0
LINE
  5
7AA0
  8
1
  6
CONTINUOUS
 10
783.79061428757541
 20
702.76913811630777
 30
0.0
 11
463.79061428757529
 21
702.76913811630777
 31
0.0
  0
LINE
  5
7AA1
  8
1
  6
CONTINUOUS
 10
685.39061428757532
 20
1167.7691381163081
 30
0.0
 11
783.79061428757541
 21
1083.8691381163071
 31
0.0
  0
LINE
  5
7AA2
  8
1
  6
CONTINUOUS
 10
463.79061428757529
 20
984.46913811630782
 30
0.0
 11
783.79061428757541
 21
984.46913811630782
 31
0.0
  0
LINE
  5
7AA3
  8
1
  6
CONTINUOUS
 10
783.79061428757541
 20
1970.371096464278
 30
0.0
 11
463.79061428757529
 21
1970.371096464278
 31
0.0
  0
LINE
  5
7AA4
  8
1
  6
CONTINUOUS
 10
602.79061428757541
 20
1217.7691381163081
 30
0.0
 11
894.79061428757529
 21
1217.7691381163081
 31
0.0
  0
ARC
  5
7AA5
  8
1
  6
CONTINUOUS
 10
643.79061428757529
 20
1037.769138116307
 30
0.0
 40
240.90000000000001
 50
265.39999999999992
 51
355.10000000000002
  0
LINE
  5
7AA6
  8
1
  6
CONTINUOUS
 10
853.79061428757529
 20
1197.7691381163081
 30
0.0
 11
643.79061428757529
 21
1197.7691381163081
 31
0.0
  0
CIRCLE
  5
7AA7
  8
1
  6
CONTINUOUS
 10
623.79061428757541
 20
1017.769138116307
 30
0.0
 40
125.0
  0
LINE
  5
7AA8
  8
1
  6
CONTINUOUS
 10
498.79061428757541
 20
762.76913811630789
 30
0.0
 11
498.79061428757541
 21
1072.7691381163081
 31
0.0
  0
LINE
  5
7AA9
  8
1
  6
CONTINUOUS
 10
463.79061428757529
 20
762.76913811630789
 30
0.0
 11
463.79061428757529
 21
1083.8691381163071
 31
0.0
  0
ARC
  5
7AAA
  8
1
  6
CONTINUOUS
 10
640.79061428757541
 20
1000.769138116307
 30
0.0
 40
203.6999999999999
 50
174.5
 51
265.39999999999992
  0
LINE
  5
7AAB
  8
1
  6
CONTINUOUS
 10
433.79061428757541
 20
762.76913811630789
 30
0.0
 11
433.79061428757541
 21
672.76913811630777
 31
0.0
  0
LINE
  5
7AAC
  8
1
  6
CONTINUOUS
 10
463.79061428757529
 20
672.76913811630777
 30
0.0
 11
433.79061428757541
 21
672.76913811630777
 31
0.0
  0
LINE
  5
7AAD
  8
1
  6
CONTINUOUS
 10
463.79061428757529
 20
702.76913811630777
 30
0.0
 11
463.79061428757529
 21
672.76913811630777
 31
0.0
  0
LINE
  5
7AAE
  8
1
  6
CONTINUOUS
 10
498.79061428757541
 20
1072.7691381163081
 30
0.0
 11
623.59061428757525
 21
1142.769138116307
 31
0.0
  0
LINE
  5
7AAF
  8
1
  6
CONTINUOUS
 10
562.19061428757539
 20
1167.7691381163081
 30
0.0
 11
463.79061428757529
 21
1083.8691381163071
 31
0.0
  0
ARC
  5
7AB0
  8
1
  6
CONTINUOUS
 10
609.79061428757529
 20
1003.769138116307
 30
0.0
 40
172.59999999999991
 50
88.700000000000003
 51
174.5
  0
LINE
  5
7AB1
  8
1
  6
CONTINUOUS
 10
623.79061428757541
 20
1217.7691381163081
 30
0.0
 11
623.79061428757541
 21
1197.7691381163081
 31
0.0
  0
LINE
  5
7AB2
  8
1
  6
CONTINUOUS
 10
623.79061428757541
 20
1217.7691381163081
 30
0.0
 11
643.79061428757529
 21
1197.7691381163081
 31
0.0
  0
CIRCLE
  5
7AB3
  8
1
  6
CONTINUOUS
 10
623.79061428757541
 20
1017.769138116307
 30
0.0
 40
63.5
  0
LINE
  5
7AB4
  8
1
  6
CONTINUOUS
 10
562.19061428757539
 20
1167.7691381163081
 30
0.0
 11
685.39061428757532
 21
1167.7691381163081
 31
0.0
  0
LINE
  5
7AB5
  8
2
  6
CENTER
 10
1742.8698609654241
 20
1017.769138116307
 30
0.0
 11
1229.972548965424
 21
1017.769138116307
 31
0.0
  0
LINE
  5
7AB6
  8
1
  6
CONTINUOUS
 10
623.79061428757541
 20
1197.7691381163081
 30
0.0
 11
613.79061428757529
 21
1197.7691381163081
 31
0.0
  0
LINE
  5
7AB7
  8
2
  6
CENTER
 10
623.79061428757541
 20
2191.2420864642781
 30
0.0
 11
623.79061428757541
 21
1703.069602464278
 31
0.0
  0
LINE
  5
7AB8
  8
1
  6
CONTINUOUS
 10
613.79061428757529
 20
1197.7691381163081
 30
0.0
 11
613.79061428757529
 21
1176.3691381163071
 31
0.0
  0
LINE
  5
7AB9
  8
1
  6
CONTINUOUS
 10
622.79061428757529
 20
2159.3710964642778
 30
0.0
 11
622.79061428757529
 21
1979.371096464278
 31
0.0
  0
LINE
  5
7ABA
  8
1
  6
CONTINUOUS
 10
412.89061428757537
 20
2147.3710964642778
 30
0.0
 11
412.89061428757537
 21
1991.371096464278
 31
0.0
  0
LINE
  5
7ABB
  8
1
  6
CONTINUOUS
 10
463.79061428757529
 20
1841.371096464278
 30
0.0
 11
611.79061428757541
 21
1841.371096464278
 31
0.0
  0
LINE
  5
7ABC
  8
1
  6
CONTINUOUS
 10
433.79061428757541
 20
1811.371096464278
 30
0.0
 11
611.79061428757541
 21
1811.371096464278
 31
0.0
  0
LINE
  5
7ABD
  8
1
  6
CONTINUOUS
 10
433.79061428757541
 20
1978.371096464278
 30
0.0
 11
433.79061428757541
 21
1731.371096464278
 31
0.0
  0
LINE
  5
7ABE
  8
1
  6
CONTINUOUS
 10
498.79061428757541
 20
1729.371096464278
 30
0.0
 11
498.79061428757541
 21
1804.371096464278
 31
0.0
  0
LINE
  5
7ABF
  8
1
  6
CONTINUOUS
 10
463.79061428757529
 20
1811.371096464278
 30
0.0
 11
463.79061428757529
 21
1731.371096464278
 31
0.0
  0
LINE
  5
7AC0
  8
1
  6
CONTINUOUS
 10
463.79061428757529
 20
1731.371096464278
 30
0.0
 11
433.79061428757541
 21
1731.371096464278
 31
0.0
  0
ARC
  5
7AC1
  8
1
  6
CONTINUOUS
 10
424.89061428757537
 20
1991.371096464278
 30
0.0
 40
12.0
 50
180.0
 51
270.0
  0
LINE
  5
7AC2
  8
1
  6
CONTINUOUS
 10
476.79061428757529
 20
1979.371096464278
 30
0.0
 11
476.79061428757529
 21
1970.371096464278
 31
0.0
  0
LINE
  5
7AC3
  8
1
  6
CONTINUOUS
 10
463.79061428757529
 20
1841.371096464278
 30
0.0
 11
463.79061428757529
 21
1970.371096464278
 31
0.0
  0
LINE
  5
7AC4
  8
1
  6
CONTINUOUS
 10
687.29061428757541
 20
1749.371096464278
 30
0.0
 11
687.29061428757541
 21
1784.371096464278
 31
0.0
  0
LINE
  5
7AC5
  8
1
  6
CONTINUOUS
 10
560.29061428757529
 20
1749.371096464278
 30
0.0
 11
560.29061428757529
 21
1784.371096464278
 31
0.0
  0
LINE
  5
7AC6
  8
1
  6
CONTINUOUS
 10
560.29061428757529
 20
1749.371096464278
 30
0.0
 11
687.29061428757541
 21
1749.371096464278
 31
0.0
  0
LINE
  5
7AC7
  8
1
  6
CONTINUOUS
 10
560.29061428757529
 20
1784.371096464278
 30
0.0
 11
687.29061428757541
 21
1784.371096464278
 31
0.0
  0
LINE
  5
7AC8
  8
1
  6
CONTINUOUS
 10
635.79061428757541
 20
1784.371096464278
 30
0.0
 11
635.79061428757541
 21
1970.371096464278
 31
0.0
  0
LINE
  5
7AC9
  8
1
  6
CONTINUOUS
 10
611.79061428757541
 20
1784.371096464278
 30
0.0
 11
611.79061428757541
 21
1970.371096464278
 31
0.0
  0
ARC
  5
7ACA
  8
1
  6
CONTINUOUS
 10
424.89061428757537
 20
2147.3710964642778
 30
0.0
 40
12.0
 50
90.0
 51
180.0
  0
LINE
  5
7ACB
  8
1
  6
CONTINUOUS
 10
476.79061428757529
 20
2159.3710964642778
 30
0.0
 11
476.79061428757529
 21
2168.3710964642778
 31
0.0
  0
LINE
  5
7ACC
  8
1
  6
CONTINUOUS
 10
463.79061428757529
 20
2211.3710964642778
 30
0.0
 11
463.79061428757529
 21
2160.1710964642771
 31
0.0
  0
LINE
  5
7ACD
  8
1
  6
CONTINUOUS
 10
463.79061428757529
 20
2211.3710964642778
 30
0.0
 11
433.79061428757541
 21
2211.3710964642778
 31
0.0
  0
LINE
  5
7ACE
  8
1
  6
CONTINUOUS
 10
433.79061428757541
 20
2211.3710964642778
 30
0.0
 11
433.79061428757541
 21
2160.1710964642771
 31
0.0
  0
ARC
  5
7ACF
  8
1
  6
CONTINUOUS
 10
986.49061428757511
 20
850.26913811630777
 30
0.0
 40
75.799999999999997
 50
322.89999999999992
 51
217.09999999999991
  0
LINE
  5
7AD0
  8
1
  6
CONTINUOUS
 10
1078.790614287575
 20
762.76913811630789
 30
0.0
 11
1078.790614287575
 21
942.76913811630789
 31
0.0
  0
LINE
  5
7AD1
  8
1
  6
CONTINUOUS
 10
783.79061428757541
 20
1083.8691381163071
 30
0.0
 11
783.79061428757541
 21
762.76913811630789
 31
0.0
  0
LINE
  5
7AD2
  8
1
  6
CONTINUOUS
 10
889.09061428757525
 20
782.76913811630777
 30
0.0
 11
1143.790614287575
 21
782.76913811630777
 31
0.0
  0
CIRCLE
  5
7AD3
  8
1
  6
CONTINUOUS
 10
986.49061428757511
 20
850.26913811630777
 30
0.0
 40
53.0
  0
LINE
  5
7AD4
  8
2
  6
CENTER
 10
1039.490614287575
 20
850.26913811630777
 30
0.0
 11
933.49061428757523
 21
850.26913811630777
 31
0.0
  0
LINE
  5
7AD5
  8
1
  6
CONTINUOUS
 10
920.49061428757534
 20
790.26913811630777
 30
0.0
 11
925.99061428757523
 21
804.56913811630773
 31
0.0
  0
LINE
  5
7AD6
  8
1
  6
CONTINUOUS
 10
920.49061428757534
 20
782.76913811630777
 30
0.0
 11
920.49061428757534
 21
790.26913811630777
 31
0.0
  0
LINE
  5
7AD7
  8
1
  6
CONTINUOUS
 10
889.09061428757525
 20
762.76913811630789
 30
0.0
 11
889.09061428757525
 21
782.76913811630777
 31
0.0
  0
LINE
  5
7AD8
  8
1
  6
CONTINUOUS
 10
1052.490614287575
 20
782.76913811630777
 30
0.0
 11
1052.490614287575
 21
790.26913811630777
 31
0.0
  0
LINE
  5
7AD9
  8
1
  6
CONTINUOUS
 10
1052.490614287575
 20
790.26913811630777
 30
0.0
 11
1046.8906142875751
 21
804.56913811630773
 31
0.0
  0
LINE
  5
7ADA
  8
2
  6
CENTER
 10
986.49061428757511
 20
797.26913811630789
 30
0.0
 11
986.49061428757511
 21
903.26913811630789
 31
0.0
  0
LINE
  5
7ADB
  8
1
  6
CONTINUOUS
 10
1143.790614287575
 20
782.76913811630777
 30
0.0
 11
1143.790614287575
 21
762.76913811630789
 31
0.0
  0
LINE
  5
7ADC
  8
1
  6
CONTINUOUS
 10
1143.790614287575
 20
762.76913811630789
 30
0.0
 11
1143.790614287575
 21
672.76913811630777
 31
0.0
  0
LINE
  5
7ADD
  8
1
  6
CONTINUOUS
 10
1113.790614287575
 20
702.76913811630777
 30
0.0
 11
1113.790614287575
 21
672.76913811630777
 31
0.0
  0
LINE
  5
7ADE
  8
1
  6
CONTINUOUS
 10
1143.790614287575
 20
672.76913811630777
 30
0.0
 11
1113.790614287575
 21
672.76913811630777
 31
0.0
  0
LINE
  5
7ADF
  8
1
  6
CONTINUOUS
 10
873.79061428757541
 20
1217.7691381163081
 30
0.0
 11
873.79061428757541
 21
1197.7691381163081
 31
0.0
  0
LINE
  5
7AE0
  8
1
  6
CONTINUOUS
 10
873.79061428757541
 20
1217.7691381163081
 30
0.0
 11
853.79061428757529
 21
1197.7691381163081
 31
0.0
  0
LINE
  5
7AE1
  8
1
  6
CONTINUOUS
 10
883.79061428757541
 20
1197.7691381163081
 30
0.0
 11
873.79061428757541
 21
1197.7691381163081
 31
0.0
  0
LINE
  5
7AE2
  8
1
  6
CONTINUOUS
 10
883.79061428757541
 20
1197.7691381163081
 30
0.0
 11
883.79061428757541
 21
1017.369138116307
 31
0.0
  0
LINE
  5
7AE3
  8
1
  6
CONTINUOUS
 10
874.79061428757541
 20
1979.371096464278
 30
0.0
 11
874.79061428757541
 21
2159.3710964642778
 31
0.0
  0
LINE
  5
7AE4
  8
1
  6
CONTINUOUS
 10
1143.790614287575
 20
2211.3710964642778
 30
0.0
 11
1143.790614287575
 21
1731.371096464278
 31
0.0
  0
LINE
  5
7AE5
  8
1
  6
CONTINUOUS
 10
1113.790614287575
 20
2211.3710964642778
 30
0.0
 11
1113.790614287575
 21
2061.3710964642778
 31
0.0
  0
LINE
  5
7AE6
  8
1
  6
CONTINUOUS
 10
909.79061428757529
 20
1835.671096464278
 30
0.0
 11
1061.290614287575
 21
1835.671096464278
 31
0.0
  0
LINE
  5
7AE7
  8
1
  6
CONTINUOUS
 10
909.79061428757529
 20
2039.671096464278
 30
0.0
 11
1061.290614287575
 21
2039.671096464278
 31
0.0
  0
LINE
  5
7AE8
  8
1
  6
CONTINUOUS
 10
874.79061428757541
 20
2061.3710964642778
 30
0.0
 11
1143.790614287575
 21
2061.3710964642778
 31
0.0
  0
LINE
  5
7AE9
  8
1
  6
CONTINUOUS
 10
933.49061428757545
 20
1784.371096464278
 30
0.0
 11
1039.490614287575
 21
1784.371096464278
 31
0.0
  0
LINE
  5
7AEA
  8
1
  6
CONTINUOUS
 10
933.49061428757545
 20
1749.371096464278
 30
0.0
 11
1039.490614287575
 21
1749.371096464278
 31
0.0
  0
LINE
  5
7AEB
  8
1
  6
CONTINUOUS
 10
933.49061428757545
 20
1749.371096464278
 30
0.0
 11
933.49061428757545
 21
1784.371096464278
 31
0.0
  0
LINE
  5
7AEC
  8
1
  6
CONTINUOUS
 10
770.79061428757541
 20
1979.371096464278
 30
0.0
 11
770.79061428757541
 21
1970.371096464278
 31
0.0
  0
LINE
  5
7AED
  8
1
  6
CONTINUOUS
 10
783.79061428757541
 20
1970.371096464278
 30
0.0
 11
783.79061428757541
 21
1841.371096464278
 31
0.0
  0
LINE
  5
7AEE
  8
1
  6
CONTINUOUS
 10
909.79061428757529
 20
1835.671096464278
 30
0.0
 11
909.79061428757529
 21
2039.671096464278
 31
0.0
  0
LINE
  5
7AEF
  8
1
  6
CONTINUOUS
 10
974.49061428757545
 20
1784.371096464278
 30
0.0
 11
974.49061428757545
 21
1835.671096464278
 31
0.0
  0
LINE
  5
7AF0
  8
1
  6
CONTINUOUS
 10
1078.790614287575
 20
1729.371096464278
 30
0.0
 11
1078.790614287575
 21
1804.371096464278
 31
0.0
  0
LINE
  5
7AF1
  8
1
  6
CONTINUOUS
 10
1039.490614287575
 20
1749.371096464278
 30
0.0
 11
1039.490614287575
 21
1784.371096464278
 31
0.0
  0
LINE
  5
7AF2
  8
1
  6
CONTINUOUS
 10
1113.790614287575
 20
1811.371096464278
 30
0.0
 11
1113.790614287575
 21
1731.371096464278
 31
0.0
  0
LINE
  5
7AF3
  8
1
  6
CONTINUOUS
 10
1113.790614287575
 20
1731.371096464278
 30
0.0
 11
1143.790614287575
 21
1731.371096464278
 31
0.0
  0
LINE
  5
7AF4
  8
1
  6
CONTINUOUS
 10
998.49061428757545
 20
1811.371096464278
 30
0.0
 11
1143.790614287575
 21
1811.371096464278
 31
0.0
  0
LINE
  5
7AF5
  8
1
  6
CONTINUOUS
 10
1061.290614287575
 20
1835.671096464278
 30
0.0
 11
1061.290614287575
 21
2039.671096464278
 31
0.0
  0
LINE
  5
7AF6
  8
1
  6
CONTINUOUS
 10
998.49061428757545
 20
1784.371096464278
 30
0.0
 11
998.49061428757545
 21
1835.671096464278
 31
0.0
  0
LINE
  5
7AF7
  8
1
  6
CONTINUOUS
 10
770.79061428757541
 20
2159.3710964642778
 30
0.0
 11
770.79061428757541
 21
2168.3710964642778
 31
0.0
  0
LINE
  5
7AF8
  8
1
  6
CONTINUOUS
 10
1113.790614287575
 20
2211.3710964642778
 30
0.0
 11
1143.790614287575
 21
2211.3710964642778
 31
0.0
  0
LINE
  5
7AF9
  8
1
  6
CONTINUOUS
 10
1286.710083965424
 20
672.76913811630777
 30
0.0
 11
1766.710083965424
 21
672.76913811630777
 31
0.0
  0
LINE
  5
7AFA
  8
1
  6
CONTINUOUS
 10
1286.710083965424
 20
702.76913811630777
 30
0.0
 11
1766.710083965424
 21
702.76913811630777
 31
0.0
  0
LINE
  5
7AFB
  8
1
  6
CONTINUOUS
 10
1339.710083965424
 20
862.26913811630789
 30
0.0
 11
1396.710083965424
 21
862.26913811630789
 31
0.0
  0
LINE
  5
7AFC
  8
1
  6
CONTINUOUS
 10
1339.710083965424
 20
838.26913811630789
 30
0.0
 11
1396.710083965424
 21
838.26913811630789
 31
0.0
  0
LINE
  5
7AFD
  8
1
  6
CONTINUOUS
 10
1339.710083965424
 20
1005.769138116308
 30
0.0
 11
1429.1100839654241
 21
1005.769138116308
 31
0.0
  0
LINE
  5
7AFE
  8
1
  6
CONTINUOUS
 10
1339.710083965424
 20
1029.769138116307
 30
0.0
 11
1458.8100839654239
 21
1029.769138116307
 31
0.0
  0
LINE
  5
7AFF
  8
1
  6
CONTINUOUS
 10
1284.710083965424
 20
762.76913811630789
 30
0.0
 11
1616.710083965424
 21
762.76913811630789
 31
0.0
  0
LINE
  5
7B00
  8
1
  6
CONTINUOUS
 10
1359.710083965424
 20
762.76913811630789
 30
0.0
 11
1359.710083965424
 21
1142.769138116307
 31
0.0
  0
LINE
  5
7B01
  8
1
  6
CONTINUOUS
 10
1284.710083965424
 20
762.76913811630789
 30
0.0
 11
1284.710083965424
 21
1142.769138116307
 31
0.0
  0
LINE
  5
7B02
  8
1
  6
CONTINUOUS
 10
1286.710083965424
 20
702.76913811630777
 30
0.0
 11
1286.710083965424
 21
672.76913811630777
 31
0.0
  0
LINE
  5
7B03
  8
1
  6
CONTINUOUS
 10
1339.710083965424
 20
903.26913811630789
 30
0.0
 11
1339.710083965424
 21
797.26913811630789
 31
0.0
  0
LINE
  5
7B04
  8
1
  6
CONTINUOUS
 10
1304.710083965424
 20
797.26913811630789
 30
0.0
 11
1339.710083965424
 21
797.26913811630789
 31
0.0
  0
LINE
  5
7B05
  8
1
  6
CONTINUOUS
 10
1304.710083965424
 20
903.26913811630789
 30
0.0
 11
1304.710083965424
 21
797.26913811630789
 31
0.0
  0
LINE
  5
7B06
  8
1
  6
CONTINUOUS
 10
1304.710083965424
 20
903.26913811630789
 30
0.0
 11
1339.710083965424
 21
903.26913811630789
 31
0.0
  0
LINE
  5
7B07
  8
1
  6
CONTINUOUS
 10
1339.710083965424
 20
1081.269138116307
 30
0.0
 11
1339.710083965424
 21
954.26913811630789
 31
0.0
  0
LINE
  5
7B08
  8
1
  6
CONTINUOUS
 10
1304.710083965424
 20
954.26913811630789
 30
0.0
 11
1339.710083965424
 21
954.26913811630789
 31
0.0
  0
LINE
  5
7B09
  8
1
  6
CONTINUOUS
 10
1304.710083965424
 20
1081.269138116307
 30
0.0
 11
1339.710083965424
 21
1081.269138116307
 31
0.0
  0
LINE
  5
7B0A
  8
1
  6
CONTINUOUS
 10
1304.710083965424
 20
1081.269138116307
 30
0.0
 11
1304.710083965424
 21
954.26913811630789
 31
0.0
  0
LINE
  5
7B0B
  8
1
  6
CONTINUOUS
 10
1284.710083965424
 20
1142.769138116307
 30
0.0
 11
1359.710083965424
 21
1142.769138116307
 31
0.0
  0
LINE
  5
7B0C
  8
1
  6
CONTINUOUS
 10
1534.9100839654241
 20
1217.7691381163081
 30
0.0
 11
1534.9100839654241
 21
818.86913811630779
 31
0.0
  0
LINE
  5
7B0D
  8
1
  6
CONTINUOUS
 10
1714.510083965424
 20
818.86913811630779
 30
0.0
 11
1714.510083965424
 21
1017.769138116307
 31
0.0
  0
LINE
  5
7B0E
  8
1
  6
CONTINUOUS
 10
1723.710083965424
 20
1164.7691381163081
 30
0.0
 11
1723.710083965424
 21
870.76913811630777
 31
0.0
  0
LINE
  5
7B0F
  8
1
  6
CONTINUOUS
 10
1396.710083965424
 20
762.76913811630789
 30
0.0
 11
1396.710083965424
 21
979.56913811630795
 31
0.0
  0
LINE
  5
7B10
  8
1
  6
CONTINUOUS
 10
1525.710083965424
 20
1164.7691381163081
 30
0.0
 11
1525.710083965424
 21
762.76913811630789
 31
0.0
  0
LINE
  5
7B11
  8
1
  6
CONTINUOUS
 10
1546.9100839654241
 20
806.86913811630791
 30
0.0
 11
1702.510083965424
 21
806.86913811630791
 31
0.0
  0
LINE
  5
7B12
  8
1
  6
CONTINUOUS
 10
1366.710083965424
 20
762.76913811630789
 30
0.0
 11
1366.710083965424
 21
702.76913811630777
 31
0.0
  0
ARC
  5
7B13
  8
1
  6
CONTINUOUS
 10
1546.9100839654241
 20
818.86913811630779
 30
0.0
 40
12.0
 50
180.0
 51
270.0
  0
LINE
  5
7B14
  8
1
  6
CONTINUOUS
 10
1534.9100839654241
 20
870.76913811630777
 30
0.0
 11
1525.710083965424
 21
870.76913811630777
 31
0.0
  0
LINE
  5
7B15
  8
1
  6
CONTINUOUS
 10
1616.710083965424
 20
762.76913811630789
 30
0.0
 11
1616.710083965424
 21
702.76913811630777
 31
0.0
  0
ARC
  5
7B16
  8
1
  6
CONTINUOUS
 10
1702.510083965424
 20
818.86913811630779
 30
0.0
 40
12.0
 50
270.0
 51
0.0
  0
LINE
  5
7B17
  8
1
  6
CONTINUOUS
 10
1714.510083965424
 20
870.76913811630777
 30
0.0
 11
1723.710083965424
 21
870.76913811630777
 31
0.0
  0
LINE
  5
7B18
  8
1
  6
CONTINUOUS
 10
1766.710083965424
 20
702.76913811630777
 30
0.0
 11
1766.710083965424
 21
672.76913811630777
 31
0.0
  0
LINE
  5
7B19
  8
1
  6
CONTINUOUS
 10
1563.9100839654241
 20
1197.7691381163081
 30
0.0
 11
1685.510083965424
 21
1197.7691381163081
 31
0.0
  0
LINE
  5
7B1A
  8
1
  6
CONTINUOUS
 10
1513.710083965424
 20
1217.7691381163081
 30
0.0
 11
1735.710083965424
 21
1217.7691381163081
 31
0.0
  0
LINE
  5
7B1B
  8
1
  6
CONTINUOUS
 10
1543.9100839654241
 20
1217.7691381163081
 30
0.0
 11
1563.9100839654241
 21
1197.7691381163081
 31
0.0
  0
LINE
  5
7B1C
  8
1
  6
CONTINUOUS
 10
1396.710083965424
 20
979.56913811630795
 30
0.0
 11
1525.710083965424
 21
1083.8691381163071
 31
0.0
  0
LINE
  5
7B1D
  8
1
  6
CONTINUOUS
 10
1525.710083965424
 20
1164.7691381163081
 30
0.0
 11
1525.710083965424
 21
1017.769138116307
 31
0.0
  0
LINE
  5
7B1E
  8
1
  6
CONTINUOUS
 10
1534.9100839654241
 20
1164.7691381163081
 30
0.0
 11
1525.710083965424
 21
1164.7691381163081
 31
0.0
  0
LINE
  5
7B1F
  8
1
  6
CONTINUOUS
 10
1714.510083965424
 20
1217.7691381163081
 30
0.0
 11
1714.510083965424
 21
1017.769138116307
 31
0.0
  0
LINE
  5
7B20
  8
1
  6
CONTINUOUS
 10
1705.510083965424
 20
1217.7691381163081
 30
0.0
 11
1685.510083965424
 21
1197.7691381163081
 31
0.0
  0
LINE
  5
7B21
  8
1
  6
CONTINUOUS
 10
1714.510083965424
 20
1164.7691381163081
 30
0.0
 11
1723.710083965424
 21
1164.7691381163081
 31
0.0
  0
LINE
  5
7B22
  8
4
  6
CONTINUOUS
 10
1850.0
 20
500.0
 30
0.0
 11
1850.0
 21
300.0
 31
0.0
  0
LINE
  5
7B23
  8
4
  6
CONTINUOUS
 10
1150.0
 20
500.0
 30
0.0
 11
1150.0
 21
300.0
 31
0.0
  0
LINE
  5
7B24
  8
4
  6
CONTINUOUS
 10
650.0
 20
500.0
 30
0.0
 11
650.0
 21
300.0
 31
0.0
  0
LINE
  5
7B27
  8
4
  6
CONTINUOUS
 10
650.0
 20
300.0
 30
0.0
 11
1850.0
 21
300.0
 31
0.0
  0
LINE
  5
7B28
  8
4
  6
CONTINUOUS
 10
650.0
 20
400.0
 30
0.0
 11
1850.0
 21
400.0
 31
0.0
  0
TEXT
  5
7B29
  8
4
  6
CONTINUOUS
 10
688.50208099999998
 20
431.543026
 30
0.0
 40
50.0
  1
機器名称
  0
TEXT
  5
7B2A
  8
4
  6
CONTINUOUS
 10
686.258106
 20
321.64515699999993
 30
0.0
 40
50.0
  1
機器型番
  0
TEXT
  5
7B2B
  8
4
  6
CONTINUOUS
 10
1177.678744999999
 20
422.57176900000002
 30
0.0
 40
45.0
  1
ミツヤニューマルチファン
  0
TEXT
  5
7B2C
  8
4
  6
CONTINUOUS
 10
1186.6544960000001
 20
317.159584
 30
0.0
 40
50.0
  1
NM#1 1/2-1
  0
TEXT
  5
7B2E
  8
4
  6
CONTINUOUS
 10
851.96172899999988
 20
2383.4288409999999
 30
0.0
 40
54.0
  1
天井吊ベット
  0
TEXT
  5
7B2F
  8
4
  6
CONTINUOUS
 10
316.16759300000001
 20
2533.8809759999999
 30
0.0
 40
72.0
  1
ベルト駆動式片吸込片持多翼ファン
  0
LINE
  5
7B30
  8
4
  6
CONTINUOUS
 10
250.0
 20
2469.408754
 30
0.0
 11
1850.0
 21
2469.408754
 31
0.0
  0
LINE
  5
7B31
  8
4
  6
CONTINUOUS
 10
250.0
 20
2669.408754
 30
0.0
 11
1850.0
 21
2669.408754
 31
0.0
  0
LINE
  5
7B32
  8
4
  6
CONTINUOUS
 10
650.0
 20
500.0
 30
0.0
 11
1850.0
 21
500.0
 31
0.0
  0
LINE
  5
7B33
  8
4
  6
CONTINUOUS
 10
250.0
 20
2669.408754
 30
0.0
 11
250.0
 21
2469.408754
 31
0.0
  0
TEXT
  5
7B34
  8
4
  6
CONTINUOUS
 10
416.10289699999998
 20
2382.3194779999999
 30
0.0
 40
54.0
  1
左回転上向
  0
TEXT
  5
7B35
  8
4
  6
CONTINUOUS
 10
1468.9695589999999
 20
2706.0610809999998
 30
0.0
 40
56.0
  1
No.
  0
TEXT
  5
7B36
  8
4
  6
CONTINUOUS
 10
1311.296063
 20
2383.4288409999999
 30
0.0
 40
54.0
  1
縮尺：1/10
  0
LINE
  5
7B37
  8
4
  6
CONTINUOUS
 10
1850.0
 20
2669.408754
 30
0.0
 11
1850.0
 21
2469.408754
 31
0.0
  0
LINE
  5
7B39
  8
4
  6
CONTINUOUS
 10
1440.617422
 20
2681.2635829999999
 30
0.0
 11
1440.617422
 21
2786.6522620000001
 31
0.0
  0
LINE
  5
7B3A
  8
4
  6
CONTINUOUS
 10
1440.617422
 20
2786.6522620000001
 30
0.0
 11
1850.0
 21
2786.6522620000001
 31
0.0
  0
LINE
  5
7B3B
  8
4
  6
CONTINUOUS
 10
1850.0
 20
2786.6522620000001
 30
0.0
 11
1850.0
 21
2681.2635829999999
 31
0.0
  0
LINE
  5
7B3C
  8
4
  6
CONTINUOUS
 10
1850.0
 20
2681.2635829999999
 30
0.0
 11
1440.617422
 21
2681.2635829999999
 31
0.0
  0
DIMENSION
  5
7B54
  8
3
  6
CONTINUOUS
  2
*D1
 10
623.79061428757541
 20
620.59673711630785
 30
0.0
 11
527.77953028757543
 21
620.59673711630785
 31
0.0
 70
   128
 13
433.79061428757541
 23
672.76913811630777
 33
0.0
 14
623.79061428757541
 24
677.49403311630783
 34
0.0
1001
ACAD
1000
DSTYLE
1002
{
1070
   287
1070
     3
1070
   287
1070
     3
1070
    40
1040
10.0
1070
   143
1040
0.039
1070
   172
1070
     1
1070
   271
1070
     0
1070
   279
1070
     0
1070
   288
1070
     1
1002
}
  0
DIMENSION
  5
7B60
  8
3
  6
CONTINUOUS
  2
*D2
 10
1143.790614287575
 20
620.59673711630785
 30
0.0
 11
883.79061428757541
 21
645.59673711630785
 31
0.0
 70
     0
 13
623.79061428757541
 23
677.49403311630783
 33
0.0
 14
1143.790614287575
 24
672.76913811630777
 34
0.0
1001
ACAD
1000
DSTYLE
1002
{
1070
   287
1070
     4
1070
   287
1070
     4
1070
    40
1040
10.0
1070
    75
1070
     1
1070
   143
1040
0.039
1070
   172
1070
     1
1070
   271
1070
     0
1070
   279
1070
     1
1070
   288
1070
     1
1002
}
  0
DIMENSION
  5
7B6D
  8
3
  6
CONTINUOUS
  2
*D3
 10
873.79061428757541
 20
1263.505861116307
 30
0.0
 11
749.42090328757558
 21
1263.505861116307
 31
0.0
 70
   128
 13
623.79061428757541
 23
1217.7691381163081
 33
0.0
 14
873.79061428757541
 24
1217.7691381163081
 34
0.0
1001
ACAD
1000
DSTYLE
1002
{
1070
   287
1070
     3
1070
   287
1070
     3
1070
    40
1040
10.0
1070
   143
1040
0.039
1070
   172
1070
     1
1070
   271
1070
     0
1070
   279
1070
     0
1070
   288
1070
     1
1002
}
  0
DIMENSION
  5
7B7A
  8
3
  6
CONTINUOUS
  2
*D4
 10
623.79061428757541
 20
1320.178870116308
 30
0.0
 11
521.18306528757535
 21
1320.178870116308
 31
0.0
 70
   128
 13
437.80123028757538
 23
1017.769138116307
 33
0.0
 14
623.79061428757541
 24
1217.7691381163081
 34
0.0
1001
ACAD
1000
DSTYLE
1002
{
1070
   287
1070
     3
1070
   287
1070
     3
1070
    40
1040
10.0
1070
   143
1040
0.039
1070
   172
1070
     1
1070
   271
1070
     0
1070
   279
1070
     0
1070
   288
1070
     1
1002
}
  0
DIMENSION
  5
7B86
  8
3
  6
CONTINUOUS
  2
*D5
 10
883.79061428757541
 20
1320.178870116308
 30
0.0
 11
753.79061428757541
 21
1345.178870116308
 31
0.0
 70
     0
 13
623.79061428757541
 23
1217.7691381163081
 33
0.0
 14
883.79061428757541
 24
1197.7691381163081
 34
0.0
1001
ACAD
1000
DSTYLE
1002
{
1070
   287
1070
     4
1070
   287
1070
     4
1070
    40
1040
10.0
1070
    75
1070
     1
1070
   143
1040
0.039
1070
   172
1070
     1
1070
   271
1070
     0
1070
   279
1070
     1
1070
   288
1070
     1
1002
}
  0
DIMENSION
  5
7BE4
  8
3
  6
CONTINUOUS
  2
*D6
 10
1143.790614287575
 20
1642.442657464278
 30
0.0
 11
763.40523528757535
 21
1642.442657464278
 31
0.0
 70
   128
 13
433.79061428757541
 23
1731.371096464278
 33
0.0
 14
1143.790614287575
 24
1731.371096464278
 34
0.0
1001
ACAD
1000
DSTYLE
1002
{
1070
   287
1070
     3
1070
   287
1070
     3
1070
    40
1040
10.0
1070
   143
1040
0.039
1070
   172
1070
     1
1070
   271
1070
     0
1070
   279
1070
     0
1070
   288
1070
     1
1002
}
  0
DIMENSION
  5
7BF1
  8
3
  6
CONTINUOUS
  2
*D7
 10
1240.989624287575
 20
1731.371096464278
 30
0.0
 11
1240.989624287575
 21
1964.289359464278
 31
0.0
 70
   128
 13
1143.790614287575
 23
2211.3710964642778
 33
0.0
 14
1143.790614287575
 24
1731.371096464278
 34
0.0
 50
90.0
1001
ACAD
1000
DSTYLE
1002
{
1070
   287
1070
     3
1070
   287
1070
     3
1070
    40
1040
10.0
1070
   143
1040
0.039
1070
   172
1070
     1
1070
   271
1070
     0
1070
   279
1070
     0
1070
   288
1070
     1
1002
}
  0
LINE
  5
7BF2
  8
2
  6
CENTER
 10
924.92377828757537
 20
2069.3710964642778
 30
0.0
 11
375.53283628757538
 21
2069.3710964642778
 31
0.0
  0
LINE
  5
7BF3
  8
2
  6
CENTER
 10
623.79061428757541
 20
1244.4049711163079
 30
0.0
 11
623.79061428757541
 21
677.49403311630783
 31
0.0
  0
LINE
  5
7BF4
  8
2
  6
CENTER
 10
1624.710083965424
 20
661.29733961647605
 30
0.0
 11
1624.710083965424
 21
1265.6736571163069
 31
0.0
  0
DIMENSION
  5
7C02
  8
3
  6
CONTINUOUS
  2
*D8
 10
1624.710083965424
 20
586.49045911630776
 30
0.0
 11
1454.462288965424
 21
586.49045911630776
 31
0.0
 70
   128
 13
1286.710083965424
 23
672.76913811630777
 33
0.0
 14
1624.710083965424
 24
672.76913811630777
 34
0.0
1001
ACAD
1000
DSTYLE
1002
{
1070
   287
1070
     3
1070
   287
1070
     3
1070
    40
1040
10.0
1070
   143
1040
0.039
1070
   172
1070
     1
1070
   271
1070
     0
1070
   279
1070
     0
1070
   288
1070
     1
1002
}
  0
DIMENSION
  5
7C13
  8
3
  6
CONTINUOUS
  2
*D9
 10
1766.710083965424
 20
586.49045911630776
 30
0.0
 11
1695.710083965424
 21
611.49045911630776
 31
0.0
 70
     0
 13
1624.710083965424
 23
672.76913811630777
 33
0.0
 14
1766.710083965424
 24
672.76913811630777
 34
0.0
1001
ACAD
1000
DSTYLE
1002
{
1070
   287
1070
     4
1070
   287
1070
     4
1070
    40
1040
10.0
1070
    75
1070
     1
1070
   143
1040
0.039
1070
   172
1070
     1
1070
   271
1070
     0
1070
   279
1070
     1
1070
   288
1070
     1
1002
}
  0
DIMENSION
  5
7C20
  8
3
  6
CONTINUOUS
  2
*D10
 10
1714.510083965424
 20
1260.9503661163069
 30
0.0
 11
1613.9149889654241
 21
1260.9503661163069
 31
0.0
 70
   128
 13
1534.9100839654241
 23
1217.7691381163081
 33
0.0
 14
1714.510083965424
 24
1217.7691381163081
 34
0.0
1001
ACAD
1000
DSTYLE
1002
{
1070
   287
1070
     3
1070
   287
1070
     3
1070
    40
1040
10.0
1070
   143
1040
0.039
1070
   172
1070
     1
1070
   271
1070
     0
1070
   279
1070
     0
1070
   288
1070
     1
1002
}
  0
DIMENSION
  5
7C2D
  8
3
  6
CONTINUOUS
  2
*D11
 10
1624.710083965424
 20
1329.636010116307
 30
0.0
 11
1461.326408965424
 21
1329.636010116307
 31
0.0
 70
   128
  1
MAX\P340
 13
1284.710083965424
 23
1142.769138116307
 33
0.0
 14
1624.710083965424
 24
1316.149702116307
 34
0.0
1001
ACAD
1000
DSTYLE
1002
{
1070
   287
1070
     3
1070
   287
1070
     3
1070
    40
1040
10.0
1070
   143
1040
0.039
1070
   172
1070
     1
1070
   271
1070
     0
1070
   279
1070
     0
1070
   288
1070
     1
1002
}
  0
DIMENSION
  5
7C3B
  8
3
  6
CONTINUOUS
  2
*D12
 10
1723.710083965424
 20
1329.636010116307
 30
0.0
 11
1676.2399049654241
 21
1329.636010116307
 31
0.0
 70
   128
 13
1624.710083965424
 23
1316.149702116307
 33
0.0
 14
1723.710083965424
 24
1164.7691381163081
 34
0.0
1001
ACAD
1000
DSTYLE
1002
{
1070
   287
1070
     4
1070
   287
1070
     4
1070
    40
1040
10.0
1070
    75
1070
     1
1070
   143
1040
0.039
1070
   172
1070
     1
1070
   271
1070
     0
1070
   279
1070
     1
1070
   288
1070
     1
1002
}
  0
LINE
  5
7C53
  8
3
  6
CONTINUOUS
 10
1723.710083965424
 20
1142.769138116307
 30
0.0
 11
1734.8579789654241
 21
1142.769138116307
 31
0.0
  0
LINE
  5
7C55
  8
3
  6
CONTINUOUS
 10
1723.710083965424
 20
892.76913811630789
 30
0.0
 11
1733.9795899654241
 21
892.76913811630789
 31
0.0
  0
DIMENSION
  5
7C62
  8
3
  6
CONTINUOUS
  2
*D13
 10
1798.980672965424
 20
892.76913811630766
 30
0.0
 11
1798.980672965424
 21
1023.8550681163071
 31
0.0
 70
   128
 13
1723.710083965424
 23
1142.769138116307
 33
0.0
 14
1723.710083965424
 24
892.76913811630789
 34
0.0
 50
90.0
1001
ACAD
1000
DSTYLE
1002
{
1070
   287
1070
     3
1070
   287
1070
     3
1070
     3
1000
φ<>
1070
    40
1040
10.0
1070
   143
1040
0.039
1070
   172
1070
     1
1070
   271
1070
     0
1070
   279
1070
     0
1070
   288
1070
     1
1002
}
  0
LINE
  5
7C63
  8
2
  6
CENTER
 10
882.6041012875753
 20
1017.769138116307
 30
0.0
 11
417.34770528757548
 21
1017.769138116307
 31
0.0
  0
DIMENSION
  5
7CBE
  8
3
  2
*D14
 10
1143.790614287575
 20
1391.288568009873
 30
0.0
 11
839.75362750072054
 21
1391.288568009873
 31
0.0
 70
   128
 13
437.80123028757538
 23
1330.1788701163071
 33
0.0
 14
1143.790614287575
 24
782.76913811630777
 34
0.0
1001
ACAD
1000
DSTYLE
1002
{
1070
   287
1070
     3
1070
   287
1070
     3
1070
    40
1040
10.0
1070
   143
1040
0.039
1070
   172
1070
     1
1070
   271
1070
     0
1070
   279
1070
     0
1070
   288
1070
     1
1002
}
  0
DIMENSION
  5
7CCF
  8
3
  2
*D15
 10
364.7793133473553
 20
1017.769138116307
 30
0.0
 11
364.77931334735513
 21
1114.9519272190521
 31
0.0
 70
   128
 13
602.79061428757541
 23
1217.7691381163081
 33
0.0
 14
417.34770528757548
 24
1017.769138116307
 34
0.0
 50
90.0
1001
ACAD
1000
DSTYLE
1002
{
1070
   287
1070
     3
1070
   287
1070
     3
1070
    40
1040
10.0
1070
   143
1040
0.039
1070
   172
1070
     1
1070
   271
1070
     0
1070
   279
1070
     0
1070
   288
1070
     1
1002
}
  0
DIMENSION
  5
7CDB
  8
3
  2
*D16
 10
364.77931334735513
 20
702.76913811630777
 30
0.0
 11
339.77931334735501
 21
860.26913811630789
 31
0.0
 70
     0
 13
417.34770528757548
 23
1017.769138116307
 33
0.0
 14
433.79061428757541
 24
702.76913811630777
 34
0.0
 50
90.0
1001
ACAD
1000
DSTYLE
1002
{
1070
   287
1070
     4
1070
   287
1070
     4
1070
    40
1040
10.0
1070
    75
1070
     1
1070
   143
1040
0.039
1070
   172
1070
     1
1070
   271
1070
     0
1070
   279
1070
     1
1070
   288
1070
     1
1002
}
  0
DIMENSION
  5
7CEB
  8
3
  2
*D17
 10
364.77931334735513
 20
672.76913811630777
 30
0.0
 11
339.77931334735501
 21
598.48342383059355
 31
0.0
 70
     0
 13
433.79061428757541
 23
702.76913811630777
 33
0.0
 14
433.79061428757541
 24
672.76913811630777
 34
0.0
 50
90.0
1001
ACAD
1000
DSTYLE
1002
{
1070
   287
1070
     3
1070
   287
1070
     3
1070
    40
1040
10.0
1070
   143
1040
0.039
1070
   172
1070
     1
1070
   271
1070
     0
1070
   279
1070
     0
1070
   288
1070
     1
1002
}
  0
DIMENSION
  5
7D05
  8
3
  2
*D18
 10
299.35688171683091
 20
1217.7691381163081
 30
0.0
 11
299.35688171683069
 21
936.87926842423724
 31
0.0
 70
   128
 13
433.79061428757541
 23
672.76913811630777
 33
0.0
 14
597.79061428757529
 24
1217.7691381163081
 34
0.0
 50
90.0
1001
ACAD
1000
DSTYLE
1002
{
1070
   287
1070
     3
1070
   287
1070
     3
1070
    40
1040
10.0
1070
   143
1040
0.039
1070
   172
1070
     1
1070
   271
1070
     0
1070
   279
1070
     0
1070
   288
1070
     1
1002
}
  0
ENDSEC
  0
EOF
