  0
SECTION
  2
HEADER
  9
$ACADVER
  1
AC1009
  9
$INSBASE
 10
0.0
 20
0.0
 30
0.0
  9
$EXTMIN
 10
250.0
 20
300.0
 30
0.0
  9
$EXTMAX
 10
1867.544279305514
 20
2786.6522620000001
 30
0.0
  9
$LIMMIN
 10
0.0
 20
0.0
  9
$LIMMAX
 10
297.0
 20
210.0
  9
$ORTHOMODE
 70
     0
  9
$REGENMODE
 70
     1
  9
$FILLMODE
 70
     0
  9
$QTEXTMODE
 70
     0
  9
$MIRRTEXT
 70
     1
  9
$DRAGMODE
 70
     2
  9
$LTSCALE
 40
100.0
  9
$OSMODE
 70
    37
  9
$ATTMODE
 70
     1
  9
$TEXTSIZE
 40
180.0
  9
$TRACEWID
 40
0.05
  9
$TEXTSTYLE
  7
STANDARD
  9
$CLAYER
  8
3
  9
$CELTYPE
  6
BYLAYER
  9
$CECOLOR
 62
   256
  9
$DIMSCALE
 40
10.0
  9
$DIMASZ
 40
2.0
  9
$DIMEXO
 40
0.5
  9
$DIMDLI
 40
10.0
  9
$DIMRND
 40
0.0
  9
$DIMDLE
 40
0.0
  9
$DIMEXE
 40
1.0
  9
$DIMTP
 40
1.0
  9
$DIMTM
 40
1.0
  9
$DIMTXT
 40
3.0
  9
$DIMCEN
 40
0.0
  9
$DIMTSZ
 40
0.0
  9
$DIMTOL
 70
     0
  9
$DIMLIM
 70
     0
  9
$DIMTIH
 70
     0
  9
$DIMTOH
 70
     0
  9
$DIMSE1
 70
     0
  9
$DIMSE2
 70
     0
  9
$DIMTAD
 70
     1
  9
$DIMZIN
 70
     8
  9
$DIMBLK
  1

  9
$DIMASO
 70
     1
  9
$DIMSHO
 70
     1
  9
$DIMPOST
  1

  9
$DIMAPOST
  1

  9
$DIMALT
 70
     0
  9
$DIMALTD
 70
     2
  9
$DIMALTF
 40
0.039
  9
$DIMLFAC
 40
1.0
  9
$DIMTOFL
 70
     1
  9
$DIMTVP
 40
0.0
  9
$DIMTIX
 70
     0
  9
$DIMSOXD
 70
     0
  9
$DIMSAH
 70
     1
  9
$DIMBLK1
  1
OPEN
  9
$DIMBLK2
  1
OPEN
  9
$DIMSTYLE
  2
IGA
  9
$DIMCLRD
 70
     0
  9
$DIMCLRE
 70
     0
  9
$DIMCLRT
 70
     0
  9
$DIMTFAC
 40
10.0
  9
$DIMGAP
 40
1.0
  9
$LUNITS
 70
     2
  9
$LUPREC
 70
     3
  9
$SKETCHINC
 40
0.1
  9
$FILLETRAD
 40
50.0
  9
$AUNITS
 70
     0
  9
$AUPREC
 70
     0
  9
$MENU
  1
acad
  9
$ELEVATION
 40
0.0
  9
$PELEVATION
 40
0.0
  9
$THICKNESS
 40
0.0
  9
$LIMCHECK
 70
     0
  9
$BLIPMODE
 70
     0
  9
$CHAMFERA
 40
0.5
  9
$CHAMFERB
 40
0.5
  9
$SKPOLY
 70
     0
  9
$TDCREATE
 40
2450742.3658787031
  9
$TDUPDATE
 40
2454953.8625432639
  9
$TDINDWG
 40
0.0030719676
  9
$TDUSRTIMER
 40
0.0030719676
  9
$USRTIMER
 70
     1
  9
$ANGBASE
 50
0.0
  9
$ANGDIR
 70
     0
  9
$PDMODE
 70
     0
  9
$PDSIZE
 40
0.0
  9
$PLINEWID
 40
0.0
  9
$COORDS
 70
     1
  9
$SPLFRAME
 70
     0
  9
$SPLINETYPE
 70
     6
  9
$SPLINESEGS
 70
     8
  9
$ATTDIA
 70
     0
  9
$ATTREQ
 70
     1
  9
$HANDLING
 70
 10241
  9
$HANDSEED
  5
7E71
  9
$SURFTAB1
 70
     6
  9
$SURFTAB2
 70
     6
  9
$SURFTYPE
 70
     6
  9
$SURFU
 70
     6
  9
$SURFV
 70
     6
  9
$UCSNAME
  2

  9
$UCSORG
 10
0.0
 20
0.0
 30
0.0
  9
$UCSXDIR
 10
1.0
 20
0.0
 30
0.0
  9
$UCSYDIR
 10
0.0
 20
1.0
 30
0.0
  9
$PUCSNAME
  2

  9
$PUCSORG
 10
0.0
 20
0.0
 30
0.0
  9
$PUCSXDIR
 10
1.0
 20
0.0
 30
0.0
  9
$PUCSYDIR
 10
0.0
 20
1.0
 30
0.0
  9
$USERI1
 70
     0
  9
$USERI2
 70
     0
  9
$USERI3
 70
     0
  9
$USERI4
 70
     0
  9
$USERI5
 70
     0
  9
$USERR1
 40
0.0
  9
$USERR2
 40
0.0
  9
$USERR3
 40
0.0
  9
$USERR4
 40
0.0
  9
$USERR5
 40
0.0
  9
$WORLDVIEW
 70
     1
  9
$SHADEDGE
 70
     3
  9
$SHADEDIF
 70
    70
  9
$TILEMODE
 70
     1
  9
$MAXACTVP
 70
    16
  9
$PLIMCHECK
 70
     0
  9
$PEXTMIN
 10
1.0000000000000000E+020
 20
1.0000000000000000E+020
 30
1.0000000000000000E+020
  9
$PEXTMAX
 10
-1.0000000000000000E+020
 20
-1.0000000000000000E+020
 30
-1.0000000000000000E+020
  9
$PLIMMIN
 10
0.0
 20
0.0
  9
$PLIMMAX
 10
12.0
 20
9.0
  9
$UNITMODE
 70
     0
  9
$VISRETAIN
 70
     0
  9
$PLINEGEN
 70
     0
  9
$PSLTSCALE
 70
     1
  0
ENDSEC
  0
SECTION
  2
TABLES
  0
TABLE
  2
VPORT
 70
     2
  0
VPORT
  2
*ACTIVE
 70
     0
 10
0.0
 20
0.0
 11
1.0
 21
1.0
 12
2906.0907371307562
 22
1959.8632022433681
 13
0.0
 23
0.0
 14
10.0
 24
10.0
 15
10.0
 25
10.0
 16
0.0
 26
0.0
 36
1.0
 17
0.0
 27
0.0
 37
0.0
 40
3860.4308835425832
 41
1.5051150895140659
 42
50.0
 43
0.0
 44
0.0
 50
0.0
 51
0.0
 71
     0
 72
   100
 73
     1
 74
     0
 75
     0
 76
     0
 77
     0
 78
     0
  0
ENDTAB
  0
TABLE
  2
LTYPE
 70
     2
  0
LTYPE
  2
CONTINUOUS
 70
     0
  3
Solid line
 72
    65
 73
     0
 40
0.0
  0
LTYPE
  2
CENTER
 70
     0
  3
____ _ ____ _ ____ _ ____ _ ____ _ ____ _ ____ 
 72
    65
 73
     4
 40
2.0
 49
1.25
 49
-0.25
 49
0.25
 49
-0.25
  0
ENDTAB
  0
TABLE
  2
LAYER
 70
     6
  0
LAYER
  2
0
 70
     0
 62
     7
  6
CONTINUOUS
  0
LAYER
  2
3
 70
     0
 62
     2
  6
CONTINUOUS
  0
LAYER
  2
2
 70
     0
 62
     3
  6
CENTER
  0
LAYER
  2
1
 70
     0
 62
     4
  6
CONTINUOUS
  0
LAYER
  2
4
 70
     0
 62
     7
  6
CONTINUOUS
  0
LAYER
  2
DEFPOINTS
 70
     0
 62
     7
  6
CONTINUOUS
  0
ENDTAB
  0
TABLE
  2
STYLE
 70
     1
  0
STYLE
  2
STANDARD
 70
     0
 40
0.0
 41
1.0
 50
0.0
 71
     0
 42
180.0
  3
simplex.shx
  4
extfont.shx
  0
ENDTAB
  0
TABLE
  2
VIEW
 70
     0
  0
ENDTAB
  0
TABLE
  2
UCS
 70
     0
  0
ENDTAB
  0
TABLE
  2
APPID
 70
     1
  0
APPID
  2
ACAD
 70
     0
  0
ENDTAB
  0
TABLE
  2
DIMSTYLE
 70
     1
  0
DIMSTYLE
  2
IGA
 70
     0
  3

  4

  5

  6
OPEN
  7
OPEN
 40
2.0
 41
2.0
 42
0.5
 43
10.0
 44
1.0
 45
0.0
 46
0.0
 47
1.0
 48
1.0
140
3.0
141
0.0
142
0.0
143
0.03937
144
1.0
145
0.0
146
10.0
147
1.0
 71
     0
 72
     0
 73
     0
 74
     0
 75
     0
 76
     0
 77
     1
 78
     8
170
     0
171
     2
172
     0
173
     1
174
     0
175
     0
176
     0
177
     0
178
     0
  0
ENDTAB
  0
ENDSEC
  0
SECTION
  2
BLOCKS
  0
BLOCK
  8
0
  2
$MODEL_SPACE
 70
     0
 10
0.0
 20
0.0
 30
0.0
  3
$MODEL_SPACE
  1

  0
ENDBLK
  5
1B
  8
0
  0
BLOCK
 67
     1
  8
0
  2
$PAPER_SPACE
 70
     0
 10
0.0
 20
0.0
 30
0.0
  3
$PAPER_SPACE
  1

  0
ENDBLK
  5
18
 67
     1
  8
0
  0
BLOCK
  8
0
  2
_OPEN
 70
     0
 10
0.0
 20
0.0
 30
0.0
  3
_OPEN
  1

  0
LINE
  5
7B44
  8
0
  6
BYBLOCK
 62
     0
 10
-1.0
 20
0.166667
 30
0.0
 11
0.0
 21
0.0
 31
0.0
  0
LINE
  5
7B45
  8
0
  6
BYBLOCK
 62
     0
 10
0.0
 20
0.0
 30
0.0
 11
-1.0
 21
-0.166667
 31
0.0
  0
LINE
  5
7B46
  8
0
  6
BYBLOCK
 62
     0
 10
0.0
 20
0.0
 30
0.0
 11
-1.0
 21
0.0
 31
0.0
  0
ENDBLK
  5
7B47
  8
0
  0
BLOCK
  8
0
  2
*D1
 70
     1
 10
0.0
 20
0.0
 30
0.0
  3
*D1
  1

  0
LINE
  5
7DBF
  8
3
  6
CONTINUOUS
 62
     0
 10
530.86292999999989
 20
736.20908883665288
 30
0.0
 11
530.86292999999989
 21
667.37313583665309
 31
0.0
  0
LINE
  5
7DC0
  8
3
  6
CONTINUOUS
 62
     0
 10
720.86293000000001
 20
766.20908883665288
 30
0.0
 11
720.86293000000001
 21
667.37313583665309
 31
0.0
  0
LINE
  5
7DC1
  8
3
  6
CONTINUOUS
 62
     0
 10
550.86292999999989
 20
677.37313583665298
 30
0.0
 11
700.86292999999989
 21
677.37313583665298
 31
0.0
  0
INSERT
  5
7DC2
  8
3
  6
CONTINUOUS
 62
     0
  2
_OPEN
 10
530.86292999999989
 20
677.37313583665298
 30
0.0
 41
20.0
 42
20.0
 43
20.0
 50
180.0
  0
INSERT
  5
7DC3
  8
3
  6
CONTINUOUS
 62
     0
  2
_OPEN
 10
720.86293000000001
 20
677.37313583665298
 30
0.0
 41
20.0
 42
20.0
 43
20.0
  0
TEXT
  8
3
  40
30
  5
7E5E
  62
0
  72
0
  71
0
 10
567.209
 20
649.273
 30
0.000000
  1
190
  0
POINT
  5
7DC5
  8
DEFPOINTS
  6
CONTINUOUS
 62
     0
 10
530.86292999999989
 20
741.20908883665288
 30
0.0
  0
POINT
  5
7DC6
  8
DEFPOINTS
  6
CONTINUOUS
 62
     0
 10
720.86293000000001
 20
771.209088836653
 30
0.0
  0
POINT
  5
7DC7
  8
DEFPOINTS
  6
CONTINUOUS
 62
     0
 10
720.86293000000001
 20
677.37313583665298
 30
0.0
  0
ENDBLK
  5
7B54
  8
0
  0
BLOCK
  8
0
  2
*D2
 70
     1
 10
0.0
 20
0.0
 30
0.0
  3
*D2
  1

  0
LINE
  5
7DC8
  8
3
  6
CONTINUOUS
 62
     0
 10
1240.86293
 20
736.20908883665288
 30
0.0
 11
1240.86293
 21
667.37313583665309
 31
0.0
  0
LINE
  5
7DC9
  8
3
  6
CONTINUOUS
 62
     0
 10
740.86293000000001
 20
677.37313583665298
 30
0.0
 11
1220.86293
 21
677.37313583665298
 31
0.0
  0
INSERT
  5
7DCA
  8
3
  6
CONTINUOUS
 62
     0
  2
_OPEN
 10
720.86293000000001
 20
677.37313583665298
 30
0.0
 41
20.0
 42
20.0
 43
20.0
 50
180.0
  0
INSERT
  5
7DCB
  8
3
  6
CONTINUOUS
 62
     0
  2
_OPEN
 10
1240.86293
 20
677.37313583665298
 30
0.0
 41
20.0
 42
20.0
 43
20.0
  0
TEXT
  8
3
  40
30
  5
7E5F
  62
0
  72
0
  71
0
 10
920.863
 20
649.273
 30
0.000000
  1
520
  0
POINT
  5
7DCD
  8
DEFPOINTS
  6
CONTINUOUS
 62
     0
 10
720.86293000000001
 20
771.209088836653
 30
0.0
  0
POINT
  5
7DCE
  8
DEFPOINTS
  6
CONTINUOUS
 62
     0
 10
1240.86293
 20
741.20908883665288
 30
0.0
  0
POINT
  5
7DCF
  8
DEFPOINTS
  6
CONTINUOUS
 62
     0
 10
1240.86293
 20
677.37313583665298
 30
0.0
  0
ENDBLK
  5
7B60
  8
0
  0
BLOCK
  8
0
  2
*D3
 70
     1
 10
0.0
 20
0.0
 30
0.0
  3
*D3
  1

  0
LINE
  5
7DD0
  8
3
  6
CONTINUOUS
 62
     0
 10
515.86293000000001
 20
1336.209088836652
 30
0.0
 11
436.32994500000018
 21
1336.2090888366531
 31
0.0
  0
LINE
  5
7DD1
  8
3
  6
CONTINUOUS
 62
     0
 10
515.86293000000001
 20
1086.209088836652
 30
0.0
 11
436.32994500000012
 21
1086.2090888366531
 31
0.0
  0
LINE
  5
7DD2
  8
3
  6
CONTINUOUS
 62
     0
 10
446.32994500000012
 20
1316.2090888366531
 30
0.0
 11
446.32994500000001
 21
1106.2090888366531
 31
0.0
  0
INSERT
  5
7DD3
  8
3
  6
CONTINUOUS
 62
     0
  2
_OPEN
 10
446.32994500000012
 20
1336.2090888366531
 30
0.0
 41
20.0
 42
20.0
 43
20.0
 50
90.0
  0
INSERT
  5
7DD4
  8
3
  6
CONTINUOUS
 62
     0
  2
_OPEN
 10
446.32994500000001
 20
1086.2090888366531
 30
0.0
 41
20.0
 42
20.0
 43
20.0
 50
270.0
  0
TEXT
  8
3
  40
30
  5
7E60
  62
0
  72
0
  71
0
 10
361.330
 20
1166.86
 30
0.000000
  1
250
  0
POINT
  5
7DD6
  8
DEFPOINTS
  6
CONTINUOUS
 62
     0
 10
520.86293000000001
 20
1336.209088836652
 30
0.0
  0
POINT
  5
7DD7
  8
DEFPOINTS
  6
CONTINUOUS
 62
     0
 10
520.86293000000001
 20
1086.209088836652
 30
0.0
  0
POINT
  5
7DD8
  8
DEFPOINTS
  6
CONTINUOUS
 62
     0
 10
446.32994500000001
 20
1086.2090888366531
 30
0.0
  0
ENDBLK
  5
7B6D
  8
0
  0
BLOCK
  8
0
  2
*D4
 70
     1
 10
0.0
 20
0.0
 30
0.0
  3
*D4
  1

  0
LINE
  5
7DD9
  8
3
  6
CONTINUOUS
 62
     0
 10
535.86293000000001
 20
1346.209088836652
 30
0.0
 11
370.64269600000023
 21
1346.2090888366531
 31
0.0
  0
LINE
  5
7DDA
  8
3
  6
CONTINUOUS
 62
     0
 10
515.86293000000001
 20
1086.209088836652
 30
0.0
 11
370.64269600000011
 21
1086.2090888366531
 31
0.0
  0
LINE
  5
7DDB
  8
3
  6
CONTINUOUS
 62
     0
 10
380.64269600000023
 20
1326.2090888366531
 30
0.0
 11
380.64269600000011
 21
1106.2090888366531
 31
0.0
  0
INSERT
  5
7DDC
  8
3
  6
CONTINUOUS
 62
     0
  2
_OPEN
 10
380.64269600000023
 20
1346.2090888366531
 30
0.0
 41
20.0
 42
20.0
 43
20.0
 50
90.0
  0
INSERT
  5
7DDD
  8
3
  6
CONTINUOUS
 62
     0
  2
_OPEN
 10
380.64269600000011
 20
1086.2090888366531
 30
0.0
 41
20.0
 42
20.0
 43
20.0
 50
270.0
  0
TEXT
  8
3
  40
30
  5
7E61
  62
0
  72
0
  71
0
 10
295.643
 20
1164.32
 30
0.000000
  1
260
  0
POINT
  5
7DDF
  8
DEFPOINTS
  6
CONTINUOUS
 62
     0
 10
540.86293000000001
 20
1346.209088836652
 30
0.0
  0
POINT
  5
7DE0
  8
DEFPOINTS
  6
CONTINUOUS
 62
     0
 10
520.86293000000001
 20
1086.209088836652
 30
0.0
  0
POINT
  5
7DE1
  8
DEFPOINTS
  6
CONTINUOUS
 62
     0
 10
380.64269600000011
 20
1086.2090888366531
 30
0.0
  0
ENDBLK
  5
7B7A
  8
0
  0
BLOCK
  8
0
  2
*D5
 70
     1
 10
0.0
 20
0.0
 30
0.0
  3
*D5
  1

  0
LINE
  5
7DE2
  8
3
  6
CONTINUOUS
 62
     0
 10
525.86292999999989
 20
771.209088836653
 30
0.0
 11
370.64269599999989
 21
771.209088836653
 31
0.0
  0
LINE
  5
7DE3
  8
3
  6
CONTINUOUS
 62
     0
 10
380.642696
 20
1066.2090888366531
 30
0.0
 11
380.64269599999989
 21
791.20908883665288
 31
0.0
  0
INSERT
  5
7DE4
  8
3
  6
CONTINUOUS
 62
     0
  2
_OPEN
 10
380.642696
 20
1086.2090888366531
 30
0.0
 41
20.0
 42
20.0
 43
20.0
 50
90.0
  0
INSERT
  5
7DE5
  8
3
  6
CONTINUOUS
 62
     0
  2
_OPEN
 10
380.64269599999989
 20
771.209088836653
 30
0.0
 41
20.0
 42
20.0
 43
20.0
 50
270.0
  0
TEXT
  8
3
  40
30
  5
7E62
  62
0
  72
0
  71
0
 10
295.643
 20
875.609
 30
0.000000
  1
315
  0
POINT
  5
7DE7
  8
DEFPOINTS
  6
CONTINUOUS
 62
     0
 10
520.86293000000001
 20
1086.209088836652
 30
0.0
  0
POINT
  5
7DE8
  8
DEFPOINTS
  6
CONTINUOUS
 62
     0
 10
530.86292999999989
 20
771.209088836653
 30
0.0
  0
POINT
  5
7DE9
  8
DEFPOINTS
  6
CONTINUOUS
 62
     0
 10
380.64269599999989
 20
771.209088836653
 30
0.0
  0
ENDBLK
  5
7B86
  8
0
  0
BLOCK
  8
0
  2
*D6
 70
     1
 10
0.0
 20
0.0
 30
0.0
  3
*D6
  1

  0
LINE
  5
7DEA
  8
3
  6
CONTINUOUS
 62
     0
 10
525.86292999999989
 20
771.209088836653
 30
0.0
 11
370.64269600000011
 21
771.209088836653
 31
0.0
  0
LINE
  5
7DEB
  8
3
  6
CONTINUOUS
 62
     0
 10
525.86292999999989
 20
741.20908883665288
 30
0.0
 11
370.64269600000011
 21
741.20908883665288
 31
0.0
  0
LINE
  5
7DEC
  8
3
  6
CONTINUOUS
 62
     0
 10
380.64269600000011
 20
791.20908883665288
 30
0.0
 11
380.64269600000011
 21
811.209088836653
 31
0.0
  0
LINE
  5
7DED
  8
3
  6
CONTINUOUS
 62
     0
 10
380.64269600000011
 20
721.209088836653
 30
0.0
 11
380.642696
 21
632.63766026522455
 31
0.0
  0
LINE
  5
7DEE
  8
3
  6
CONTINUOUS
 62
     0
 10
380.64269600000011
 20
771.209088836653
 30
0.0
 11
380.64269600000011
 21
741.20908883665288
 31
0.0
  0
INSERT
  5
7DEF
  8
3
  6
CONTINUOUS
 62
     0
  2
_OPEN
 10
380.64269600000011
 20
771.209088836653
 30
0.0
 41
20.0
 42
20.0
 43
20.0
 50
270.0
  0
INSERT
  5
7DF0
  8
3
  6
CONTINUOUS
 62
     0
  2
_OPEN
 10
380.64269600000011
 20
741.20908883665288
 30
0.0
 41
20.0
 42
20.0
 43
20.0
 50
90.0
  0
TEXT
  8
3
  40
30
  5
7E63
  62
0
  72
0
  71
0
 10
295.643
 20
613.823
 30
0.000000
  1
30
  0
POINT
  5
7DF2
  8
DEFPOINTS
  6
CONTINUOUS
 62
     0
 10
530.86292999999989
 20
771.209088836653
 30
0.0
  0
POINT
  5
7DF3
  8
DEFPOINTS
  6
CONTINUOUS
 62
     0
 10
530.86292999999989
 20
741.20908883665288
 30
0.0
  0
POINT
  5
7DF4
  8
DEFPOINTS
  6
CONTINUOUS
 62
     0
 10
380.64269600000011
 20
741.20908883665288
 30
0.0
  0
ENDBLK
  5
7CAB
  8
0
  0
BLOCK
  8
0
  2
*D7
 70
     1
 10
0.0
 20
0.0
 30
0.0
  3
*D7
  1

  0
LINE
  5
7DF5
  8
3
  6
CONTINUOUS
 62
     0
 10
515.86293000000001
 20
1357.2090888366531
 30
0.0
 11
311.3595575763535
 21
1357.2090888366531
 31
0.0
  0
LINE
  5
7DF6
  8
3
  6
CONTINUOUS
 62
     0
 10
525.86292999999989
 20
741.20908883665288
 30
0.0
 11
311.35955757635332
 21
741.20908883665288
 31
0.0
  0
LINE
  5
7DF7
  8
3
  6
CONTINUOUS
 62
     0
 10
321.35955757635338
 20
1337.2090888366531
 30
0.0
 11
321.35955757635332
 21
761.20908883665288
 31
0.0
  0
INSERT
  5
7DF8
  8
3
  6
CONTINUOUS
 62
     0
  2
_OPEN
 10
321.35955757635338
 20
1357.2090888366531
 30
0.0
 41
20.0
 42
20.0
 43
20.0
 50
90.0
  0
INSERT
  5
7DF9
  8
3
  6
CONTINUOUS
 62
     0
  2
_OPEN
 10
321.35955757635332
 20
741.20908883665288
 30
0.0
 41
20.0
 42
20.0
 43
20.0
 50
270.0
  0
TEXT
  8
3
  40
30
  5
7E64
  62
0
  72
0
  71
0
 10
236.360
 20
1007.44
 30
0.000000
  1
616
  0
POINT
  5
7DFB
  8
DEFPOINTS
  6
CONTINUOUS
 62
     0
 10
520.86293000000001
 20
1357.2090888366531
 30
0.0
  0
POINT
  5
7DFC
  8
DEFPOINTS
  6
CONTINUOUS
 62
     0
 10
530.86292999999989
 20
741.20908883665288
 30
0.0
  0
POINT
  5
7DFD
  8
DEFPOINTS
  6
CONTINUOUS
 62
     0
 10
321.35955757635332
 20
741.20908883665288
 30
0.0
  0
ENDBLK
  5
7C99
  8
0
  0
BLOCK
  8
0
  2
*D8
 70
     1
 10
0.0
 20
0.0
 30
0.0
  3
*D8
  1

  0
LINE
  5
7DFE
  8
3
  6
CONTINUOUS
 62
     0
 10
520.86293000000001
 20
1362.209088836652
 30
0.0
 11
520.86293000000001
 21
1418.4875818366529
 31
0.0
  0
LINE
  5
7DFF
  8
3
  6
CONTINUOUS
 62
     0
 10
720.86293000000001
 20
1351.2090888366531
 30
0.0
 11
720.86293000000001
 21
1418.4875818366529
 31
0.0
  0
LINE
  5
7E00
  8
3
  6
CONTINUOUS
 62
     0
 10
540.86293000000001
 20
1408.487581836652
 30
0.0
 11
700.86292999999989
 21
1408.487581836652
 31
0.0
  0
INSERT
  5
7E01
  8
3
  6
CONTINUOUS
 62
     0
  2
_OPEN
 10
520.86293000000001
 20
1408.487581836652
 30
0.0
 41
20.0
 42
20.0
 43
20.0
 50
180.0
  0
INSERT
  5
7E02
  8
3
  6
CONTINUOUS
 62
     0
  2
_OPEN
 10
720.86293000000001
 20
1408.487581836652
 30
0.0
 41
20.0
 42
20.0
 43
20.0
  0
TEXT
  8
3
  40
30
  5
7E65
  62
0
  72
0
  71
0
 10
550.803
 20
1380.39
 30
0.000000
  1
200
  0
POINT
  5
7E04
  8
DEFPOINTS
  6
CONTINUOUS
 62
     0
 10
520.86293000000001
 20
1357.2090888366531
 30
0.0
  0
POINT
  5
7E05
  8
DEFPOINTS
  6
CONTINUOUS
 62
     0
 10
720.86293000000001
 20
1346.209088836652
 30
0.0
  0
POINT
  5
7E06
  8
DEFPOINTS
  6
CONTINUOUS
 62
     0
 10
720.86293000000001
 20
1408.487581836652
 30
0.0
  0
ENDBLK
  5
7BD5
  8
0
  0
BLOCK
  8
0
  2
*D9
 70
     1
 10
0.0
 20
0.0
 30
0.0
  3
*D9
  1

  0
LINE
  5
7E07
  8
3
  6
CONTINUOUS
 62
     0
 10
940.85231400000009
 20
1091.2090888366531
 30
0.0
 11
940.85231400000009
 21
1418.4875818366529
 31
0.0
  0
LINE
  5
7E08
  8
3
  6
CONTINUOUS
 62
     0
 10
740.86293000000001
 20
1408.487581836652
 30
0.0
 11
920.85231399999998
 21
1408.487581836652
 31
0.0
  0
INSERT
  5
7E09
  8
3
  6
CONTINUOUS
 62
     0
  2
_OPEN
 10
720.86293000000001
 20
1408.487581836652
 30
0.0
 41
20.0
 42
20.0
 43
20.0
 50
180.0
  0
INSERT
  5
7E0A
  8
3
  6
CONTINUOUS
 62
     0
  2
_OPEN
 10
940.85231400000009
 20
1408.487581836652
 30
0.0
 41
20.0
 42
20.0
 43
20.0
  0
TEXT
  8
3
  40
30
  5
7E66
  62
0
  72
0
  71
0
 10
770.858
 20
1380.39
 30
0.000000
  1
220
  0
POINT
  5
7E0C
  8
DEFPOINTS
  6
CONTINUOUS
 62
     0
 10
720.86293000000001
 20
1346.209088836652
 30
0.0
  0
POINT
  5
7E0D
  8
DEFPOINTS
  6
CONTINUOUS
 62
     0
 10
940.85231400000009
 20
1086.209088836652
 30
0.0
  0
POINT
  5
7E0E
  8
DEFPOINTS
  6
CONTINUOUS
 62
     0
 10
940.85231400000009
 20
1408.487581836652
 30
0.0
  0
ENDBLK
  5
7BE1
  8
0
  0
BLOCK
  8
0
  2
*D10
 70
     1
 10
0.0
 20
0.0
 30
0.0
  3
*D10
  1

  0
LINE
  5
7E0F
  8
3
  6
CONTINUOUS
 62
     0
 10
530.86292999999989
 20
1655.223286820524
 30
0.0
 11
530.86292999999989
 21
1563.921199820524
 31
0.0
  0
LINE
  5
7E10
  8
3
  6
CONTINUOUS
 62
     0
 10
1240.86293
 20
1655.223286820524
 30
0.0
 11
1240.86293
 21
1563.921199820524
 31
0.0
  0
LINE
  5
7E11
  8
3
  6
CONTINUOUS
 62
     0
 10
550.86292999999989
 20
1573.921199820524
 30
0.0
 11
1220.86293
 21
1573.921199820524
 31
0.0
  0
INSERT
  5
7E12
  8
3
  6
CONTINUOUS
 62
     0
  2
_OPEN
 10
530.86292999999989
 20
1573.921199820524
 30
0.0
 41
20.0
 42
20.0
 43
20.0
 50
180.0
  0
INSERT
  5
7E13
  8
3
  6
CONTINUOUS
 62
     0
  2
_OPEN
 10
1240.86293
 20
1573.921199820524
 30
0.0
 41
20.0
 42
20.0
 43
20.0
  0
TEXT
  8
3
  40
30
  5
7E67
  62
0
  72
0
  71
0
 10
807.293
 20
1545.82
 30
0.000000
  1
710
  0
POINT
  5
7E15
  8
DEFPOINTS
  6
CONTINUOUS
 62
     0
 10
530.86292999999989
 20
1660.223286820524
 30
0.0
  0
POINT
  5
7E16
  8
DEFPOINTS
  6
CONTINUOUS
 62
     0
 10
1240.86293
 20
1660.223286820524
 30
0.0
  0
POINT
  5
7E17
  8
DEFPOINTS
  6
CONTINUOUS
 62
     0
 10
1240.86293
 20
1573.921199820524
 30
0.0
  0
ENDBLK
  5
7BEF
  8
0
  0
BLOCK
  8
0
  2
*D11
 70
     1
 10
0.0
 20
0.0
 30
0.0
  3
*D11
  1

  0
LINE
  5
7E18
  8
3
  6
CONTINUOUS
 62
     0
 10
1245.86293
 20
2140.2232868205242
 30
0.0
 11
1347.3174120000001
 21
2140.2232868205242
 31
0.0
  0
LINE
  5
7E19
  8
3
  6
CONTINUOUS
 62
     0
 10
1245.86293
 20
1660.223286820524
 30
0.0
 11
1347.3174120000001
 21
1660.223286820524
 31
0.0
  0
LINE
  5
7E1A
  8
3
  6
CONTINUOUS
 62
     0
 10
1337.3174120000001
 20
2120.2232868205242
 30
0.0
 11
1337.3174120000001
 21
1680.223286820524
 31
0.0
  0
INSERT
  5
7E1B
  8
3
  6
CONTINUOUS
 62
     0
  2
_OPEN
 10
1337.3174120000001
 20
2140.2232868205242
 30
0.0
 41
20.0
 42
20.0
 43
20.0
 50
90.0
  0
INSERT
  5
7E1C
  8
3
  6
CONTINUOUS
 62
     0
  2
_OPEN
 10
1337.3174120000001
 20
1660.223286820524
 30
0.0
 41
20.0
 42
20.0
 43
20.0
 50
270.0
  0
TEXT
  8
3
  40
30
  5
7E68
  62
0
  72
0
  71
0
 10
1252.32
 20
1846.50
 30
0.000000
  1
480
  0
POINT
  5
7E1E
  8
DEFPOINTS
  6
CONTINUOUS
 62
     0
 10
1240.86293
 20
2140.2232868205242
 30
0.0
  0
POINT
  5
7E1F
  8
DEFPOINTS
  6
CONTINUOUS
 62
     0
 10
1240.86293
 20
1660.223286820524
 30
0.0
  0
POINT
  5
7E20
  8
DEFPOINTS
  6
CONTINUOUS
 62
     0
 10
1337.3174120000001
 20
1660.223286820524
 30
0.0
  0
ENDBLK
  5
7BFC
  8
0
  0
BLOCK
  8
0
  2
*D12
 70
     1
 10
0.0
 20
0.0
 30
0.0
  3
*D12
  1

  0
LINE
  5
7E21
  8
3
  6
CONTINUOUS
 62
     0
 10
1350.0306123055141
 20
736.20908883665288
 30
0.0
 11
1350.0306123055141
 21
655.58107283665299
 31
0.0
  0
LINE
  5
7E22
  8
3
  6
CONTINUOUS
 62
     0
 10
1688.0306123055141
 20
736.20908883665288
 30
0.0
 11
1688.0306123055141
 21
655.58107283665299
 31
0.0
  0
LINE
  5
7E23
  8
3
  6
CONTINUOUS
 62
     0
 10
1370.0306123055141
 20
665.58107283665311
 30
0.0
 11
1668.0306123055129
 21
665.58107283665311
 31
0.0
  0
INSERT
  5
7E24
  8
3
  6
CONTINUOUS
 62
     0
  2
_OPEN
 10
1350.0306123055141
 20
665.58107283665311
 30
0.0
 41
20.0
 42
20.0
 43
20.0
 50
180.0
  0
INSERT
  5
7E25
  8
3
  6
CONTINUOUS
 62
     0
  2
_OPEN
 10
1688.0306123055141
 20
665.58107283665311
 30
0.0
 41
20.0
 42
20.0
 43
20.0
  0
TEXT
  8
3
  40
30
  5
7E69
  62
0
  72
0
  71
0
 10
1463.62
 20
637.481
 30
0.000000
  1
338
  0
POINT
  5
7E27
  8
DEFPOINTS
  6
CONTINUOUS
 62
     0
 10
1350.0306123055141
 20
741.20908883665288
 30
0.0
  0
POINT
  5
7E28
  8
DEFPOINTS
  6
CONTINUOUS
 62
     0
 10
1688.0306123055141
 20
741.20908883665288
 30
0.0
  0
POINT
  5
7E29
  8
DEFPOINTS
  6
CONTINUOUS
 62
     0
 10
1688.0306123055141
 20
665.58107283665311
 30
0.0
  0
ENDBLK
  5
7C0A
  8
0
  0
BLOCK
  8
0
  2
*D13
 70
     1
 10
0.0
 20
0.0
 30
0.0
  3
*D13
  1

  0
LINE
  5
7E2A
  8
3
  6
CONTINUOUS
 62
     0
 10
1830.0306123055141
 20
736.20908883665288
 30
0.0
 11
1830.0306123055141
 21
655.58107283665299
 31
0.0
  0
LINE
  5
7E2B
  8
3
  6
CONTINUOUS
 62
     0
 10
1708.0306123055141
 20
665.58107283665311
 30
0.0
 11
1810.0306123055141
 21
665.58107283665311
 31
0.0
  0
INSERT
  5
7E2C
  8
3
  6
CONTINUOUS
 62
     0
  2
_OPEN
 10
1688.0306123055141
 20
665.58107283665311
 30
0.0
 41
20.0
 42
20.0
 43
20.0
 50
180.0
  0
INSERT
  5
7E2D
  8
3
  6
CONTINUOUS
 62
     0
  2
_OPEN
 10
1830.0306123055141
 20
665.58107283665311
 30
0.0
 41
20.0
 42
20.0
 43
20.0
  0
TEXT
  8
3
  40
30
  5
7E6A
  62
0
  72
0
  71
0
 10
1699.03
 20
637.481
 30
0.000000
  1
142
  0
POINT
  5
7E2F
  8
DEFPOINTS
  6
CONTINUOUS
 62
     0
 10
1688.0306123055141
 20
741.20908883665288
 30
0.0
  0
POINT
  5
7E30
  8
DEFPOINTS
  6
CONTINUOUS
 62
     0
 10
1830.0306123055141
 20
741.20908883665288
 30
0.0
  0
POINT
  5
7E31
  8
DEFPOINTS
  6
CONTINUOUS
 62
     0
 10
1830.0306123055141
 20
665.58107283665311
 30
0.0
  0
ENDBLK
  5
7C16
  8
0
  0
BLOCK
  8
0
  2
*D14
 70
     1
 10
0.0
 20
0.0
 30
0.0
  3
*D14
  1

  0
LINE
  5
7E32
  8
3
  6
CONTINUOUS
 62
     0
 10
1598.0306123055141
 20
1342.2090888366531
 30
0.0
 11
1598.0306123055141
 21
1403.9383648366529
 31
0.0
  0
LINE
  5
7E33
  8
3
  6
CONTINUOUS
 62
     0
 10
1778.0306123055141
 20
1342.2090888366531
 30
0.0
 11
1778.0306123055141
 21
1403.9383648366529
 31
0.0
  0
LINE
  5
7E34
  8
3
  6
CONTINUOUS
 62
     0
 10
1618.0306123055129
 20
1393.9383648366529
 30
0.0
 11
1758.0306123055141
 21
1393.9383648366529
 31
0.0
  0
INSERT
  5
7E35
  8
3
  6
CONTINUOUS
 62
     0
  2
_OPEN
 10
1598.0306123055141
 20
1393.9383648366529
 30
0.0
 41
20.0
 42
20.0
 43
20.0
 50
180.0
  0
INSERT
  5
7E36
  8
3
  6
CONTINUOUS
 62
     0
  2
_OPEN
 10
1778.0306123055141
 20
1393.9383648366529
 30
0.0
 41
20.0
 42
20.0
 43
20.0
  0
TEXT
  8
3
  40
30
  5
7E6B
  62
0
  72
0
  71
0
 10
1624.41
 20
1365.84
 30
0.000000
  1
180
  0
POINT
  5
7E38
  8
DEFPOINTS
  6
CONTINUOUS
 62
     0
 10
1598.0306123055141
 20
1337.2090888366531
 30
0.0
  0
POINT
  5
7E39
  8
DEFPOINTS
  6
CONTINUOUS
 62
     0
 10
1778.0306123055141
 20
1337.2090888366531
 30
0.0
  0
POINT
  5
7E3A
  8
DEFPOINTS
  6
CONTINUOUS
 62
     0
 10
1778.0306123055141
 20
1393.9383648366529
 30
0.0
  0
ENDBLK
  5
7C24
  8
0
  0
BLOCK
  8
0
  2
*D15
 70
     1
 10
0.0
 20
0.0
 30
0.0
  3
*D15
  1

  0
LINE
  5
7E3B
  8
3
  6
CONTINUOUS
 62
     0
 10
1348.0306123055141
 20
1216.2090888366531
 30
0.0
 11
1348.0306123055141
 21
1467.6350098366529
 31
0.0
  0
LINE
  5
7E3C
  8
3
  6
CONTINUOUS
 62
     0
 10
1688.0306123055141
 20
1446.2306148366531
 30
0.0
 11
1688.0306123055141
 21
1467.6350098366529
 31
0.0
  0
LINE
  5
7E3D
  8
3
  6
CONTINUOUS
 62
     0
 10
1368.0306123055141
 20
1457.6350098366529
 30
0.0
 11
1668.0306123055129
 21
1457.6350098366529
 31
0.0
  0
INSERT
  5
7E3E
  8
3
  6
CONTINUOUS
 62
     0
  2
_OPEN
 10
1348.0306123055141
 20
1457.6350098366529
 30
0.0
 41
20.0
 42
20.0
 43
20.0
 50
180.0
  0
INSERT
  5
7E3F
  8
3
  6
CONTINUOUS
 62
     0
  2
_OPEN
 10
1688.0306123055141
 20
1457.6350098366529
 30
0.0
 41
20.0
 42
20.0
 43
20.0
  0
TEXT
  8
3
  40
30
  5
7E6C
  62
0
  72
0
  71
0
 10
1455.30
 20
1454.54
 30
0.000000
  1
MAX
  0
TEXT
  8
3
  40
30
  5
7E6D
  62
0
  72
0
  71
0
 10
1455.30
 20
1415.54
 30
0.000000
  1
340
  0
POINT
  5
7E41
  8
DEFPOINTS
  6
CONTINUOUS
 62
     0
 10
1348.0306123055141
 20
1211.209088836652
 30
0.0
  0
POINT
  5
7E42
  8
DEFPOINTS
  6
CONTINUOUS
 62
     0
 10
1688.0306123055141
 20
1441.230614836652
 30
0.0
  0
POINT
  5
7E43
  8
DEFPOINTS
  6
CONTINUOUS
 62
     0
 10
1688.0306123055141
 20
1457.6350098366529
 30
0.0
  0
ENDBLK
  5
7CC3
  8
0
  0
BLOCK
  8
0
  2
*D16
 70
     1
 10
0.0
 20
0.0
 30
0.0
  3
*D16
  1

  0
LINE
  5
7E44
  8
3
  6
CONTINUOUS
 62
     0
 10
1787.0306123055141
 20
1238.2090888366531
 30
0.0
 11
1787.0306123055141
 21
1467.6350098366529
 31
0.0
  0
LINE
  5
7E45
  8
3
  6
CONTINUOUS
 62
     0
 10
1708.0306123055141
 20
1457.6350098366529
 30
0.0
 11
1767.0306123055141
 21
1457.6350098366529
 31
0.0
  0
TEXT
  8
3
  40
30
  5
7E6E
  62
0
  72
0
  71
0
 10
1671.53
 20
1429.54
 30
0.000000
  1
99
  0
INSERT
  5
7E47
  8
3
  6
CONTINUOUS
 62
     0
  2
_OPEN
 10
1688.0306123055141
 20
1457.6350098366529
 30
0.0
 41
20.0
 42
20.0
 43
20.0
 50
180.0
  0
INSERT
  5
7E48
  8
3
  6
CONTINUOUS
 62
     0
  2
_OPEN
 10
1787.0306123055141
 20
1457.6350098366529
 30
0.0
 41
20.0
 42
20.0
 43
20.0
  0
POINT
  5
7E49
  8
DEFPOINTS
  6
CONTINUOUS
 62
     0
 10
1688.0306123055141
 20
1441.230614836652
 30
0.0
  0
POINT
  5
7E4A
  8
DEFPOINTS
  6
CONTINUOUS
 62
     0
 10
1787.0306123055141
 20
1233.2090888366531
 30
0.0
  0
POINT
  5
7E4B
  8
DEFPOINTS
  6
CONTINUOUS
 62
     0
 10
1787.0306123055141
 20
1457.6350098366529
 30
0.0
  0
ENDBLK
  5
7C84
  8
0
  0
BLOCK
  8
0
  2
*D17
 70
     1
 10
0.0
 20
0.0
 30
0.0
  3
*D17
  1

  0
LINE
  5
7E4C
  8
3
  6
CONTINUOUS
 62
     0
 10
1792.0306123055141
 20
1211.209088836652
 30
0.0
 11
1867.544279305514
 21
1211.209088836652
 31
0.0
  0
LINE
  5
7E4D
  8
3
  6
CONTINUOUS
 62
     0
 10
1792.0306123055141
 20
961.20908883665288
 30
0.0
 11
1867.544279305514
 21
961.20908883665288
 31
0.0
  0
LINE
  5
7E4E
  8
3
  6
CONTINUOUS
 62
     0
 10
1857.544279305514
 20
1191.2090888366531
 30
0.0
 11
1857.544279305514
 21
981.20908883665277
 31
0.0
  0
INSERT
  5
7E4F
  8
3
  6
CONTINUOUS
 62
     0
  2
_OPEN
 10
1857.544279305514
 20
1211.209088836652
 30
0.0
 41
20.0
 42
20.0
 43
20.0
 50
90.0
  0
INSERT
  5
7E50
  8
3
  6
CONTINUOUS
 62
     0
  2
_OPEN
 10
1857.544279305514
 20
961.20908883665288
 30
0.0
 41
20.0
 42
20.0
 43
20.0
 50
270.0
  0
TEXT
  8
3
  40
30
  5
7E6F
  62
0
  72
0
  71
0
 10
1772.54
 20
1041.00
 30
0.000000
  1
φ250
  0
POINT
  5
7E52
  8
DEFPOINTS
  6
CONTINUOUS
 62
     0
 10
1787.0306123055141
 20
1211.209088836652
 30
0.0
  0
POINT
  5
7E53
  8
DEFPOINTS
  6
CONTINUOUS
 62
     0
 10
1787.0306123055141
 20
961.209088836653
 30
0.0
  0
POINT
  5
7E54
  8
DEFPOINTS
  6
CONTINUOUS
 62
     0
 10
1857.544279305514
 20
961.20908883665288
 30
0.0
  0
ENDBLK
  5
7CCE
  8
0
  0
BLOCK
  8
0
  2
*D18
 70
     1
 10
0.0
 20
0.0
 30
0.0
  3
*D18
  1

  0
LINE
  5
7E55
  8
3
 62
     0
 10
520.86293000000001
 20
1362.209088836652
 30
0.0
 11
520.86293000000001
 21
1488.020497906547
 31
0.0
  0
LINE
  5
7E56
  8
3
 62
     0
 10
1240.86293
 20
856.209088836653
 30
0.0
 11
1240.86293
 21
1488.020497906547
 31
0.0
  0
LINE
  5
7E57
  8
3
 62
     0
 10
540.86293000000001
 20
1478.020497906547
 30
0.0
 11
1220.86293
 21
1478.020497906547
 31
0.0
  0
INSERT
  5
7E58
  8
3
 62
     0
  2
_OPEN
 10
520.86293000000001
 20
1478.020497906547
 30
0.0
 41
20.0
 42
20.0
 43
20.0
 50
180.0
  0
INSERT
  5
7E59
  8
3
 62
     0
  2
_OPEN
 10
1240.86293
 20
1478.020497906547
 30
0.0
 41
20.0
 42
20.0
 43
20.0
  0
TEXT
  8
3
  40
30
  5
7E70
  62
0
  72
0
  71
0
 10
815.515
 20
1449.92
 30
0.000000
  1
720
  0
POINT
  5
7E5B
  8
DEFPOINTS
 62
     0
 10
520.86293000000001
 20
1357.2090888366531
 30
0.0
  0
POINT
  5
7E5C
  8
DEFPOINTS
 62
     0
 10
1240.86293
 20
851.20908883665288
 30
0.0
  0
POINT
  5
7E5D
  8
DEFPOINTS
 62
     0
 10
1240.86293
 20
1478.020497906547
 30
0.0
  0
ENDBLK
  5
7CB7
  8
0
  0
ENDSEC
  0
SECTION
  2
ENTITIES
  0
LINE
  5
7A91
  8
1
  6
CONTINUOUS
 10
520.86293000000001
 20
1086.209088836652
 30
0.0
 11
540.86293000000001
 21
1086.209088836652
 31
0.0
  0
LINE
  5
7A92
  8
1
  6
CONTINUOUS
 10
520.86293000000001
 20
1336.209088836652
 30
0.0
 11
540.86293000000001
 21
1336.209088836652
 31
0.0
  0
LINE
  5
7A93
  8
1
  6
CONTINUOUS
 10
520.86293000000001
 20
1086.209088836652
 30
0.0
 11
540.86293000000001
 21
1106.209088836652
 31
0.0
  0
LINE
  5
7A94
  8
1
  6
CONTINUOUS
 10
520.86293000000001
 20
1336.209088836652
 30
0.0
 11
540.86293000000001
 21
1316.2090888366531
 31
0.0
  0
LINE
  5
7A95
  8
1
  6
CONTINUOUS
 10
520.86293000000001
 20
1065.209088836652
 30
0.0
 11
520.86293000000001
 21
1357.2090888366531
 31
0.0
  0
LINE
  5
7A96
  8
1
  6
CONTINUOUS
 10
1106.9629299999999
 20
966.20908883665288
 30
0.0
 11
748.96293000000003
 21
1143.109088836653
 31
0.0
  0
LINE
  5
7A97
  8
1
  6
CONTINUOUS
 10
1062.5629300000001
 20
870.00908883665295
 30
0.0
 11
695.76292999999987
 21
1027.909088836652
 31
0.0
  0
LINE
  5
7A98
  8
1
  6
CONTINUOUS
 10
720.66292999999985
 20
1211.209088836652
 30
0.0
 11
1175.86293
 21
1011.209088836653
 31
0.0
  0
LINE
  5
7A99
  8
1
  6
CONTINUOUS
 10
1240.86293
 20
831.209088836653
 30
0.0
 11
530.86292999999989
 21
831.209088836653
 31
0.0
  0
LINE
  5
7A9A
  8
1
  6
CONTINUOUS
 10
1240.86293
 20
771.209088836653
 30
0.0
 11
530.86292999999989
 21
771.209088836653
 31
0.0
  0
ARC
  5
7A9B
  8
1
  6
CONTINUOUS
 10
700.86292999999989
 20
1106.209088836652
 30
0.0
 40
240.90000000000001
 50
355.39999999999992
 51
85.099999999999994
  0
ARC
  5
7A9C
  8
1
  6
CONTINUOUS
 10
737.86293000000001
 20
1103.2090888366531
 30
0.0
 40
203.6999999999999
 50
264.5
 51
355.39999999999992
  0
CIRCLE
  5
7A9D
  8
1
  6
CONTINUOUS
 10
720.86293000000001
 20
1086.209088836652
 30
0.0
 40
125.0
  0
CIRCLE
  5
7A9E
  8
1
  6
CONTINUOUS
 10
720.86293000000001
 20
1086.209088836652
 30
0.0
 40
145.0
  0
LINE
  5
7A9F
  8
1
  6
CONTINUOUS
 10
595.86293000000001
 20
831.209088836653
 30
0.0
 11
595.86293000000001
 21
1141.2090888366531
 31
0.0
  0
LINE
  5
7AA0
  8
1
  6
CONTINUOUS
 10
560.86293000000001
 20
831.209088836653
 30
0.0
 11
560.86293000000001
 21
1152.309088836653
 31
0.0
  0
LINE
  5
7AA1
  8
1
  6
CONTINUOUS
 10
880.86293000000012
 20
1152.309088836653
 30
0.0
 11
880.86293000000012
 21
831.209088836653
 31
0.0
  0
ARC
  5
7AA2
  8
1
  6
CONTINUOUS
 10
734.86292999999989
 20
1072.209088836652
 30
0.0
 40
172.59999999999991
 50
178.69999999999999
 51
264.5
  0
LINE
  5
7AA3
  8
1
  6
CONTINUOUS
 10
530.86292999999989
 20
831.209088836653
 30
0.0
 11
530.86292999999989
 21
741.20908883665288
 31
0.0
  0
LINE
  5
7AA4
  8
1
  6
CONTINUOUS
 10
560.86293000000001
 20
771.209088836653
 30
0.0
 11
560.86293000000001
 21
741.20908883665288
 31
0.0
  0
LINE
  5
7AA5
  8
1
  6
CONTINUOUS
 10
560.86293000000001
 20
741.20908883665288
 30
0.0
 11
530.86292999999989
 21
741.20908883665288
 31
0.0
  0
CIRCLE
  5
7AA6
  8
1
  6
CONTINUOUS
 10
720.86293000000001
 20
1086.209088836652
 30
0.0
 40
63.5
  0
LINE
  5
7AA7
  8
1
  6
CONTINUOUS
 10
659.26292999999987
 20
1236.2090888366531
 30
0.0
 11
782.46293000000003
 21
1236.2090888366531
 31
0.0
  0
LINE
  5
7AA8
  8
1
  6
CONTINUOUS
 10
560.86293000000001
 20
1052.9090888366529
 30
0.0
 11
880.86293000000012
 21
1052.9090888366529
 31
0.0
  0
LINE
  5
7AA9
  8
2
  6
CENTER
 10
499.84928699999989
 20
1086.209088836652
 30
0.0
 11
1055.142401999999
 21
1086.209088836652
 31
0.0
  0
LINE
  5
7AAA
  8
1
  6
CONTINUOUS
 10
540.86293000000001
 20
1316.2090888366531
 30
0.0
 11
540.86293000000001
 21
1106.209088836652
 31
0.0
  0
LINE
  5
7AAB
  8
1
  6
CONTINUOUS
 10
595.86293000000001
 20
1141.2090888366531
 30
0.0
 11
720.66292999999985
 21
1211.209088836652
 31
0.0
  0
LINE
  5
7AAC
  8
1
  6
CONTINUOUS
 10
659.26292999999987
 20
1236.2090888366531
 30
0.0
 11
560.86293000000001
 21
1152.309088836653
 31
0.0
  0
LINE
  5
7AAD
  8
1
  6
CONTINUOUS
 10
540.86293000000001
 20
1086.209088836652
 30
0.0
 11
540.86293000000001
 21
1076.209088836652
 31
0.0
  0
LINE
  5
7AAE
  8
1
  6
CONTINUOUS
 10
540.86293000000001
 20
1076.209088836652
 30
0.0
 11
562.26292999999987
 21
1076.209088836652
 31
0.0
  0
LINE
  5
7AAF
  8
2
  6
CENTER
 10
720.86293000000001
 20
2138.3243568205239
 30
0.0
 11
720.86293000000001
 21
1594.7234598205241
 31
0.0
  0
LINE
  5
7AB0
  8
1
  6
CONTINUOUS
 10
540.86293000000001
 20
1346.209088836652
 30
0.0
 11
721.26292999999987
 21
1346.209088836652
 31
0.0
  0
LINE
  5
7AB1
  8
1
  6
CONTINUOUS
 10
540.86293000000001
 20
1346.209088836652
 30
0.0
 11
540.86293000000001
 21
1336.209088836652
 31
0.0
  0
LINE
  5
7AB2
  8
1
  6
CONTINUOUS
 10
782.46293000000003
 20
1236.2090888366531
 30
0.0
 11
880.86293000000012
 21
1152.309088836653
 31
0.0
  0
LINE
  5
7AB3
  8
1
  6
CONTINUOUS
 10
1175.86293
 20
831.209088836653
 30
0.0
 11
1175.86293
 21
1011.209088836653
 31
0.0
  0
ARC
  5
7AB4
  8
1
  6
CONTINUOUS
 10
1083.4629299999999
 20
918.709088836653
 30
0.0
 40
75.799999999999997
 50
322.89999999999992
 51
217.09999999999991
  0
LINE
  5
7AB5
  8
1
  6
CONTINUOUS
 10
986.16292999999996
 20
851.20908883665288
 30
0.0
 11
1240.86293
 21
851.20908883665288
 31
0.0
  0
LINE
  5
7AB6
  8
2
  6
CENTER
 10
1136.4629299999999
 20
918.709088836653
 30
0.0
 11
1030.4629299999999
 21
918.709088836653
 31
0.0
  0
CIRCLE
  5
7AB7
  8
1
  6
CONTINUOUS
 10
1083.4629299999999
 20
918.709088836653
 30
0.0
 40
53.0
  0
LINE
  5
7AB8
  8
1
  6
CONTINUOUS
 10
986.16292999999996
 20
831.209088836653
 30
0.0
 11
986.16292999999996
 21
851.20908883665288
 31
0.0
  0
LINE
  5
7AB9
  8
1
  6
CONTINUOUS
 10
1017.46293
 20
851.20908883665288
 30
0.0
 11
1017.46293
 21
858.709088836653
 31
0.0
  0
LINE
  5
7ABA
  8
1
  6
CONTINUOUS
 10
1017.46293
 20
858.709088836653
 30
0.0
 11
1023.0629300000001
 21
873.00908883665295
 31
0.0
  0
POINT
  5
7ABB
  8
1
  6
CONTINUOUS
 10
1013.0629300000001
 20
918.709088836653
 30
0.0
  0
LINE
  5
7ABC
  8
2
  6
CENTER
 10
1083.4629299999999
 20
865.709088836653
 30
0.0
 11
1083.4629299999999
 21
971.70908883665288
 31
0.0
  0
LINE
  5
7ABD
  8
1
  6
CONTINUOUS
 10
1149.4629299999999
 20
858.709088836653
 30
0.0
 11
1143.9629299999999
 21
873.00908883665295
 31
0.0
  0
LINE
  5
7ABE
  8
1
  6
CONTINUOUS
 10
1149.4629299999999
 20
851.20908883665288
 30
0.0
 11
1149.4629299999999
 21
858.709088836653
 31
0.0
  0
LINE
  5
7ABF
  8
1
  6
CONTINUOUS
 10
1240.86293
 20
851.20908883665288
 30
0.0
 11
1240.86293
 21
831.209088836653
 31
0.0
  0
LINE
  5
7AC0
  8
1
  6
CONTINUOUS
 10
1240.86293
 20
831.209088836653
 30
0.0
 11
1240.86293
 21
741.20908883665288
 31
0.0
  0
LINE
  5
7AC1
  8
1
  6
CONTINUOUS
 10
1240.86293
 20
741.20908883665288
 30
0.0
 11
1210.86293
 21
741.20908883665288
 31
0.0
  0
LINE
  5
7AC2
  8
1
  6
CONTINUOUS
 10
1210.86293
 20
771.209088836653
 30
0.0
 11
1210.86293
 21
741.20908883665288
 31
0.0
  0
LINE
  5
7AC3
  8
1
  6
CONTINUOUS
 10
520.86293000000001
 20
1908.423286820524
 30
0.0
 11
919.76292999999998
 21
1908.423286820524
 31
0.0
  0
LINE
  5
7AC4
  8
1
  6
CONTINUOUS
 10
520.86293000000001
 20
2088.0232868205239
 30
0.0
 11
919.76292999999998
 21
2088.0232868205239
 31
0.0
  0
LINE
  5
7AC5
  8
1
  6
CONTINUOUS
 10
520.86293000000001
 20
1917.423286820524
 30
0.0
 11
540.86293000000001
 21
1937.423286820524
 31
0.0
  0
LINE
  5
7AC6
  8
1
  6
CONTINUOUS
 10
520.86293000000001
 20
2079.0232868205239
 30
0.0
 11
540.86293000000001
 21
2059.0232868205239
 31
0.0
  0
LINE
  5
7AC7
  8
1
  6
CONTINUOUS
 10
520.86293000000001
 20
2109.2232868205242
 30
0.0
 11
520.86293000000001
 21
1887.223286820524
 31
0.0
  0
LINE
  5
7AC8
  8
1
  6
CONTINUOUS
 10
732.86293000000001
 20
1740.223286820524
 30
0.0
 11
1071.5629300000001
 21
1740.223286820524
 31
0.0
  0
LINE
  5
7AC9
  8
1
  6
CONTINUOUS
 10
595.86293000000001
 20
1733.223286820524
 30
0.0
 11
1175.86293
 21
1733.223286820524
 31
0.0
  0
LINE
  5
7ACA
  8
1
  6
CONTINUOUS
 10
595.86293000000001
 20
1658.223286820524
 30
0.0
 11
1175.86293
 21
1658.223286820524
 31
0.0
  0
LINE
  5
7ACB
  8
1
  6
CONTINUOUS
 10
931.7629300000001
 20
1990.223286820524
 30
0.0
 11
1240.86293
 21
1990.223286820524
 31
0.0
  0
LINE
  5
7ACC
  8
1
  6
CONTINUOUS
 10
931.7629300000001
 20
2076.0232868205239
 30
0.0
 11
931.7629300000001
 21
1920.423286820524
 31
0.0
  0
LINE
  5
7ACD
  8
1
  6
CONTINUOUS
 10
540.86293000000001
 20
2059.0232868205239
 30
0.0
 11
540.86293000000001
 21
1937.423286820524
 31
0.0
  0
LINE
  5
7ACE
  8
1
  6
CONTINUOUS
 10
931.7629300000001
 20
2077.0232868205239
 30
0.0
 11
931.7629300000001
 21
1919.423286820524
 31
0.0
  0
LINE
  5
7ACF
  8
1
  6
CONTINUOUS
 10
732.86293000000001
 20
1770.223286820524
 30
0.0
 11
880.86293000000012
 21
1770.223286820524
 31
0.0
  0
LINE
  5
7AD0
  8
1
  6
CONTINUOUS
 10
657.36293000000001
 20
1678.223286820524
 30
0.0
 11
784.36292999999989
 21
1678.223286820524
 31
0.0
  0
LINE
  5
7AD1
  8
1
  6
CONTINUOUS
 10
657.36293000000001
 20
1713.223286820524
 30
0.0
 11
784.36292999999989
 21
1713.223286820524
 31
0.0
  0
LINE
  5
7AD2
  8
1
  6
CONTINUOUS
 10
560.86293000000001
 20
1899.223286820524
 30
0.0
 11
880.86293000000012
 21
1899.223286820524
 31
0.0
  0
LINE
  5
7AD3
  8
1
  6
CONTINUOUS
 10
657.36293000000001
 20
1678.223286820524
 30
0.0
 11
657.36293000000001
 21
1713.223286820524
 31
0.0
  0
LINE
  5
7AD4
  8
1
  6
CONTINUOUS
 10
595.86293000000001
 20
1658.223286820524
 30
0.0
 11
595.86293000000001
 21
1733.223286820524
 31
0.0
  0
LINE
  5
7AD5
  8
1
  6
CONTINUOUS
 10
530.86292999999989
 20
1907.423286820524
 30
0.0
 11
530.86292999999989
 21
1660.223286820524
 31
0.0
  0
LINE
  5
7AD6
  8
1
  6
CONTINUOUS
 10
560.86293000000001
 20
1740.223286820524
 30
0.0
 11
560.86293000000001
 21
1660.223286820524
 31
0.0
  0
LINE
  5
7AD7
  8
1
  6
CONTINUOUS
 10
560.86293000000001
 20
1660.223286820524
 30
0.0
 11
530.86292999999989
 21
1660.223286820524
 31
0.0
  0
LINE
  5
7AD8
  8
1
  6
CONTINUOUS
 10
560.86293000000001
 20
1770.223286820524
 30
0.0
 11
708.86293000000001
 21
1770.223286820524
 31
0.0
  0
LINE
  5
7AD9
  8
1
  6
CONTINUOUS
 10
530.86292999999989
 20
1740.223286820524
 30
0.0
 11
708.86293000000001
 21
1740.223286820524
 31
0.0
  0
LINE
  5
7ADA
  8
1
  6
CONTINUOUS
 10
573.86293000000001
 20
1908.423286820524
 30
0.0
 11
573.86293000000001
 21
1899.223286820524
 31
0.0
  0
LINE
  5
7ADB
  8
1
  6
CONTINUOUS
 10
560.86293000000001
 20
1770.223286820524
 30
0.0
 11
560.86293000000001
 21
1899.223286820524
 31
0.0
  0
LINE
  5
7ADC
  8
1
  6
CONTINUOUS
 10
708.86293000000001
 20
1713.223286820524
 30
0.0
 11
708.86293000000001
 21
1899.223286820524
 31
0.0
  0
LINE
  5
7ADD
  8
1
  6
CONTINUOUS
 10
732.86293000000001
 20
1713.223286820524
 30
0.0
 11
732.86293000000001
 21
1899.223286820524
 31
0.0
  0
LINE
  5
7ADE
  8
1
  6
CONTINUOUS
 10
784.36292999999989
 20
1678.223286820524
 30
0.0
 11
784.36292999999989
 21
1713.223286820524
 31
0.0
  0
ARC
  5
7ADF
  8
1
  6
CONTINUOUS
 10
919.76292999999998
 20
1920.423286820524
 30
0.0
 40
12.0
 50
270.0
 51
0.0
  0
LINE
  5
7AE0
  8
1
  6
CONTINUOUS
 10
867.86293000000001
 20
1908.423286820524
 30
0.0
 11
867.86293000000001
 21
1899.223286820524
 31
0.0
  0
LINE
  5
7AE1
  8
1
  6
CONTINUOUS
 10
880.86293000000012
 20
1899.223286820524
 30
0.0
 11
880.86293000000012
 21
1770.223286820524
 31
0.0
  0
LINE
  5
7AE2
  8
1
  6
CONTINUOUS
 10
867.86293000000001
 20
2097.2232868205242
 30
0.0
 11
573.86293000000001
 21
2097.2232868205242
 31
0.0
  0
LINE
  5
7AE3
  8
1
  6
CONTINUOUS
 10
573.86293000000001
 20
2089.0232868205239
 30
0.0
 11
573.86293000000001
 21
2097.2232868205242
 31
0.0
  0
LINE
  5
7AE4
  8
1
  6
CONTINUOUS
 10
530.86292999999989
 20
2140.2232868205242
 30
0.0
 11
530.86292999999989
 21
2089.0232868205239
 31
0.0
  0
LINE
  5
7AE5
  8
1
  6
CONTINUOUS
 10
560.86293000000001
 20
2140.2232868205242
 30
0.0
 11
530.86292999999989
 21
2140.2232868205242
 31
0.0
  0
LINE
  5
7AE6
  8
1
  6
CONTINUOUS
 10
560.86293000000001
 20
2140.2232868205242
 30
0.0
 11
560.86293000000001
 21
2089.0232868205239
 31
0.0
  0
ARC
  5
7AE7
  8
1
  6
CONTINUOUS
 10
919.76292999999998
 20
2076.0232868205239
 30
0.0
 40
12.0
 50
0.0
 51
90.0
  0
LINE
  5
7AE8
  8
1
  6
CONTINUOUS
 10
867.86293000000001
 20
2089.0232868205239
 30
0.0
 11
867.86293000000001
 21
2097.2232868205242
 31
0.0
  0
LINE
  5
7AE9
  8
1
  6
CONTINUOUS
 10
1240.86293
 20
2140.2232868205242
 30
0.0
 11
1240.86293
 21
1660.223286820524
 31
0.0
  0
LINE
  5
7AEA
  8
1
  6
CONTINUOUS
 10
1210.86293
 20
2140.2232868205242
 30
0.0
 11
1210.86293
 21
1990.223286820524
 31
0.0
  0
LINE
  5
7AEB
  8
1
  6
CONTINUOUS
 10
1095.5629300000001
 20
1740.223286820524
 30
0.0
 11
1240.86293
 21
1740.223286820524
 31
0.0
  0
LINE
  5
7AEC
  8
1
  6
CONTINUOUS
 10
1030.5629300000001
 20
1678.223286820524
 30
0.0
 11
1030.5629300000001
 21
1713.223286820524
 31
0.0
  0
LINE
  5
7AED
  8
1
  6
CONTINUOUS
 10
1136.5629299999989
 20
1678.223286820524
 30
0.0
 11
1136.5629299999989
 21
1713.223286820524
 31
0.0
  0
LINE
  5
7AEE
  8
1
  6
CONTINUOUS
 10
1030.5629300000001
 20
1678.223286820524
 30
0.0
 11
1136.5629299999989
 21
1678.223286820524
 31
0.0
  0
LINE
  5
7AEF
  8
1
  6
CONTINUOUS
 10
1030.5629300000001
 20
1713.223286820524
 30
0.0
 11
1136.5629299999989
 21
1713.223286820524
 31
0.0
  0
LINE
  5
7AF0
  8
1
  6
CONTINUOUS
 10
1006.86293
 20
1968.5232868205239
 30
0.0
 11
1158.36293
 21
1968.5232868205239
 31
0.0
  0
LINE
  5
7AF1
  8
1
  6
CONTINUOUS
 10
1006.86293
 20
1764.5232868205239
 30
0.0
 11
1158.36293
 21
1764.5232868205239
 31
0.0
  0
LINE
  5
7AF2
  8
1
  6
CONTINUOUS
 10
1006.86293
 20
1764.5232868205239
 30
0.0
 11
1006.86293
 21
1968.5232868205239
 31
0.0
  0
LINE
  5
7AF3
  8
1
  6
CONTINUOUS
 10
1158.36293
 20
1764.5232868205239
 30
0.0
 11
1158.36293
 21
1968.5232868205239
 31
0.0
  0
LINE
  5
7AF4
  8
1
  6
CONTINUOUS
 10
1095.5629300000001
 20
1713.223286820524
 30
0.0
 11
1095.5629300000001
 21
1764.5232868205239
 31
0.0
  0
LINE
  5
7AF5
  8
1
  6
CONTINUOUS
 10
1071.5629300000001
 20
1713.223286820524
 30
0.0
 11
1071.5629300000001
 21
1764.5232868205239
 31
0.0
  0
LINE
  5
7AF6
  8
1
  6
CONTINUOUS
 10
1175.86293
 20
1658.223286820524
 30
0.0
 11
1175.86293
 21
1733.223286820524
 31
0.0
  0
LINE
  5
7AF7
  8
1
  6
CONTINUOUS
 10
1210.86293
 20
1740.223286820524
 30
0.0
 11
1210.86293
 21
1660.223286820524
 31
0.0
  0
LINE
  5
7AF8
  8
1
  6
CONTINUOUS
 10
1210.86293
 20
1660.223286820524
 30
0.0
 11
1240.86293
 21
1660.223286820524
 31
0.0
  0
LINE
  5
7AF9
  8
1
  6
CONTINUOUS
 10
1210.86293
 20
2140.2232868205242
 30
0.0
 11
1240.86293
 21
2140.2232868205242
 31
0.0
  0
LINE
  5
7AFA
  8
1
  6
CONTINUOUS
 10
1350.0306123055141
 20
741.20908883665288
 30
0.0
 11
1830.0306123055141
 21
741.20908883665288
 31
0.0
  0
LINE
  5
7AFB
  8
1
  6
CONTINUOUS
 10
1348.0306123055141
 20
831.209088836653
 30
0.0
 11
1680.0306123055141
 21
831.209088836653
 31
0.0
  0
LINE
  5
7AFC
  8
1
  6
CONTINUOUS
 10
1350.0306123055141
 20
771.209088836653
 30
0.0
 11
1830.0306123055141
 21
771.209088836653
 31
0.0
  0
LINE
  5
7AFD
  8
1
  6
CONTINUOUS
 10
1460.0306123055141
 20
1048.0090888366531
 30
0.0
 11
1589.0306123055141
 21
1152.309088836653
 31
0.0
  0
LINE
  5
7AFE
  8
1
  6
CONTINUOUS
 10
1460.0306123055141
 20
831.209088836653
 30
0.0
 11
1460.0306123055141
 21
1048.0090888366531
 31
0.0
  0
LINE
  5
7AFF
  8
1
  6
CONTINUOUS
 10
1348.0306123055141
 20
831.209088836653
 30
0.0
 11
1348.0306123055141
 21
1211.209088836652
 31
0.0
  0
LINE
  5
7B00
  8
1
  6
CONTINUOUS
 10
1423.0306123055141
 20
831.209088836653
 30
0.0
 11
1423.0306123055141
 21
1211.209088836652
 31
0.0
  0
LINE
  5
7B01
  8
1
  6
CONTINUOUS
 10
1403.0306123055141
 20
906.709088836653
 30
0.0
 11
1460.0306123055141
 21
906.709088836653
 31
0.0
  0
LINE
  5
7B02
  8
1
  6
CONTINUOUS
 10
1403.0306123055141
 20
930.70908883665288
 30
0.0
 11
1460.0306123055141
 21
930.70908883665288
 31
0.0
  0
LINE
  5
7B03
  8
1
  6
CONTINUOUS
 10
1350.0306123055141
 20
771.209088836653
 30
0.0
 11
1350.0306123055141
 21
741.20908883665288
 31
0.0
  0
LINE
  5
7B04
  8
1
  6
CONTINUOUS
 10
1368.0306123055141
 20
971.70908883665288
 30
0.0
 11
1403.0306123055141
 21
971.70908883665288
 31
0.0
  0
LINE
  5
7B05
  8
1
  6
CONTINUOUS
 10
1368.0306123055141
 20
971.70908883665288
 30
0.0
 11
1368.0306123055141
 21
865.709088836653
 31
0.0
  0
LINE
  5
7B06
  8
1
  6
CONTINUOUS
 10
1368.0306123055141
 20
865.709088836653
 30
0.0
 11
1403.0306123055141
 21
865.709088836653
 31
0.0
  0
LINE
  5
7B07
  8
1
  6
CONTINUOUS
 10
1403.0306123055141
 20
971.70908883665288
 30
0.0
 11
1403.0306123055141
 21
865.709088836653
 31
0.0
  0
LINE
  5
7B08
  8
1
  6
CONTINUOUS
 10
1430.0306123055141
 20
831.209088836653
 30
0.0
 11
1430.0306123055141
 21
771.209088836653
 31
0.0
  0
LINE
  5
7B09
  8
1
  6
CONTINUOUS
 10
1348.0306123055141
 20
1211.209088836652
 30
0.0
 11
1423.0306123055141
 21
1211.209088836652
 31
0.0
  0
LINE
  5
7B0A
  8
1
  6
CONTINUOUS
 10
1403.0306123055141
 20
1098.209088836652
 30
0.0
 11
1522.130612305514
 21
1098.209088836652
 31
0.0
  0
LINE
  5
7B0B
  8
1
  6
CONTINUOUS
 10
1403.0306123055141
 20
1074.2090888366531
 30
0.0
 11
1492.4306123055139
 21
1074.2090888366531
 31
0.0
  0
LINE
  5
7B0C
  8
1
  6
CONTINUOUS
 10
1368.0306123055141
 20
1149.7090888366531
 30
0.0
 11
1368.0306123055141
 21
1022.709088836653
 31
0.0
  0
LINE
  5
7B0D
  8
1
  6
CONTINUOUS
 10
1368.0306123055141
 20
1149.7090888366531
 30
0.0
 11
1403.0306123055141
 21
1149.7090888366531
 31
0.0
  0
LINE
  5
7B0E
  8
1
  6
CONTINUOUS
 10
1368.0306123055141
 20
1022.709088836653
 30
0.0
 11
1403.0306123055141
 21
1022.709088836653
 31
0.0
  0
LINE
  5
7B0F
  8
1
  6
CONTINUOUS
 10
1403.0306123055141
 20
1149.7090888366531
 30
0.0
 11
1403.0306123055141
 21
1022.709088836653
 31
0.0
  0
LINE
  5
7B10
  8
1
  6
CONTINUOUS
 10
1598.0306123055141
 20
1337.2090888366531
 30
0.0
 11
1598.0306123055141
 21
887.30908883665302
 31
0.0
  0
LINE
  5
7B11
  8
1
  6
CONTINUOUS
 10
1778.0306123055141
 20
887.30908883665302
 30
0.0
 11
1778.0306123055141
 21
1337.2090888366531
 31
0.0
  0
LINE
  5
7B12
  8
1
  6
CONTINUOUS
 10
1787.0306123055141
 20
1233.2090888366531
 30
0.0
 11
1787.0306123055141
 21
939.209088836653
 31
0.0
  0
LINE
  5
7B13
  8
1
  6
CONTINUOUS
 10
1589.0306123055141
 20
1233.2090888366531
 30
0.0
 11
1589.0306123055141
 21
831.209088836653
 31
0.0
  0
LINE
  5
7B14
  8
1
  6
CONTINUOUS
 10
1609.0306123055141
 20
875.30908883665302
 30
0.0
 11
1767.0306123055141
 21
875.30908883665302
 31
0.0
  0
ARC
  5
7B15
  8
1
  6
CONTINUOUS
 10
1610.0306123055141
 20
887.30908883665302
 30
0.0
 40
12.0
 50
180.0
 51
270.0
  0
ARC
  5
7B16
  8
1
  6
CONTINUOUS
 10
1609.0306123055141
 20
887.30908883665302
 30
0.0
 40
12.0
 50
180.0
 51
270.0
  0
LINE
  5
7B17
  8
1
  6
CONTINUOUS
 10
1598.0306123055141
 20
939.209088836653
 30
0.0
 11
1589.0306123055141
 21
939.209088836653
 31
0.0
  0
LINE
  5
7B18
  8
1
  6
CONTINUOUS
 10
1680.0306123055141
 20
831.209088836653
 30
0.0
 11
1680.0306123055141
 21
771.209088836653
 31
0.0
  0
ARC
  5
7B19
  8
1
  6
CONTINUOUS
 10
1766.0306123055141
 20
887.30908883665302
 30
0.0
 40
12.0
 50
270.0
 51
0.0
  0
LINE
  5
7B1A
  8
1
  6
CONTINUOUS
 10
1778.0306123055141
 20
939.209088836653
 30
0.0
 11
1787.0306123055141
 21
939.209088836653
 31
0.0
  0
LINE
  5
7B1B
  8
1
  6
CONTINUOUS
 10
1830.0306123055141
 20
771.209088836653
 30
0.0
 11
1830.0306123055141
 21
741.20908883665288
 31
0.0
  0
LINE
  5
7B1C
  8
1
  6
CONTINUOUS
 10
1598.0306123055141
 20
1085.2090888366531
 30
0.0
 11
1778.0306123055141
 21
1337.2090888366531
 31
0.0
  0
LINE
  5
7B1D
  8
1
  6
CONTINUOUS
 10
1598.0306123055141
 20
1337.2090888366531
 30
0.0
 11
1778.0306123055141
 21
1085.2090888366531
 31
0.0
  0
LINE
  5
7B1E
  8
1
  6
CONTINUOUS
 10
1778.0306123055141
 20
1337.2090888366531
 30
0.0
 11
1598.0306123055141
 21
1337.2090888366531
 31
0.0
  0
LINE
  5
7B1F
  8
1
  6
CONTINUOUS
 10
1598.0306123055141
 20
1085.2090888366531
 30
0.0
 11
1778.0306123055141
 21
1085.2090888366531
 31
0.0
  0
LINE
  5
7B20
  8
1
  6
CONTINUOUS
 10
1598.0306123055141
 20
1233.2090888366531
 30
0.0
 11
1589.0306123055141
 21
1233.2090888366531
 31
0.0
  0
LINE
  5
7B21
  8
1
  6
CONTINUOUS
 10
1778.0306123055141
 20
1233.2090888366531
 30
0.0
 11
1787.0306123055141
 21
1233.2090888366531
 31
0.0
  0
LINE
  5
7B22
  8
4
  6
CONTINUOUS
 10
1850.0
 20
500.0
 30
0.0
 11
1850.0
 21
300.0
 31
0.0
  0
LINE
  5
7B23
  8
4
  6
CONTINUOUS
 10
1150.0
 20
500.0
 30
0.0
 11
1150.0
 21
300.0
 31
0.0
  0
LINE
  5
7B24
  8
4
  6
CONTINUOUS
 10
650.0
 20
500.0
 30
0.0
 11
650.0
 21
300.0
 31
0.0
  0
LINE
  5
7B27
  8
4
  6
CONTINUOUS
 10
650.0
 20
300.0
 30
0.0
 11
1850.0
 21
300.0
 31
0.0
  0
LINE
  5
7B28
  8
4
  6
CONTINUOUS
 10
650.0
 20
400.0
 30
0.0
 11
1850.0
 21
400.0
 31
0.0
  0
TEXT
  5
7B29
  8
4
  6
CONTINUOUS
 10
688.50208099999998
 20
431.543026
 30
0.0
 40
50.0
  1
機器名称
  0
TEXT
  5
7B2A
  8
4
  6
CONTINUOUS
 10
686.258106
 20
321.64515699999993
 30
0.0
 40
50.0
  1
機器型番
  0
TEXT
  5
7B2B
  8
4
  6
CONTINUOUS
 10
1177.678744999999
 20
422.57176900000002
 30
0.0
 40
45.0
  1
ミツヤニューマルチファン
  0
TEXT
  5
7B2C
  8
4
  6
CONTINUOUS
 10
1186.6544960000001
 20
317.159584
 30
0.0
 40
50.0
  1
NM#1 1/2-1
  0
TEXT
  5
7B2E
  8
4
  6
CONTINUOUS
 10
827.51423799999998
 20
2383.4288409999999
 30
0.0
 40
54.0
  1
天井吊ベット
  0
TEXT
  5
7B2F
  8
4
  6
CONTINUOUS
 10
316.16759300000001
 20
2533.8809759999999
 30
0.0
 40
72.0
  1
ベルト駆動式片吸込片持多翼ファン
  0
LINE
  5
7B30
  8
4
  6
CONTINUOUS
 10
250.0
 20
2469.408754
 30
0.0
 11
1850.0
 21
2469.408754
 31
0.0
  0
LINE
  5
7B31
  8
4
  6
CONTINUOUS
 10
250.0
 20
2669.408754
 30
0.0
 11
1850.0
 21
2669.408754
 31
0.0
  0
LINE
  5
7B32
  8
4
  6
CONTINUOUS
 10
650.0
 20
500.0
 30
0.0
 11
1850.0
 21
500.0
 31
0.0
  0
LINE
  5
7B33
  8
4
  6
CONTINUOUS
 10
250.0
 20
2669.408754
 30
0.0
 11
250.0
 21
2469.408754
 31
0.0
  0
TEXT
  5
7B34
  8
4
  6
CONTINUOUS
 10
391.65540600000003
 20
2382.3194779999999
 30
0.0
 40
54.0
  1
左回転左横向
  0
TEXT
  5
7B35
  8
4
  6
CONTINUOUS
 10
1468.9695589999999
 20
2706.0610809999998
 30
0.0
 40
56.0
  1
No.
  0
TEXT
  5
7B36
  8
4
  6
CONTINUOUS
 10
1311.296063
 20
2383.4288409999999
 30
0.0
 40
54.0
  1
縮尺：1/10
  0
LINE
  5
7B37
  8
4
  6
CONTINUOUS
 10
1850.0
 20
2669.408754
 30
0.0
 11
1850.0
 21
2469.408754
 31
0.0
  0
LINE
  5
7B39
  8
4
  6
CONTINUOUS
 10
1440.617422
 20
2681.2635829999999
 30
0.0
 11
1440.617422
 21
2786.6522620000001
 31
0.0
  0
LINE
  5
7B3A
  8
4
  6
CONTINUOUS
 10
1440.617422
 20
2786.6522620000001
 30
0.0
 11
1850.0
 21
2786.6522620000001
 31
0.0
  0
LINE
  5
7B3B
  8
4
  6
CONTINUOUS
 10
1850.0
 20
2786.6522620000001
 30
0.0
 11
1850.0
 21
2681.2635829999999
 31
0.0
  0
LINE
  5
7B3C
  8
4
  6
CONTINUOUS
 10
1850.0
 20
2681.2635829999999
 30
0.0
 11
1440.617422
 21
2681.2635829999999
 31
0.0
  0
DIMENSION
  5
7B55
  8
3
  6
CONTINUOUS
  2
*D1
 10
720.86293000000001
 20
677.37313583665298
 30
0.0
 11
627.20942000000002
 21
677.37313583665298
 31
0.0
 70
   128
 13
530.86292999999989
 23
741.20908883665288
 33
0.0
 14
720.86293000000001
 24
771.209088836653
 34
0.0
1001
ACAD
1000
DSTYLE
1002
{
1070
   287
1070
     3
1070
   287
1070
     3
1070
    40
1040
10.0
1070
   143
1040
0.039
1070
   172
1070
     1
1070
   271
1070
     0
1070
   279
1070
     0
1070
   288
1070
     1
1002
}
  0
DIMENSION
  5
7B61
  8
3
  6
CONTINUOUS
  2
*D2
 10
1240.86293
 20
677.37313583665298
 30
0.0
 11
980.86292999999989
 21
702.37313583665298
 31
0.0
 70
     0
 13
720.86293000000001
 23
771.209088836653
 33
0.0
 14
1240.86293
 24
741.20908883665288
 34
0.0
1001
ACAD
1000
DSTYLE
1002
{
1070
   287
1070
     4
1070
   287
1070
     4
1070
    40
1040
10.0
1070
    75
1070
     1
1070
   143
1040
0.039
1070
   172
1070
     1
1070
   271
1070
     0
1070
   279
1070
     1
1070
   288
1070
     1
1002
}
  0
DIMENSION
  5
7B6E
  8
3
  6
CONTINUOUS
  2
*D3
 10
446.32994500000001
 20
1086.2090888366531
 30
0.0
 11
446.32994500000001
 21
1219.962587836653
 31
0.0
 70
   128
 13
520.86293000000001
 23
1336.209088836652
 33
0.0
 14
520.86293000000001
 24
1086.209088836652
 34
0.0
 50
90.0
1001
ACAD
1000
DSTYLE
1002
{
1070
   287
1070
     3
1070
   287
1070
     3
1070
    40
1040
10.0
1070
   143
1040
0.039
1070
   172
1070
     1
1070
   271
1070
     0
1070
   279
1070
     0
1070
   288
1070
     1
1002
}
  0
DIMENSION
  5
7B7B
  8
3
  6
CONTINUOUS
  2
*D4
 10
380.64269600000011
 20
1086.2090888366531
 30
0.0
 11
380.64269599999989
 21
1217.419111836653
 31
0.0
 70
   128
 13
540.86293000000001
 23
1346.209088836652
 33
0.0
 14
520.86293000000001
 24
1086.209088836652
 34
0.0
 50
90.0
1001
ACAD
1000
DSTYLE
1002
{
1070
   287
1070
     3
1070
   287
1070
     3
1070
    40
1040
10.0
1070
   143
1040
0.039
1070
   172
1070
     1
1070
   271
1070
     0
1070
   279
1070
     0
1070
   288
1070
     1
1002
}
  0
DIMENSION
  5
7B87
  8
3
  6
CONTINUOUS
  2
*D5
 10
380.64269599999989
 20
771.209088836653
 30
0.0
 11
355.64269599999989
 21
928.70908883665311
 31
0.0
 70
     0
 13
520.86293000000001
 23
1086.209088836652
 33
0.0
 14
530.86292999999989
 24
771.209088836653
 34
0.0
 50
90.0
1001
ACAD
1000
DSTYLE
1002
{
1070
   287
1070
     4
1070
   287
1070
     4
1070
    40
1040
10.0
1070
    75
1070
     1
1070
   143
1040
0.039
1070
   172
1070
     1
1070
   271
1070
     0
1070
   279
1070
     1
1070
   288
1070
     1
1002
}
  0
DIMENSION
  5
7B97
  8
3
  6
CONTINUOUS
  2
*D6
 10
380.64269600000011
 20
741.20908883665288
 30
0.0
 11
380.64269599999989
 21
666.92337455093877
 31
0.0
 70
   128
 13
530.86292999999989
 23
771.209088836653
 33
0.0
 14
530.86292999999989
 24
741.20908883665288
 34
0.0
 50
90.0
1001
ACAD
1000
DSTYLE
1002
{
1070
   287
1070
     3
1070
   287
1070
     3
1070
    40
1040
10.0
1070
   143
1040
0.039
1070
   172
1070
     1
1070
   271
1070
     0
1070
   279
1070
     0
1070
   288
1070
     1
1002
}
  0
DIMENSION
  5
7BA4
  8
3
  6
CONTINUOUS
  2
*D7
 10
321.35955757635332
 20
741.20908883665288
 30
0.0
 11
321.35955757635321
 21
1060.5400078366531
 31
0.0
 70
   128
 13
520.86293000000001
 23
1357.2090888366531
 33
0.0
 14
530.86292999999989
 24
741.20908883665288
 34
0.0
 50
90.0
1001
ACAD
1000
DSTYLE
1002
{
1070
   287
1070
     3
1070
   287
1070
     3
1070
    40
1040
10.0
1070
   143
1040
0.039
1070
   172
1070
     1
1070
   271
1070
     0
1070
   279
1070
     0
1070
   288
1070
     1
1002
}
  0
DIMENSION
  5
7BD6
  8
3
  6
CONTINUOUS
  2
*D8
 10
720.86293000000001
 20
1408.487581836652
 30
0.0
 11
610.80271200000004
 21
1408.487581836652
 31
0.0
 70
   128
 13
520.86293000000001
 23
1357.2090888366531
 33
0.0
 14
720.86293000000001
 24
1346.209088836652
 34
0.0
1001
ACAD
1000
DSTYLE
1002
{
1070
   287
1070
     3
1070
   287
1070
     3
1070
    40
1040
10.0
1070
   143
1040
0.039
1070
   172
1070
     1
1070
   271
1070
     0
1070
   279
1070
     0
1070
   288
1070
     1
1002
}
  0
DIMENSION
  5
7BE2
  8
3
  6
CONTINUOUS
  2
*D9
 10
940.85231400000009
 20
1408.487581836652
 30
0.0
 11
830.85762199999999
 21
1433.4875818366529
 31
0.0
 70
     0
 13
720.86293000000001
 23
1346.209088836652
 33
0.0
 14
940.85231400000009
 24
1086.209088836652
 34
0.0
1001
ACAD
1000
DSTYLE
1002
{
1070
   287
1070
     4
1070
   287
1070
     4
1070
    40
1040
10.0
1070
    75
1070
     1
1070
   143
1040
0.039
1070
   172
1070
     1
1070
   271
1070
     0
1070
   279
1070
     1
1070
   288
1070
     1
1002
}
  0
LINE
  5
7BE3
  8
2
  6
CENTER
 10
955.32651899999985
 20
1998.223286820524
 30
0.0
 11
493.04816199999999
 21
1998.223286820524
 31
0.0
  0
DIMENSION
  5
7BF0
  8
3
  6
CONTINUOUS
  2
*D10
 10
1240.86293
 20
1573.921199820524
 30
0.0
 11
867.29335800000001
 21
1573.921199820524
 31
0.0
 70
   128
 13
530.86292999999989
 23
1660.223286820524
 33
0.0
 14
1240.86293
 24
1660.223286820524
 34
0.0
1001
ACAD
1000
DSTYLE
1002
{
1070
   287
1070
     3
1070
   287
1070
     3
1070
    40
1040
10.0
1070
   143
1040
0.039
1070
   172
1070
     1
1070
   271
1070
     0
1070
   279
1070
     0
1070
   288
1070
     1
1002
}
  0
DIMENSION
  5
7BFD
  8
3
  6
CONTINUOUS
  2
*D11
 10
1337.3174120000001
 20
1660.223286820524
 30
0.0
 11
1337.317411999999
 21
1899.601512820524
 31
0.0
 70
   128
 13
1240.86293
 23
2140.2232868205242
 33
0.0
 14
1240.86293
 24
1660.223286820524
 34
0.0
 50
90.0
1001
ACAD
1000
DSTYLE
1002
{
1070
   287
1070
     3
1070
   287
1070
     3
1070
    40
1040
10.0
1070
   143
1040
0.039
1070
   172
1070
     1
1070
   271
1070
     0
1070
   279
1070
     0
1070
   288
1070
     1
1002
}
  0
LINE
  5
7BFE
  8
2
  6
CENTER
 10
1688.0306123055141
 20
1398.415346836653
 30
0.0
 11
1688.0306123055141
 21
710.16530183665304
 31
0.0
  0
DIMENSION
  5
7C0B
  8
3
  6
CONTINUOUS
  2
*D12
 10
1688.0306123055141
 20
665.58107283665311
 30
0.0
 11
1523.618700305514
 21
665.58107283665311
 31
0.0
 70
   128
 13
1350.0306123055141
 23
741.20908883665288
 33
0.0
 14
1688.0306123055141
 24
741.20908883665288
 34
0.0
1001
ACAD
1000
DSTYLE
1002
{
1070
   287
1070
     3
1070
   287
1070
     3
1070
    40
1040
10.0
1070
   143
1040
0.039
1070
   172
1070
     1
1070
   271
1070
     0
1070
   279
1070
     0
1070
   288
1070
     1
1002
}
  0
DIMENSION
  5
7C17
  8
3
  6
CONTINUOUS
  2
*D13
 10
1830.0306123055141
 20
665.58107283665311
 30
0.0
 11
1759.0306123055129
 21
690.58107283665311
 31
0.0
 70
     0
 13
1688.0306123055141
 23
741.20908883665288
 33
0.0
 14
1830.0306123055141
 24
741.20908883665288
 34
0.0
1001
ACAD
1000
DSTYLE
1002
{
1070
   287
1070
     4
1070
   287
1070
     4
1070
    40
1040
10.0
1070
    75
1070
     1
1070
   143
1040
0.039
1070
   172
1070
     1
1070
   271
1070
     0
1070
   279
1070
     1
1070
   288
1070
     1
1002
}
  0
DIMENSION
  5
7C25
  8
3
  6
CONTINUOUS
  2
*D14
 10
1778.0306123055141
 20
1393.9383648366529
 30
0.0
 11
1684.4055263055141
 21
1393.9383648366529
 31
0.0
 70
   128
 13
1598.0306123055141
 23
1337.2090888366531
 33
0.0
 14
1778.0306123055141
 24
1337.2090888366531
 34
0.0
1001
ACAD
1000
DSTYLE
1002
{
1070
   287
1070
     3
1070
   287
1070
     3
1070
    40
1040
10.0
1070
   143
1040
0.039
1070
   172
1070
     1
1070
   271
1070
     0
1070
   279
1070
     0
1070
   288
1070
     1
1002
}
  0
DIMENSION
  5
7C32
  8
3
  6
CONTINUOUS
  2
*D15
 10
1688.0306123055141
 20
1457.6350098366529
 30
0.0
 11
1515.3021403055141
 21
1457.6350098366529
 31
0.0
 70
   128
  1
MAX\P340
 13
1348.0306123055141
 23
1211.209088836652
 33
0.0
 14
1688.0306123055141
 24
1441.230614836652
 34
0.0
1001
ACAD
1000
DSTYLE
1002
{
1070
   287
1070
     3
1070
   287
1070
     3
1070
    40
1040
10.0
1070
   143
1040
0.039
1070
   172
1070
     1
1070
   271
1070
     0
1070
   279
1070
     0
1070
   288
1070
     1
1002
}
  0
DIMENSION
  5
7C40
  8
3
  6
CONTINUOUS
  2
*D16
 10
1787.0306123055141
 20
1457.6350098366529
 30
0.0
 11
1731.5326933055139
 21
1457.6350098366529
 31
0.0
 70
   128
 13
1688.0306123055141
 23
1441.230614836652
 33
0.0
 14
1787.0306123055141
 24
1233.2090888366531
 34
0.0
1001
ACAD
1000
DSTYLE
1002
{
1070
   287
1070
     4
1070
   287
1070
     4
1070
    40
1040
10.0
1070
    75
1070
     1
1070
   143
1040
0.039
1070
   172
1070
     1
1070
   271
1070
     0
1070
   279
1070
     1
1070
   288
1070
     1
1002
}
  0
LINE
  5
7C58
  8
3
  6
CONTINUOUS
 10
1787.0306123055141
 20
1211.209088836652
 30
0.0
 11
1798.1402803055139
 21
1211.209088836652
 31
0.0
  0
LINE
  5
7C5A
  8
3
  6
CONTINUOUS
 10
1787.0306123055141
 20
961.209088836653
 30
0.0
 11
1802.237111305514
 21
961.209088836653
 31
0.0
  0
DIMENSION
  5
7C67
  8
3
  6
CONTINUOUS
  2
*D17
 10
1857.544279305514
 20
961.20908883665288
 30
0.0
 11
1857.544279305514
 21
1094.097556836653
 31
0.0
 70
   128
 13
1787.0306123055141
 23
1211.209088836652
 33
0.0
 14
1787.0306123055141
 24
961.209088836653
 34
0.0
 50
90.0
1001
ACAD
1000
DSTYLE
1002
{
1070
   287
1070
     3
1070
   287
1070
     3
1070
     3
1000
φ<>
1070
    40
1040
10.0
1070
   143
1040
0.039
1070
   172
1070
     1
1070
   271
1070
     0
1070
   279
1070
     0
1070
   288
1070
     1
1002
}
  0
LINE
  5
7C68
  8
2
  6
CENTER
 10
720.86293000000001
 20
1361.064921836653
 30
0.0
 11
720.86293000000001
 21
716.73830783665301
 31
0.0
  0
LINE
  5
7C69
  8
2
  6
CENTER
 10
1298.255561305514
 20
1086.209088836652
 30
0.0
 11
1791.2803033055141
 21
1086.209088836652
 31
0.0
  0
DIMENSION
  5
7CB8
  8
3
  2
*D18
 10
1240.86293
 20
1478.020497906547
 30
0.0
 11
875.51477367111136
 21
1478.020497906547
 31
0.0
 70
   128
 13
520.86293000000001
 23
1357.2090888366531
 33
0.0
 14
1240.86293
 24
851.20908883665288
 34
0.0
1001
ACAD
1000
DSTYLE
1002
{
1070
   287
1070
     3
1070
   287
1070
     3
1070
    40
1040
10.0
1070
   143
1040
0.039
1070
   172
1070
     1
1070
   271
1070
     0
1070
   279
1070
     0
1070
   288
1070
     1
1002
}
  0
ENDSEC
  0
EOF
