  0
SECTION
  2
HEADER
  9
$ACADVER
  1
AC1027
  9
$ACADMAINTVER
 70
    81
  9
$DWGCODEPAGE
  3
ANSI_932
  9
$LASTSAVEDBY
  1
reiko.miyawaki
  9
$REQUIREDVERSIONS
160
                 0
  9
$INSBASE
 10
0.0
 20
0.0
 30
0.0
  9
$EXTMIN
 10
216.4435493452657
 20
300.0
 30
0.0
  9
$EXTMAX
 10
1850.0
 20
2786.652262
 30
0.0
  9
$LIMMIN
 10
0.0
 20
0.0
  9
$LIMMAX
 10
297.0
 20
210.0
  9
$ORTHOMODE
 70
     0
  9
$REGENMODE
 70
     1
  9
$FILLMODE
 70
     0
  9
$QTEXTMODE
 70
     0
  9
$MIRRTEXT
 70
     1
  9
$LTSCALE
 40
100.0
  9
$ATTMODE
 70
     1
  9
$TEXTSIZE
 40
180.0
  9
$TRACEWID
 40
0.05
  9
$TEXTSTYLE
  7
STANDARD
  9
$CLAYER
  8
3
  9
$CELTYPE
  6
BYLAYER
  9
$CECOLOR
 62
   256
  9
$CELTSCALE
 40
1.0
  9
$DISPSILH
 70
     0
  9
$DIMSCALE
 40
10.0
  9
$DIMASZ
 40
2.0
  9
$DIMEXO
 40
0.5
  9
$DIMDLI
 40
10.0
  9
$DIMRND
 40
0.0
  9
$DIMDLE
 40
0.0
  9
$DIMEXE
 40
1.0
  9
$DIMTP
 40
1.0
  9
$DIMTM
 40
1.0
  9
$DIMTXT
 40
3.0
  9
$DIMCEN
 40
0.0
  9
$DIMTSZ
 40
0.0
  9
$DIMTOL
 70
     0
  9
$DIMLIM
 70
     0
  9
$DIMTIH
 70
     0
  9
$DIMTOH
 70
     0
  9
$DIMSE1
 70
     0
  9
$DIMSE2
 70
     0
  9
$DIMTAD
 70
     1
  9
$DIMZIN
 70
     8
  9
$DIMBLK
  1

  9
$DIMASO
 70
     1
  9
$DIMSHO
 70
     1
  9
$DIMPOST
  1
(<>)
  9
$DIMAPOST
  1

  9
$DIMALT
 70
     0
  9
$DIMALTD
 70
     2
  9
$DIMALTF
 40
0.039
  9
$DIMLFAC
 40
1.0
  9
$DIMTOFL
 70
     1
  9
$DIMTVP
 40
0.0
  9
$DIMTIX
 70
     0
  9
$DIMSOXD
 70
     0
  9
$DIMSAH
 70
     1
  9
$DIMBLK1
  1
DOT
  9
$DIMBLK2
  1
OPEN
  9
$DIMSTYLE
  2
IGA
  9
$DIMCLRD
 70
     0
  9
$DIMCLRE
 70
     0
  9
$DIMCLRT
 70
     0
  9
$DIMTFAC
 40
10.0
  9
$DIMGAP
 40
1.0
  9
$DIMJUST
 70
     0
  9
$DIMSD1
 70
     0
  9
$DIMSD2
 70
     0
  9
$DIMTOLJ
 70
     1
  9
$DIMTZIN
 70
     8
  9
$DIMALTZ
 70
     0
  9
$DIMALTTZ
 70
     0
  9
$DIMUPT
 70
     0
  9
$DIMDEC
 70
     0
  9
$DIMTDEC
 70
     0
  9
$DIMALTU
 70
     2
  9
$DIMALTTD
 70
     2
  9
$DIMTXSTY
  7
STANDARD
  9
$DIMAUNIT
 70
     0
  9
$DIMADEC
 70
     0
  9
$DIMALTRND
 40
0.0
  9
$DIMAZIN
 70
     0
  9
$DIMDSEP
 70
    46
  9
$DIMATFIT
 70
     3
  9
$DIMFRAC
 70
     0
  9
$DIMLDRBLK
  1
DOT
  9
$DIMLUNIT
 70
     2
  9
$DIMLWD
 70
    -2
  9
$DIMLWE
 70
    -2
  9
$DIMTMOVE
 70
     2
  9
$DIMFXL
 40
1.0
  9
$DIMFXLON
 70
     0
  9
$DIMJOGANG
 40
0.7853981633974483
  9
$DIMTFILL
 70
     0
  9
$DIMTFILLCLR
 70
     0
  9
$DIMARCSYM
 70
     0
  9
$DIMLTYPE
  6

  9
$DIMLTEX1
  6

  9
$DIMLTEX2
  6

  9
$DIMTXTDIRECTION
 70
     0
  9
$LUNITS
 70
     2
  9
$LUPREC
 70
     3
  9
$SKETCHINC
 40
0.1
  9
$FILLETRAD
 40
50.0
  9
$AUNITS
 70
     0
  9
$AUPREC
 70
     0
  9
$MENU
  1
acad
  9
$ELEVATION
 40
0.0
  9
$PELEVATION
 40
0.0
  9
$THICKNESS
 40
0.0
  9
$LIMCHECK
 70
     0
  9
$CHAMFERA
 40
0.5
  9
$CHAMFERB
 40
0.5
  9
$CHAMFERC
 40
20.0
  9
$CHAMFERD
 40
0.0
  9
$SKPOLY
 70
     0
  9
$TDCREATE
 40
2450740.658263542
  9
$TDUCREATE
 40
2450740.283263542
  9
$TDUPDATE
 40
2459024.544806829
  9
$TDUUPDATE
 40
2459024.169806829
  9
$TDINDWG
 40
0.0088256597
  9
$TDUSRTIMER
 40
0.0088256597
  9
$USRTIMER
 70
     1
  9
$ANGBASE
 50
0.0
  9
$ANGDIR
 70
     0
  9
$PDMODE
 70
     0
  9
$PDSIZE
 40
0.0
  9
$PLINEWID
 40
0.0
  9
$SPLFRAME
 70
     0
  9
$SPLINETYPE
 70
     6
  9
$SPLINESEGS
 70
     8
  9
$HANDSEED
  5
7FE5
  9
$SURFTAB1
 70
     6
  9
$SURFTAB2
 70
     6
  9
$SURFTYPE
 70
     6
  9
$SURFU
 70
     6
  9
$SURFV
 70
     6
  9
$UCSBASE
  2

  9
$UCSNAME
  2

  9
$UCSORG
 10
0.0
 20
0.0
 30
0.0
  9
$UCSXDIR
 10
1.0
 20
0.0
 30
0.0
  9
$UCSYDIR
 10
0.0
 20
1.0
 30
0.0
  9
$UCSORTHOREF
  2

  9
$UCSORTHOVIEW
 70
     0
  9
$UCSORGTOP
 10
0.0
 20
0.0
 30
0.0
  9
$UCSORGBOTTOM
 10
0.0
 20
0.0
 30
0.0
  9
$UCSORGLEFT
 10
0.0
 20
0.0
 30
0.0
  9
$UCSORGRIGHT
 10
0.0
 20
0.0
 30
0.0
  9
$UCSORGFRONT
 10
0.0
 20
0.0
 30
0.0
  9
$UCSORGBACK
 10
0.0
 20
0.0
 30
0.0
  9
$PUCSBASE
  2

  9
$PUCSNAME
  2

  9
$PUCSORG
 10
0.0
 20
0.0
 30
0.0
  9
$PUCSXDIR
 10
1.0
 20
0.0
 30
0.0
  9
$PUCSYDIR
 10
0.0
 20
1.0
 30
0.0
  9
$PUCSORTHOREF
  2

  9
$PUCSORTHOVIEW
 70
     0
  9
$PUCSORGTOP
 10
0.0
 20
0.0
 30
0.0
  9
$PUCSORGBOTTOM
 10
0.0
 20
0.0
 30
0.0
  9
$PUCSORGLEFT
 10
0.0
 20
0.0
 30
0.0
  9
$PUCSORGRIGHT
 10
0.0
 20
0.0
 30
0.0
  9
$PUCSORGFRONT
 10
0.0
 20
0.0
 30
0.0
  9
$PUCSORGBACK
 10
0.0
 20
0.0
 30
0.0
  9
$USERI1
 70
     0
  9
$USERI2
 70
     0
  9
$USERI3
 70
     0
  9
$USERI4
 70
     0
  9
$USERI5
 70
     0
  9
$USERR1
 40
0.0
  9
$USERR2
 40
0.0
  9
$USERR3
 40
0.0
  9
$USERR4
 40
0.0
  9
$USERR5
 40
0.0
  9
$WORLDVIEW
 70
     1
  9
$SHADEDGE
 70
     3
  9
$SHADEDIF
 70
    70
  9
$TILEMODE
 70
     1
  9
$MAXACTVP
 70
    16
  9
$PINSBASE
 10
0.0
 20
0.0
 30
0.0
  9
$PLIMCHECK
 70
     0
  9
$PEXTMIN
 10
1.000000000000000E+20
 20
1.000000000000000E+20
 30
1.000000000000000E+20
  9
$PEXTMAX
 10
-1.000000000000000E+20
 20
-1.000000000000000E+20
 30
-1.000000000000000E+20
  9
$PLIMMIN
 10
0.0
 20
0.0
  9
$PLIMMAX
 10
12.0
 20
9.0
  9
$UNITMODE
 70
     0
  9
$VISRETAIN
 70
     0
  9
$PLINEGEN
 70
     0
  9
$PSLTSCALE
 70
     1
  9
$TREEDEPTH
 70
  3020
  9
$CMLSTYLE
  2
STANDARD
  9
$CMLJUST
 70
     0
  9
$CMLSCALE
 40
20.0
  9
$PROXYGRAPHICS
 70
     1
  9
$MEASUREMENT
 70
     0
  9
$CELWEIGHT
370
    -1
  9
$ENDCAPS
280
     0
  9
$JOINSTYLE
280
     0
  9
$LWDISPLAY
290
     0
  9
$INSUNITS
 70
     0
  9
$HYPERLINKBASE
  1

  9
$STYLESHEET
  1

  9
$XEDIT
290
     1
  9
$CEPSNTYPE
380
     0
  9
$PSTYLEMODE
290
     1
  9
$FINGERPRINTGUID
  2
{28D567DB-B59C-46A4-BB4A-FD896FC2D42C}
  9
$VERSIONGUID
  2
{A7CA34E9-28D4-4D19-96B4-F7F9CFC74D8E}
  9
$EXTNAMES
290
     1
  9
$PSVPSCALE
 40
0.0
  9
$OLESTARTUP
290
     0
  9
$SORTENTS
280
   127
  9
$INDEXCTL
280
     0
  9
$HIDETEXT
280
     0
  9
$XCLIPFRAME
280
     2
  9
$HALOGAP
280
     0
  9
$OBSCOLOR
 70
   257
  9
$OBSLTYPE
280
     0
  9
$INTERSECTIONDISPLAY
280
     0
  9
$INTERSECTIONCOLOR
 70
   257
  9
$DIMASSOC
280
     1
  9
$PROJECTNAME
  1

  9
$CAMERADISPLAY
290
     0
  9
$LENSLENGTH
 40
50.0
  9
$CAMERAHEIGHT
 40
0.0
  9
$STEPSPERSEC
 40
2.0
  9
$STEPSIZE
 40
6.0
  9
$3DDWFPREC
 40
2.0
  9
$PSOLWIDTH
 40
0.25
  9
$PSOLHEIGHT
 40
4.0
  9
$LOFTANG1
 40
1.570796326794896
  9
$LOFTANG2
 40
1.570796326794896
  9
$LOFTMAG1
 40
0.0
  9
$LOFTMAG2
 40
0.0
  9
$LOFTPARAM
 70
     7
  9
$LOFTNORMALS
280
     1
  9
$LATITUDE
 40
37.795
  9
$LONGITUDE
 40
-122.394
  9
$NORTHDIRECTION
 40
0.0
  9
$TIMEZONE
 70
 -8000
  9
$LIGHTGLYPHDISPLAY
280
     1
  9
$TILEMODELIGHTSYNCH
280
     1
  9
$CMATERIAL
347
7EA3
  9
$SOLIDHIST
280
     0
  9
$SHOWHIST
280
     1
  9
$DWFFRAME
280
     2
  9
$DGNFRAME
280
     0
  9
$REALWORLDSCALE
290
     1
  9
$INTERFERECOLOR
 62
     1
  9
$INTERFEREOBJVS
345
7EC5
  9
$INTERFEREVPVS
346
7EC2
  9
$CSHADOW
280
     0
  9
$SHADOWPLANELOCATION
 40
0.0
  0
ENDSEC
  0
SECTION
  2
CLASSES
  0
CLASS
  1
ACDBDICTIONARYWDFLT
  2
AcDbDictionaryWithDefault
  3
ObjectDBX Classes
 90
        0
 91
        1
280
     0
281
     0
  0
CLASS
  1
DICTIONARYVAR
  2
AcDbDictionaryVar
  3
ObjectDBX Classes
 90
        0
 91
       10
280
     0
281
     0
  0
CLASS
  1
MATERIAL
  2
AcDbMaterial
  3
ObjectDBX Classes
 90
     1153
 91
        3
280
     0
281
     0
  0
CLASS
  1
VISUALSTYLE
  2
AcDbVisualStyle
  3
ObjectDBX Classes
 90
     4095
 91
       24
280
     0
281
     0
  0
CLASS
  1
TABLESTYLE
  2
AcDbTableStyle
  3
ObjectDBX Classes
 90
     4095
 91
        1
280
     0
281
     0
  0
CLASS
  1
SCALE
  2
AcDbScale
  3
ObjectDBX Classes
 90
     1153
 91
       17
280
     0
281
     0
  0
CLASS
  1
MLEADERSTYLE
  2
AcDbMLeaderStyle
  3
ACDB_MLEADERSTYLE_CLASS
 90
     4095
 91
        1
280
     0
281
     0
  0
CLASS
  1
ACDBSECTIONVIEWSTYLE
  2
AcDbSectionViewStyle
  3
ObjectDBX Classes
 90
     1025
 91
        1
280
     0
281
     0
  0
CLASS
  1
ACDBDETAILVIEWSTYLE
  2
AcDbDetailViewStyle
  3
ObjectDBX Classes
 90
     1025
 91
        1
280
     0
281
     0
  0
CLASS
  1
CELLSTYLEMAP
  2
AcDbCellStyleMap
  3
ObjectDBX Classes
 90
     1152
 91
        1
280
     0
281
     0
  0
ENDSEC
  0
SECTION
  2
TABLES
  0
TABLE
  2
VPORT
  5
8
330
0
100
AcDbSymbolTable
 70
     1
  0
VPORT
  5
7EA0
330
8
100
AcDbSymbolTableRecord
100
AcDbViewportTableRecord
  2
*Active
 70
     0
 10
0.0
 20
0.0
 11
1.0
 21
1.0
 12
1033.186726235071
 22
1602.850901348136
 13
0.0
 23
0.0
 14
10.0
 24
10.0
 15
10.0
 25
10.0
 16
0.0
 26
0.0
 36
1.0
 17
0.0
 27
0.0
 37
0.0
 40
2621.825673196056
 41
1.957107843137254
 42
50.0
 43
0.0
 44
0.0
 50
0.0
 51
0.0
 71
     0
 72
   100
 73
     1
 74
     0
 75
     0
 76
     0
 77
     0
 78
     0
281
     0
 65
     1
110
0.0
120
0.0
130
0.0
111
1.0
121
0.0
131
0.0
112
0.0
122
1.0
132
0.0
 79
     0
146
0.0
348
7EC1
 60
     3
 61
     5
292
     1
282
     1
141
0.0
142
0.0
 63
   250
421
  3355443
1001
ACAD_NAV_VCDISPLAY
1070
     3
  0
ENDTAB
  0
TABLE
  2
LTYPE
  5
5
330
0
100
AcDbSymbolTable
 70
     2
  0
LTYPE
  5
13
330
5
100
AcDbSymbolTableRecord
100
AcDbLinetypeTableRecord
  2
BYBLOCK
 70
     0
  3

 72
    65
 73
     0
 40
0.0
  0
LTYPE
  5
14
330
5
100
AcDbSymbolTableRecord
100
AcDbLinetypeTableRecord
  2
BYLAYER
 70
     0
  3

 72
    65
 73
     0
 40
0.0
  0
LTYPE
  5
15
330
5
100
AcDbSymbolTableRecord
100
AcDbLinetypeTableRecord
  2
CONTINUOUS
 70
     0
  3
Solid line
 72
    65
 73
     0
 40
0.0
  0
LTYPE
  5
1F
330
5
100
AcDbSymbolTableRecord
100
AcDbLinetypeTableRecord
  2
CENTER
 70
     0
  3
____ _ ____ _ ____ _ ____ _ ____ _ ____ _ ____ 
 72
    65
 73
     4
 40
2.0
 49
1.25
 74
     0
 49
-0.25
 74
     0
 49
0.25
 74
     0
 49
-0.25
 74
     0
  0
ENDTAB
  0
TABLE
  2
LAYER
  5
2
102
{ACAD_XDICTIONARY
360
7EF3
102
}
330
0
100
AcDbSymbolTable
 70
     6
  0
LAYER
  5
F
102
{ACAD_XDICTIONARY
360
7F53
102
}
330
2
100
AcDbSymbolTableRecord
100
AcDbLayerTableRecord
  2
0
 70
     0
 62
     7
  6
CONTINUOUS
370
    -3
390
7DC9
347
7EB3
348
0
  0
LAYER
  5
31
102
{ACAD_XDICTIONARY
360
7F55
102
}
330
2
100
AcDbSymbolTableRecord
100
AcDbLayerTableRecord
  2
3
 70
     0
 62
     2
  6
CONTINUOUS
370
    -3
390
7DC9
347
7EB3
348
0
  0
LAYER
  5
76D0
102
{ACAD_XDICTIONARY
360
7F57
102
}
330
2
100
AcDbSymbolTableRecord
100
AcDbLayerTableRecord
  2
2
 70
     0
 62
     3
  6
CENTER
370
    -3
390
7DC9
347
7EB3
348
0
  0
LAYER
  5
76D1
102
{ACAD_XDICTIONARY
360
7F59
102
}
330
2
100
AcDbSymbolTableRecord
100
AcDbLayerTableRecord
  2
1
 70
     0
 62
     4
  6
CONTINUOUS
370
    -3
390
7DC9
347
7EB3
348
0
  0
LAYER
  5
76D2
102
{ACAD_XDICTIONARY
360
7F5B
102
}
330
2
100
AcDbSymbolTableRecord
100
AcDbLayerTableRecord
  2
4
 70
     0
 62
     7
  6
CONTINUOUS
370
    -3
390
7DC9
347
7EB3
348
0
  0
LAYER
  5
7B3B
330
2
100
AcDbSymbolTableRecord
100
AcDbLayerTableRecord
  2
DEFPOINTS
 70
     0
 62
     7
  6
CONTINUOUS
290
     0
370
    -3
390
7DC9
347
7EB3
348
0
  0
ENDTAB
  0
TABLE
  2
STYLE
  5
3
330
0
100
AcDbSymbolTable
 70
     1
  0
STYLE
  5
10
330
3
100
AcDbSymbolTableRecord
100
AcDbTextStyleTableRecord
  2
STANDARD
 70
     0
 40
0.0
 41
1.0
 50
0.0
 71
     0
 42
180.0
  3
simplex.shx
  4
extfont.shx
  0
ENDTAB
  0
TABLE
  2
VIEW
  5
6
330
0
100
AcDbSymbolTable
 70
     0
  0
ENDTAB
  0
TABLE
  2
UCS
  5
7
330
0
100
AcDbSymbolTable
 70
     0
  0
ENDTAB
  0
TABLE
  2
APPID
  5
9
330
0
100
AcDbSymbolTable
 70
     4
  0
APPID
  5
11
330
9
100
AcDbSymbolTableRecord
100
AcDbRegAppTableRecord
  2
ACAD
 70
     0
  0
APPID
  5
7EF2
330
9
100
AcDbSymbolTableRecord
100
AcDbRegAppTableRecord
  2
ACAD_NAV_VCDISPLAY
 70
     0
  0
APPID
  5
7F76
330
9
100
AcDbSymbolTableRecord
100
AcDbRegAppTableRecord
  2
AcadAnnoMonitorAlertIconDisabled
 70
     0
  0
APPID
  5
7F77
330
9
100
AcDbSymbolTableRecord
100
AcDbRegAppTableRecord
  2
ACAD_EXEMPT_FROM_CAD_STANDARDS
 70
     0
  0
ENDTAB
  0
TABLE
  2
DIMSTYLE
  5
A
330
0
100
AcDbSymbolTable
 70
     1
100
AcDbDimStyleTable
 71
     1
340
1D
  0
DIMSTYLE
105
1D
102
{ACAD_REACTORS
330
7B40
330
7B4C
330
7B59
330
7B65
330
7B72
330
7B7F
330
7B8B
330
7BD0
330
7BEE
330
7BFB
330
7C09
330
7C2C
330
7C3C
330
7C67
330
7CA5
330
7D4A
330
7DB4
330
7DC1
330
7F99
102
}
330
A
100
AcDbSymbolTableRecord
100
AcDbDimStyleTableRecord
  2
IGA
 70
     0
 40
2.0
 41
2.0
 42
0.5
 43
10.0
 44
1.0
 47
1.0
 48
1.0
 73
     0
 74
     0
 77
     1
 78
     8
140
3.0
141
0.0
143
0.03937
146
10.0
147
1.0
173
     1
271
     1
272
     0
279
     2
284
     8
340
10
341
7B2D
343
7B2D
344
7B2D
  0
ENDTAB
  0
TABLE
  2
BLOCK_RECORD
  5
1
330
0
100
AcDbSymbolTable
 70
    21
  0
BLOCK_RECORD
  5
19
102
{ACAD_XDICTIONARY
360
7DF7
102
}
330
1
100
AcDbSymbolTableRecord
100
AcDbBlockTableRecord
  2
*MODEL_SPACE
340
7DCC
 70
     0
280
     1
281
     0
  0
BLOCK_RECORD
  5
16
102
{ACAD_XDICTIONARY
360
7DF5
102
}
330
1
100
AcDbSymbolTableRecord
100
AcDbBlockTableRecord
  2
*PAPER_SPACE
340
7DCD
 70
     0
280
     1
281
     0
  0
BLOCK_RECORD
  5
7B2D
330
1
100
AcDbSymbolTableRecord
100
AcDbBlockTableRecord
  2
_OPEN
340
0
102
{BLKREFS
331
7E11
331
7E12
331
7E19
331
7E1A
331
7E22
331
7E23
331
7E2B
331
7E2C
331
7E33
331
7E34
331
7E3C
331
7E3D
331
7E45
331
7E46
331
7E57
331
7E58
331
7E72
331
7E73
331
7E7B
331
7E7C
331
7E84
331
7E85
331
7F01
331
7F02
331
7F0C
331
7F0D
331
7F1F
331
7F20
331
7F27
331
7F28
331
7F45
331
7F4F
331
7F85
331
7F86
331
7FCC
331
7FCD
102
}
 70
     0
280
     1
281
     0
  0
BLOCK_RECORD
  5
7B33
330
1
100
AcDbSymbolTableRecord
100
AcDbBlockTableRecord
  2
*D1
340
0
 70
     0
280
     1
281
     0
  0
BLOCK_RECORD
  5
7B41
330
1
100
AcDbSymbolTableRecord
100
AcDbBlockTableRecord
  2
*D2
340
0
 70
     0
280
     1
281
     0
  0
BLOCK_RECORD
  5
7B4D
330
1
100
AcDbSymbolTableRecord
100
AcDbBlockTableRecord
  2
*D3
340
0
 70
     0
280
     1
281
     0
  0
BLOCK_RECORD
  5
7B5A
330
1
100
AcDbSymbolTableRecord
100
AcDbBlockTableRecord
  2
*D4
340
0
 70
     0
280
     1
281
     0
  0
BLOCK_RECORD
  5
7B66
330
1
100
AcDbSymbolTableRecord
100
AcDbBlockTableRecord
  2
*D5
340
0
 70
     0
280
     1
281
     0
  0
BLOCK_RECORD
  5
7B73
330
1
100
AcDbSymbolTableRecord
100
AcDbBlockTableRecord
  2
*D6
340
0
 70
     0
280
     1
281
     0
  0
BLOCK_RECORD
  5
7B80
330
1
100
AcDbSymbolTableRecord
100
AcDbBlockTableRecord
  2
*D7
340
0
 70
     0
280
     1
281
     0
  0
BLOCK_RECORD
  5
7BC4
330
1
100
AcDbSymbolTableRecord
100
AcDbBlockTableRecord
  2
*D8
340
0
 70
     0
280
     1
281
     0
  0
BLOCK_RECORD
  5
7BE2
330
1
100
AcDbSymbolTableRecord
100
AcDbBlockTableRecord
  2
*D9
340
0
 70
     0
280
     1
281
     0
  0
BLOCK_RECORD
  5
7BEF
330
1
100
AcDbSymbolTableRecord
100
AcDbBlockTableRecord
  2
*D10
340
0
 70
     0
280
     1
281
     0
  0
BLOCK_RECORD
  5
7BFC
330
1
100
AcDbSymbolTableRecord
100
AcDbBlockTableRecord
  2
*D11
340
0
 70
     0
280
     1
281
     0
  0
BLOCK_RECORD
  5
7C20
330
1
100
AcDbSymbolTableRecord
100
AcDbBlockTableRecord
  2
*D12
340
0
 70
     0
280
     1
281
     0
  0
BLOCK_RECORD
  5
7C2D
330
1
100
AcDbSymbolTableRecord
100
AcDbBlockTableRecord
  2
*D13
340
0
 70
     0
280
     1
281
     0
  0
BLOCK_RECORD
  5
7C5B
330
1
100
AcDbSymbolTableRecord
100
AcDbBlockTableRecord
  2
*D14
340
0
 70
     0
280
     1
281
     0
  0
BLOCK_RECORD
  5
7C99
330
1
100
AcDbSymbolTableRecord
100
AcDbBlockTableRecord
  2
*D15
340
0
 70
     0
280
     1
281
     0
  0
BLOCK_RECORD
  5
7D3E
330
1
100
AcDbSymbolTableRecord
100
AcDbBlockTableRecord
  2
*D16
340
0
 70
     0
280
     1
281
     0
  0
BLOCK_RECORD
  5
7D9E
330
1
100
AcDbSymbolTableRecord
100
AcDbBlockTableRecord
  2
_DOT
340
0
102
{BLKREFS
331
7F44
331
7F4E
102
}
 70
     0
280
     1
281
     0
  0
BLOCK_RECORD
  5
7DA6
330
1
100
AcDbSymbolTableRecord
100
AcDbBlockTableRecord
  2
*D18
340
0
 70
     0
280
     1
281
     0
  0
BLOCK_RECORD
  5
7DB5
330
1
100
AcDbSymbolTableRecord
100
AcDbBlockTableRecord
  2
*D19
340
0
 70
     0
280
     1
281
     0
  0
BLOCK_RECORD
  5
7F9A
330
1
100
AcDbSymbolTableRecord
100
AcDbBlockTableRecord
  2
*D20
340
0
 70
     0
280
     1
281
     0
  0
ENDTAB
  0
ENDSEC
  0
SECTION
  2
BLOCKS
  0
BLOCK
  5
1A
330
19
100
AcDbEntity
  8
0
100
AcDbBlockBegin
  2
*MODEL_SPACE
 70
     0
 10
0.0
 20
0.0
 30
0.0
  3
*MODEL_SPACE
  1

  0
ENDBLK
  5
1B
330
19
100
AcDbEntity
  8
0
100
AcDbBlockEnd
  0
BLOCK
  5
17
330
16
100
AcDbEntity
 67
     1
  8
0
100
AcDbBlockBegin
  2
*PAPER_SPACE
 70
     0
 10
0.0
 20
0.0
 30
0.0
  3
*PAPER_SPACE
  1

  0
ENDBLK
  5
18
330
16
100
AcDbEntity
 67
     1
  8
0
100
AcDbBlockEnd
  0
BLOCK
  5
7B2E
330
7B2D
100
AcDbEntity
  8
0
100
AcDbBlockBegin
  2
_OPEN
 70
     0
 10
0.0
 20
0.0
 30
0.0
  3
_OPEN
  1

  0
LINE
  5
7B2F
330
7B2D
100
AcDbEntity
  8
0
  6
ByBlock
 62
     0
100
AcDbLine
 10
-1.0
 20
0.166667
 30
0.0
 11
0.0
 21
0.0
 31
0.0
  0
LINE
  5
7B30
330
7B2D
100
AcDbEntity
  8
0
  6
ByBlock
 62
     0
100
AcDbLine
 10
0.0
 20
0.0
 30
0.0
 11
-1.0
 21
-0.166667
 31
0.0
  0
LINE
  5
7B31
330
7B2D
100
AcDbEntity
  8
0
  6
ByBlock
 62
     0
100
AcDbLine
 10
0.0
 20
0.0
 30
0.0
 11
-1.0
 21
0.0
 31
0.0
  0
ENDBLK
  5
7B32
330
7B2D
100
AcDbEntity
  8
0
100
AcDbBlockEnd
  0
BLOCK
  5
7B34
330
7B33
100
AcDbEntity
  8
0
100
AcDbBlockBegin
  2
*D1
 70
     1
 10
0.0
 20
0.0
 30
0.0
  3
*D1
  1

  0
LINE
  5
7F1C
330
7B33
100
AcDbEntity
  8
3
  6
Continuous
 62
     0
440
 16777216
370
    -2
100
AcDbLine
 10
319.4890930000001
 20
838.6829689625464
 30
0.0
 11
319.4890930000001
 21
748.0461239625465
 31
0.0
  0
LINE
  5
7F1D
330
7B33
100
AcDbEntity
  8
3
  6
Continuous
 62
     0
440
 16777216
370
    -2
100
AcDbLine
 10
814.489093
 20
838.6829689625464
 30
0.0
 11
814.489093
 21
748.0461239625465
 31
0.0
  0
LINE
  5
7F1E
330
7B33
100
AcDbEntity
  8
3
  6
Continuous
 62
     0
440
 16777216
370
    -2
100
AcDbLine
 10
339.4890930000002
 20
758.0461239625464
 30
0.0
 11
794.489093
 21
758.0461239625464
 31
0.0
  0
INSERT
  5
7F1F
330
7B33
100
AcDbEntity
  8
3
  6
Continuous
 62
     0
440
 16777216
370
    -2
100
AcDbBlockReference
  2
_OPEN
 10
319.4890930000001
 20
758.0461239625464
 30
0.0
 41
20.0
 42
20.0
 43
20.0
 50
180.0
  0
INSERT
  5
7F20
330
7B33
100
AcDbEntity
  8
3
  6
Continuous
 62
     0
440
 16777216
370
    -2
100
AcDbBlockReference
  2
_OPEN
 10
814.489093
 20
758.0461239625464
 30
0.0
 41
20.0
 42
20.0
 43
20.0
  0
MTEXT
  5
7F21
330
7B33
100
AcDbEntity
  8
3
  6
Continuous
 62
     0
440
 16777216
100
AcDbMText
 10
579.553348
 20
783.0461239625464
 30
0.0
 40
30.0
 41
0.0
 46
0.0
 71
     5
 72
     1
  1
\A1;495
 73
     1
 44
1.0
  0
POINT
  5
7F22
330
7B33
100
AcDbEntity
  8
DEFPOINTS
  6
Continuous
 62
     0
440
 16777216
100
AcDbPoint
 10
319.4890930000001
 20
843.6829689625465
 30
0.0
  0
POINT
  5
7F23
330
7B33
100
AcDbEntity
  8
DEFPOINTS
  6
Continuous
 62
     0
440
 16777216
100
AcDbPoint
 10
814.489093
 20
843.6829689625465
 30
0.0
  0
POINT
  5
7F24
330
7B33
100
AcDbEntity
  8
DEFPOINTS
  6
Continuous
 62
     0
440
 16777216
100
AcDbPoint
 10
814.489093
 20
758.0461239625464
 30
0.0
  0
ENDBLK
  5
7B3F
330
7B33
100
AcDbEntity
  8
0
100
AcDbBlockEnd
  0
BLOCK
  5
7B42
330
7B41
100
AcDbEntity
  8
0
100
AcDbBlockBegin
  2
*D2
 70
     1
 10
0.0
 20
0.0
 30
0.0
  3
*D2
  1

  0
LINE
  5
7F25
330
7B41
100
AcDbEntity
  8
3
  6
Continuous
 62
     0
440
 16777216
370
    -2
100
AcDbLine
 10
999.489093
 20
838.6829689625464
 30
0.0
 11
999.489093
 21
748.0461239625465
 31
0.0
  0
LINE
  5
7F26
330
7B41
100
AcDbEntity
  8
3
  6
Continuous
 62
     0
440
 16777216
370
    -2
100
AcDbLine
 10
834.489093
 20
758.0461239625464
 30
0.0
 11
979.4890930000001
 21
758.0461239625464
 31
0.0
  0
INSERT
  5
7F27
330
7B41
100
AcDbEntity
  8
3
  6
Continuous
 62
     0
440
 16777216
370
    -2
100
AcDbBlockReference
  2
_OPEN
 10
814.489093
 20
758.0461239625464
 30
0.0
 41
20.0
 42
20.0
 43
20.0
 50
180.0
  0
INSERT
  5
7F28
330
7B41
100
AcDbEntity
  8
3
  6
Continuous
 62
     0
440
 16777216
370
    -2
100
AcDbBlockReference
  2
_OPEN
 10
999.489093
 20
758.0461239625464
 30
0.0
 41
20.0
 42
20.0
 43
20.0
  0
MTEXT
  5
7F29
330
7B41
100
AcDbEntity
  8
3
  6
Continuous
 62
     0
440
 16777216
100
AcDbMText
 10
906.9890929999999
 20
783.0461239625464
 30
0.0
 40
30.0
 41
0.0
 46
0.0
 71
     5
 72
     1
  1
\A1;185
 73
     1
 44
1.0
  0
POINT
  5
7F2A
330
7B41
100
AcDbEntity
  8
DEFPOINTS
  6
Continuous
 62
     0
440
 16777216
100
AcDbPoint
 10
814.489093
 20
843.6829689625465
 30
0.0
  0
POINT
  5
7F2B
330
7B41
100
AcDbEntity
  8
DEFPOINTS
  6
Continuous
 62
     0
440
 16777216
100
AcDbPoint
 10
999.489093
 20
843.6829689625465
 30
0.0
  0
POINT
  5
7F2C
330
7B41
100
AcDbEntity
  8
DEFPOINTS
  6
Continuous
 62
     0
440
 16777216
100
AcDbPoint
 10
999.489093
 20
758.0461239625464
 30
0.0
  0
ENDBLK
  5
7B4B
330
7B41
100
AcDbEntity
  8
0
100
AcDbBlockEnd
  0
BLOCK
  5
7D8B
330
7B4D
100
AcDbEntity
  8
0
100
AcDbBlockBegin
  2
*D3
 70
     1
 10
0.0
 20
0.0
 30
0.0
  3
*D3
  1

  0
LINE
  5
7E0E
330
7B4D
100
AcDbEntity
  8
3
  6
Continuous
 62
     0
440
 16777216
100
AcDbLine
 10
635.489093
 20
1218.682968962546
 30
0.0
 11
635.489093
 21
1402.386957962546
 31
0.0
  0
LINE
  5
7E0F
330
7B4D
100
AcDbEntity
  8
3
  6
Continuous
 62
     0
440
 16777216
100
AcDbLine
 10
814.489093
 20
1369.250156962546
 30
0.0
 11
814.489093
 21
1402.386957962546
 31
0.0
  0
LINE
  5
7E10
330
7B4D
100
AcDbEntity
  8
3
  6
Continuous
 62
     0
440
 16777216
100
AcDbLine
 10
655.489093
 20
1392.386957962546
 30
0.0
 11
794.489093
 21
1392.386957962546
 31
0.0
  0
INSERT
  5
7E11
330
7B4D
100
AcDbEntity
  8
3
  6
Continuous
 62
     0
440
 16777216
100
AcDbBlockReference
  2
_OPEN
 10
635.489093
 20
1392.386957962546
 30
0.0
 41
20.0
 42
20.0
 43
20.0
 50
180.0
  0
INSERT
  5
7E12
330
7B4D
100
AcDbEntity
  8
3
  6
Continuous
 62
     0
440
 16777216
100
AcDbBlockReference
  2
_OPEN
 10
814.489093
 20
1392.386957962546
 30
0.0
 41
20.0
 42
20.0
 43
20.0
  0
MTEXT
  5
7E13
330
7B4D
100
AcDbEntity
  8
3
  6
Continuous
 62
     0
440
 16777216
100
AcDbMText
 10
727.047048
 20
1417.386957962546
 30
0.0
 40
30.0
 41
0.0
 46
0.0
 71
     5
 72
     5
  1
\A1;179
 73
     1
 44
1.0
  0
POINT
  5
7E14
330
7B4D
100
AcDbEntity
  8
DEFPOINTS
  6
Continuous
 62
     0
440
 16777216
100
AcDbPoint
 10
635.489093
 20
1213.682968962546
 30
0.0
  0
POINT
  5
7E15
330
7B4D
100
AcDbEntity
  8
DEFPOINTS
  6
Continuous
 62
     0
440
 16777216
100
AcDbPoint
 10
814.489093
 20
1364.250156962546
 30
0.0
  0
POINT
  5
7E16
330
7B4D
100
AcDbEntity
  8
DEFPOINTS
  6
Continuous
 62
     0
440
 16777216
100
AcDbPoint
 10
814.489093
 20
1392.386957962546
 30
0.0
  0
ENDBLK
  5
7D95
330
7B4D
100
AcDbEntity
  8
0
100
AcDbBlockEnd
  0
BLOCK
  5
7B5B
330
7B5A
100
AcDbEntity
  8
0
100
AcDbBlockBegin
  2
*D4
 70
     1
 10
0.0
 20
0.0
 30
0.0
  3
*D4
  1

  0
LINE
  5
7E17
330
7B5A
100
AcDbEntity
  8
3
  6
Continuous
 62
     0
440
 16777216
100
AcDbLine
 10
974.489093
 20
1239.682968962546
 30
0.0
 11
974.489093
 21
1402.386957962546
 31
0.0
  0
LINE
  5
7E18
330
7B5A
100
AcDbEntity
  8
3
  6
Continuous
 62
     0
440
 16777216
100
AcDbLine
 10
834.489093
 20
1392.386957962546
 30
0.0
 11
954.4890930000001
 21
1392.386957962546
 31
0.0
  0
INSERT
  5
7E19
330
7B5A
100
AcDbEntity
  8
3
  6
Continuous
 62
     0
440
 16777216
100
AcDbBlockReference
  2
_OPEN
 10
814.489093
 20
1392.386957962546
 30
0.0
 41
20.0
 42
20.0
 43
20.0
 50
180.0
  0
INSERT
  5
7E1A
330
7B5A
100
AcDbEntity
  8
3
  6
Continuous
 62
     0
440
 16777216
100
AcDbBlockReference
  2
_OPEN
 10
974.489093
 20
1392.386957962546
 30
0.0
 41
20.0
 42
20.0
 43
20.0
  0
MTEXT
  5
7E1B
330
7B5A
100
AcDbEntity
  8
3
  6
Continuous
 62
     0
440
 16777216
100
AcDbMText
 10
894.4890929999999
 20
1417.386957962546
 30
0.0
 40
30.0
 41
0.0
 46
0.0
 71
     5
 72
     5
  1
\A1;160
 73
     1
 44
1.0
  0
POINT
  5
7E1C
330
7B5A
100
AcDbEntity
  8
DEFPOINTS
  6
Continuous
 62
     0
440
 16777216
100
AcDbPoint
 10
814.489093
 20
1364.250156962546
 30
0.0
  0
POINT
  5
7E1D
330
7B5A
100
AcDbEntity
  8
DEFPOINTS
  6
Continuous
 62
     0
440
 16777216
100
AcDbPoint
 10
974.489093
 20
1234.682968962546
 30
0.0
  0
POINT
  5
7E1E
330
7B5A
100
AcDbEntity
  8
DEFPOINTS
  6
Continuous
 62
     0
440
 16777216
100
AcDbPoint
 10
974.489093
 20
1392.386957962546
 30
0.0
  0
ENDBLK
  5
7B64
330
7B5A
100
AcDbEntity
  8
0
100
AcDbBlockEnd
  0
BLOCK
  5
7B67
330
7B66
100
AcDbEntity
  8
0
100
AcDbBlockBegin
  2
*D5
 70
     1
 10
0.0
 20
0.0
 30
0.0
  3
*D5
  1

  0
LINE
  5
7E1F
330
7B66
100
AcDbEntity
  8
3
  6
Continuous
 62
     0
440
 16777216
100
AcDbLine
 10
979.4890930000001
 20
1213.682968962546
 30
0.0
 11
1062.35292
 21
1213.682968962546
 31
0.0
  0
LINE
  5
7E20
330
7B66
100
AcDbEntity
  8
3
  6
Continuous
 62
     0
440
 16777216
100
AcDbLine
 10
979.4890930000001
 20
1013.682968962546
 30
0.0
 11
1062.35292
 21
1013.682968962546
 31
0.0
  0
LINE
  5
7E21
330
7B66
100
AcDbEntity
  8
3
  6
Continuous
 62
     0
440
 16777216
100
AcDbLine
 10
1052.35292
 20
1193.682968962546
 30
0.0
 11
1052.35292
 21
1033.682968962546
 31
0.0
  0
INSERT
  5
7E22
330
7B66
100
AcDbEntity
  8
3
  6
Continuous
 62
     0
440
 16777216
100
AcDbBlockReference
  2
_OPEN
 10
1052.35292
 20
1213.682968962546
 30
0.0
 41
20.0
 42
20.0
 43
20.0
 50
90.0
  0
INSERT
  5
7E23
330
7B66
100
AcDbEntity
  8
3
  6
Continuous
 62
     0
440
 16777216
100
AcDbBlockReference
  2
_OPEN
 10
1052.35292
 20
1013.682968962546
 30
0.0
 41
20.0
 42
20.0
 43
20.0
 50
270.0
  0
MTEXT
  5
7E24
330
7B66
100
AcDbEntity
  8
3
  6
Continuous
 62
     0
440
 16777216
100
AcDbMText
 10
1027.35292
 20
1119.855969962546
 30
0.0
 40
30.0
 41
0.0
 46
0.0
 71
     5
 72
     5
  1
\A1;200
 11
0.0000000000000001
 21
1.0
 31
0.0
 73
     1
 44
1.0
  0
POINT
  5
7E25
330
7B66
100
AcDbEntity
  8
DEFPOINTS
  6
Continuous
 62
     0
440
 16777216
100
AcDbPoint
 10
974.489093
 20
1213.682968962546
 30
0.0
  0
POINT
  5
7E26
330
7B66
100
AcDbEntity
  8
DEFPOINTS
  6
Continuous
 62
     0
440
 16777216
100
AcDbPoint
 10
974.489093
 20
1013.682968962546
 30
0.0
  0
POINT
  5
7E27
330
7B66
100
AcDbEntity
  8
DEFPOINTS
  6
Continuous
 62
     0
440
 16777216
100
AcDbPoint
 10
1052.35292
 20
1013.682968962546
 30
0.0
  0
ENDBLK
  5
7B71
330
7B66
100
AcDbEntity
  8
0
100
AcDbBlockEnd
  0
BLOCK
  5
7D01
330
7B73
100
AcDbEntity
  8
0
100
AcDbBlockBegin
  2
*D6
 70
     1
 10
0.0
 20
0.0
 30
0.0
  3
*D6
  1

  0
LINE
  5
7E28
330
7B73
100
AcDbEntity
  8
3
  6
Continuous
 62
     0
440
 16777216
100
AcDbLine
 10
819.4890929999999
 20
1364.250156962546
 30
0.0
 11
1184.612796034624
 21
1364.250156962546
 31
0.0
  0
LINE
  5
7E29
330
7B73
100
AcDbEntity
  8
3
  6
Continuous
 62
     0
440
 16777216
100
AcDbLine
 10
979.4890930000001
 20
1213.682968962546
 30
0.0
 11
1184.612796034624
 21
1213.682968962546
 31
0.0
  0
LINE
  5
7E2A
330
7B73
100
AcDbEntity
  8
3
  6
Continuous
 62
     0
440
 16777216
100
AcDbLine
 10
1174.612796034624
 20
1344.250156962546
 30
0.0
 11
1174.612796034624
 21
1233.682968962546
 31
0.0
  0
INSERT
  5
7E2B
330
7B73
100
AcDbEntity
  8
3
  6
Continuous
 62
     0
440
 16777216
100
AcDbBlockReference
  2
_OPEN
 10
1174.612796034624
 20
1364.250156962546
 30
0.0
 41
20.0
 42
20.0
 43
20.0
 50
90.0
  0
INSERT
  5
7E2C
330
7B73
100
AcDbEntity
  8
3
  6
Continuous
 62
     0
440
 16777216
100
AcDbBlockReference
  2
_OPEN
 10
1174.612796034624
 20
1213.682968962546
 30
0.0
 41
20.0
 42
20.0
 43
20.0
 50
270.0
  0
MTEXT
  5
7E2D
330
7B73
100
AcDbEntity
  8
3
  6
Continuous
 62
     0
440
 16777216
100
AcDbMText
 10
1149.612796034624
 20
1284.923562962546
 30
0.0
 40
30.0
 41
0.0
 46
0.0
 71
     5
 72
     5
  1
\A1;151
 11
0.0000000000000001
 21
1.0
 31
0.0
 73
     1
 44
1.0
  0
POINT
  5
7E2E
330
7B73
100
AcDbEntity
  8
DEFPOINTS
  6
Continuous
 62
     0
440
 16777216
100
AcDbPoint
 10
814.489093
 20
1364.250156962546
 30
0.0
  0
POINT
  5
7E2F
330
7B73
100
AcDbEntity
  8
DEFPOINTS
  6
Continuous
 62
     0
440
 16777216
100
AcDbPoint
 10
974.489093
 20
1213.682968962546
 30
0.0
  0
POINT
  5
7E30
330
7B73
100
AcDbEntity
  8
DEFPOINTS
  6
Continuous
 62
     0
440
 16777216
100
AcDbPoint
 10
1174.612796034624
 20
1213.682968962546
 30
0.0
  0
ENDBLK
  5
7D0B
330
7B73
100
AcDbEntity
  8
0
100
AcDbBlockEnd
  0
BLOCK
  5
7D17
330
7B80
100
AcDbEntity
  8
0
100
AcDbBlockBegin
  2
*D7
 70
     1
 10
0.0
 20
0.0
 30
0.0
  3
*D7
  1

  0
LINE
  5
7E31
330
7B80
100
AcDbEntity
  8
3
  6
Continuous
 62
     0
440
 16777216
100
AcDbLine
 10
979.4890930000001
 20
938.6829689625464
 30
0.0
 11
1184.612796034623
 21
938.6829689625464
 31
0.0
  0
LINE
  5
7E32
330
7B80
100
AcDbEntity
  8
3
  6
Continuous
 62
     0
440
 16777216
100
AcDbLine
 10
1174.612796034623
 20
1193.682968962546
 30
0.0
 11
1174.612796034623
 21
958.6829689625465
 31
0.0
  0
INSERT
  5
7E33
330
7B80
100
AcDbEntity
  8
3
  6
Continuous
 62
     0
440
 16777216
100
AcDbBlockReference
  2
_OPEN
 10
1174.612796034623
 20
1213.682968962546
 30
0.0
 41
20.0
 42
20.0
 43
20.0
 50
90.0
  0
INSERT
  5
7E34
330
7B80
100
AcDbEntity
  8
3
  6
Continuous
 62
     0
440
 16777216
100
AcDbBlockReference
  2
_OPEN
 10
1174.612796034623
 20
938.6829689625464
 30
0.0
 41
20.0
 42
20.0
 43
20.0
 50
270.0
  0
MTEXT
  5
7E35
330
7B80
100
AcDbEntity
  8
3
  6
Continuous
 62
     0
440
 16777216
100
AcDbMText
 10
1149.612796034623
 20
1076.182968962547
 30
0.0
 40
30.0
 41
0.0
 46
0.0
 71
     5
 72
     5
  1
\A1;275
 11
0.0000000000000001
 21
1.0
 31
0.0
 73
     1
 44
1.0
  0
POINT
  5
7E36
330
7B80
100
AcDbEntity
  8
DEFPOINTS
  6
Continuous
 62
     0
440
 16777216
100
AcDbPoint
 10
974.489093
 20
1213.682968962546
 30
0.0
  0
POINT
  5
7E37
330
7B80
100
AcDbEntity
  8
DEFPOINTS
  6
Continuous
 62
     0
440
 16777216
100
AcDbPoint
 10
974.489093
 20
938.6829689625464
 30
0.0
  0
POINT
  5
7E38
330
7B80
100
AcDbEntity
  8
DEFPOINTS
  6
Continuous
 62
     0
440
 16777216
100
AcDbPoint
 10
1174.612796034623
 20
938.6829689625464
 30
0.0
  0
ENDBLK
  5
7D20
330
7B80
100
AcDbEntity
  8
0
100
AcDbBlockEnd
  0
BLOCK
  5
7BC5
330
7BC4
100
AcDbEntity
  8
0
100
AcDbBlockBegin
  2
*D8
 70
     1
 10
0.0
 20
0.0
 30
0.0
  3
*D8
  1

  0
LINE
  5
7E39
330
7BC4
100
AcDbEntity
  8
3
  6
Continuous
 62
     0
440
 16777216
100
AcDbLine
 10
319.489093
 20
1840.629196915354
 30
0.0
 11
319.489093
 21
1636.904464915354
 31
0.0
  0
LINE
  5
7E3A
330
7BC4
100
AcDbEntity
  8
3
  6
Continuous
 62
     0
440
 16777216
100
AcDbLine
 10
999.489093
 20
1840.629196915354
 30
0.0
 11
999.489093
 21
1636.904464915354
 31
0.0
  0
LINE
  5
7E3B
330
7BC4
100
AcDbEntity
  8
3
  6
Continuous
 62
     0
440
 16777216
100
AcDbLine
 10
339.489093
 20
1646.904464915354
 30
0.0
 11
979.4890930000001
 21
1646.904464915354
 31
0.0
  0
INSERT
  5
7E3C
330
7BC4
100
AcDbEntity
  8
3
  6
Continuous
 62
     0
440
 16777216
100
AcDbBlockReference
  2
_OPEN
 10
319.489093
 20
1646.904464915354
 30
0.0
 41
20.0
 42
20.0
 43
20.0
 50
180.0
  0
INSERT
  5
7E3D
330
7BC4
100
AcDbEntity
  8
3
  6
Continuous
 62
     0
440
 16777216
100
AcDbBlockReference
  2
_OPEN
 10
999.489093
 20
1646.904464915354
 30
0.0
 41
20.0
 42
20.0
 43
20.0
  0
MTEXT
  5
7E3E
330
7BC4
100
AcDbEntity
  8
3
  6
Continuous
 62
     0
440
 16777216
100
AcDbMText
 10
648.45885
 20
1671.904464915354
 30
0.0
 40
30.0
 41
0.0
 46
0.0
 71
     5
 72
     5
  1
\A1;680
 73
     1
 44
1.0
  0
POINT
  5
7E3F
330
7BC4
100
AcDbEntity
  8
DEFPOINTS
  6
Continuous
 62
     0
440
 16777216
100
AcDbPoint
 10
319.489093
 20
1845.629196915354
 30
0.0
  0
POINT
  5
7E40
330
7BC4
100
AcDbEntity
  8
DEFPOINTS
  6
Continuous
 62
     0
440
 16777216
100
AcDbPoint
 10
999.489093
 20
1845.629196915354
 30
0.0
  0
POINT
  5
7E41
330
7BC4
100
AcDbEntity
  8
DEFPOINTS
  6
Continuous
 62
     0
440
 16777216
100
AcDbPoint
 10
999.489093
 20
1646.904464915354
 30
0.0
  0
ENDBLK
  5
7BCF
330
7BC4
100
AcDbEntity
  8
0
100
AcDbBlockEnd
  0
BLOCK
  5
7BE3
330
7BE2
100
AcDbEntity
  8
0
100
AcDbBlockBegin
  2
*D9
 70
     1
 10
0.0
 20
0.0
 30
0.0
  3
*D9
  1

  0
LINE
  5
7E42
330
7BE2
100
AcDbEntity
  8
3
  6
Continuous
 62
     0
440
 16777216
100
AcDbLine
 10
1583.854913236313
 20
1357.682968962546
 30
0.0
 11
1583.854913236313
 21
1413.644207962546
 31
0.0
  0
LINE
  5
7E43
330
7BE2
100
AcDbEntity
  8
3
  6
Continuous
 62
     0
440
 16777216
100
AcDbLine
 10
1723.854913236313
 20
1357.682968962546
 30
0.0
 11
1723.854913236313
 21
1413.644207962546
 31
0.0
  0
LINE
  5
7E44
330
7BE2
100
AcDbEntity
  8
3
  6
Continuous
 62
     0
440
 16777216
100
AcDbLine
 10
1603.854913236312
 20
1403.644207962546
 30
0.0
 11
1703.854913236313
 21
1403.644207962546
 31
0.0
  0
INSERT
  5
7E45
330
7BE2
100
AcDbEntity
  8
3
  6
Continuous
 62
     0
440
 16777216
100
AcDbBlockReference
  2
_OPEN
 10
1583.854913236313
 20
1403.644207962546
 30
0.0
 41
20.0
 42
20.0
 43
20.0
 50
180.0
  0
INSERT
  5
7E46
330
7BE2
100
AcDbEntity
  8
3
  6
Continuous
 62
     0
440
 16777216
100
AcDbBlockReference
  2
_OPEN
 10
1723.854913236313
 20
1403.644207962546
 30
0.0
 41
20.0
 42
20.0
 43
20.0
  0
MTEXT
  5
7E47
330
7BE2
100
AcDbEntity
  8
3
  6
Continuous
 62
     0
440
 16777216
100
AcDbMText
 10
1649.569199236313
 20
1428.644207962546
 30
0.0
 40
30.0
 41
0.0
 46
0.0
 71
     5
 72
     5
  1
\A1;140
 73
     1
 44
1.0
  0
POINT
  5
7E48
330
7BE2
100
AcDbEntity
  8
DEFPOINTS
  6
Continuous
 62
     0
440
 16777216
100
AcDbPoint
 10
1583.854913236313
 20
1352.682968962546
 30
0.0
  0
POINT
  5
7E49
330
7BE2
100
AcDbEntity
  8
DEFPOINTS
  6
Continuous
 62
     0
440
 16777216
100
AcDbPoint
 10
1723.854913236313
 20
1352.682968962546
 30
0.0
  0
POINT
  5
7E4A
330
7BE2
100
AcDbEntity
  8
DEFPOINTS
  6
Continuous
 62
     0
440
 16777216
100
AcDbPoint
 10
1723.854913236313
 20
1403.644207962546
 30
0.0
  0
ENDBLK
  5
7BED
330
7BE2
100
AcDbEntity
  8
0
100
AcDbBlockEnd
  0
BLOCK
  5
7D63
330
7BEF
100
AcDbEntity
  8
0
100
AcDbBlockBegin
  2
*D10
 70
     1
 10
0.0
 20
0.0
 30
0.0
  3
*D10
  1

  0
LINE
  5
7F82
330
7BEF
100
AcDbEntity
  8
3
  6
Continuous
 62
     0
440
 16777216
370
    -2
100
AcDbLine
 10
1353.854913236313
 20
1328.682968962546
 30
0.0
 11
1353.854913236313
 21
1466.309841962546
 31
0.0
  0
LINE
  5
7F83
330
7BEF
100
AcDbEntity
  8
3
  6
Continuous
 62
     0
440
 16777216
370
    -2
100
AcDbLine
 10
1653.854913236313
 20
1453.853887962546
 30
0.0
 11
1653.854913236313
 21
1466.309841962546
 31
0.0
  0
LINE
  5
7F84
330
7BEF
100
AcDbEntity
  8
3
  6
Continuous
 62
     0
440
 16777216
370
    -2
100
AcDbLine
 10
1373.854913236313
 20
1456.309841962546
 30
0.0
 11
1633.854913236313
 21
1456.309841962546
 31
0.0
  0
INSERT
  5
7F85
330
7BEF
100
AcDbEntity
  8
3
  6
Continuous
 62
     0
440
 16777216
370
    -2
100
AcDbBlockReference
  2
_OPEN
 10
1353.854913236313
 20
1456.309841962546
 30
0.0
 41
20.0
 42
20.0
 43
20.0
 50
180.0
  0
INSERT
  5
7F86
330
7BEF
100
AcDbEntity
  8
3
  6
Continuous
 62
     0
440
 16777216
370
    -2
100
AcDbBlockReference
  2
_OPEN
 10
1653.854913236313
 20
1456.309841962546
 30
0.0
 41
20.0
 42
20.0
 43
20.0
  0
MTEXT
  5
7F87
330
7BEF
100
AcDbEntity
  8
3
  6
Continuous
 62
     0
440
 16777216
100
AcDbMText
 10
1509.183382236313
 20
1489.166984819689
 30
0.0
 40
30.0
 41
0.0
 46
0.0
 71
     5
 72
     1
  1
\A1;(300)
 73
     1
 44
1.0
  0
POINT
  5
7F88
330
7BEF
100
AcDbEntity
  8
DEFPOINTS
  6
Continuous
 62
     0
440
 16777216
100
AcDbPoint
 10
1353.854913236313
 20
1323.682968962546
 30
0.0
  0
POINT
  5
7F89
330
7BEF
100
AcDbEntity
  8
DEFPOINTS
  6
Continuous
 62
     0
440
 16777216
100
AcDbPoint
 10
1653.854913236313
 20
1448.853887962546
 30
0.0
  0
POINT
  5
7F8A
330
7BEF
100
AcDbEntity
  8
DEFPOINTS
  6
Continuous
 62
     0
440
 16777216
100
AcDbPoint
 10
1653.854913236313
 20
1456.309841962546
 30
0.0
  0
ENDBLK
  5
7D6D
330
7BEF
100
AcDbEntity
  8
0
100
AcDbBlockEnd
  0
BLOCK
  5
7CB6
330
7BFC
100
AcDbEntity
  8
0
100
AcDbBlockBegin
  2
*D11
 70
     1
 10
0.0
 20
0.0
 30
0.0
  3
*D11
  1

  0
LINE
  5
7E54
330
7BFC
100
AcDbEntity
  8
3
  6
Continuous
 62
     0
440
 16777216
100
AcDbLine
 10
1731.854913236313
 20
1338.682968962546
 30
0.0
 11
1731.854913236313
 21
1466.309841962546
 31
0.0
  0
LINE
  5
7E55
330
7BFC
100
AcDbEntity
  8
3
  6
Continuous
 62
     0
440
 16777216
100
AcDbLine
 10
1673.854913236313
 20
1456.309841962546
 30
0.0
 11
1711.854913236313
 21
1456.309841962546
 31
0.0
  0
MTEXT
  5
7E56
330
7BFC
100
AcDbEntity
  8
3
  6
Continuous
 62
     0
440
 16777216
100
AcDbMText
 10
1693.697289236313
 20
1481.309841962546
 30
0.0
 40
30.0
 41
0.0
 46
0.0
 71
     5
 72
     5
  1
\A1;78
 73
     1
 44
1.0
  0
INSERT
  5
7E57
330
7BFC
100
AcDbEntity
  8
3
  6
Continuous
 62
     0
440
 16777216
100
AcDbBlockReference
  2
_OPEN
 10
1653.854913236313
 20
1456.309841962546
 30
0.0
 41
20.0
 42
20.0
 43
20.0
 50
180.0
  0
INSERT
  5
7E58
330
7BFC
100
AcDbEntity
  8
3
  6
Continuous
 62
     0
440
 16777216
100
AcDbBlockReference
  2
_OPEN
 10
1731.854913236313
 20
1456.309841962546
 30
0.0
 41
20.0
 42
20.0
 43
20.0
  0
POINT
  5
7E59
330
7BFC
100
AcDbEntity
  8
DEFPOINTS
  6
Continuous
 62
     0
440
 16777216
100
AcDbPoint
 10
1653.854913236313
 20
1448.853887962546
 30
0.0
  0
POINT
  5
7E5A
330
7BFC
100
AcDbEntity
  8
DEFPOINTS
  6
Continuous
 62
     0
440
 16777216
100
AcDbPoint
 10
1731.854913236313
 20
1333.682968962546
 30
0.0
  0
POINT
  5
7E5B
330
7BFC
100
AcDbEntity
  8
DEFPOINTS
  6
Continuous
 62
     0
440
 16777216
100
AcDbPoint
 10
1731.854913236313
 20
1456.309841962546
 30
0.0
  0
ENDBLK
  5
7CBF
330
7BFC
100
AcDbEntity
  8
0
100
AcDbBlockEnd
  0
BLOCK
  5
7C21
330
7C20
100
AcDbEntity
  8
0
100
AcDbBlockBegin
  2
*D12
 70
     1
 10
0.0
 20
0.0
 30
0.0
  3
*D12
  1

  0
LINE
  5
7EFE
330
7C20
100
AcDbEntity
  8
3
  6
Continuous
 62
     0
440
 16777216
370
    -2
100
AcDbLine
 10
1439.854913236312
 20
838.6829689625464
 30
0.0
 11
1439.854913236312
 21
771.7792189625464
 31
0.0
  0
LINE
  5
7EFF
330
7C20
100
AcDbEntity
  8
3
  6
Continuous
 62
     0
440
 16777216
370
    -2
100
AcDbLine
 10
1653.854913236313
 20
838.6829689625464
 30
0.0
 11
1653.854913236313
 21
771.7792189625464
 31
0.0
  0
LINE
  5
7F00
330
7C20
100
AcDbEntity
  8
3
  6
Continuous
 62
     0
440
 16777216
370
    -2
100
AcDbLine
 10
1459.854913236313
 20
781.7792189625464
 30
0.0
 11
1633.854913236313
 21
781.7792189625464
 31
0.0
  0
INSERT
  5
7F01
330
7C20
100
AcDbEntity
  8
3
  6
Continuous
 62
     0
440
 16777216
370
    -2
100
AcDbBlockReference
  2
_OPEN
 10
1439.854913236312
 20
781.7792189625464
 30
0.0
 41
20.0
 42
20.0
 43
20.0
 50
180.0
  0
INSERT
  5
7F02
330
7C20
100
AcDbEntity
  8
3
  6
Continuous
 62
     0
440
 16777216
370
    -2
100
AcDbBlockReference
  2
_OPEN
 10
1653.854913236313
 20
781.7792189625464
 30
0.0
 41
20.0
 42
20.0
 43
20.0
  0
MTEXT
  5
7F03
330
7C20
100
AcDbEntity
  8
3
  6
Continuous
 62
     0
440
 16777216
100
AcDbMText
 10
1556.253258236313
 20
806.7792189625464
 30
0.0
 40
30.0
 41
0.0
 46
0.0
 71
     5
 72
     1
  1
\A1;214
 73
     1
 44
1.0
  0
POINT
  5
7F04
330
7C20
100
AcDbEntity
  8
DEFPOINTS
  6
Continuous
 62
     0
440
 16777216
100
AcDbPoint
 10
1439.854913236312
 20
843.6829689625465
 30
0.0
  0
POINT
  5
7F05
330
7C20
100
AcDbEntity
  8
DEFPOINTS
  6
Continuous
 62
     0
440
 16777216
100
AcDbPoint
 10
1653.854913236313
 20
843.6829689625465
 30
0.0
  0
POINT
  5
7F06
330
7C20
100
AcDbEntity
  8
DEFPOINTS
  6
Continuous
 62
     0
440
 16777216
100
AcDbPoint
 10
1653.854913236313
 20
781.7792189625464
 30
0.0
  0
ENDBLK
  5
7C2B
330
7C20
100
AcDbEntity
  8
0
100
AcDbBlockEnd
  0
BLOCK
  5
7C4B
330
7C2D
100
AcDbEntity
  8
0
100
AcDbBlockBegin
  2
*D13
 70
     1
 10
0.0
 20
0.0
 30
0.0
  3
*D13
  1

  0
LINE
  5
7F07
330
7C2D
100
AcDbEntity
  8
3
  6
Continuous
 62
     0
440
 16777216
370
    -2
100
AcDbLine
 10
1663.854913236313
 20
838.6829689625464
 30
0.0
 11
1663.854913236313
 21
771.7792189625464
 31
0.0
  0
LINE
  5
7F08
330
7C2D
100
AcDbEntity
  8
3
  6
Continuous
 62
     0
440
 16777216
370
    -2
100
AcDbLine
 10
1633.854913236313
 20
781.7792189625464
 30
0.0
 11
1613.854913236313
 21
781.7792189625464
 31
0.0
  0
LINE
  5
7F09
330
7C2D
100
AcDbEntity
  8
3
  6
Continuous
 62
     0
440
 16777216
370
    -2
100
AcDbLine
 10
1683.854913236313
 20
781.7792189625464
 30
0.0
 11
1703.854913236313
 21
781.7792189625464
 31
0.0
  0
MTEXT
  5
7F0A
330
7C2D
100
AcDbEntity
  8
3
  6
Continuous
 62
     0
440
 16777216
100
AcDbMText
 10
1706.876859236313
 20
806.7792189625464
 30
0.0
 40
30.0
 41
0.0
 46
0.0
 71
     5
 72
     1
  1
\A1;10
 73
     1
 44
1.0
  0
LINE
  5
7F0B
330
7C2D
100
AcDbEntity
  8
3
  6
Continuous
 62
     0
440
 16777216
370
    -2
100
AcDbLine
 10
1653.854913236313
 20
781.7792189625464
 30
0.0
 11
1663.854913236313
 21
781.7792189625464
 31
0.0
  0
INSERT
  5
7F0C
330
7C2D
100
AcDbEntity
  8
3
  6
Continuous
 62
     0
440
 16777216
370
    -2
100
AcDbBlockReference
  2
_OPEN
 10
1653.854913236313
 20
781.7792189625464
 30
0.0
 41
20.0
 42
20.0
 43
20.0
  0
INSERT
  5
7F0D
330
7C2D
100
AcDbEntity
  8
3
  6
Continuous
 62
     0
440
 16777216
370
    -2
100
AcDbBlockReference
  2
_OPEN
 10
1663.854913236313
 20
781.7792189625464
 30
0.0
 41
20.0
 42
20.0
 43
20.0
 50
180.0
  0
POINT
  5
7F0E
330
7C2D
100
AcDbEntity
  8
DEFPOINTS
  6
Continuous
 62
     0
440
 16777216
100
AcDbPoint
 10
1653.854913236313
 20
843.6829689625465
 30
0.0
  0
POINT
  5
7F0F
330
7C2D
100
AcDbEntity
  8
DEFPOINTS
  6
Continuous
 62
     0
440
 16777216
100
AcDbPoint
 10
1663.854913236313
 20
843.6829689625465
 30
0.0
  0
POINT
  5
7F10
330
7C2D
100
AcDbEntity
  8
DEFPOINTS
  6
Continuous
 62
     0
440
 16777216
100
AcDbPoint
 10
1663.854913236313
 20
781.7792189625464
 30
0.0
  0
ENDBLK
  5
7C56
330
7C2D
100
AcDbEntity
  8
0
100
AcDbBlockEnd
  0
BLOCK
  5
7D6E
330
7C5B
100
AcDbEntity
  8
0
100
AcDbBlockBegin
  2
*D14
 70
     1
 10
0.0
 20
0.0
 30
0.0
  3
*D14
  1

  0
LINE
  5
7E6F
330
7C5B
100
AcDbEntity
  8
3
  6
Continuous
 62
     0
440
 16777216
100
AcDbLine
 10
1736.854913236313
 20
1313.682968962546
 30
0.0
 11
1812.171314236313
 21
1313.682968962546
 31
0.0
  0
LINE
  5
7E70
330
7C5B
100
AcDbEntity
  8
3
  6
Continuous
 62
     0
440
 16777216
100
AcDbLine
 10
1736.854913236313
 20
1113.682968962546
 30
0.0
 11
1812.171314236313
 21
1113.682968962546
 31
0.0
  0
LINE
  5
7E71
330
7C5B
100
AcDbEntity
  8
3
  6
Continuous
 62
     0
440
 16777216
100
AcDbLine
 10
1802.171314236313
 20
1293.682968962546
 30
0.0
 11
1802.171314236313
 21
1133.682968962546
 31
0.0
  0
INSERT
  5
7E72
330
7C5B
100
AcDbEntity
  8
3
  6
Continuous
 62
     0
440
 16777216
100
AcDbBlockReference
  2
_OPEN
 10
1802.171314236313
 20
1313.682968962546
 30
0.0
 41
20.0
 42
20.0
 43
20.0
 50
90.0
  0
INSERT
  5
7E73
330
7C5B
100
AcDbEntity
  8
3
  6
Continuous
 62
     0
440
 16777216
100
AcDbBlockReference
  2
_OPEN
 10
1802.171314236313
 20
1113.682968962546
 30
0.0
 41
20.0
 42
20.0
 43
20.0
 50
270.0
  0
MTEXT
  5
7E74
330
7C5B
100
AcDbEntity
  8
3
  6
Continuous
 62
     0
440
 16777216
100
AcDbMText
 10
1777.171314236313
 20
1227.111540391118
 30
0.0
 40
30.0
 41
0.0
 46
0.0
 71
     5
 72
     5
  1
\A1;φ200
 11
0.0000000000000001
 21
1.0
 31
0.0
 73
     1
 44
1.0
  0
POINT
  5
7E75
330
7C5B
100
AcDbEntity
  8
DEFPOINTS
  6
Continuous
 62
     0
440
 16777216
100
AcDbPoint
 10
1731.854913236313
 20
1313.682968962546
 30
0.0
  0
POINT
  5
7E76
330
7C5B
100
AcDbEntity
  8
DEFPOINTS
  6
Continuous
 62
     0
440
 16777216
100
AcDbPoint
 10
1731.854913236313
 20
1113.682968962546
 30
0.0
  0
POINT
  5
7E77
330
7C5B
100
AcDbEntity
  8
DEFPOINTS
  6
Continuous
 62
     0
440
 16777216
100
AcDbPoint
 10
1802.171314236313
 20
1113.682968962546
 30
0.0
  0
ENDBLK
  5
7D78
330
7C5B
100
AcDbEntity
  8
0
100
AcDbBlockEnd
  0
BLOCK
  5
7CE0
330
7C99
100
AcDbEntity
  8
0
100
AcDbBlockBegin
  2
*D15
 70
     1
 10
0.0
 20
0.0
 30
0.0
  3
*D15
  1

  0
LINE
  5
7E78
330
7C99
100
AcDbEntity
  8
3
  6
Continuous
 62
     0
440
 16777216
100
AcDbLine
 10
979.4890930000001
 20
1213.682968962546
 30
0.0
 11
1128.494452270889
 21
1213.682968962546
 31
0.0
  0
LINE
  5
7E79
330
7C99
100
AcDbEntity
  8
3
  6
Continuous
 62
     0
440
 16777216
100
AcDbLine
 10
964.489093
 20
1002.682968962546
 30
0.0
 11
1128.494452270889
 21
1002.682968962546
 31
0.0
  0
LINE
  5
7E7A
330
7C99
100
AcDbEntity
  8
3
  6
Continuous
 62
     0
440
 16777216
100
AcDbLine
 10
1118.494452270889
 20
1193.682968962546
 30
0.0
 11
1118.494452270889
 21
1022.682968962546
 31
0.0
  0
INSERT
  5
7E7B
330
7C99
100
AcDbEntity
  8
3
  6
Continuous
 62
     0
440
 16777216
100
AcDbBlockReference
  2
_OPEN
 10
1118.494452270889
 20
1213.682968962546
 30
0.0
 41
20.0
 42
20.0
 43
20.0
 50
90.0
  0
INSERT
  5
7E7C
330
7C99
100
AcDbEntity
  8
3
  6
Continuous
 62
     0
440
 16777216
100
AcDbBlockReference
  2
_OPEN
 10
1118.494452270889
 20
1002.682968962546
 30
0.0
 41
20.0
 42
20.0
 43
20.0
 50
270.0
  0
MTEXT
  5
7E7D
330
7C99
100
AcDbEntity
  8
3
  6
Continuous
 62
     0
440
 16777216
100
AcDbMText
 10
1093.494452270888
 20
1114.301621962546
 30
0.0
 40
30.0
 41
0.0
 46
0.0
 71
     5
 72
     5
  1
\A1;211
 11
0.0000000000000001
 21
1.0
 31
0.0
 73
     1
 44
1.0
  0
POINT
  5
7E7E
330
7C99
100
AcDbEntity
  8
DEFPOINTS
  6
Continuous
 62
     0
440
 16777216
100
AcDbPoint
 10
974.489093
 20
1213.682968962546
 30
0.0
  0
POINT
  5
7E7F
330
7C99
100
AcDbEntity
  8
DEFPOINTS
  6
Continuous
 62
     0
440
 16777216
100
AcDbPoint
 10
959.489093
 20
1002.682968962546
 30
0.0
  0
POINT
  5
7E80
330
7C99
100
AcDbEntity
  8
DEFPOINTS
  6
Continuous
 62
     0
440
 16777216
100
AcDbPoint
 10
1118.494452270889
 20
1002.682968962546
 30
0.0
  0
ENDBLK
  5
7CEA
330
7C99
100
AcDbEntity
  8
0
100
AcDbBlockEnd
  0
BLOCK
  5
7D4B
330
7D3E
100
AcDbEntity
  8
0
100
AcDbBlockBegin
  2
*D16
 70
     1
 10
0.0
 20
0.0
 30
0.0
  3
*D16
  1

  0
LINE
  5
7E81
330
7D3E
100
AcDbEntity
  8
3
 62
     0
440
 16777216
100
AcDbLine
 10
314.489093
 20
2069.629196915354
 30
0.0
 11
246.443549345266
 21
2069.629196915354
 31
0.0
  0
LINE
  5
7E82
330
7D3E
100
AcDbEntity
  8
3
 62
     0
440
 16777216
100
AcDbLine
 10
314.489093
 20
1845.629196915354
 30
0.0
 11
246.4435493452659
 21
1845.629196915354
 31
0.0
  0
LINE
  5
7E83
330
7D3E
100
AcDbEntity
  8
3
 62
     0
440
 16777216
100
AcDbLine
 10
256.443549345266
 20
2049.629196915354
 30
0.0
 11
256.4435493452659
 21
1865.629196915354
 31
0.0
  0
INSERT
  5
7E84
330
7D3E
100
AcDbEntity
  8
3
 62
     0
440
 16777216
100
AcDbBlockReference
  2
_OPEN
 10
256.443549345266
 20
2069.629196915354
 30
0.0
 41
20.0
 42
20.0
 43
20.0
 50
90.0
  0
INSERT
  5
7E85
330
7D3E
100
AcDbEntity
  8
3
 62
     0
440
 16777216
100
AcDbBlockReference
  2
_OPEN
 10
256.4435493452659
 20
1845.629196915354
 30
0.0
 41
20.0
 42
20.0
 43
20.0
 50
270.0
  0
MTEXT
  5
7E86
330
7D3E
100
AcDbEntity
  8
3
 62
     0
440
 16777216
100
AcDbMText
 10
231.4435493452656
 20
1947.393294285898
 30
0.0
 40
30.0
 41
0.0
 46
0.0
 71
     5
 72
     5
  1
\A1;224
 11
0.0000000000000001
 21
1.0
 31
0.0
 73
     1
 44
1.0
  0
POINT
  5
7E87
330
7D3E
100
AcDbEntity
  8
DEFPOINTS
 62
     0
440
 16777216
100
AcDbPoint
 10
319.489093
 20
2069.629196915354
 30
0.0
  0
POINT
  5
7E88
330
7D3E
100
AcDbEntity
  8
DEFPOINTS
 62
     0
440
 16777216
100
AcDbPoint
 10
319.489093
 20
1845.629196915354
 30
0.0
  0
POINT
  5
7E89
330
7D3E
100
AcDbEntity
  8
DEFPOINTS
 62
     0
440
 16777216
100
AcDbPoint
 10
256.4435493452659
 20
1845.629196915354
 30
0.0
  0
ENDBLK
  5
7D55
330
7D3E
100
AcDbEntity
  8
0
100
AcDbBlockEnd
  0
BLOCK
  5
7D9F
330
7D9E
100
AcDbEntity
  8
0
100
AcDbBlockBegin
  2
_DOT
 70
     0
 10
0.0
 20
0.0
 30
0.0
  3
_DOT
  1

  0
LWPOLYLINE
  5
7DA0
330
7D9E
100
AcDbEntity
  8
0
  6
ByBlock
 62
     0
100
AcDbPolyline
 90
        2
 70
     1
 43
0.5
 10
-0.25
 20
0.0
 42
1.0
 10
0.25
 20
0.0
 42
1.0
  0
LINE
  5
7DA4
330
7D9E
100
AcDbEntity
  8
0
  6
ByBlock
 62
     0
100
AcDbLine
 10
-0.5
 20
0.0
 30
0.0
 11
-1.0
 21
0.0
 31
0.0
  0
ENDBLK
  5
7DA5
330
7D9E
100
AcDbEntity
  8
0
100
AcDbBlockEnd
  0
BLOCK
  5
7DA7
330
7DA6
100
AcDbEntity
  8
0
100
AcDbBlockBegin
  2
*D18
 70
     1
 10
0.0
 20
0.0
 30
0.0
  3
*D18
  1

  0
LINE
  5
7F3F
330
7DA6
100
AcDbEntity
  8
3
 62
     0
440
 16777216
370
    -2
100
AcDbLine
 10
1004.489093
 20
868.6829689625465
 30
0.0
 11
1184.641942757099
 21
868.6829689625465
 31
0.0
  0
LINE
  5
7F40
330
7DA6
100
AcDbEntity
  8
3
 62
     0
440
 16777216
370
    -2
100
AcDbLine
 10
1004.489093
 20
843.6829689625465
 30
0.0
 11
1184.641942757099
 21
843.6829689625465
 31
0.0
  0
LINE
  5
7F41
330
7DA6
100
AcDbEntity
  8
3
 62
     0
440
 16777216
370
    -2
100
AcDbLine
 10
1174.641942757099
 20
888.6829689625464
 30
0.0
 11
1174.641942757099
 21
908.6829689625465
 31
0.0
  0
LINE
  5
7F42
330
7DA6
100
AcDbEntity
  8
3
 62
     0
440
 16777216
370
    -2
100
AcDbLine
 10
1174.641942757099
 20
823.6829689625464
 30
0.0
 11
1174.641942757099
 21
735.111540391118
 31
0.0
  0
LINE
  5
7F43
330
7DA6
100
AcDbEntity
  8
3
 62
     0
440
 16777216
370
    -2
100
AcDbLine
 10
1174.641942757099
 20
868.6829689625465
 30
0.0
 11
1174.641942757099
 21
843.6829689625465
 31
0.0
  0
INSERT
  5
7F44
330
7DA6
100
AcDbEntity
  8
3
 62
     0
440
 16777216
370
    -2
100
AcDbBlockReference
  2
_DOT
 10
1174.641942757099
 20
868.6829689625465
 30
0.0
 41
20.0
 42
20.0
 43
20.0
 50
270.0
  0
INSERT
  5
7F45
330
7DA6
100
AcDbEntity
  8
3
 62
     0
440
 16777216
370
    -2
100
AcDbBlockReference
  2
_OPEN
 10
1174.641942757099
 20
843.6829689625465
 30
0.0
 41
20.0
 42
20.0
 43
20.0
 50
90.0
  0
MTEXT
  5
7F46
330
7DA6
100
AcDbEntity
  8
3
 62
     0
440
 16777216
100
AcDbMText
 10
1149.641942757099
 20
769.3972546768324
 30
0.0
 40
30.0
 41
0.0
 46
0.0
 71
     5
 72
     1
  1
\A1;25
 11
0.0000000000000001
 21
1.0
 31
0.0
 73
     1
 44
1.0
  0
POINT
  5
7F47
330
7DA6
100
AcDbEntity
  8
DEFPOINTS
 62
     0
440
 16777216
100
AcDbPoint
 10
999.489093
 20
868.6829689625465
 30
0.0
  0
POINT
  5
7F48
330
7DA6
100
AcDbEntity
  8
DEFPOINTS
 62
     0
440
 16777216
100
AcDbPoint
 10
999.489093
 20
843.6829689625465
 30
0.0
  0
POINT
  5
7F49
330
7DA6
100
AcDbEntity
  8
DEFPOINTS
 62
     0
440
 16777216
100
AcDbPoint
 10
1174.641942757099
 20
843.6829689625465
 30
0.0
  0
ENDBLK
  5
7DB3
330
7DA6
100
AcDbEntity
  8
0
100
AcDbBlockEnd
  0
BLOCK
  5
7DB6
330
7DB5
100
AcDbEntity
  8
0
100
AcDbBlockBegin
  2
*D19
 70
     1
 10
0.0
 20
0.0
 30
0.0
  3
*D19
  1

  0
LINE
  5
7F4A
330
7DB5
100
AcDbEntity
  8
3
 62
     0
440
 16777216
370
    -2
100
AcDbLine
 10
1004.489093
 20
868.6829689625465
 30
0.0
 11
1184.641942757099
 21
868.6829689625465
 31
0.0
  0
LINE
  5
7F4B
330
7DB5
100
AcDbEntity
  8
3
 62
     0
440
 16777216
370
    -2
100
AcDbLine
 10
979.4890930000001
 20
938.6829689625464
 30
0.0
 11
1184.641942757099
 21
938.6829689625464
 31
0.0
  0
LINE
  5
7F4C
330
7DB5
100
AcDbEntity
  8
3
 62
     0
440
 16777216
370
    -2
100
AcDbLine
 10
1174.641942757099
 20
888.6829689625464
 30
0.0
 11
1174.641942757099
 21
918.6829689625465
 31
0.0
  0
MTEXT
  5
7F4D
330
7DB5
100
AcDbEntity
  8
3
 62
     0
440
 16777216
100
AcDbMText
 10
1221.044990523434
 20
906.3206628813016
 30
0.0
 40
30.0
 41
0.0
 46
0.0
 71
     5
 72
     1
  1
\A1;(70)
 11
0.0000000000000001
 21
1.0
 31
0.0
 73
     1
 44
1.0
  0
INSERT
  5
7F4E
330
7DB5
100
AcDbEntity
  8
3
 62
     0
440
 16777216
370
    -2
100
AcDbBlockReference
  2
_DOT
 10
1174.641942757099
 20
868.6829689625465
 30
0.0
 41
20.0
 42
20.0
 43
20.0
 50
270.0
  0
INSERT
  5
7F4F
330
7DB5
100
AcDbEntity
  8
3
 62
     0
440
 16777216
370
    -2
100
AcDbBlockReference
  2
_OPEN
 10
1174.641942757099
 20
938.6829689625464
 30
0.0
 41
20.0
 42
20.0
 43
20.0
 50
90.0
  0
POINT
  5
7F50
330
7DB5
100
AcDbEntity
  8
DEFPOINTS
 62
     0
440
 16777216
100
AcDbPoint
 10
999.489093
 20
868.6829689625465
 30
0.0
  0
POINT
  5
7F51
330
7DB5
100
AcDbEntity
  8
DEFPOINTS
 62
     0
440
 16777216
100
AcDbPoint
 10
974.489093
 20
938.6829689625464
 30
0.0
  0
POINT
  5
7F52
330
7DB5
100
AcDbEntity
  8
DEFPOINTS
 62
     0
440
 16777216
100
AcDbPoint
 10
1174.641942757099
 20
938.6829689625464
 30
0.0
  0
ENDBLK
  5
7DC0
330
7DB5
100
AcDbEntity
  8
0
100
AcDbBlockEnd
  0
BLOCK
  5
7F9B
330
7F9A
100
AcDbEntity
  8
0
100
AcDbBlockBegin
  2
*D20
 70
     1
 10
0.0
 20
0.0
 30
0.0
  3
*D20
  1

  0
LINE
  5
7FC9
330
7F9A
100
AcDbEntity
  8
3
 62
     0
440
 16777216
370
    -2
100
AcDbLine
 10
1004.489093
 20
843.6829689625465
 30
0.0
 11
1277.526404954206
 21
843.6829689625465
 31
0.0
  0
LINE
  5
7FCA
330
7F9A
100
AcDbEntity
  8
3
 62
     0
440
 16777216
370
    -2
100
AcDbLine
 10
808.489093
 20
1364.682968962546
 30
0.0
 11
1277.526404954206
 21
1364.682968962546
 31
0.0
  0
LINE
  5
7FCB
330
7F9A
100
AcDbEntity
  8
3
 62
     0
440
 16777216
370
    -2
100
AcDbLine
 10
1267.526404954205
 20
863.6829689625464
 30
0.0
 11
1267.526404954205
 21
1344.682968962546
 31
0.0
  0
INSERT
  5
7FCC
330
7F9A
100
AcDbEntity
  8
3
 62
     0
440
 16777216
370
    -2
100
AcDbBlockReference
  2
_OPEN
 10
1267.526404954205
 20
843.6829689625465
 30
0.0
 41
20.0
 42
20.0
 43
20.0
 50
270.0
  0
INSERT
  5
7FCD
330
7F9A
100
AcDbEntity
  8
3
 62
     0
440
 16777216
370
    -2
100
AcDbBlockReference
  2
_OPEN
 10
1267.526404954205
 20
1364.682968962546
 30
0.0
 41
20.0
 42
20.0
 43
20.0
 50
90.0
  0
MTEXT
  5
7FCE
330
7F9A
100
AcDbEntity
  8
3
 62
     0
440
 16777216
100
AcDbMText
 10
1234.669262097062
 20
1104.182968962547
 30
0.0
 40
30.0
 41
0.0
 46
0.0
 71
     5
 72
     1
  1
\A1;(521)
 11
0.0000000000000001
 21
1.0
 31
0.0
 73
     1
 44
1.0
  0
POINT
  5
7FCF
330
7F9A
100
AcDbEntity
  8
DEFPOINTS
 62
     0
440
 16777216
100
AcDbPoint
 10
999.489093
 20
843.6829689625465
 30
0.0
  0
POINT
  5
7FD0
330
7F9A
100
AcDbEntity
  8
DEFPOINTS
 62
     0
440
 16777216
100
AcDbPoint
 10
803.4890929999999
 20
1364.682968962546
 30
0.0
  0
POINT
  5
7FD1
330
7F9A
100
AcDbEntity
  8
DEFPOINTS
 62
     0
440
 16777216
100
AcDbPoint
 10
1267.526404954205
 20
1364.682968962546
 30
0.0
  0
ENDBLK
  5
7F9C
330
7F9A
100
AcDbEntity
  8
0
100
AcDbBlockEnd
  0
ENDSEC
  0
SECTION
  2
ENTITIES
  0
LINE
  5
7A88
330
19
100
AcDbEntity
  8
1
  6
Continuous
100
AcDbLine
 10
319.4890930000001
 20
843.6829689625465
 30
0.0
 11
999.489093
 21
843.6829689625465
 31
0.0
  0
LINE
  5
7A89
330
19
100
AcDbEntity
  8
1
  6
Continuous
100
AcDbLine
 10
319.4890930000001
 20
868.6829689625465
 30
0.0
 11
999.489093
 21
868.6829689625465
 31
0.0
  0
ARC
  5
7A8A
330
19
100
AcDbEntity
  8
1
  6
Continuous
100
AcDbCircle
 10
830.489093
 20
1197.682968962546
 30
0.0
 40
195.0
100
AcDbArc
 50
179.7
 51
270.0
  0
ARC
  5
7A8B
330
19
100
AcDbEntity
  8
1
  6
Continuous
100
AcDbCircle
 10
800.489093
 20
1199.682968962546
 30
0.0
 40
165.0
100
AcDbArc
 50
89.40000000000001
 51
180.3
  0
LINE
  5
7A8C
330
19
100
AcDbEntity
  8
1
  6
Continuous
100
AcDbLine
 10
391.489093
 20
1323.682968962546
 30
0.0
 11
921.4890930000001
 21
1323.682968962546
 31
0.0
  0
LINE
  5
7A8D
330
19
100
AcDbEntity
  8
1
  6
Continuous
100
AcDbLine
 10
344.489093
 20
938.6829689625464
 30
0.0
 11
974.489093
 21
938.6829689625464
 31
0.0
  0
LINE
  5
7A8E
330
19
100
AcDbEntity
  8
1
  6
Continuous
100
AcDbLine
 10
344.489093
 20
988.6829689625464
 30
0.0
 11
974.489093
 21
988.6829689625464
 31
0.0
  0
LINE
  5
7A8F
330
19
100
AcDbEntity
  8
1
  6
Continuous
100
AcDbLine
 10
526.1890929999999
 20
1056.882968962546
 30
0.0
 11
831.3890929999999
 21
1166.682968962546
 31
0.0
  0
LINE
  5
7A90
330
19
100
AcDbEntity
  8
1
  6
Continuous
100
AcDbLine
 10
499.4890929999999
 20
1121.482968962546
 30
0.0
 11
793.289093
 21
1258.982968962546
 31
0.0
  0
LINE
  5
7A91
330
19
100
AcDbEntity
  8
1
  6
Continuous
100
AcDbLine
 10
391.489093
 20
988.6829689625464
 30
0.0
 11
391.489093
 21
1323.682968962546
 31
0.0
  0
ARC
  5
7A92
330
19
100
AcDbEntity
  8
1
  6
Continuous
100
AcDbCircle
 10
509.889093
 20
1089.382968962546
 30
0.0
 40
85.0
100
AcDbArc
 50
324.7
 51
215.3
  0
LINE
  5
7A93
330
19
100
AcDbEntity
  8
1
  6
Continuous
100
AcDbLine
 10
602.7890929999999
 20
1009.382968962546
 30
0.0
 11
351.7890930000001
 21
1009.382968962546
 31
0.0
  0
LINE
  5
7A94
330
19
100
AcDbEntity
  8
1
  6
Continuous
100
AcDbLine
 10
319.4890930000001
 20
843.6829689625465
 30
0.0
 11
319.4890930000001
 21
868.6829689625465
 31
0.0
  0
LINE
  5
7A95
330
19
100
AcDbEntity
  8
1
  6
Continuous
100
AcDbLine
 10
351.7890930000001
 20
1009.382968962546
 30
0.0
 11
351.7890930000001
 21
988.6829689625464
 31
0.0
  0
LINE
  5
7A96
330
19
100
AcDbEntity
  8
1
  6
Continuous
100
AcDbLine
 10
344.489093
 20
938.6829689625464
 30
0.0
 11
344.489093
 21
988.6829689625464
 31
0.0
  0
LINE
  5
7A97
330
19
100
AcDbEntity
  8
1
  6
Continuous
100
AcDbLine
 10
432.389093
 20
1009.382968962546
 30
0.0
 11
432.389093
 21
1017.382968962546
 31
0.0
  0
LINE
  5
7A98
330
19
100
AcDbEntity
  8
1
  6
Continuous
100
AcDbLine
 10
432.389093
 20
1017.382968962546
 30
0.0
 11
440.589093
 21
1040.182968962546
 31
0.0
  0
LINE
  5
7A99
330
19
100
AcDbEntity
  8
2
  6
CENTER
100
AcDbLine
 10
479.2890929999999
 20
1089.782968962546
 30
0.0
 11
549.2890929999999
 21
1089.782968962546
 31
0.0
  0
LINE
  5
7A9A
330
19
100
AcDbEntity
  8
2
  6
CENTER
100
AcDbLine
 10
514.289093
 20
1054.782968962546
 30
0.0
 11
514.289093
 21
1124.782968962546
 31
0.0
  0
CIRCLE
  5
7A9B
330
19
100
AcDbEntity
  8
1
  6
Continuous
100
AcDbCircle
 10
514.289093
 20
1089.782968962546
 30
0.0
 40
35.0
  0
LINE
  5
7A9C
330
19
100
AcDbEntity
  8
1
  6
Continuous
100
AcDbLine
 10
587.3890929999999
 20
1017.382968962546
 30
0.0
 11
579.2890929999999
 21
1040.182968962546
 31
0.0
  0
LINE
  5
7A9D
330
19
100
AcDbEntity
  8
1
  6
Continuous
100
AcDbLine
 10
587.3890929999999
 20
1009.382968962546
 30
0.0
 11
587.3890929999999
 21
1017.382968962546
 31
0.0
  0
LINE
  5
7A9E
330
19
100
AcDbEntity
  8
1
  6
Continuous
100
AcDbLine
 10
602.7890929999999
 20
988.6829689625464
 30
0.0
 11
602.7890929999999
 21
1009.382968962546
 31
0.0
  0
CIRCLE
  5
7A9F
330
19
100
AcDbEntity
  8
1
  6
Continuous
100
AcDbCircle
 10
814.489093
 20
1213.682968962546
 30
0.0
 40
100.0
  0
CIRCLE
  5
7AA0
330
19
100
AcDbEntity
  8
1
  6
Continuous
100
AcDbCircle
 10
814.489093
 20
1213.682968962546
 30
0.0
 40
120.0
  0
LINE
  5
7AA1
330
19
100
AcDbEntity
  8
1
  6
Continuous
100
AcDbLine
 10
974.489093
 20
992.6829689625465
 30
0.0
 11
974.489093
 21
1234.682968962546
 31
0.0
  0
LINE
  5
7AA2
330
19
100
AcDbEntity
  8
1
  6
Continuous
100
AcDbLine
 10
679.489093
 20
1267.382968962546
 30
0.0
 11
679.489093
 21
988.6829689625464
 31
0.0
  0
LINE
  5
7AA3
330
19
100
AcDbEntity
  8
1
  6
Continuous
100
AcDbLine
 10
949.489093
 20
988.6829689625464
 30
0.0
 11
949.489093
 21
1267.382968962546
 31
0.0
  0
LINE
  5
7AA4
330
19
100
AcDbEntity
  8
1
  6
Continuous
100
AcDbLine
 10
959.489093
 20
1213.682968962546
 30
0.0
 11
959.489093
 21
1223.682968962547
 31
0.0
  0
LINE
  5
7AA5
330
19
100
AcDbEntity
  8
1
  6
Continuous
100
AcDbLine
 10
921.4890930000001
 20
988.6829689625464
 30
0.0
 11
921.4890930000001
 21
1323.682968962546
 31
0.0
  0
CIRCLE
  5
7AA6
330
19
100
AcDbEntity
  8
1
  6
Continuous
100
AcDbCircle
 10
814.489093
 20
1213.682968962546
 30
0.0
 40
50.0
  0
LINE
  5
7AA7
330
19
100
AcDbEntity
  8
2
  6
CENTER
100
AcDbLine
 10
814.4890929999998
 20
843.6829689625465
 30
0.0
 11
814.489093
 21
1378.611773962546
 31
0.0
  0
LINE
  5
7AA8
330
19
100
AcDbEntity
  8
1
  6
Continuous
100
AcDbLine
 10
959.489093
 20
1002.682968962546
 30
0.0
 11
830.489093
 21
1002.682968962546
 31
0.0
  0
LINE
  5
7AA9
330
19
100
AcDbEntity
  8
2
  6
CENTER
100
AcDbLine
 10
564.0821299999999
 20
1213.682968962546
 30
0.0
 11
1005.059062
 21
1213.682968962546
 31
0.0
  0
LINE
  5
7AAA
330
19
100
AcDbEntity
  8
1
  6
Continuous
100
AcDbLine
 10
999.489093
 20
843.6829689625465
 30
0.0
 11
999.489093
 21
868.6829689625465
 31
0.0
  0
LINE
  5
7AAB
330
19
100
AcDbEntity
  8
1
  6
Continuous
100
AcDbLine
 10
974.489093
 20
1213.682968962546
 30
0.0
 11
959.489093
 21
1213.682968962546
 31
0.0
  0
LINE
  5
7AAC
330
19
100
AcDbEntity
  8
1
  6
Continuous
100
AcDbLine
 10
974.489093
 20
1012.682968962546
 30
0.0
 11
959.489093
 21
1027.682968962546
 31
0.0
  0
LINE
  5
7AAD
330
19
100
AcDbEntity
  8
1
  6
Continuous
100
AcDbLine
 10
959.489093
 20
1027.682968962546
 30
0.0
 11
959.489093
 21
1199.682968962546
 31
0.0
  0
LINE
  5
7AAE
330
19
100
AcDbEntity
  8
1
  6
Continuous
100
AcDbLine
 10
974.489093
 20
1214.682968962546
 30
0.0
 11
959.489093
 21
1199.682968962546
 31
0.0
  0
LINE
  5
7AAF
330
19
100
AcDbEntity
  8
1
  6
Continuous
100
AcDbLine
 10
974.489093
 20
1013.682968962546
 30
0.0
 11
959.489093
 21
1013.682968962546
 31
0.0
  0
LINE
  5
7AB0
330
19
100
AcDbEntity
  8
1
  6
Continuous
100
AcDbLine
 10
959.489093
 20
1002.682968962546
 30
0.0
 11
959.489093
 21
1013.682968962546
 31
0.0
  0
LINE
  5
7AB1
330
19
100
AcDbEntity
  8
1
  6
Continuous
100
AcDbLine
 10
974.489093
 20
938.6829689625464
 30
0.0
 11
974.489093
 21
988.6829689625464
 31
0.0
  0
ARC
  5
7AB2
330
19
100
AcDbEntity
  8
1
  6
Continuous
100
AcDbCircle
 10
803.4890929999999
 20
1224.682968962546
 30
0.0
 40
140.0
100
AcDbArc
 50
359.6
 51
90.6
  0
LINE
  5
7AB3
330
19
100
AcDbEntity
  8
1
  6
Continuous
100
AcDbLine
 10
679.489093
 20
1246.982968962546
 30
0.0
 11
949.489093
 21
1246.982968962546
 31
0.0
  0
LINE
  5
7AB4
330
19
100
AcDbEntity
  8
1
  6
Continuous
100
AcDbLine
 10
866.0890929999998
 20
1338.682968962546
 30
0.0
 11
949.489093
 21
1267.382968962546
 31
0.0
  0
LINE
  5
7AB5
330
19
100
AcDbEntity
  8
1
  6
Continuous
100
AcDbLine
 10
866.0890929999998
 20
1338.682968962546
 30
0.0
 11
762.8890929999999
 21
1338.682968962546
 31
0.0
  0
LINE
  5
7AB6
330
19
100
AcDbEntity
  8
1
  6
Continuous
100
AcDbLine
 10
762.8890929999999
 20
1338.682968962546
 30
0.0
 11
679.489093
 21
1267.382968962546
 31
0.0
  0
LINE
  5
7AB7
330
19
100
AcDbEntity
  8
1
  6
Continuous
100
AcDbLine
 10
959.489093
 20
1223.682968962547
 30
0.0
 11
943.4890929999999
 21
1223.682968962547
 31
0.0
  0
LINE
  5
7AB9
330
19
100
AcDbEntity
  8
1
  6
Continuous
100
AcDbLine
 10
1439.854913236312
 20
843.6829689625465
 30
0.0
 11
1663.854913236313
 21
843.6829689625465
 31
0.0
  0
LINE
  5
7ABA
330
19
100
AcDbEntity
  8
1
  6
Continuous
100
AcDbLine
 10
1439.854913236312
 20
868.6829689625465
 30
0.0
 11
1663.854913236313
 21
868.6829689625465
 31
0.0
  0
LINE
  5
7ABB
330
19
100
AcDbEntity
  8
1
  6
Continuous
100
AcDbLine
 10
1463.854913236312
 20
1180.382968962546
 30
0.0
 11
1575.854913236313
 21
1267.382968962546
 31
0.0
  0
LINE
  5
7ABC
330
19
100
AcDbEntity
  8
1
  6
Continuous
100
AcDbLine
 10
1353.854913236313
 20
988.6829689625464
 30
0.0
 11
1663.854913236313
 21
988.6829689625464
 31
0.0
  0
LINE
  5
7ABD
330
19
100
AcDbEntity
  8
1
  6
Continuous
100
AcDbLine
 10
1439.854913236312
 20
938.6829689625464
 30
0.0
 11
1663.854913236313
 21
938.6829689625464
 31
0.0
  0
LINE
  5
7ABE
330
19
100
AcDbEntity
  8
1
  6
Continuous
100
AcDbLine
 10
1406.354913236313
 20
1263.682968962546
 30
0.0
 11
1406.354913236313
 21
1163.682968962546
 31
0.0
  0
LINE
  5
7ABF
330
19
100
AcDbEntity
  8
1
  6
Continuous
100
AcDbLine
 10
1376.354913236313
 20
1263.682968962546
 30
0.0
 11
1376.354913236313
 21
1163.682968962546
 31
0.0
  0
LINE
  5
7AC0
330
19
100
AcDbEntity
  8
1
  6
Continuous
100
AcDbLine
 10
1428.854913236313
 20
1323.682968962546
 30
0.0
 11
1428.854913236313
 21
988.6829689625464
 31
0.0
  0
LINE
  5
7AC1
330
19
100
AcDbEntity
  8
1
  6
Continuous
100
AcDbLine
 10
1353.854913236313
 20
1323.682968962546
 30
0.0
 11
1353.854913236313
 21
988.6829689625464
 31
0.0
  0
LINE
  5
7AC5
330
19
100
AcDbEntity
  8
1
  6
Continuous
100
AcDbLine
 10
1439.854913236312
 20
868.6829689625465
 30
0.0
 11
1439.854913236312
 21
843.6829689625465
 31
0.0
  0
LINE
  5
7AC6
330
19
100
AcDbEntity
  8
1
  6
Continuous
100
AcDbLine
 10
1406.354913236313
 20
1201.682968962546
 30
0.0
 11
1491.254913236313
 21
1201.682968962546
 31
0.0
  0
LINE
  5
7AC7
330
19
100
AcDbEntity
  8
1
  6
Continuous
100
AcDbLine
 10
1406.354913236313
 20
1077.782968962546
 30
0.0
 11
1463.854913236312
 21
1077.782968962546
 31
0.0
  0
LINE
  5
7AC8
330
19
100
AcDbEntity
  8
1
  6
Continuous
100
AcDbLine
 10
1406.354913236313
 20
1101.782968962546
 30
0.0
 11
1463.854913236312
 21
1101.782968962546
 31
0.0
  0
LINE
  5
7AC9
330
19
100
AcDbEntity
  8
1
  6
Continuous
100
AcDbLine
 10
1376.354913236313
 20
1054.782968962546
 30
0.0
 11
1406.354913236313
 21
1054.782968962546
 31
0.0
  0
LINE
  5
7ACA
330
19
100
AcDbEntity
  8
1
  6
Continuous
100
AcDbLine
 10
1376.354913236313
 20
1124.782968962546
 30
0.0
 11
1406.354913236313
 21
1124.782968962546
 31
0.0
  0
LINE
  5
7ACB
330
19
100
AcDbEntity
  8
1
  6
Continuous
100
AcDbLine
 10
1406.354913236313
 20
1124.782968962546
 30
0.0
 11
1406.354913236313
 21
1054.782968962546
 31
0.0
  0
LINE
  5
7ACC
330
19
100
AcDbEntity
  8
1
  6
Continuous
100
AcDbLine
 10
1376.354913236313
 20
1124.782968962546
 30
0.0
 11
1376.354913236313
 21
1054.782968962546
 31
0.0
  0
LINE
  5
7ACD
330
19
100
AcDbEntity
  8
1
  6
Continuous
100
AcDbLine
 10
1376.354913236313
 20
1163.682968962546
 30
0.0
 11
1406.354913236313
 21
1163.682968962546
 31
0.0
  0
LINE
  5
7ACE
330
19
100
AcDbEntity
  8
1
  6
Continuous
100
AcDbLine
 10
1463.854913236312
 20
1180.382968962546
 30
0.0
 11
1463.854913236312
 21
988.6829689625464
 31
0.0
  0
LINE
  5
7ACF
330
19
100
AcDbEntity
  8
1
  6
Continuous
100
AcDbLine
 10
1439.854913236312
 20
988.6829689625464
 30
0.0
 11
1439.854913236312
 21
938.6829689625464
 31
0.0
  0
LINE
  5
7AD0
330
19
100
AcDbEntity
  8
1
  6
Continuous
100
AcDbLine
 10
1406.354913236313
 20
1225.682968962546
 30
0.0
 11
1522.154913236313
 21
1225.682968962546
 31
0.0
  0
LINE
  5
7AD1
330
19
100
AcDbEntity
  8
1
  6
Continuous
100
AcDbLine
 10
1376.354913236313
 20
1263.682968962546
 30
0.0
 11
1406.354913236313
 21
1263.682968962546
 31
0.0
  0
LINE
  5
7AD2
330
19
100
AcDbEntity
  8
1
  6
Continuous
100
AcDbLine
 10
1353.854913236313
 20
1323.682968962546
 30
0.0
 11
1428.854913236313
 21
1323.682968962546
 31
0.0
  0
LINE
  5
7AD3
330
19
100
AcDbEntity
  8
1
  6
Continuous
100
AcDbLine
 10
1731.854913236313
 20
1093.682968962546
 30
0.0
 11
1731.854913236313
 21
1333.682968962546
 31
0.0
  0
LINE
  5
7AD4
330
19
100
AcDbEntity
  8
1
  6
Continuous
100
AcDbLine
 10
1723.854913236313
 20
1352.682968962546
 30
0.0
 11
1723.854913236313
 21
1013.682968962546
 31
0.0
  0
LINE
  5
7AD5
330
19
100
AcDbEntity
  8
1
  6
Continuous
100
AcDbLine
 10
1583.854913236313
 20
1013.682968962546
 30
0.0
 11
1583.854913236313
 21
1352.682968962546
 31
0.0
  0
LINE
  5
7AD6
330
19
100
AcDbEntity
  8
1
  6
Continuous
100
AcDbLine
 10
1576.054913236313
 20
988.6829689625464
 30
0.0
 11
1576.054913236313
 21
1333.682968962546
 31
0.0
  0
LINE
  5
7AD7
330
19
100
AcDbEntity
  8
1
  6
Continuous
100
AcDbLine
 10
1663.854913236313
 20
868.6829689625465
 30
0.0
 11
1663.854913236313
 21
843.6829689625465
 31
0.0
  0
LINE
  5
7AD8
330
19
100
AcDbEntity
  8
1
  6
Continuous
100
AcDbLine
 10
1583.854913236313
 20
1213.682968962546
 30
0.0
 11
1723.854913236313
 21
1213.682968962546
 31
0.0
  0
LINE
  5
7AD9
330
19
100
AcDbEntity
  8
1
  6
Continuous
100
AcDbLine
 10
1723.854913236313
 20
1013.682968962546
 30
0.0
 11
1583.854913236313
 21
1013.682968962546
 31
0.0
  0
LINE
  5
7ADA
330
19
100
AcDbEntity
  8
1
  6
Continuous
100
AcDbLine
 10
1583.854913236313
 20
1013.682968962546
 30
0.0
 11
1723.854913236313
 21
1213.682968962546
 31
0.0
  0
LINE
  5
7ADB
330
19
100
AcDbEntity
  8
1
  6
Continuous
100
AcDbLine
 10
1723.854913236313
 20
1013.682968962546
 30
0.0
 11
1583.854913236313
 21
1213.682968962546
 31
0.0
  0
LINE
  5
7ADC
330
19
100
AcDbEntity
  8
1
  6
Continuous
100
AcDbLine
 10
1584.054913236313
 20
1093.682968962546
 30
0.0
 11
1576.054913236313
 21
1093.682968962546
 31
0.0
  0
LINE
  5
7ADD
330
19
100
AcDbEntity
  8
1
  6
Continuous
100
AcDbLine
 10
1723.654913236313
 20
1093.682968962546
 30
0.0
 11
1731.854913236313
 21
1093.682968962546
 31
0.0
  0
LINE
  5
7ADE
330
19
100
AcDbEntity
  8
1
  6
Continuous
100
AcDbLine
 10
1663.854913236313
 20
988.6829689625464
 30
0.0
 11
1663.854913236313
 21
938.6829689625464
 31
0.0
  0
LINE
  5
7ADF
330
19
100
AcDbEntity
  8
1
  6
Continuous
100
AcDbLine
 10
1595.854913236313
 20
1364.682968962546
 30
0.0
 11
1711.854913236313
 21
1364.682968962546
 31
0.0
  0
LINE
  5
7AE0
330
19
100
AcDbEntity
  8
1
  6
Continuous
100
AcDbLine
 10
1584.054913236313
 20
1333.682968962546
 30
0.0
 11
1576.054913236313
 21
1333.682968962546
 31
0.0
  0
ARC
  5
7AE1
330
19
100
AcDbEntity
  8
1
  6
Continuous
100
AcDbCircle
 10
1595.854913236313
 20
1352.682968962546
 30
0.0
 40
12.0
100
AcDbArc
 50
90.0
 51
180.0
  0
LINE
  5
7AE2
330
19
100
AcDbEntity
  8
1
  6
Continuous
100
AcDbLine
 10
1723.654913236313
 20
1333.682968962546
 30
0.0
 11
1731.854913236313
 21
1333.682968962546
 31
0.0
  0
ARC
  5
7AE3
330
19
100
AcDbEntity
  8
1
  6
Continuous
100
AcDbCircle
 10
1711.854913236313
 20
1352.682968962546
 30
0.0
 40
12.0
100
AcDbArc
 50
0.0
 51
90.0
  0
LINE
  5
7AE4
330
19
100
AcDbEntity
  8
1
  6
Continuous
100
AcDbLine
 10
974.489093
 20
1989.629196915354
 30
0.0
 11
645.489093
 21
1989.629196915354
 31
0.0
  0
LINE
  5
7AE5
330
19
100
AcDbEntity
  8
1
  6
Continuous
100
AcDbLine
 10
974.489093
 20
2129.629196915354
 30
0.0
 11
645.489093
 21
2129.629196915354
 31
0.0
  0
LINE
  5
7AE6
330
19
100
AcDbEntity
  8
1
  6
Continuous
100
AcDbLine
 10
921.4890930000001
 20
1834.629196915354
 30
0.0
 11
391.489093
 21
1834.629196915354
 31
0.0
  0
LINE
  5
7AE7
330
19
100
AcDbEntity
  8
1
  6
Continuous
100
AcDbLine
 10
921.4890930000001
 20
1759.629196915354
 30
0.0
 11
391.489093
 21
1759.629196915354
 31
0.0
  0
LINE
  5
7AE8
330
19
100
AcDbEntity
  8
1
  6
Continuous
100
AcDbLine
 10
802.4890929999999
 20
1845.629196915354
 30
0.0
 11
526.289093
 21
1845.629196915354
 31
0.0
  0
LINE
  5
7AE9
330
19
100
AcDbEntity
  8
1
  6
Continuous
100
AcDbLine
 10
635.489093
 20
2069.629196915354
 30
0.0
 11
319.489093
 21
2069.629196915354
 31
0.0
  0
LINE
  5
7AEA
330
19
100
AcDbEntity
  8
1
  6
Continuous
100
AcDbLine
 10
594.889093
 20
1864.829196915354
 30
0.0
 11
424.8890929999999
 21
1864.829196915354
 31
0.0
  0
LINE
  5
7AEB
330
19
100
AcDbEntity
  8
1
  6
Continuous
100
AcDbLine
 10
594.889093
 20
2055.729196915354
 30
0.0
 11
424.8890929999999
 21
2055.729196915354
 31
0.0
  0
LINE
  5
7AEC
330
19
100
AcDbEntity
  8
1
  6
Continuous
100
AcDbLine
 10
502.2890929999999
 20
1845.629196915354
 30
0.0
 11
319.489093
 21
1845.629196915354
 31
0.0
  0
LINE
  5
7AED
330
19
100
AcDbEntity
  8
1
  6
Continuous
100
AcDbLine
 10
391.489093
 20
1759.629196915354
 30
0.0
 11
391.489093
 21
1834.629196915354
 31
0.0
  0
LINE
  5
7AEE
330
19
100
AcDbEntity
  8
1
  6
Continuous
100
AcDbLine
 10
319.489093
 20
1845.629196915354
 30
0.0
 11
319.489093
 21
2069.629196915354
 31
0.0
  0
LINE
  5
7AEF
330
19
100
AcDbEntity
  8
1
  6
Continuous
100
AcDbLine
 10
424.8890929999999
 20
1864.829196915354
 30
0.0
 11
424.8890929999999
 21
2055.729196915354
 31
0.0
  0
LINE
  5
7AF0
330
19
100
AcDbEntity
  8
1
  6
Continuous
100
AcDbLine
 10
526.289093
 20
1812.129196915354
 30
0.0
 11
526.289093
 21
1864.829196915354
 31
0.0
  0
LINE
  5
7AF1
330
19
100
AcDbEntity
  8
1
  6
Continuous
100
AcDbLine
 10
502.2890929999999
 20
1812.129196915354
 30
0.0
 11
502.2890929999999
 21
1864.829196915354
 31
0.0
  0
LINE
  5
7AF2
330
19
100
AcDbEntity
  8
1
  6
Continuous
100
AcDbLine
 10
479.2890929999999
 20
1782.129196915354
 30
0.0
 11
549.2890929999999
 21
1782.129196915354
 31
0.0
  0
LINE
  5
7AF3
330
19
100
AcDbEntity
  8
1
  6
Continuous
100
AcDbLine
 10
479.2890929999999
 20
1812.129196915354
 30
0.0
 11
549.2890929999999
 21
1812.129196915354
 31
0.0
  0
LINE
  5
7AF4
330
19
100
AcDbEntity
  8
1
  6
Continuous
100
AcDbLine
 10
549.2890929999999
 20
1782.129196915354
 30
0.0
 11
549.2890929999999
 21
1812.129196915354
 31
0.0
  0
LINE
  5
7AF5
330
19
100
AcDbEntity
  8
1
  6
Continuous
100
AcDbLine
 10
479.2890929999999
 20
1782.129196915354
 30
0.0
 11
479.2890929999999
 21
1812.129196915354
 31
0.0
  0
LINE
  5
7AF6
330
19
100
AcDbEntity
  8
1
  6
Continuous
100
AcDbLine
 10
635.489093
 20
2119.629196915354
 30
0.0
 11
635.489093
 21
1999.629196915354
 31
0.0
  0
ARC
  5
7AF7
330
19
100
AcDbEntity
  8
1
  6
Continuous
100
AcDbCircle
 10
645.489093
 20
2119.629196915354
 30
0.0
 40
10.0
100
AcDbArc
 50
90.0
 51
180.0
  0
ARC
  5
7AF8
330
19
100
AcDbEntity
  8
1
  6
Continuous
100
AcDbCircle
 10
645.489093
 20
1999.629196915354
 30
0.0
 40
10.0
100
AcDbArc
 50
180.0
 51
270.0
  0
LINE
  5
7AF9
330
19
100
AcDbEntity
  8
1
  6
Continuous
100
AcDbLine
 10
594.889093
 20
1864.829196915354
 30
0.0
 11
594.889093
 21
2055.729196915354
 31
0.0
  0
LINE
  5
7AFA
330
19
100
AcDbEntity
  8
1
  6
Continuous
100
AcDbLine
 10
974.489093
 20
2150.629196915354
 30
0.0
 11
974.489093
 21
1968.629196915354
 31
0.0
  0
LINE
  5
7AFB
330
19
100
AcDbEntity
  8
1
  6
Continuous
100
AcDbLine
 10
934.489093
 20
2137.629196915354
 30
0.0
 11
694.489093
 21
2137.629196915354
 31
0.0
  0
LINE
  5
7AFC
330
19
100
AcDbEntity
  8
1
  6
Continuous
100
AcDbLine
 10
934.489093
 20
1981.629196915354
 30
0.0
 11
694.489093
 21
1981.629196915354
 31
0.0
  0
LINE
  5
7AFD
330
19
100
AcDbEntity
  8
1
  6
Continuous
100
AcDbLine
 10
999.489093
 20
1845.629196915354
 30
0.0
 11
826.4890929999999
 21
1845.629196915354
 31
0.0
  0
LINE
  5
7AFE
330
19
100
AcDbEntity
  8
1
  6
Continuous
100
AcDbLine
 10
802.4890929999999
 20
1981.629196915354
 30
0.0
 11
802.4890929999999
 21
1812.129196915354
 31
0.0
  0
LINE
  5
7AFF
330
19
100
AcDbEntity
  8
1
  6
Continuous
100
AcDbLine
 10
826.4890929999999
 20
1981.629196915354
 30
0.0
 11
826.4890929999999
 21
1812.129196915354
 31
0.0
  0
LINE
  5
7B00
330
19
100
AcDbEntity
  8
1
  6
Continuous
100
AcDbLine
 10
764.489093
 20
1812.129196915354
 30
0.0
 11
864.489093
 21
1812.129196915354
 31
0.0
  0
LINE
  5
7B01
330
19
100
AcDbEntity
  8
1
  6
Continuous
100
AcDbLine
 10
764.489093
 20
1782.129196915354
 30
0.0
 11
864.489093
 21
1782.129196915354
 31
0.0
  0
LINE
  5
7B02
330
19
100
AcDbEntity
  8
1
  6
Continuous
100
AcDbLine
 10
764.489093
 20
1782.129196915354
 30
0.0
 11
764.489093
 21
1812.129196915354
 31
0.0
  0
LINE
  5
7B03
330
19
100
AcDbEntity
  8
1
  6
Continuous
100
AcDbLine
 10
864.489093
 20
1782.129196915354
 30
0.0
 11
864.489093
 21
1812.129196915354
 31
0.0
  0
LINE
  5
7B04
330
19
100
AcDbEntity
  8
1
  6
Continuous
100
AcDbLine
 10
694.489093
 20
2129.629196915354
 30
0.0
 11
694.489093
 21
2137.629196915354
 31
0.0
  0
LINE
  5
7B05
330
19
100
AcDbEntity
  8
1
  6
Continuous
100
AcDbLine
 10
694.489093
 20
1989.629196915354
 30
0.0
 11
694.489093
 21
1981.629196915354
 31
0.0
  0
LINE
  5
7B06
330
19
100
AcDbEntity
  8
1
  6
Continuous
100
AcDbLine
 10
921.4890930000001
 20
1759.629196915354
 30
0.0
 11
921.4890930000001
 21
1834.629196915354
 31
0.0
  0
LINE
  5
7B07
330
19
100
AcDbEntity
  8
1
  6
Continuous
100
AcDbLine
 10
999.489093
 20
2069.629196915354
 30
0.0
 11
974.489093
 21
2069.629196915354
 31
0.0
  0
LINE
  5
7B08
330
19
100
AcDbEntity
  8
1
  6
Continuous
100
AcDbLine
 10
934.489093
 20
2129.629196915354
 30
0.0
 11
934.489093
 21
2137.629196915354
 31
0.0
  0
LINE
  5
7B09
330
19
100
AcDbEntity
  8
1
  6
Continuous
100
AcDbLine
 10
974.489093
 20
2130.629196915354
 30
0.0
 11
959.489093
 21
2115.629196915354
 31
0.0
  0
LINE
  5
7B0A
330
19
100
AcDbEntity
  8
1
  6
Continuous
100
AcDbLine
 10
959.489093
 20
2115.629196915354
 30
0.0
 11
959.489093
 21
2003.629196915354
 31
0.0
  0
LINE
  5
7B0B
330
19
100
AcDbEntity
  8
1
  6
Continuous
100
AcDbLine
 10
974.489093
 20
1988.629196915354
 30
0.0
 11
959.489093
 21
2003.629196915354
 31
0.0
  0
LINE
  5
7B0C
330
19
100
AcDbEntity
  8
1
  6
Continuous
100
AcDbLine
 10
934.489093
 20
1989.629196915354
 30
0.0
 11
934.489093
 21
1981.629196915354
 31
0.0
  0
LINE
  5
7B0D
330
19
100
AcDbEntity
  8
1
  6
Continuous
100
AcDbLine
 10
999.489093
 20
1845.629196915354
 30
0.0
 11
999.489093
 21
2069.629196915354
 31
0.0
  0
LINE
  5
7B0E
330
19
100
AcDbEntity
  8
4
  6
Continuous
100
AcDbLine
 10
1850.0
 20
500.0
 30
0.0
 11
1850.0
 21
300.0
 31
0.0
  0
LINE
  5
7B0F
330
19
100
AcDbEntity
  8
4
  6
Continuous
100
AcDbLine
 10
1150.0
 20
500.0
 30
0.0
 11
1150.0
 21
300.0
 31
0.0
  0
LINE
  5
7B10
330
19
100
AcDbEntity
  8
4
  6
Continuous
100
AcDbLine
 10
650.0
 20
500.0
 30
0.0
 11
650.0
 21
300.0
 31
0.0
  0
LINE
  5
7B13
330
19
100
AcDbEntity
  8
4
  6
Continuous
100
AcDbLine
 10
650.0
 20
300.0
 30
0.0
 11
1850.0
 21
300.0
 31
0.0
  0
LINE
  5
7B14
330
19
100
AcDbEntity
  8
4
  6
Continuous
100
AcDbLine
 10
650.0
 20
400.0
 30
0.0
 11
1850.0
 21
400.0
 31
0.0
  0
TEXT
  5
7B15
330
19
100
AcDbEntity
  8
4
  6
Continuous
100
AcDbText
 10
688.502081
 20
431.543026
 30
0.0
 40
50.0
  1
機器名称
100
AcDbText
  0
TEXT
  5
7B16
330
19
100
AcDbEntity
  8
4
  6
Continuous
100
AcDbText
 10
686.258106
 20
321.645157
 30
0.0
 40
50.0
  1
機器型番
100
AcDbText
  0
TEXT
  5
7B17
330
19
100
AcDbEntity
  8
4
  6
Continuous
100
AcDbText
 10
1177.678745
 20
422.571769
 30
0.0
 40
45.0
  1
ミツヤニューマルチファン
100
AcDbText
  0
TEXT
  5
7B18
330
19
100
AcDbEntity
  8
4
  6
Continuous
100
AcDbText
 10
1186.654496
 20
317.159584
 30
0.0
 40
50.0
  1
NM#1 1/4-1
100
AcDbText
  0
TEXT
  5
7B1A
330
19
100
AcDbEntity
  8
4
  6
Continuous
100
AcDbText
 10
742.0617530000001
 20
2383.428841
 30
0.0
 40
54.0
  1
床置防振ベット
100
AcDbText
  0
TEXT
  5
7B1B
330
19
100
AcDbEntity
  8
4
  6
Continuous
100
AcDbText
 10
316.167593
 20
2533.880976000001
 30
0.0
 40
72.0
  1
ベルト駆動式片吸込片持多翼ファン
100
AcDbText
  0
LINE
  5
7B1C
330
19
100
AcDbEntity
  8
4
  6
Continuous
100
AcDbLine
 10
250.0
 20
2469.408754
 30
0.0
 11
1850.0
 21
2469.408754
 31
0.0
  0
LINE
  5
7B1D
330
19
100
AcDbEntity
  8
4
  6
Continuous
100
AcDbLine
 10
250.0
 20
2669.408754
 30
0.0
 11
1850.0
 21
2669.408754
 31
0.0
  0
LINE
  5
7B1E
330
19
100
AcDbEntity
  8
4
  6
Continuous
100
AcDbLine
 10
650.0
 20
500.0
 30
0.0
 11
1850.0
 21
500.0
 31
0.0
  0
LINE
  5
7B1F
330
19
100
AcDbEntity
  8
4
  6
Continuous
100
AcDbLine
 10
250.0
 20
2669.408754
 30
0.0
 11
250.0
 21
2469.408754
 31
0.0
  0
TEXT
  5
7B20
330
19
100
AcDbEntity
  8
4
  6
Continuous
100
AcDbText
 10
306.202921
 20
2382.319478000001
 30
0.0
 40
54.0
  1
左回転右横向
100
AcDbText
  0
TEXT
  5
7B21
330
19
100
AcDbEntity
  8
4
  6
Continuous
100
AcDbText
 10
1468.969559
 20
2706.061081
 30
0.0
 40
56.0
  1
No.
100
AcDbText
  0
TEXT
  5
7B22
330
19
100
AcDbEntity
  8
4
  6
Continuous
100
AcDbText
 10
1311.296063
 20
2383.428841
 30
0.0
 40
54.0
  1
縮尺：1/10
100
AcDbText
  0
LINE
  5
7B23
330
19
100
AcDbEntity
  8
4
  6
Continuous
100
AcDbLine
 10
1850.0
 20
2669.408754
 30
0.0
 11
1850.0
 21
2469.408754
 31
0.0
  0
LINE
  5
7B25
330
19
100
AcDbEntity
  8
4
  6
Continuous
100
AcDbLine
 10
1440.617422
 20
2681.263583
 30
0.0
 11
1440.617422
 21
2786.652262
 31
0.0
  0
LINE
  5
7B26
330
19
100
AcDbEntity
  8
4
  6
Continuous
100
AcDbLine
 10
1440.617422
 20
2786.652262
 30
0.0
 11
1850.0
 21
2786.652262
 31
0.0
  0
LINE
  5
7B27
330
19
100
AcDbEntity
  8
4
  6
Continuous
100
AcDbLine
 10
1850.0
 20
2786.652262
 30
0.0
 11
1850.0
 21
2681.263583
 31
0.0
  0
LINE
  5
7B28
330
19
100
AcDbEntity
  8
4
  6
Continuous
100
AcDbLine
 10
1850.0
 20
2681.263583
 30
0.0
 11
1440.617422
 21
2681.263583
 31
0.0
  0
DIMENSION
  5
7B40
330
19
100
AcDbEntity
  8
3
  6
Continuous
100
AcDbDimension
280
     0
  2
*D1
 10
814.489093
 20
758.0461239625464
 30
0.0
 11
579.553348
 21
758.0461239625464
 31
0.0
 70
   160
 71
     5
 42
494.9999999999999
 73
     0
 74
     0
 75
     0
  3
IGA
100
AcDbAlignedDimension
 13
319.4890930000001
 23
843.6829689625465
 33
0.0
 14
814.489093
 24
843.6829689625465
 34
0.0
100
AcDbRotatedDimension
1001
ACAD
1000
DSTYLE
1002
{
1070
   287
1070
     3
1070
    40
1040
10.0
1070
   143
1040
0.039
1070
   172
1070
     1
1070
   271
1070
     0
1070
   279
1070
     0
1070
   288
1070
     1
1002
}
  0
DIMENSION
  5
7B4C
330
19
100
AcDbEntity
  8
3
  6
Continuous
100
AcDbDimension
280
     0
  2
*D2
 10
999.489093
 20
758.0461239625464
 30
0.0
 11
906.9890929999999
 21
783.0461239625464
 31
0.0
 70
    32
 71
     5
 42
185.0
 73
     0
 74
     0
 75
     0
  3
IGA
100
AcDbAlignedDimension
 13
814.489093
 23
843.6829689625465
 33
0.0
 14
999.489093
 24
843.6829689625465
 34
0.0
100
AcDbRotatedDimension
1001
ACAD
1000
DSTYLE
1002
{
1070
   287
1070
     4
1070
    40
1040
10.0
1070
    75
1070
     1
1070
   143
1040
0.039
1070
   172
1070
     1
1070
   271
1070
     0
1070
   279
1070
     1
1070
   288
1070
     1
1002
}
  0
DIMENSION
  5
7B59
330
19
100
AcDbEntity
  8
3
  6
Continuous
100
AcDbDimension
280
     0
  2
*D3
 10
814.489093
 20
1392.386957962546
 30
0.0
 11
727.047048
 21
1392.386957962546
 31
0.0
 70
   160
 71
     5
 42
-1.0
 73
     0
 74
     0
 75
     0
  3
IGA
100
AcDbAlignedDimension
 13
635.489093
 23
1213.682968962546
 33
0.0
 14
814.489093
 24
1364.250156962546
 34
0.0
100
AcDbRotatedDimension
1001
ACAD
1000
DSTYLE
1002
{
1070
   287
1070
     3
1070
    40
1040
10.0
1070
   143
1040
0.039
1070
   172
1070
     1
1070
   271
1070
     0
1070
   279
1070
     0
1070
   288
1070
     1
1002
}
  0
DIMENSION
  5
7B65
330
19
100
AcDbEntity
  8
3
  6
Continuous
100
AcDbDimension
280
     0
  2
*D4
 10
974.489093
 20
1392.386957962546
 30
0.0
 11
894.4890929999999
 21
1417.386957962546
 31
0.0
 70
    32
 71
     5
 42
-1.0
 73
     0
 74
     0
 75
     0
  3
IGA
100
AcDbAlignedDimension
 13
814.489093
 23
1364.250156962546
 33
0.0
 14
974.489093
 24
1234.682968962546
 34
0.0
100
AcDbRotatedDimension
1001
ACAD
1000
DSTYLE
1002
{
1070
   287
1070
     4
1070
    40
1040
10.0
1070
    75
1070
     1
1070
   143
1040
0.039
1070
   172
1070
     1
1070
   271
1070
     0
1070
   279
1070
     1
1070
   288
1070
     1
1002
}
  0
DIMENSION
  5
7B72
330
19
100
AcDbEntity
  8
3
  6
Continuous
100
AcDbDimension
280
     0
  2
*D5
 10
1052.35292
 20
1013.682968962546
 30
0.0
 11
1052.35292
 21
1119.855969962546
 31
0.0
 70
   160
 71
     5
 42
-1.0
 73
     0
 74
     0
 75
     0
  3
IGA
100
AcDbAlignedDimension
 13
974.489093
 23
1213.682968962546
 33
0.0
 14
974.489093
 24
1013.682968962546
 34
0.0
 50
90.0
100
AcDbRotatedDimension
1001
ACAD
1000
DSTYLE
1002
{
1070
   287
1070
     3
1070
    40
1040
10.0
1070
   143
1040
0.039
1070
   172
1070
     1
1070
   271
1070
     0
1070
   279
1070
     0
1070
   288
1070
     1
1002
}
  0
DIMENSION
  5
7B7F
330
19
100
AcDbEntity
  8
3
  6
Continuous
100
AcDbDimension
280
     0
  2
*D6
 10
1174.612796034624
 20
1213.682968962546
 30
0.0
 11
1174.612796034623
 21
1284.923562962546
 31
0.0
 70
   160
 71
     5
 42
-1.0
 73
     0
 74
     0
 75
     0
  3
IGA
100
AcDbAlignedDimension
 13
814.489093
 23
1364.250156962546
 33
0.0
 14
974.489093
 24
1213.682968962546
 34
0.0
 50
90.0
100
AcDbRotatedDimension
1001
ACAD
1000
DSTYLE
1002
{
1070
   287
1070
     3
1070
    40
1040
10.0
1070
   143
1040
0.039
1070
   172
1070
     1
1070
   271
1070
     0
1070
   279
1070
     0
1070
   288
1070
     1
1002
}
  0
DIMENSION
  5
7B8B
330
19
100
AcDbEntity
  8
3
  6
Continuous
100
AcDbDimension
280
     0
  2
*D7
 10
1174.612796034623
 20
938.6829689625464
 30
0.0
 11
1149.612796034623
 21
1076.182968962547
 31
0.0
 70
    32
 71
     5
 42
-1.0
 73
     0
 74
     0
 75
     0
  3
IGA
100
AcDbAlignedDimension
 13
974.489093
 23
1213.682968962546
 33
0.0
 14
974.489093
 24
938.6829689625464
 34
0.0
 50
90.0
100
AcDbRotatedDimension
1001
ACAD
1000
DSTYLE
1002
{
1070
   287
1070
     4
1070
    40
1040
10.0
1070
    75
1070
     1
1070
   143
1040
0.039
1070
   172
1070
     1
1070
   271
1070
     0
1070
   279
1070
     1
1070
   288
1070
     1
1002
}
  0
LINE
  5
7BC3
330
19
100
AcDbEntity
  8
2
  6
CENTER
100
AcDbLine
 10
1299.635264507202
 20
1213.682968962546
 30
0.0
 11
1741.747701236313
 21
1213.682968962546
 31
0.0
  0
DIMENSION
  5
7BD0
330
19
100
AcDbEntity
  8
3
  6
Continuous
100
AcDbDimension
280
     0
  2
*D8
 10
999.489093
 20
1646.904464915354
 30
0.0
 11
648.45885
 21
1646.904464915354
 31
0.0
 70
   160
 71
     5
 42
-1.0
 73
     0
 74
     0
 75
     0
  3
IGA
100
AcDbAlignedDimension
 13
319.489093
 23
1845.629196915354
 33
0.0
 14
999.489093
 24
1845.629196915354
 34
0.0
100
AcDbRotatedDimension
1001
ACAD
1000
DSTYLE
1002
{
1070
   287
1070
     3
1070
    40
1040
10.0
1070
   143
1040
0.039
1070
   172
1070
     1
1070
   271
1070
     0
1070
   279
1070
     0
1070
   288
1070
     1
1002
}
  0
LINE
  5
7BDE
330
19
100
AcDbEntity
  8
2
  6
CENTER
100
AcDbLine
 10
601.5987759999999
 20
2059.629196915354
 30
0.0
 11
996.7759029999999
 21
2059.629196915354
 31
0.0
  0
LINE
  5
7BE0
330
19
100
AcDbEntity
  8
2
  6
CENTER
100
AcDbLine
 10
814.489093
 20
1737.954747915354
 30
0.0
 11
814.489093
 21
2163.299520915354
 31
0.0
  0
LINE
  5
7BE1
330
19
100
AcDbEntity
  8
2
  6
CENTER
100
AcDbLine
 10
1653.854913236313
 20
1407.861296962547
 30
0.0
 11
1653.854913236313
 21
843.6829689625465
 31
0.0
  0
DIMENSION
  5
7BEE
330
19
100
AcDbEntity
  8
3
  6
Continuous
100
AcDbDimension
280
     0
  2
*D9
 10
1723.854913236313
 20
1403.644207962546
 30
0.0
 11
1649.569199236313
 21
1403.644207962546
 31
0.0
 70
   160
 71
     5
 42
-1.0
 73
     0
 74
     0
 75
     0
  3
IGA
100
AcDbAlignedDimension
 13
1583.854913236313
 23
1352.682968962546
 33
0.0
 14
1723.854913236313
 24
1352.682968962546
 34
0.0
100
AcDbRotatedDimension
1001
ACAD
1000
DSTYLE
1002
{
1070
   287
1070
     3
1070
    40
1040
10.0
1070
   143
1040
0.039
1070
   172
1070
     1
1070
   271
1070
     0
1070
   279
1070
     0
1070
   288
1070
     1
1002
}
  0
DIMENSION
  5
7BFB
330
19
100
AcDbEntity
  8
3
  6
Continuous
100
AcDbDimension
280
     0
  2
*D10
 10
1653.854913236313
 20
1456.309841962546
 30
0.0
 11
1509.183382236313
 21
1456.309841962546
 31
0.0
 70
   160
  1
(300)
 71
     5
 42
300.0000000000002
 73
     0
 74
     0
 75
     0
  3
IGA
100
AcDbAlignedDimension
 13
1353.854913236313
 23
1323.682968962546
 33
0.0
 14
1653.854913236313
 24
1448.853887962546
 34
0.0
100
AcDbRotatedDimension
1001
ACAD
1000
DSTYLE
1002
{
1070
   287
1070
     3
1070
    40
1040
10.0
1070
   143
1040
0.039
1070
   172
1070
     1
1070
   271
1070
     0
1070
   279
1070
     0
1070
   288
1070
     1
1002
}
  0
DIMENSION
  5
7C09
330
19
100
AcDbEntity
  8
3
  6
Continuous
100
AcDbDimension
280
     0
  2
*D11
 10
1731.854913236313
 20
1456.309841962546
 30
0.0
 11
1693.697289236313
 21
1456.309841962546
 31
0.0
 70
   160
 71
     5
 42
-1.0
 73
     0
 74
     0
 75
     0
  3
IGA
100
AcDbAlignedDimension
 13
1653.854913236313
 23
1448.853887962546
 33
0.0
 14
1731.854913236313
 24
1333.682968962546
 34
0.0
100
AcDbRotatedDimension
1001
ACAD
1000
DSTYLE
1002
{
1070
   287
1070
     4
1070
    40
1040
10.0
1070
    75
1070
     1
1070
   143
1040
0.039
1070
   172
1070
     1
1070
   271
1070
     0
1070
   279
1070
     1
1070
   288
1070
     1
1002
}
  0
DIMENSION
  5
7C2C
330
19
100
AcDbEntity
  8
3
  6
Continuous
100
AcDbDimension
280
     0
  2
*D12
 10
1653.854913236313
 20
781.7792189625464
 30
0.0
 11
1556.253258236313
 21
781.7792189625464
 31
0.0
 70
   160
 71
     5
 42
214.0000000000002
 73
     0
 74
     0
 75
     0
  3
IGA
100
AcDbAlignedDimension
 13
1439.854913236312
 23
843.6829689625465
 33
0.0
 14
1653.854913236313
 24
843.6829689625465
 34
0.0
100
AcDbRotatedDimension
1001
ACAD
1000
DSTYLE
1002
{
1070
   287
1070
     3
1070
    40
1040
10.0
1070
   143
1040
0.039
1070
   172
1070
     1
1070
   271
1070
     0
1070
   279
1070
     0
1070
   288
1070
     1
1002
}
  0
DIMENSION
  5
7C3C
330
19
100
AcDbEntity
  8
3
  6
Continuous
100
AcDbDimension
280
     0
  2
*D13
 10
1663.854913236313
 20
781.7792189625464
 30
0.0
 11
1706.876859236313
 21
781.7792189625464
 31
0.0
 70
   160
 71
     5
 42
10.0
 73
     0
 74
     0
 75
     0
  3
IGA
100
AcDbAlignedDimension
 13
1653.854913236313
 23
843.6829689625465
 33
0.0
 14
1663.854913236313
 24
843.6829689625465
 34
0.0
100
AcDbRotatedDimension
1001
ACAD
1000
DSTYLE
1002
{
1070
   287
1070
     4
1070
    40
1040
10.0
1070
    75
1070
     1
1070
   143
1040
0.039
1070
   172
1070
     1
1070
   271
1070
     0
1070
   279
1070
     1
1070
   288
1070
     1
1002
}
  0
LINE
  5
7C58
330
19
100
AcDbEntity
  8
3
  6
Continuous
100
AcDbLine
 10
1731.854913236313
 20
1313.682968962546
 30
0.0
 11
1742.014626236313
 21
1313.682968962546
 31
0.0
  0
LINE
  5
7C5A
330
19
100
AcDbEntity
  8
3
  6
Continuous
100
AcDbLine
 10
1731.854913236313
 20
1113.682968962546
 30
0.0
 11
1734.335049236313
 21
1113.682968962546
 31
0.0
  0
DIMENSION
  5
7C67
330
19
100
AcDbEntity
  8
3
  6
Continuous
100
AcDbDimension
280
     0
  2
*D14
 10
1802.171314236313
 20
1113.682968962546
 30
0.0
 11
1802.171314236313
 21
1227.111540391118
 31
0.0
 70
   160
 71
     5
 42
-1.0
 73
     0
 74
     0
 75
     0
  3
IGA
100
AcDbAlignedDimension
 13
1731.854913236313
 23
1313.682968962546
 33
0.0
 14
1731.854913236313
 24
1113.682968962546
 34
0.0
 50
90.0
100
AcDbRotatedDimension
1001
ACAD
1000
DSTYLE
1002
{
1070
   287
1070
     3
1070
     3
1000
φ<>
1070
    40
1040
10.0
1070
   143
1040
0.039
1070
   172
1070
     1
1070
   271
1070
     0
1070
   279
1070
     0
1070
   288
1070
     1
1002
}
  0
DIMENSION
  5
7CA5
330
19
100
AcDbEntity
  8
3
  6
Continuous
100
AcDbDimension
280
     0
  2
*D15
 10
1118.494452270889
 20
1002.682968962546
 30
0.0
 11
1118.494452270888
 21
1114.301621962546
 31
0.0
 70
   160
 71
     5
 42
-1.0
 73
     0
 74
     0
 75
     0
  3
IGA
100
AcDbAlignedDimension
 13
974.489093
 23
1213.682968962546
 33
0.0
 14
959.489093
 24
1002.682968962546
 34
0.0
 50
90.0
100
AcDbRotatedDimension
1001
ACAD
1000
DSTYLE
1002
{
1070
   287
1070
     3
1070
    40
1040
10.0
1070
   143
1040
0.039
1070
   172
1070
     1
1070
   271
1070
     0
1070
   279
1070
     0
1070
   288
1070
     1
1002
}
  0
DIMENSION
  5
7D4A
330
19
100
AcDbEntity
  8
3
100
AcDbDimension
280
     0
  2
*D16
 10
256.4435493452659
 20
1845.629196915354
 30
0.0
 11
256.4435493452656
 21
1947.393294285898
 31
0.0
 70
   160
 71
     5
 42
-1.0
 73
     0
 74
     0
 75
     0
  3
IGA
100
AcDbAlignedDimension
 13
319.489093
 23
2069.629196915354
 33
0.0
 14
319.489093
 24
1845.629196915354
 34
0.0
 50
90.0
100
AcDbRotatedDimension
1001
ACAD
1000
DSTYLE
1002
{
1070
   287
1070
     3
1070
    40
1040
10.0
1070
   143
1040
0.039
1070
   172
1070
     1
1070
   271
1070
     0
1070
   279
1070
     0
1070
   288
1070
     1
1002
}
  0
DIMENSION
  5
7DB4
330
19
100
AcDbEntity
  8
3
100
AcDbDimension
280
     0
  2
*D18
 10
1174.641942757099
 20
843.6829689625465
 30
0.0
 11
1149.641942757099
 21
769.3972546768324
 31
0.0
 70
    32
 71
     5
 42
25.0
 73
     0
 74
     0
 75
     0
  3
IGA
100
AcDbAlignedDimension
 13
999.489093
 23
868.6829689625465
 33
0.0
 14
999.489093
 24
843.6829689625465
 34
0.0
 50
90.0
100
AcDbRotatedDimension
1001
ACAD
1000
DSTYLE
1002
{
1070
   287
1070
     3
1070
    40
1040
10.0
1070
   143
1040
0.039
1070
   172
1070
     1
1070
   271
1070
     0
1070
   279
1070
     0
1070
     6
1000
DOT
1002
}
  0
DIMENSION
  5
7DC1
330
19
100
AcDbEntity
  8
3
100
AcDbDimension
280
     0
  2
*D19
 10
1174.641942757099
 20
938.6829689625464
 30
0.0
 11
1221.044990523434
 21
906.3206628813016
 31
0.0
 70
   160
 71
     5
 42
70.0
 73
     0
 74
     0
 75
     0
  3
IGA
100
AcDbAlignedDimension
 13
999.489093
 23
868.6829689625465
 33
0.0
 14
974.489093
 24
938.6829689625464
 34
0.0
 50
90.0
100
AcDbRotatedDimension
1001
ACAD
1000
DSTYLE
1002
{
1070
     3
1000
(<>)
1070
    40
1040
10.0
1070
   143
1040
0.039
1070
   172
1070
     1
1070
   271
1070
     0
1070
   343
1005
7D9E
1002
}
  0
DIMENSION
  5
7F99
330
19
100
AcDbEntity
  8
3
100
AcDbDimension
280
     0
  2
*D20
 10
1267.526404954205
 20
1364.682968962546
 30
0.0
 11
1234.669262097062
 21
1104.182968962547
 31
0.0
 70
    32
 71
     5
 42
521.0
 73
     0
 74
     0
 75
     0
  3
IGA
100
AcDbAlignedDimension
 13
999.489093
 23
843.6829689625465
 33
0.0
 14
803.4890929999999
 24
1364.682968962546
 34
0.0
 50
90.0
100
AcDbRotatedDimension
1001
ACAD
1000
DSTYLE
1002
{
1070
     3
1000
(<>)
1070
    40
1040
10.0
1070
   143
1040
0.039
1070
   172
1070
     1
1070
   271
1070
     0
1070
   341
1005
7D9E
1070
   343
1005
7B2D
1002
}
  0
ENDSEC
  0
SECTION
  2
OBJECTS
  0
DICTIONARY
  5
C
330
0
100
AcDbDictionary
281
     1
  3
ACAD_CIP_PREVIOUS_PRODUCT_INFO
350
7EF1
  3
ACAD_COLOR
350
7ED4
  3
ACAD_DETAILVIEWSTYLE
350
7EED
  3
ACAD_GROUP
350
D
  3
ACAD_LAYOUT
350
7DCA
  3
ACAD_MATERIAL
350
7EA2
  3
ACAD_MLEADERSTYLE
350
7EE9
  3
ACAD_MLINESTYLE
350
E
  3
ACAD_PLOTSETTINGS
350
7DCB
  3
ACAD_PLOTSTYLENAME
350
7DC8
  3
ACAD_SCALELIST
350
7ED7
  3
ACAD_SECTIONVIEWSTYLE
350
7EEB
  3
ACAD_TABLESTYLE
350
7ED5
  3
ACAD_VISUALSTYLE
350
7EBB
  3
ACDB_RECOMPOSE_DATA
350
7FE4
  3
AcDbVariableDictionary
350
7E9A
  0
DICTIONARY
  5
7EF3
330
2
100
AcDbDictionary
280
     1
281
     1
  3
ACAD_LAYERSTATES
360
7EF4
  0
DICTIONARY
  5
7F53
330
F
100
AcDbDictionary
280
     1
281
     1
  3
ADSK_XREC_LAYER_RECONCILED
360
7F54
  0
DICTIONARY
  5
7F55
330
31
100
AcDbDictionary
280
     1
281
     1
  3
ADSK_XREC_LAYER_RECONCILED
360
7F56
  0
DICTIONARY
  5
7F57
330
76D0
100
AcDbDictionary
280
     1
281
     1
  3
ADSK_XREC_LAYER_RECONCILED
360
7F58
  0
DICTIONARY
  5
7F59
330
76D1
100
AcDbDictionary
280
     1
281
     1
  3
ADSK_XREC_LAYER_RECONCILED
360
7F5A
  0
DICTIONARY
  5
7F5B
330
76D2
100
AcDbDictionary
280
     1
281
     1
  3
ADSK_XREC_LAYER_RECONCILED
360
7F5C
  0
DICTIONARY
  5
7DF7
330
19
100
AcDbDictionary
280
     1
281
     1
  3
ACAD_LAYOUTSELFREF
360
7DF8
  0
DICTIONARY
  5
7DF5
330
16
100
AcDbDictionary
280
     1
281
     1
  3
ACAD_LAYOUTSELFREF
360
7DF6
  0
XRECORD
  5
7EF1
102
{ACAD_REACTORS
330
C
102
}
330
C
100
AcDbXrecord
280
     1
300
ACDLT
300
2015
300
INVLTS_F_S
  0
DICTIONARY
  5
7ED4
102
{ACAD_REACTORS
330
C
102
}
330
C
100
AcDbDictionary
281
     1
  0
DICTIONARY
  5
7EED
102
{ACAD_REACTORS
330
C
102
}
330
C
100
AcDbDictionary
281
     1
  3
Imperial24
350
7EEE
  0
DICTIONARY
  5
D
102
{ACAD_REACTORS
330
C
102
}
330
0
100
AcDbDictionary
281
     1
  0
DICTIONARY
  5
7DCA
102
{ACAD_REACTORS
330
C
102
}
330
C
100
AcDbDictionary
281
     1
  3
Model
350
7DCC
  3
ﾚｲｱｳﾄ1
350
7DCD
  0
DICTIONARY
  5
7EA2
102
{ACAD_REACTORS
330
C
102
}
330
C
100
AcDbDictionary
281
     1
  3
ByBlock
350
7EAB
  3
ByLayer
350
7EA3
  3
Global
350
7EB3
  0
DICTIONARY
  5
7EE9
102
{ACAD_REACTORS
330
C
102
}
330
C
100
AcDbDictionary
281
     1
  3
Standard
350
7EEA
  0
DICTIONARY
  5
E
102
{ACAD_REACTORS
330
C
102
}
330
0
100
AcDbDictionary
281
     1
  3
STANDARD
350
1C
  0
DICTIONARY
  5
7DCB
102
{ACAD_REACTORS
330
C
102
}
330
C
100
AcDbDictionary
281
     1
  0
ACDBDICTIONARYWDFLT
  5
7DC8
102
{ACAD_REACTORS
330
C
102
}
330
C
100
AcDbDictionary
281
     1
  3
Normal
350
7DC9
100
AcDbDictionaryWithDefault
340
7DC9
1001
ACAD
1000
TREAT_AS_HARD
1070
     0
  0
DICTIONARY
  5
7ED7
102
{ACAD_REACTORS
330
C
102
}
330
C
100
AcDbDictionary
281
     1
  3
A0
350
7ED8
  3
A1
350
7ED9
  3
A2
350
7EDA
  3
A3
350
7EDB
  3
A4
350
7EDC
  3
A5
350
7EDD
  3
A6
350
7EDE
  3
A7
350
7EDF
  3
A8
350
7EE0
  3
A9
350
7EE1
  3
B0
350
7EE2
  3
B1
350
7EE3
  3
B2
350
7EE4
  3
B3
350
7EE5
  3
B4
350
7EE6
  3
B5
350
7EE7
  3
B6
350
7EE8
  0
DICTIONARY
  5
7EEB
102
{ACAD_REACTORS
330
C
102
}
330
C
100
AcDbDictionary
281
     1
  3
Imperial24
350
7EEC
  0
DICTIONARY
  5
7ED5
102
{ACAD_REACTORS
330
C
102
}
330
C
100
AcDbDictionary
281
     1
  3
Standard
350
7ED6
  0
DICTIONARY
  5
7EBB
102
{ACAD_REACTORS
330
C
102
}
330
C
100
AcDbDictionary
281
     1
  3
2dWireframe
350
7EC1
  3
Basic
350
7EC0
  3
Brighten
350
7EC7
  3
ColorChange
350
7ECB
  3
Conceptual
350
7EC4
  3
Dim
350
7EC6
  3
EdgeColorOff
350
7ED3
  3
Facepattern
350
7ECA
  3
Flat
350
7EBC
  3
FlatWithEdges
350
7EBD
  3
Gouraud
350
7EBE
  3
GouraudWithEdges
350
7EBF
  3
Hidden
350
7EC3
  3
JitterOff
350
7ED1
  3
Linepattern
350
7EC9
  3
OverhangOff
350
7ED2
  3
Realistic
350
7EC5
  3
Shaded
350
7ED0
  3
Shaded with edges
350
7ECF
  3
Shades of Gray
350
7ECC
  3
Sketchy
350
7ECD
  3
Thicken
350
7EC8
  3
Wireframe
350
7EC2
  3
X-Ray
350
7ECE
  0
XRECORD
  5
7FE4
102
{ACAD_REACTORS
330
C
102
}
330
C
100
AcDbXrecord
280
     1
 90
        1
330
7ED6
330
7EEC
330
7EEE
  0
DICTIONARY
  5
7E9A
102
{ACAD_REACTORS
330
C
102
}
330
C
100
AcDbDictionary
281
     1
  3
CANNOSCALE
350
7F6E
  3
CMLEADERSTYLE
350
7F6A
  3
CTABLESTYLE
350
7F69
  3
CVIEWDETAILSTYLE
350
7F6B
  3
CVIEWSECTIONSTYLE
350
7F6C
  3
DIMASSOC
350
7E9B
  3
LAYEREVAL
350
7F70
  3
LAYERNOTIFY
350
7F71
  3
LIGHTINGUNITS
350
7F6F
  3
MSLTSCALE
350
7F6D
  0
DICTIONARY
  5
7EF4
102
{ACAD_REACTORS
330
7EF3
102
}
330
7EF3
100
AcDbDictionary
281
     1
  0
XRECORD
  5
7F54
102
{ACAD_REACTORS
330
7F53
102
}
330
7F53
100
AcDbXrecord
280
     1
290
     1
  0
XRECORD
  5
7F56
102
{ACAD_REACTORS
330
7F55
102
}
330
7F55
100
AcDbXrecord
280
     1
290
     1
  0
XRECORD
  5
7F58
102
{ACAD_REACTORS
330
7F57
102
}
330
7F57
100
AcDbXrecord
280
     1
290
     1
  0
XRECORD
  5
7F5A
102
{ACAD_REACTORS
330
7F59
102
}
330
7F59
100
AcDbXrecord
280
     1
290
     1
  0
XRECORD
  5
7F5C
102
{ACAD_REACTORS
330
7F5B
102
}
330
7F5B
100
AcDbXrecord
280
     1
290
     1
  0
XRECORD
  5
7DF8
102
{ACAD_REACTORS
330
7DF7
102
}
330
7DF7
100
AcDbXrecord
280
     1
340
19
  0
XRECORD
  5
7DF6
102
{ACAD_REACTORS
330
7DF5
102
}
330
7DF5
100
AcDbXrecord
280
     1
340
16
  0
ACDBDETAILVIEWSTYLE
  5
7EEE
102
{ACAD_XDICTIONARY
360
7F66
102
}
102
{ACAD_REACTORS
330
7EED
102
}
330
7EED
100
AcDbModelDocViewStyle
 70
     0
  3
Imperial24
290
     0
100
AcDbDetailViewStyle
 70
     0
 71
     0
 90
        3
 71
     1
340
10
 62
   256
 40
0.24
340
0
 62
   256
 40
0.24
300

 40
0.36
280
     3
 71
     2
340
15
 90
       25
 62
   256
 71
     3
340
10
 62
   256
 40
0.24
 90
        1
 40
0.75
 90
        1
300
%<\AcVar ViewType \f "%tc1">% %<\AcVar ViewDetailId>%\PSCALE %<\AcVar ViewScale \f "%sn">%
 71
     4
340
15
 90
       25
 62
   256
340
15
 90
       25
 62
   256
280
     0
  0
LAYOUT
  5
7DCC
102
{ACAD_REACTORS
330
7DCA
102
}
330
7DCA
100
AcDbPlotSettings
  1

  2
\\Txbo34x8944cqyd\EPSON LP-6100
  4

  6

 40
0.0
 41
0.0
 42
0.0
 43
0.0
 44
0.0
 45
0.0
 46
0.0
 47
0.0
 48
0.0
 49
0.0
140
0.0
141
0.0
142
1.0
143
1.0
 70
  1712
 72
     0
 73
     0
 74
     0
  7
GOD2000TABLE.ctb
 75
     0
147
1.0
 76
     0
 77
     2
 78
   300
148
0.0
149
0.0
100
AcDbLayout
  1
Model
 70
     1
 71
     0
 10
0.0
 20
0.0
 11
12.0
 21
9.0
 12
0.0
 22
0.0
 32
0.0
 14
0.0
 24
0.0
 34
0.0
 15
0.0
 25
0.0
 35
0.0
146
0.0
 13
0.0
 23
0.0
 33
0.0
 16
1.0
 26
0.0
 36
0.0
 17
0.0
 27
1.0
 37
0.0
 76
     0
330
19
331
7EA0
  0
LAYOUT
  5
7DCD
102
{ACAD_REACTORS
330
7DCA
102
}
330
7DCA
100
AcDbPlotSettings
  1

  2
\\Txbo34x8944cqyd\EPSON LP-6100
  4

  6

 40
0.0
 41
0.0
 42
0.0
 43
0.0
 44
0.0
 45
0.0
 46
0.0
 47
0.0
 48
0.0
 49
0.0
140
0.0
141
0.0
142
1.0
143
1.0
 70
   688
 72
     0
 73
     0
 74
     5
  7
GOD2000TABLE.ctb
 75
    16
147
1.0
 76
     0
 77
     2
 78
   300
148
0.0
149
0.0
100
AcDbLayout
  1
ﾚｲｱｳﾄ1
 70
     1
 71
     1
 10
0.0
 20
0.0
 11
12.0
 21
9.0
 12
0.0
 22
0.0
 32
0.0
 14
1.000000000000000E+20
 24
1.000000000000000E+20
 34
1.000000000000000E+20
 15
-1.000000000000000E+20
 25
-1.000000000000000E+20
 35
-1.000000000000000E+20
146
0.0
 13
0.0
 23
0.0
 33
0.0
 16
1.0
 26
0.0
 36
0.0
 17
0.0
 27
1.0
 37
0.0
 76
     0
330
16
  0
MATERIAL
  5
7EAB
102
{ACAD_XDICTIONARY
360
7EAC
102
}
102
{ACAD_REACTORS
330
7EA2
102
}
330
7EA2
100
AcDbMaterial
  1
ByBlock
 72
     0
 43
0.0208333333333333
 43
0.0
 43
0.0
 43
0.0
 43
0.0
 43
0.0208333333333333
 43
0.0
 43
0.0
 43
0.0
 43
0.0
 43
1.0
 43
0.0
 43
0.0
 43
0.0
 43
0.0
 43
1.0
 77
     0
 47
0.0208333333333333
 47
0.0
 47
0.0
 47
0.0
 47
0.0
 47
0.0208333333333333
 47
0.0
 47
0.0
 47
0.0
 47
0.0
 47
1.0
 47
0.0
 47
0.0
 47
0.0
 47
0.0
 47
1.0
171
     0
 49
0.0208333333333333
 49
0.0
 49
0.0
 49
0.0
 49
0.0
 49
0.0208333333333333
 49
0.0
 49
0.0
 49
0.0
 49
0.0
 49
1.0
 49
0.0
 49
0.0
 49
0.0
 49
0.0
 49
1.0
175
     0
142
0.0208333333333333
142
0.0
142
0.0
142
0.0
142
0.0
142
0.0208333333333333
142
0.0
142
0.0
142
0.0
142
0.0
142
1.0
142
0.0
142
0.0
142
0.0
142
0.0
142
1.0
179
     0
144
0.0208333333333333
144
0.0
144
0.0
144
0.0
144
0.0
144
0.0208333333333333
144
0.0
144
0.0
144
0.0
144
0.0
144
1.0
144
0.0
144
0.0
144
0.0
144
0.0
144
1.0
147
0.0208333333333333
147
0.0
147
0.0
147
0.0
147
0.0
147
0.0208333333333333
147
0.0
147
0.0
147
0.0
147
0.0
147
1.0
147
0.0
147
0.0
147
0.0
147
0.0
147
1.0
  0
MATERIAL
  5
7EA3
102
{ACAD_XDICTIONARY
360
7EA4
102
}
102
{ACAD_REACTORS
330
7EA2
102
}
330
7EA2
100
AcDbMaterial
  1
ByLayer
 72
     0
 43
0.0208333333333333
 43
0.0
 43
0.0
 43
0.0
 43
0.0
 43
0.0208333333333333
 43
0.0
 43
0.0
 43
0.0
 43
0.0
 43
1.0
 43
0.0
 43
0.0
 43
0.0
 43
0.0
 43
1.0
 77
     0
 47
0.0208333333333333
 47
0.0
 47
0.0
 47
0.0
 47
0.0
 47
0.0208333333333333
 47
0.0
 47
0.0
 47
0.0
 47
0.0
 47
1.0
 47
0.0
 47
0.0
 47
0.0
 47
0.0
 47
1.0
171
     0
 49
0.0208333333333333
 49
0.0
 49
0.0
 49
0.0
 49
0.0
 49
0.0208333333333333
 49
0.0
 49
0.0
 49
0.0
 49
0.0
 49
1.0
 49
0.0
 49
0.0
 49
0.0
 49
0.0
 49
1.0
175
     0
142
0.0208333333333333
142
0.0
142
0.0
142
0.0
142
0.0
142
0.0208333333333333
142
0.0
142
0.0
142
0.0
142
0.0
142
1.0
142
0.0
142
0.0
142
0.0
142
0.0
142
1.0
179
     0
144
0.0208333333333333
144
0.0
144
0.0
144
0.0
144
0.0
144
0.0208333333333333
144
0.0
144
0.0
144
0.0
144
0.0
144
1.0
144
0.0
144
0.0
144
0.0
144
0.0
144
1.0
147
0.0208333333333333
147
0.0
147
0.0
147
0.0
147
0.0
147
0.0208333333333333
147
0.0
147
0.0
147
0.0
147
0.0
147
1.0
147
0.0
147
0.0
147
0.0
147
0.0
147
1.0
  0
MATERIAL
  5
7EB3
102
{ACAD_XDICTIONARY
360
7EB4
102
}
102
{ACAD_REACTORS
330
7EA2
102
}
330
7EA2
100
AcDbMaterial
  1
Global
 72
     0
 43
0.0208333333333333
 43
0.0
 43
0.0
 43
0.0
 43
0.0
 43
0.0208333333333333
 43
0.0
 43
0.0
 43
0.0
 43
0.0
 43
1.0
 43
0.0
 43
0.0
 43
0.0
 43
0.0
 43
1.0
 77
     0
 47
0.0208333333333333
 47
0.0
 47
0.0
 47
0.0
 47
0.0
 47
0.0208333333333333
 47
0.0
 47
0.0
 47
0.0
 47
0.0
 47
1.0
 47
0.0
 47
0.0
 47
0.0
 47
0.0
 47
1.0
171
     0
 49
0.0208333333333333
 49
0.0
 49
0.0
 49
0.0
 49
0.0
 49
0.0208333333333333
 49
0.0
 49
0.0
 49
0.0
 49
0.0
 49
1.0
 49
0.0
 49
0.0
 49
0.0
 49
0.0
 49
1.0
175
     0
142
0.0208333333333333
142
0.0
142
0.0
142
0.0
142
0.0
142
0.0208333333333333
142
0.0
142
0.0
142
0.0
142
0.0
142
1.0
142
0.0
142
0.0
142
0.0
142
0.0
142
1.0
179
     0
144
0.0208333333333333
144
0.0
144
0.0
144
0.0
144
0.0
144
0.0208333333333333
144
0.0
144
0.0
144
0.0
144
0.0
144
1.0
144
0.0
144
0.0
144
0.0
144
0.0
144
1.0
147
0.0208333333333333
147
0.0
147
0.0
147
0.0
147
0.0
147
0.0208333333333333
147
0.0
147
0.0
147
0.0
147
0.0
147
1.0
147
0.0
147
0.0
147
0.0
147
0.0
147
1.0
  0
MLEADERSTYLE
  5
7EEA
102
{ACAD_REACTORS
330
7EE9
102
}
330
7EE9
100
AcDbMLeaderStyle
179
     2
170
     2
171
     1
172
     0
 90
        2
 40
0.0
 41
0.0
173
     1
 91
-1056964608
340
13
 92
       -2
290
     1
 42
0.09
291
     1
 43
0.36
  3
Standard
 44
0.18
300

342
10
174
     1
178
     6
175
     1
176
     0
 93
-1056964608
 45
0.18
292
     0
297
     0
 46
0.18
 94
-1056964608
 47
1.0
 49
1.0
140
1.0
293
     1
141
0.0
294
     1
177
     0
142
1.0
295
     1
296
     0
143
0.125
271
     0
272
     9
273
     9
298
     1
  0
MLINESTYLE
  5
1C
102
{ACAD_REACTORS
330
E
102
}
330
0
100
AcDbMlineStyle
  2
STANDARD
 70
     0
  3

 62
     0
 51
90.0
 52
90.0
 71
     2
 49
0.5
 62
   256
  6
BYLAYER
 49
-0.5
 62
   256
  6
BYLAYER
  0
ACDBPLACEHOLDER
  5
7DC9
102
{ACAD_REACTORS
330
7DC8
102
}
330
7DC8
  0
SCALE
  5
7ED8
102
{ACAD_REACTORS
330
7ED7
102
}
330
7ED7
100
AcDbScale
 70
     0
300
1:1
140
1.0
141
1.0
290
     1
  0
SCALE
  5
7ED9
102
{ACAD_REACTORS
330
7ED7
102
}
330
7ED7
100
AcDbScale
 70
     0
300
1/128" = 1'-0"
140
0.0078125
141
12.0
290
     0
  0
SCALE
  5
7EDA
102
{ACAD_REACTORS
330
7ED7
102
}
330
7ED7
100
AcDbScale
 70
     0
300
1/64" = 1'-0"
140
0.015625
141
12.0
290
     0
  0
SCALE
  5
7EDB
102
{ACAD_REACTORS
330
7ED7
102
}
330
7ED7
100
AcDbScale
 70
     0
300
1/32" = 1'-0"
140
0.03125
141
12.0
290
     0
  0
SCALE
  5
7EDC
102
{ACAD_REACTORS
330
7ED7
102
}
330
7ED7
100
AcDbScale
 70
     0
300
1/16" = 1'-0"
140
0.0625
141
12.0
290
     0
  0
SCALE
  5
7EDD
102
{ACAD_REACTORS
330
7ED7
102
}
330
7ED7
100
AcDbScale
 70
     0
300
3/32" = 1'-0"
140
0.09375
141
12.0
290
     0
  0
SCALE
  5
7EDE
102
{ACAD_REACTORS
330
7ED7
102
}
330
7ED7
100
AcDbScale
 70
     0
300
1/8" = 1'-0"
140
0.125
141
12.0
290
     0
  0
SCALE
  5
7EDF
102
{ACAD_REACTORS
330
7ED7
102
}
330
7ED7
100
AcDbScale
 70
     0
300
3/16" = 1'-0"
140
0.1875
141
12.0
290
     0
  0
SCALE
  5
7EE0
102
{ACAD_REACTORS
330
7ED7
102
}
330
7ED7
100
AcDbScale
 70
     0
300
1/4" = 1'-0"
140
0.25
141
12.0
290
     0
  0
SCALE
  5
7EE1
102
{ACAD_REACTORS
330
7ED7
102
}
330
7ED7
100
AcDbScale
 70
     0
300
3/8" = 1'-0"
140
0.375
141
12.0
290
     0
  0
SCALE
  5
7EE2
102
{ACAD_REACTORS
330
7ED7
102
}
330
7ED7
100
AcDbScale
 70
     0
300
1/2" = 1'-0"
140
0.5
141
12.0
290
     0
  0
SCALE
  5
7EE3
102
{ACAD_REACTORS
330
7ED7
102
}
330
7ED7
100
AcDbScale
 70
     0
300
3/4" = 1'-0"
140
0.75
141
12.0
290
     0
  0
SCALE
  5
7EE4
102
{ACAD_REACTORS
330
7ED7
102
}
330
7ED7
100
AcDbScale
 70
     0
300
1" = 1'-0"
140
1.0
141
12.0
290
     0
  0
SCALE
  5
7EE5
102
{ACAD_REACTORS
330
7ED7
102
}
330
7ED7
100
AcDbScale
 70
     0
300
1-1/2" = 1'-0"
140
1.5
141
12.0
290
     0
  0
SCALE
  5
7EE6
102
{ACAD_REACTORS
330
7ED7
102
}
330
7ED7
100
AcDbScale
 70
     0
300
3" = 1'-0"
140
3.0
141
12.0
290
     0
  0
SCALE
  5
7EE7
102
{ACAD_REACTORS
330
7ED7
102
}
330
7ED7
100
AcDbScale
 70
     0
300
6" = 1'-0"
140
6.0
141
12.0
290
     0
  0
SCALE
  5
7EE8
102
{ACAD_REACTORS
330
7ED7
102
}
330
7ED7
100
AcDbScale
 70
     0
300
1'-0" = 1'-0"
140
12.0
141
12.0
290
     0
  0
ACDBSECTIONVIEWSTYLE
  5
7EEC
102
{ACAD_XDICTIONARY
360
7F64
102
}
102
{ACAD_REACTORS
330
7EEB
102
}
330
7EEB
100
AcDbModelDocViewStyle
 70
     0
  3
Imperial24
290
     0
100
AcDbSectionViewStyle
 70
     0
 71
     0
 90
       78
 71
     1
340
10
 62
   256
 40
0.24
340
0
340
0
 62
   256
 40
0.24
300
I, O, Q, S, X, Z
 40
0.48
 90
        3
 40
0.18
 90
        1
 71
     2
340
15
 90
       25
 62
   256
340
15
 90
       50
 62
   256
 40
0.24
 40
0.0
 40
0.24
 71
     3
340
10
 62
   256
 40
0.24
 90
        1
 40
0.75
 90
        1
300
%<\AcVar ViewType \f "%tc1">% %<\AcVar ViewSectionStartId>%-%<\AcVar ViewSectionEndId>%\PSCALE %<\AcVar ViewScale \f "%sn">%
 71
     4
 62
   256
 62
   257
300
ANSI31
 40
1.0
 90
        0
290
     0
290
     0
 90
        6
 40
0.0
 40
1.570796326794896
 40
0.2617993877991494
 40
1.308996938995747
 40
-0.2617993877991494
 40
1.832595714594046
  0
TABLESTYLE
  5
7ED6
102
{ACAD_XDICTIONARY
360
7FE0
102
}
102
{ACAD_REACTORS
330
7ED5
102
}
330
7ED5
100
AcDbTableStyle
280
     0
  3
Standard
 70
     0
 71
     0
 40
0.06
 41
0.06
280
     0
281
     0
  7
STANDARD
140
0.18
170
     2
 62
     0
 63
     7
283
     0
 90
      512
 91
        0
  1

274
    -2
284
     1
 64
     0
275
    -2
285
     1
 65
     0
276
    -2
286
     1
 66
     0
277
    -2
287
     1
 67
     0
278
    -2
288
     1
 68
     0
279
    -2
289
     1
 69
     0
  7
STANDARD
140
0.25
170
     5
 62
     0
 63
     7
283
     0
 90
      512
 91
        0
  1

274
    -2
284
     1
 64
     0
275
    -2
285
     1
 65
     0
276
    -2
286
     1
 66
     0
277
    -2
287
     1
 67
     0
278
    -2
288
     1
 68
     0
279
    -2
289
     1
 69
     0
  7
STANDARD
140
0.18
170
     5
 62
     0
 63
     7
283
     0
 90
      512
 91
        0
  1

274
    -2
284
     1
 64
     0
275
    -2
285
     1
 65
     0
276
    -2
286
     1
 66
     0
277
    -2
287
     1
 67
     0
278
    -2
288
     1
 68
     0
279
    -2
289
     1
 69
     0
  0
VISUALSTYLE
  5
7EC1
102
{ACAD_REACTORS
330
7EBB
102
}
330
7EBB
100
AcDbVisualStyle
  2
2dWireframe
 70
     4
177
     3
291
     0
 70
    58
 90
        0
176
     1
 90
        2
176
     1
 90
        0
176
     1
 90
        0
176
     1
 40
0.6
176
     1
 40
30.0
176
     1
 62
     7
420
 16777215
176
     1
 90
        1
176
     1
 90
        4
176
     1
 62
     7
176
     1
 62
   257
176
     1
 90
        1
176
     1
 90
        1
176
     1
 40
1.0
176
     1
 90
        0
176
     1
 62
   257
176
     1
 40
1.0
176
     1
 90
        1
176
     1
 90
        6
176
     1
 90
        2
176
     1
 62
     7
176
     1
 90
        5
176
     1
 90
        0
176
     1
 90
        0
176
     1
290
     0
176
     1
 90
        1
176
     1
 40
0.0
176
     1
 90
        0
176
     1
290
     1
176
     1
290
     1
176
     1
290
     0
176
     1
290
     0
176
     1
290
     0
176
     1
290
     0
176
     1
290
     0
176
     1
290
     0
176
     1
290
     0
176
     1
 90
       50
176
     1
 40
0.0
176
     1
 40
1.0
176
     1
 90
        0
176
     1
 62
    18
420
        0
176
     1
 90
       50
176
     1
 90
        3
176
     1
 62
     5
420
      255
176
     1
290
     0
176
     1
 90
       50
176
     1
 90
       50
176
     1
 90
       50
176
     1
290
     0
176
     1
 90
       50
176
     1
 62
   256
176
     0
 40
1.0
176
     0
 90
        2
176
     1
  1
strokes_ogs.tif
176
     1
290
     0
176
     1
 40
1.0
176
     1
 40
1.0
176
     1
  0
VISUALSTYLE
  5
7EC0
102
{ACAD_REACTORS
330
7EBB
102
}
330
7EBB
100
AcDbVisualStyle
  2
Basic
 70
     7
177
     3
291
     1
 70
    58
 90
        1
176
     1
 90
        0
176
     1
 90
        1
176
     1
 90
        0
176
     1
 40
0.6
176
     1
 40
30.0
176
     1
 62
     7
420
 16777215
176
     1
 90
        0
176
     1
 90
        4
176
     1
 62
     7
176
     1
 62
   257
176
     1
 90
        1
176
     1
 90
        1
176
     1
 40
1.0
176
     1
 90
        8
176
     1
 62
     7
176
     1
 40
1.0
176
     1
 90
        1
176
     1
 90
        6
176
     1
 90
        2
176
     1
 62
     7
176
     1
 90
        5
176
     1
 90
        0
176
     1
 90
        0
176
     1
290
     0
176
     1
 90
        1
176
     1
 40
0.0
176
     1
 90
        0
176
     1
290
     0
176
     1
290
     1
176
     1
290
     1
176
     1
290
     0
176
     1
290
     0
176
     1
290
     0
176
     1
290
     0
176
     1
290
     0
176
     1
290
     0
176
     1
 90
       50
176
     1
 40
0.0
176
     1
 40
1.0
176
     1
 90
        0
176
     1
 62
    18
420
        0
176
     1
 90
       50
176
     1
 90
        3
176
     1
 62
     5
420
      255
176
     1
290
     0
176
     1
 90
       50
176
     1
 90
       50
176
     1
 90
       50
176
     1
290
     0
176
     1
 90
       50
176
     1
 62
   256
176
     0
 40
1.0
176
     0
 90
        2
176
     1
  1
strokes_ogs.tif
176
     1
290
     0
176
     1
 40
1.0
176
     1
 40
1.0
176
     1
  0
VISUALSTYLE
  5
7EC7
102
{ACAD_REACTORS
330
7EBB
102
}
330
7EBB
100
AcDbVisualStyle
  2
Brighten
 70
    12
177
     3
291
     1
 70
    58
 90
        2
176
     1
 90
        2
176
     1
 90
        0
176
     1
 90
        0
176
     1
 40
0.6
176
     1
 40
30.0
176
     1
 62
     7
420
 16777215
176
     1
 90
        1
176
     1
 90
        4
176
     1
 62
     7
176
     1
 62
   257
176
     1
 90
        1
176
     1
 90
        1
176
     1
 40
1.0
176
     1
 90
        8
176
     1
 62
     7
176
     1
 40
1.0
176
     1
 90
        1
176
     1
 90
        6
176
     1
 90
        2
176
     1
 62
     7
176
     1
 90
        5
176
     1
 90
        0
176
     1
 90
        0
176
     1
290
     0
176
     1
 90
        1
176
     1
 40
50.0
176
     1
 90
        0
176
     1
290
     0
176
     1
290
     1
176
     1
290
     1
176
     1
290
     0
176
     1
290
     0
176
     1
290
     0
176
     1
290
     0
176
     1
290
     0
176
     1
290
     0
176
     1
 90
       50
176
     1
 40
0.0
176
     1
 40
1.0
176
     1
 90
        0
176
     1
 62
    18
420
        0
176
     1
 90
       50
176
     1
 90
        3
176
     1
 62
     5
420
      255
176
     1
290
     0
176
     1
 90
       50
176
     1
 90
       50
176
     1
 90
       50
176
     1
290
     0
176
     1
 90
       50
176
     1
 62
   256
176
     0
 40
1.0
176
     0
 90
        2
176
     1
  1
strokes_ogs.tif
176
     1
290
     0
176
     1
 40
1.0
176
     1
 40
1.0
176
     1
  0
VISUALSTYLE
  5
7ECB
102
{ACAD_REACTORS
330
7EBB
102
}
330
7EBB
100
AcDbVisualStyle
  2
ColorChange
 70
    16
177
     3
291
     1
 70
    58
 90
        2
176
     1
 90
        2
176
     1
 90
        3
176
     1
 90
        0
176
     1
 40
0.6
176
     1
 40
30.0
176
     1
 62
     8
420
  8421504
176
     1
 90
        1
176
     1
 90
        4
176
     1
 62
     7
176
     1
 62
   257
176
     1
 90
        1
176
     1
 90
        1
176
     1
 40
1.0
176
     1
 90
        8
176
     1
 62
     8
420
  8421504
176
     1
 40
1.0
176
     1
 90
        1
176
     1
 90
        6
176
     1
 90
        2
176
     1
 62
     7
176
     1
 90
        5
176
     1
 90
        0
176
     1
 90
        0
176
     1
290
     0
176
     1
 90
        1
176
     1
 40
0.0
176
     1
 90
        0
176
     1
290
     0
176
     1
290
     1
176
     1
290
     1
176
     1
290
     0
176
     1
290
     0
176
     1
290
     0
176
     1
290
     0
176
     1
290
     0
176
     1
290
     0
176
     1
 90
       50
176
     1
 40
0.0
176
     1
 40
1.0
176
     1
 90
        0
176
     1
 62
    18
420
        0
176
     1
 90
       50
176
     1
 90
        3
176
     1
 62
     5
420
      255
176
     1
290
     0
176
     1
 90
       50
176
     1
 90
       50
176
     1
 90
       50
176
     1
290
     0
176
     1
 90
       50
176
     1
 62
   256
176
     0
 40
1.0
176
     0
 90
        2
176
     1
  1
strokes_ogs.tif
176
     1
290
     0
176
     1
 40
1.0
176
     1
 40
1.0
176
     1
  0
VISUALSTYLE
  5
7EC4
102
{ACAD_REACTORS
330
7EBB
102
}
330
7EBB
100
AcDbVisualStyle
  2
Conceptual
 70
     9
177
     3
291
     0
 70
    58
 90
        3
176
     1
 90
        2
176
     1
 90
        0
176
     1
 90
        0
176
     1
 40
0.6
176
     1
 40
30.0
176
     1
 62
     7
420
 16777215
176
     1
 90
        2
176
     1
 90
        2
176
     1
 62
     7
176
     1
 62
   257
176
     1
 90
        1
176
     1
 90
        1
176
     1
 40
179.0
176
     1
 90
        8
176
     1
 62
     7
176
     1
 40
1.0
176
     1
 90
        1
176
     1
 90
        6
176
     1
 90
        2
176
     1
 62
     7
176
     1
 90
        3
176
     1
 90
        0
176
     1
 90
        0
176
     1
290
     0
176
     1
 90
        1
176
     1
 40
0.0
176
     1
 90
        0
176
     1
290
     0
176
     1
290
     1
176
     1
290
     1
176
     1
290
     0
176
     1
290
     0
176
     1
290
     0
176
     1
290
     0
176
     1
290
     0
176
     1
290
     0
176
     1
 90
       50
176
     1
 40
0.0
176
     1
 40
1.0
176
     1
 90
        0
176
     1
 62
    18
420
        0
176
     1
 90
       50
176
     1
 90
        3
176
     1
 62
     5
420
      255
176
     1
290
     0
176
     1
 90
       50
176
     1
 90
       50
176
     1
 90
       50
176
     1
290
     0
176
     1
 90
       50
176
     1
 62
   256
176
     0
 40
1.0
176
     0
 90
        2
176
     1
  1
strokes_ogs.tif
176
     1
290
     0
176
     1
 40
1.0
176
     1
 40
1.0
176
     1
  0
VISUALSTYLE
  5
7EC6
102
{ACAD_REACTORS
330
7EBB
102
}
330
7EBB
100
AcDbVisualStyle
  2
Dim
 70
    11
177
     3
291
     1
 70
    58
 90
        2
176
     1
 90
        2
176
     1
 90
        0
176
     1
 90
        0
176
     1
 40
0.6
176
     1
 40
30.0
176
     1
 62
     7
420
 16777215
176
     1
 90
        1
176
     1
 90
        4
176
     1
 62
     7
176
     1
 62
   257
176
     1
 90
        1
176
     1
 90
        1
176
     1
 40
1.0
176
     1
 90
        8
176
     1
 62
     7
176
     1
 40
1.0
176
     1
 90
        1
176
     1
 90
        6
176
     1
 90
        2
176
     1
 62
     7
176
     1
 90
        5
176
     1
 90
        0
176
     1
 90
        0
176
     1
290
     0
176
     1
 90
        1
176
     1
 40
-50.0
176
     1
 90
        0
176
     1
290
     0
176
     1
290
     1
176
     1
290
     1
176
     1
290
     0
176
     1
290
     0
176
     1
290
     0
176
     1
290
     0
176
     1
290
     0
176
     1
290
     0
176
     1
 90
       50
176
     1
 40
0.0
176
     1
 40
1.0
176
     1
 90
        0
176
     1
 62
    18
420
        0
176
     1
 90
       50
176
     1
 90
        3
176
     1
 62
     5
420
      255
176
     1
290
     0
176
     1
 90
       50
176
     1
 90
       50
176
     1
 90
       50
176
     1
290
     0
176
     1
 90
       50
176
     1
 62
   256
176
     0
 40
1.0
176
     0
 90
        2
176
     1
  1
strokes_ogs.tif
176
     1
290
     0
176
     1
 40
1.0
176
     1
 40
1.0
176
     1
  0
VISUALSTYLE
  5
7ED3
102
{ACAD_REACTORS
330
7EBB
102
}
330
7EBB
100
AcDbVisualStyle
  2
EdgeColorOff
 70
    22
177
     3
291
     1
 70
    58
 90
        2
176
     0
 90
        2
176
     0
 90
        0
176
     0
 90
        0
176
     0
 40
0.6
176
     0
 40
30.0
176
     0
 62
     7
420
 16777215
176
     0
 90
        1
176
     0
 90
        4
176
     0
 62
     7
176
     0
 62
   257
176
     0
 90
        1
176
     0
 90
        1
176
     0
 40
1.0
176
     0
 90
        8
176
     2
 62
     7
176
     0
 40
1.0
176
     0
 90
        1
176
     0
 90
        6
176
     0
 90
        2
176
     0
 62
     7
176
     0
 90
        5
176
     0
 90
        0
176
     0
 90
        0
176
     0
290
     0
176
     0
 90
        1
176
     0
 40
0.0
176
     0
 90
        0
176
     0
290
     0
176
     0
290
     1
176
     0
290
     1
176
     0
290
     0
176
     0
290
     0
176
     0
290
     0
176
     0
290
     0
176
     0
290
     0
176
     0
290
     0
176
     0
 90
       50
176
     0
 40
0.0
176
     0
 40
1.0
176
     0
 90
        0
176
     0
 62
    18
420
        0
176
     0
 90
       50
176
     0
 90
        3
176
     0
 62
     5
420
      255
176
     0
290
     0
176
     0
 90
       50
176
     0
 90
       50
176
     0
 90
       50
176
     0
290
     0
176
     0
 90
       50
176
     0
 62
   256
176
     0
 40
1.0
176
     0
 90
        2
176
     0
  1
strokes_ogs.tif
176
     0
290
     0
176
     0
 40
1.0
176
     0
 40
1.0
176
     0
  0
VISUALSTYLE
  5
7ECA
102
{ACAD_REACTORS
330
7EBB
102
}
330
7EBB
100
AcDbVisualStyle
  2
Facepattern
 70
    15
177
     3
291
     1
 70
    58
 90
        2
176
     1
 90
        2
176
     1
 90
        0
176
     1
 90
        0
176
     1
 40
0.6
176
     1
 40
30.0
176
     1
 62
     7
420
 16777215
176
     1
 90
        1
176
     1
 90
        4
176
     1
 62
     7
176
     1
 62
   257
176
     1
 90
        1
176
     1
 90
        1
176
     1
 40
1.0
176
     1
 90
        8
176
     1
 62
     7
176
     1
 40
1.0
176
     1
 90
        1
176
     1
 90
        6
176
     1
 90
        2
176
     1
 62
     7
176
     1
 90
        5
176
     1
 90
        0
176
     1
 90
        0
176
     1
290
     0
176
     1
 90
        1
176
     1
 40
0.0
176
     1
 90
        0
176
     1
290
     0
176
     1
290
     1
176
     1
290
     1
176
     1
290
     0
176
     1
290
     0
176
     1
290
     0
176
     1
290
     0
176
     1
290
     0
176
     1
290
     0
176
     1
 90
       50
176
     1
 40
0.0
176
     1
 40
1.0
176
     1
 90
        0
176
     1
 62
    18
420
        0
176
     1
 90
       50
176
     1
 90
        3
176
     1
 62
     5
420
      255
176
     1
290
     0
176
     1
 90
       50
176
     1
 90
       50
176
     1
 90
       50
176
     1
290
     0
176
     1
 90
       50
176
     1
 62
   256
176
     0
 40
1.0
176
     0
 90
        2
176
     1
  1
strokes_ogs.tif
176
     1
290
     0
176
     1
 40
1.0
176
     1
 40
1.0
176
     1
  0
VISUALSTYLE
  5
7EBC
102
{ACAD_REACTORS
330
7EBB
102
}
330
7EBB
100
AcDbVisualStyle
  2
Flat
 70
     0
177
     3
291
     1
 70
    58
 90
        2
176
     1
 90
        1
176
     1
 90
        1
176
     1
 90
        2
176
     1
 40
0.6
176
     1
 40
30.0
176
     1
 62
     7
420
 16777215
176
     1
 90
        0
176
     1
 90
        0
176
     1
 62
     7
176
     1
 62
   257
176
     1
 90
        1
176
     1
 90
        1
176
     1
 40
1.0
176
     1
 90
        8
176
     1
 62
     7
176
     1
 40
1.0
176
     1
 90
        1
176
     1
 90
        6
176
     1
 90
        2
176
     1
 62
     7
176
     1
 90
        5
176
     1
 90
        0
176
     1
 90
        0
176
     1
290
     0
176
     1
 90
       13
176
     1
 40
0.0
176
     1
 90
        0
176
     1
290
     0
176
     1
290
     1
176
     1
290
     1
176
     1
290
     0
176
     1
290
     0
176
     1
290
     0
176
     1
290
     0
176
     1
290
     0
176
     1
290
     0
176
     1
 90
       50
176
     1
 40
0.0
176
     1
 40
1.0
176
     1
 90
        0
176
     1
 62
    18
420
        0
176
     1
 90
       50
176
     1
 90
        3
176
     1
 62
     5
420
      255
176
     1
290
     0
176
     1
 90
       50
176
     1
 90
       50
176
     1
 90
       50
176
     1
290
     0
176
     1
 90
       50
176
     1
 62
   256
176
     0
 40
1.0
176
     0
 90
        2
176
     1
  1
strokes_ogs.tif
176
     1
290
     0
176
     1
 40
1.0
176
     1
 40
1.0
176
     1
  0
VISUALSTYLE
  5
7EBD
102
{ACAD_REACTORS
330
7EBB
102
}
330
7EBB
100
AcDbVisualStyle
  2
FlatWithEdges
 70
     1
177
     3
291
     1
 70
    58
 90
        2
176
     1
 90
        1
176
     1
 90
        1
176
     1
 90
        2
176
     1
 40
0.6
176
     1
 40
30.0
176
     1
 62
     7
420
 16777215
176
     1
 90
        1
176
     1
 90
        0
176
     1
 62
     7
176
     1
 62
   257
176
     1
 90
        1
176
     1
 90
        1
176
     1
 40
1.0
176
     1
 90
        0
176
     1
 62
   257
176
     1
 40
1.0
176
     1
 90
        1
176
     1
 90
        6
176
     1
 90
        2
176
     1
 62
     7
176
     1
 90
        5
176
     1
 90
        0
176
     1
 90
        0
176
     1
290
     0
176
     1
 90
       13
176
     1
 40
0.0
176
     1
 90
        0
176
     1
290
     0
176
     1
290
     1
176
     1
290
     1
176
     1
290
     0
176
     1
290
     0
176
     1
290
     0
176
     1
290
     0
176
     1
290
     0
176
     1
290
     0
176
     1
 90
       50
176
     1
 40
0.0
176
     1
 40
1.0
176
     1
 90
        0
176
     1
 62
    18
420
        0
176
     1
 90
       50
176
     1
 90
        3
176
     1
 62
     5
420
      255
176
     1
290
     0
176
     1
 90
       50
176
     1
 90
       50
176
     1
 90
       50
176
     1
290
     0
176
     1
 90
       50
176
     1
 62
   256
176
     0
 40
1.0
176
     0
 90
        2
176
     1
  1
strokes_ogs.tif
176
     1
290
     0
176
     1
 40
1.0
176
     1
 40
1.0
176
     1
  0
VISUALSTYLE
  5
7EBE
102
{ACAD_REACTORS
330
7EBB
102
}
330
7EBB
100
AcDbVisualStyle
  2
Gouraud
 70
     2
177
     3
291
     1
 70
    58
 90
        2
176
     1
 90
        2
176
     1
 90
        1
176
     1
 90
        2
176
     1
 40
0.6
176
     1
 40
30.0
176
     1
 62
     7
420
 16777215
176
     1
 90
        0
176
     1
 90
        0
176
     1
 62
     7
176
     1
 62
   257
176
     1
 90
        1
176
     1
 90
        1
176
     1
 40
1.0
176
     1
 90
        0
176
     1
 62
     7
176
     1
 40
1.0
176
     1
 90
        1
176
     1
 90
        6
176
     1
 90
        2
176
     1
 62
     7
176
     1
 90
        5
176
     1
 90
        0
176
     1
 90
        0
176
     1
290
     0
176
     1
 90
       13
176
     1
 40
0.0
176
     1
 90
        0
176
     1
290
     0
176
     1
290
     1
176
     1
290
     1
176
     1
290
     0
176
     1
290
     0
176
     1
290
     0
176
     1
290
     0
176
     1
290
     0
176
     1
290
     0
176
     1
 90
       50
176
     1
 40
0.0
176
     1
 40
1.0
176
     1
 90
        0
176
     1
 62
    18
420
        0
176
     1
 90
       50
176
     1
 90
        3
176
     1
 62
     5
420
      255
176
     1
290
     0
176
     1
 90
       50
176
     1
 90
       50
176
     1
 90
       50
176
     1
290
     0
176
     1
 90
       50
176
     1
 62
   256
176
     0
 40
1.0
176
     0
 90
        2
176
     1
  1
strokes_ogs.tif
176
     1
290
     0
176
     1
 40
1.0
176
     1
 40
1.0
176
     1
  0
VISUALSTYLE
  5
7EBF
102
{ACAD_REACTORS
330
7EBB
102
}
330
7EBB
100
AcDbVisualStyle
  2
GouraudWithEdges
 70
     3
177
     3
291
     1
 70
    58
 90
        2
176
     1
 90
        2
176
     1
 90
        1
176
     1
 90
        2
176
     1
 40
0.6
176
     1
 40
30.0
176
     1
 62
     7
420
 16777215
176
     1
 90
        1
176
     1
 90
        0
176
     1
 62
     7
176
     1
 62
   257
176
     1
 90
        1
176
     1
 90
        1
176
     1
 40
1.0
176
     1
 90
        0
176
     1
 62
   257
176
     1
 40
1.0
176
     1
 90
        1
176
     1
 90
        6
176
     1
 90
        2
176
     1
 62
     7
176
     1
 90
        5
176
     1
 90
        0
176
     1
 90
        0
176
     1
290
     0
176
     1
 90
       13
176
     1
 40
0.0
176
     1
 90
        0
176
     1
290
     0
176
     1
290
     1
176
     1
290
     1
176
     1
290
     0
176
     1
290
     0
176
     1
290
     0
176
     1
290
     0
176
     1
290
     0
176
     1
290
     0
176
     1
 90
       50
176
     1
 40
0.0
176
     1
 40
1.0
176
     1
 90
        0
176
     1
 62
    18
420
        0
176
     1
 90
       50
176
     1
 90
        3
176
     1
 62
     5
420
      255
176
     1
290
     0
176
     1
 90
       50
176
     1
 90
       50
176
     1
 90
       50
176
     1
290
     0
176
     1
 90
       50
176
     1
 62
   256
176
     0
 40
1.0
176
     0
 90
        2
176
     1
  1
strokes_ogs.tif
176
     1
290
     0
176
     1
 40
1.0
176
     1
 40
1.0
176
     1
  0
VISUALSTYLE
  5
7EC3
102
{ACAD_REACTORS
330
7EBB
102
}
330
7EBB
100
AcDbVisualStyle
  2
Hidden
 70
     6
177
     3
291
     0
 70
    58
 90
        1
176
     1
 90
        2
176
     1
 90
        2
176
     1
 90
        0
176
     1
 40
0.6
176
     1
 40
30.0
176
     1
 62
     7
420
 16777215
176
     1
 90
        2
176
     1
 90
        2
176
     1
 62
     7
176
     1
 62
   257
176
     1
 90
        2
176
     1
 90
        1
176
     1
 40
40.0
176
     1
 90
        0
176
     1
 62
   257
176
     1
 40
1.0
176
     1
 90
        1
176
     1
 90
        6
176
     1
 90
        2
176
     1
 62
     7
176
     1
 90
        3
176
     1
 90
        0
176
     1
 90
        0
176
     1
290
     0
176
     1
 90
        1
176
     1
 40
0.0
176
     1
 90
        0
176
     1
290
     0
176
     1
290
     1
176
     1
290
     1
176
     1
290
     0
176
     1
290
     0
176
     1
290
     0
176
     1
290
     0
176
     1
290
     0
176
     1
290
     0
176
     1
 90
       50
176
     1
 40
0.0
176
     1
 40
1.0
176
     1
 90
        0
176
     1
 62
    18
420
        0
176
     1
 90
       50
176
     1
 90
        3
176
     1
 62
     5
420
      255
176
     1
290
     0
176
     1
 90
       50
176
     1
 90
       50
176
     1
 90
       50
176
     1
290
     0
176
     1
 90
       50
176
     1
 62
   256
176
     0
 40
1.0
176
     0
 90
        2
176
     1
  1
strokes_ogs.tif
176
     1
290
     0
176
     1
 40
1.0
176
     1
 40
1.0
176
     1
  0
VISUALSTYLE
  5
7ED1
102
{ACAD_REACTORS
330
7EBB
102
}
330
7EBB
100
AcDbVisualStyle
  2
JitterOff
 70
    20
177
     3
291
     1
 70
    58
 90
        2
176
     0
 90
        2
176
     0
 90
        0
176
     0
 90
        0
176
     0
 40
0.6
176
     0
 40
30.0
176
     0
 62
     7
420
 16777215
176
     0
 90
        1
176
     0
 90
        4
176
     0
 62
     7
176
     0
 62
   257
176
     0
 90
        1
176
     0
 90
        1
176
     0
 40
1.0
176
     0
 90
       10
176
     2
 62
     7
176
     0
 40
1.0
176
     0
 90
        1
176
     0
 90
        6
176
     0
 90
        2
176
     0
 62
     7
176
     0
 90
        5
176
     0
 90
        0
176
     0
 90
        0
176
     0
290
     0
176
     0
 90
        1
176
     0
 40
0.0
176
     0
 90
        0
176
     0
290
     0
176
     0
290
     1
176
     0
290
     1
176
     0
290
     0
176
     0
290
     0
176
     0
290
     0
176
     0
290
     0
176
     0
290
     0
176
     0
290
     0
176
     0
 90
       50
176
     0
 40
0.0
176
     0
 40
1.0
176
     0
 90
        0
176
     0
 62
    18
420
        0
176
     0
 90
       50
176
     0
 90
        3
176
     0
 62
     5
420
      255
176
     0
290
     0
176
     0
 90
       50
176
     0
 90
       50
176
     0
 90
       50
176
     0
290
     0
176
     0
 90
       50
176
     0
 62
   256
176
     0
 40
1.0
176
     0
 90
        2
176
     0
  1
strokes_ogs.tif
176
     0
290
     0
176
     0
 40
1.0
176
     0
 40
1.0
176
     0
  0
VISUALSTYLE
  5
7EC9
102
{ACAD_REACTORS
330
7EBB
102
}
330
7EBB
100
AcDbVisualStyle
  2
Linepattern
 70
    14
177
     3
291
     1
 70
    58
 90
        2
176
     1
 90
        2
176
     1
 90
        0
176
     1
 90
        0
176
     1
 40
0.6
176
     1
 40
30.0
176
     1
 62
     7
420
 16777215
176
     1
 90
        1
176
     1
 90
        4
176
     1
 62
     7
176
     1
 62
   257
176
     1
 90
        7
176
     1
 90
        7
176
     1
 40
1.0
176
     1
 90
        8
176
     1
 62
     7
176
     1
 40
1.0
176
     1
 90
        1
176
     1
 90
        6
176
     1
 90
        2
176
     1
 62
     7
176
     1
 90
        5
176
     1
 90
        0
176
     1
 90
        0
176
     1
290
     0
176
     1
 90
        1
176
     1
 40
0.0
176
     1
 90
        0
176
     1
290
     0
176
     1
290
     1
176
     1
290
     1
176
     1
290
     0
176
     1
290
     0
176
     1
290
     0
176
     1
290
     0
176
     1
290
     0
176
     1
290
     0
176
     1
 90
       50
176
     1
 40
0.0
176
     1
 40
1.0
176
     1
 90
        0
176
     1
 62
    18
420
        0
176
     1
 90
       50
176
     1
 90
        3
176
     1
 62
     5
420
      255
176
     1
290
     0
176
     1
 90
       50
176
     1
 90
       50
176
     1
 90
       50
176
     1
290
     0
176
     1
 90
       50
176
     1
 62
   256
176
     0
 40
1.0
176
     0
 90
        2
176
     1
  1
strokes_ogs.tif
176
     1
290
     0
176
     1
 40
1.0
176
     1
 40
1.0
176
     1
  0
VISUALSTYLE
  5
7ED2
102
{ACAD_REACTORS
330
7EBB
102
}
330
7EBB
100
AcDbVisualStyle
  2
OverhangOff
 70
    21
177
     3
291
     1
 70
    58
 90
        2
176
     0
 90
        2
176
     0
 90
        0
176
     0
 90
        0
176
     0
 40
0.6
176
     0
 40
30.0
176
     0
 62
     7
420
 16777215
176
     0
 90
        1
176
     0
 90
        4
176
     0
 62
     7
176
     0
 62
   257
176
     0
 90
        1
176
     0
 90
        1
176
     0
 40
1.0
176
     0
 90
        9
176
     2
 62
     7
176
     0
 40
1.0
176
     0
 90
        1
176
     0
 90
        6
176
     0
 90
        2
176
     0
 62
     7
176
     0
 90
        5
176
     0
 90
        0
176
     0
 90
        0
176
     0
290
     0
176
     0
 90
        1
176
     0
 40
0.0
176
     0
 90
        0
176
     0
290
     0
176
     0
290
     1
176
     0
290
     1
176
     0
290
     0
176
     0
290
     0
176
     0
290
     0
176
     0
290
     0
176
     0
290
     0
176
     0
290
     0
176
     0
 90
       50
176
     0
 40
0.0
176
     0
 40
1.0
176
     0
 90
        0
176
     0
 62
    18
420
        0
176
     0
 90
       50
176
     0
 90
        3
176
     0
 62
     5
420
      255
176
     0
290
     0
176
     0
 90
       50
176
     0
 90
       50
176
     0
 90
       50
176
     0
290
     0
176
     0
 90
       50
176
     0
 62
   256
176
     0
 40
1.0
176
     0
 90
        2
176
     0
  1
strokes_ogs.tif
176
     0
290
     0
176
     0
 40
1.0
176
     0
 40
1.0
176
     0
  0
VISUALSTYLE
  5
7EC5
102
{ACAD_REACTORS
330
7EBB
102
}
330
7EBB
100
AcDbVisualStyle
  2
Realistic
 70
     8
177
     3
291
     0
 70
    58
 90
        2
176
     1
 90
        3
176
     1
 90
        0
176
     1
 90
        2
176
     1
 40
0.6
176
     1
 40
30.0
176
     1
 62
     7
420
 16777215
176
     1
 90
        0
176
     1
 90
        0
176
     1
 62
     7
176
     1
 62
   257
176
     1
 90
        1
176
     1
 90
        1
176
     1
 40
1.0
176
     1
 90
        8
176
     1
 62
   257
176
     1
 40
1.0
176
     1
 90
        1
176
     1
 90
        6
176
     1
 90
        2
176
     1
 62
     7
176
     1
 90
        3
176
     1
 90
        0
176
     1
 90
        0
176
     1
290
     0
176
     1
 90
       13
176
     1
 40
0.0
176
     1
 90
        0
176
     1
290
     0
176
     1
290
     1
176
     1
290
     1
176
     1
290
     0
176
     1
290
     0
176
     1
290
     0
176
     1
290
     0
176
     1
290
     0
176
     1
290
     0
176
     1
 90
       50
176
     1
 40
0.0
176
     1
 40
1.0
176
     1
 90
        0
176
     1
 62
    18
420
        0
176
     1
 90
       50
176
     1
 90
        3
176
     1
 62
     5
420
      255
176
     1
290
     0
176
     1
 90
       50
176
     1
 90
       50
176
     1
 90
       50
176
     1
290
     0
176
     1
 90
       50
176
     1
 62
   256
176
     0
 40
1.0
176
     0
 90
        2
176
     1
  1
strokes_ogs.tif
176
     1
290
     0
176
     1
 40
1.0
176
     1
 40
1.0
176
     1
  0
VISUALSTYLE
  5
7ED0
102
{ACAD_REACTORS
330
7EBB
102
}
330
7EBB
100
AcDbVisualStyle
  2
Shaded
 70
    27
177
     3
291
     0
 70
    58
 90
        2
176
     1
 90
        2
176
     1
 90
        1
176
     1
 90
        2
176
     1
 40
0.6
176
     1
 40
30.0
176
     1
 62
     7
420
 16777215
176
     1
 90
        0
176
     1
 90
        4
176
     1
 62
     7
176
     1
 62
   257
176
     1
 90
        1
176
     1
 90
        1
176
     1
 40
1.0
176
     1
 90
        8
176
     1
 62
   257
176
     1
 40
1.0
176
     1
 90
        1
176
     1
 90
        6
176
     1
 90
        2
176
     1
 62
     8
420
  7895160
176
     1
 90
        3
176
     1
 90
        0
176
     1
 90
        0
176
     1
290
     0
176
     1
 90
        5
176
     1
 40
0.0
176
     1
 90
        0
176
     1
290
     0
176
     1
290
     1
176
     1
290
     1
176
     1
290
     0
176
     1
290
     0
176
     1
290
     0
176
     1
290
     0
176
     1
290
     0
176
     1
290
     0
176
     1
 90
       50
176
     1
 40
0.0
176
     1
 40
1.0
176
     1
 90
        0
176
     1
 62
    18
420
        0
176
     1
 90
       50
176
     1
 90
        3
176
     1
 62
     5
420
      255
176
     1
290
     0
176
     1
 90
       50
176
     1
 90
       50
176
     1
 90
       50
176
     1
290
     0
176
     1
 90
       50
176
     1
 62
   256
176
     0
 40
1.0
176
     0
 90
        2
176
     1
  1
strokes_ogs.tif
176
     1
290
     0
176
     1
 40
1.0
176
     1
 40
1.0
176
     1
  0
VISUALSTYLE
  5
7ECF
102
{ACAD_REACTORS
330
7EBB
102
}
330
7EBB
100
AcDbVisualStyle
  2
Shaded with edges
 70
    26
177
     3
291
     0
 70
    58
 90
        2
176
     1
 90
        2
176
     1
 90
        1
176
     1
 90
        2
176
     1
 40
0.6
176
     1
 40
30.0
176
     1
 62
     7
420
 16777215
176
     1
 90
        1
176
     1
 90
       10
176
     1
 62
     7
176
     1
 62
   257
176
     1
 90
        2
176
     1
 90
        1
176
     1
 40
1.0
176
     1
 90
        8
176
     1
 62
   257
176
     1
 40
1.0
176
     1
 90
        1
176
     1
 90
        6
176
     1
 90
        2
176
     1
 62
     7
176
     1
 90
        3
176
     1
 90
        0
176
     1
 90
        0
176
     1
290
     0
176
     1
 90
        5
176
     1
 40
0.0
176
     1
 90
        0
176
     1
290
     0
176
     1
290
     1
176
     1
290
     1
176
     1
290
     0
176
     1
290
     0
176
     1
290
     0
176
     1
290
     0
176
     1
290
     0
176
     1
290
     0
176
     1
 90
       50
176
     1
 40
0.0
176
     1
 40
1.0
176
     1
 90
        0
176
     1
 62
    18
420
        0
176
     1
 90
       50
176
     1
 90
        3
176
     1
 62
     5
420
      255
176
     1
290
     0
176
     1
 90
       50
176
     1
 90
       50
176
     1
 90
       50
176
     1
290
     0
176
     1
 90
       50
176
     1
 62
   256
176
     0
 40
1.0
176
     0
 90
        2
176
     1
  1
strokes_ogs.tif
176
     1
290
     0
176
     1
 40
1.0
176
     1
 40
1.0
176
     1
  0
VISUALSTYLE
  5
7ECC
102
{ACAD_REACTORS
330
7EBB
102
}
330
7EBB
100
AcDbVisualStyle
  2
Shades of Gray
 70
    23
177
     3
291
     0
 70
    58
 90
        2
176
     1
 90
        2
176
     1
 90
        3
176
     1
 90
        0
176
     1
 40
0.6
176
     1
 40
30.0
176
     1
 62
     7
420
 16777215
176
     1
 90
        2
176
     1
 90
        2
176
     1
 62
     7
176
     1
 62
     7
176
     1
 90
        1
176
     1
 90
        1
176
     1
 40
40.0
176
     1
 90
        8
176
     1
 62
     7
176
     1
 40
1.0
176
     1
 90
        1
176
     1
 90
        6
176
     1
 90
        2
176
     1
 62
     7
176
     1
 90
        3
176
     1
 90
        0
176
     1
 90
        0
176
     1
290
     0
176
     1
 90
        1
176
     1
 40
0.0
176
     1
 90
        0
176
     1
290
     0
176
     1
290
     1
176
     1
290
     1
176
     1
290
     0
176
     1
290
     0
176
     1
290
     0
176
     1
290
     0
176
     1
290
     0
176
     1
290
     0
176
     1
 90
       50
176
     1
 40
0.0
176
     1
 40
1.0
176
     1
 90
        0
176
     1
 62
    18
420
        0
176
     1
 90
       50
176
     1
 90
        3
176
     1
 62
     5
420
      255
176
     1
290
     0
176
     1
 90
       50
176
     1
 90
       50
176
     1
 90
       50
176
     1
290
     0
176
     1
 90
       50
176
     1
 62
   256
176
     0
 40
1.0
176
     0
 90
        2
176
     1
  1
strokes_ogs.tif
176
     1
290
     0
176
     1
 40
1.0
176
     1
 40
1.0
176
     1
  0
VISUALSTYLE
  5
7ECD
102
{ACAD_REACTORS
330
7EBB
102
}
330
7EBB
100
AcDbVisualStyle
  2
Sketchy
 70
    24
177
     3
291
     0
 70
    58
 90
        1
176
     1
 90
        2
176
     1
 90
        2
176
     1
 90
        0
176
     1
 40
0.6
176
     1
 40
30.0
176
     1
 62
     7
420
 16777215
176
     1
 90
        2
176
     1
 90
        2
176
     1
 62
     7
176
     1
 62
     7
176
     1
 90
        1
176
     1
 90
        1
176
     1
 40
40.0
176
     1
 90
       11
176
     1
 62
     7
176
     1
 40
1.0
176
     1
 90
        1
176
     1
 90
        6
176
     1
 90
        2
176
     1
 62
     7
176
     1
 90
        6
176
     1
 90
        0
176
     1
 90
        0
176
     1
290
     0
176
     1
 90
        1
176
     1
 40
0.0
176
     1
 90
        0
176
     1
290
     0
176
     1
290
     1
176
     1
290
     1
176
     1
290
     0
176
     1
290
     0
176
     1
290
     0
176
     1
290
     0
176
     1
290
     0
176
     1
290
     0
176
     1
 90
       50
176
     1
 40
0.0
176
     1
 40
1.0
176
     1
 90
        0
176
     1
 62
    18
420
        0
176
     1
 90
       50
176
     1
 90
        3
176
     1
 62
     5
420
      255
176
     1
290
     0
176
     1
 90
       50
176
     1
 90
       50
176
     1
 90
       50
176
     1
290
     0
176
     1
 90
       50
176
     1
 62
   256
176
     0
 40
1.0
176
     0
 90
        2
176
     1
  1
strokes_ogs.tif
176
     1
290
     0
176
     1
 40
1.0
176
     1
 40
1.0
176
     1
  0
VISUALSTYLE
  5
7EC8
102
{ACAD_REACTORS
330
7EBB
102
}
330
7EBB
100
AcDbVisualStyle
  2
Thicken
 70
    13
177
     3
291
     1
 70
    58
 90
        2
176
     1
 90
        2
176
     1
 90
        0
176
     1
 90
        0
176
     1
 40
0.6
176
     1
 40
30.0
176
     1
 62
     7
420
 16777215
176
     1
 90
        1
176
     1
 90
        4
176
     1
 62
     7
176
     1
 62
   257
176
     1
 90
        1
176
     1
 90
        1
176
     1
 40
1.0
176
     1
 90
       12
176
     1
 62
     7
176
     1
 40
1.0
176
     1
 90
        1
176
     1
 90
        6
176
     1
 90
        2
176
     1
 62
     7
176
     1
 90
        5
176
     1
 90
        0
176
     1
 90
        0
176
     1
290
     0
176
     1
 90
        1
176
     1
 40
0.0
176
     1
 90
        0
176
     1
290
     0
176
     1
290
     1
176
     1
290
     1
176
     1
290
     0
176
     1
290
     0
176
     1
290
     0
176
     1
290
     0
176
     1
290
     0
176
     1
290
     0
176
     1
 90
       50
176
     1
 40
0.0
176
     1
 40
1.0
176
     1
 90
        0
176
     1
 62
    18
420
        0
176
     1
 90
       50
176
     1
 90
        3
176
     1
 62
     5
420
      255
176
     1
290
     0
176
     1
 90
       50
176
     1
 90
       50
176
     1
 90
       50
176
     1
290
     0
176
     1
 90
       50
176
     1
 62
   256
176
     0
 40
1.0
176
     0
 90
        2
176
     1
  1
strokes_ogs.tif
176
     1
290
     0
176
     1
 40
1.0
176
     1
 40
1.0
176
     1
  0
VISUALSTYLE
  5
7EC2
102
{ACAD_REACTORS
330
7EBB
102
}
330
7EBB
100
AcDbVisualStyle
  2
Wireframe
 70
     5
177
     3
291
     0
 70
    58
 90
        0
176
     1
 90
        2
176
     1
 90
        0
176
     1
 90
        0
176
     1
 40
0.6
176
     1
 40
30.0
176
     1
 62
     7
420
 16777215
176
     1
 90
        1
176
     1
 90
        4
176
     1
 62
     7
176
     1
 62
   257
176
     1
 90
        1
176
     1
 90
        1
176
     1
 40
1.0
176
     1
 90
        0
176
     1
 62
   257
176
     1
 40
1.0
176
     1
 90
        1
176
     1
 90
        6
176
     1
 90
        2
176
     1
 62
     7
176
     1
 90
        3
176
     1
 90
        0
176
     1
 90
        0
176
     1
290
     0
176
     1
 90
        1
176
     1
 40
0.0
176
     1
 90
        0
176
     1
290
     0
176
     1
290
     1
176
     1
290
     1
176
     1
290
     0
176
     1
290
     0
176
     1
290
     0
176
     1
290
     0
176
     1
290
     0
176
     1
290
     0
176
     1
 90
       50
176
     1
 40
0.0
176
     1
 40
1.0
176
     1
 90
        0
176
     1
 62
    18
420
        0
176
     1
 90
       50
176
     1
 90
        3
176
     1
 62
     5
420
      255
176
     1
290
     0
176
     1
 90
       50
176
     1
 90
       50
176
     1
 90
       50
176
     1
290
     0
176
     1
 90
       50
176
     1
 62
   256
176
     0
 40
1.0
176
     0
 90
        2
176
     1
  1
strokes_ogs.tif
176
     1
290
     0
176
     1
 40
1.0
176
     1
 40
1.0
176
     1
  0
VISUALSTYLE
  5
7ECE
102
{ACAD_REACTORS
330
7EBB
102
}
330
7EBB
100
AcDbVisualStyle
  2
X-Ray
 70
    25
177
     3
291
     0
 70
    58
 90
        2
176
     1
 90
        2
176
     1
 90
        1
176
     1
 90
        1
176
     1
 40
0.5
176
     1
 40
30.0
176
     1
 62
     7
420
 16777215
176
     1
 90
        1
176
     1
 90
        0
176
     1
 62
     7
176
     1
 62
   257
176
     1
 90
        1
176
     1
 90
        1
176
     1
 40
1.0
176
     1
 90
        8
176
     1
 62
     7
176
     1
 40
1.0
176
     1
 90
        1
176
     1
 90
        6
176
     1
 90
        2
176
     1
 62
     7
176
     1
 90
        3
176
     1
 90
        0
176
     1
 90
        0
176
     1
290
     0
176
     1
 90
       13
176
     1
 40
0.0
176
     1
 90
        0
176
     1
290
     0
176
     1
290
     1
176
     1
290
     1
176
     1
290
     0
176
     1
290
     0
176
     1
290
     0
176
     1
290
     0
176
     1
290
     0
176
     1
290
     0
176
     1
 90
       50
176
     1
 40
0.0
176
     1
 40
1.0
176
     1
 90
        0
176
     1
 62
    18
420
        0
176
     1
 90
       50
176
     1
 90
        3
176
     1
 62
     5
420
      255
176
     1
290
     0
176
     1
 90
       50
176
     1
 90
       50
176
     1
 90
       50
176
     1
290
     0
176
     1
 90
       50
176
     1
 62
   256
176
     0
 40
1.0
176
     0
 90
        2
176
     1
  1
strokes_ogs.tif
176
     1
290
     0
176
     1
 40
1.0
176
     1
 40
1.0
176
     1
  0
DICTIONARYVAR
  5
7F6E
102
{ACAD_REACTORS
330
7E9A
102
}
330
7E9A
100
DictionaryVariables
280
     0
  1
1:1
  0
DICTIONARYVAR
  5
7F6A
102
{ACAD_REACTORS
330
7E9A
102
}
330
7E9A
100
DictionaryVariables
280
     0
  1
STANDARD
  0
DICTIONARYVAR
  5
7F69
102
{ACAD_REACTORS
330
7E9A
102
}
330
7E9A
100
DictionaryVariables
280
     0
  1
STANDARD
  0
DICTIONARYVAR
  5
7F6B
102
{ACAD_REACTORS
330
7E9A
102
}
330
7E9A
100
DictionaryVariables
280
     0
  1
Imperial24
  0
DICTIONARYVAR
  5
7F6C
102
{ACAD_REACTORS
330
7E9A
102
}
330
7E9A
100
DictionaryVariables
280
     0
  1
Imperial24
  0
DICTIONARYVAR
  5
7E9B
102
{ACAD_REACTORS
330
7E9A
102
}
330
7E9A
100
DictionaryVariables
280
     0
  1
1
  0
DICTIONARYVAR
  5
7F70
102
{ACAD_REACTORS
330
7E9A
102
}
330
7E9A
100
DictionaryVariables
280
     0
  1
1
  0
DICTIONARYVAR
  5
7F71
102
{ACAD_REACTORS
330
7E9A
102
}
330
7E9A
100
DictionaryVariables
280
     0
  1
15
  0
DICTIONARYVAR
  5
7F6F
102
{ACAD_REACTORS
330
7E9A
102
}
330
7E9A
100
DictionaryVariables
280
     0
  1
0
  0
DICTIONARYVAR
  5
7F6D
102
{ACAD_REACTORS
330
7E9A
102
}
330
7E9A
100
DictionaryVariables
280
     0
  1
0
  0
DICTIONARY
  5
7F66
330
7EEE
100
AcDbDictionary
280
     1
281
     1
  3
ACAD_XREC_ROUNDTRIP
360
7FE3
  0
DICTIONARY
  5
7EAC
330
7EAB
100
AcDbDictionary
280
     1
281
     1
  3
BUMPTILE
360
7EAE
  3
DIFFUSETILE
360
7EAD
  3
OPACITYTILE
360
7EB1
  3
REFLECTIONTILE
360
7EB0
  3
REFRACTIONTILE
360
7EB2
  3
SPECULARTILE
360
7EAF
  0
DICTIONARY
  5
7EA4
330
7EA3
100
AcDbDictionary
280
     1
281
     1
  3
BUMPTILE
360
7EA6
  3
DIFFUSETILE
360
7EA5
  3
OPACITYTILE
360
7EA9
  3
REFLECTIONTILE
360
7EA8
  3
REFRACTIONTILE
360
7EAA
  3
SPECULARTILE
360
7EA7
  0
DICTIONARY
  5
7EB4
330
7EB3
100
AcDbDictionary
280
     1
281
     1
  3
BUMPTILE
360
7EB6
  3
DIFFUSETILE
360
7EB5
  3
OPACITYTILE
360
7EB9
  3
REFLECTIONTILE
360
7EB8
  3
REFRACTIONTILE
360
7EBA
  3
SPECULARTILE
360
7EB7
  0
DICTIONARY
  5
7F64
330
7EEC
100
AcDbDictionary
280
     1
281
     1
  3
ACAD_XREC_ROUNDTRIP
360
7FE2
  0
DICTIONARY
  5
7FE0
330
7ED6
100
AcDbDictionary
280
     1
281
     1
  3
ACAD_ROUNDTRIP_2008_TABLESTYLE_CELLSTYLEMAP
360
7FE1
  0
XRECORD
  5
7FE3
102
{ACAD_REACTORS
330
7F66
102
}
330
7F66
100
AcDbXrecord
280
     1
102
DISPLAYNAME
  1
Imperial24
102
FLAGS
 90
        0
  0
XRECORD
  5
7EAE
102
{ACAD_REACTORS
330
7EAC
102
}
330
7EAC
100
AcDbXrecord
280
     1
270
     1
271
     1
  0
XRECORD
  5
7EAD
102
{ACAD_REACTORS
330
7EAC
102
}
330
7EAC
100
AcDbXrecord
280
     1
270
     1
271
     1
  0
XRECORD
  5
7EB1
102
{ACAD_REACTORS
330
7EAC
102
}
330
7EAC
100
AcDbXrecord
280
     1
270
     1
271
     1
  0
XRECORD
  5
7EB0
102
{ACAD_REACTORS
330
7EAC
102
}
330
7EAC
100
AcDbXrecord
280
     1
270
     1
271
     1
  0
XRECORD
  5
7EB2
102
{ACAD_REACTORS
330
7EAC
102
}
330
7EAC
100
AcDbXrecord
280
     1
270
     1
271
     1
  0
XRECORD
  5
7EAF
102
{ACAD_REACTORS
330
7EAC
102
}
330
7EAC
100
AcDbXrecord
280
     1
270
     1
271
     1
  0
XRECORD
  5
7EA6
102
{ACAD_REACTORS
330
7EA4
102
}
330
7EA4
100
AcDbXrecord
280
     1
270
     1
271
     1
  0
XRECORD
  5
7EA5
102
{ACAD_REACTORS
330
7EA4
102
}
330
7EA4
100
AcDbXrecord
280
     1
270
     1
271
     1
  0
XRECORD
  5
7EA9
102
{ACAD_REACTORS
330
7EA4
102
}
330
7EA4
100
AcDbXrecord
280
     1
270
     1
271
     1
  0
XRECORD
  5
7EA8
102
{ACAD_REACTORS
330
7EA4
102
}
330
7EA4
100
AcDbXrecord
280
     1
270
     1
271
     1
  0
XRECORD
  5
7EAA
102
{ACAD_REACTORS
330
7EA4
102
}
330
7EA4
100
AcDbXrecord
280
     1
270
     1
271
     1
  0
XRECORD
  5
7EA7
102
{ACAD_REACTORS
330
7EA4
102
}
330
7EA4
100
AcDbXrecord
280
     1
270
     1
271
     1
  0
XRECORD
  5
7EB6
102
{ACAD_REACTORS
330
7EB4
102
}
330
7EB4
100
AcDbXrecord
280
     1
270
     1
271
     1
  0
XRECORD
  5
7EB5
102
{ACAD_REACTORS
330
7EB4
102
}
330
7EB4
100
AcDbXrecord
280
     1
270
     1
271
     1
  0
XRECORD
  5
7EB9
102
{ACAD_REACTORS
330
7EB4
102
}
330
7EB4
100
AcDbXrecord
280
     1
270
     1
271
     1
  0
XRECORD
  5
7EB8
102
{ACAD_REACTORS
330
7EB4
102
}
330
7EB4
100
AcDbXrecord
280
     1
270
     1
271
     1
  0
XRECORD
  5
7EBA
102
{ACAD_REACTORS
330
7EB4
102
}
330
7EB4
100
AcDbXrecord
280
     1
270
     1
271
     1
  0
XRECORD
  5
7EB7
102
{ACAD_REACTORS
330
7EB4
102
}
330
7EB4
100
AcDbXrecord
280
     1
270
     1
271
     1
  0
XRECORD
  5
7FE2
102
{ACAD_REACTORS
330
7F64
102
}
330
7F64
100
AcDbXrecord
280
     1
102
DISPLAYNAME
  1
Imperial24
102
FLAGS
 90
        0
  0
CELLSTYLEMAP
  5
7FE1
102
{ACAD_REACTORS
330
7FE0
102
}
330
7FE0
100
AcDbCellStyleMap
 90
        3
300
CELLSTYLE
  1
TABLEFORMAT_BEGIN
 90
        5
170
     1
 91
        0
 92
    32768
 62
   257
 93
        1
300
CONTENTFORMAT
  1
CONTENTFORMAT_BEGIN
 90
        0
 91
        0
 92
      512
 93
        0
300

 40
0.0
140
1.0
 94
        5
 62
     0
340
10
144
0.25
309
CONTENTFORMAT_END
171
     0
 94
        0
309
TABLEFORMAT_END
  1
CELLSTYLE_BEGIN
 90
        1
 91
        1
300
_TITLE
309
CELLSTYLE_END
300
CELLSTYLE
  1
TABLEFORMAT_BEGIN
 90
        5
170
     1
 91
        0
 92
        0
 62
   257
 93
        1
300
CONTENTFORMAT
  1
CONTENTFORMAT_BEGIN
 90
        0
 91
        0
 92
      512
 93
        0
300

 40
0.0
140
1.0
 94
        5
 62
     0
340
10
144
0.18
309
CONTENTFORMAT_END
171
     0
 94
        0
309
TABLEFORMAT_END
  1
CELLSTYLE_BEGIN
 90
        2
 91
        1
300
_HEADER
309
CELLSTYLE_END
300
CELLSTYLE
  1
TABLEFORMAT_BEGIN
 90
        5
170
     1
 91
        0
 92
        0
 62
   257
 93
        1
300
CONTENTFORMAT
  1
CONTENTFORMAT_BEGIN
 90
        0
 91
        0
 92
      512
 93
        0
300

 40
0.0
140
1.0
 94
        2
 62
     0
340
10
144
0.18
309
CONTENTFORMAT_END
171
     0
 94
        0
309
TABLEFORMAT_END
  1
CELLSTYLE_BEGIN
 90
        3
 91
        2
300
_DATA
309
CELLSTYLE_END
  0
ENDSEC
  0
SECTION
  2
ACDSDATA
 70
     2
 71
     8
  0
ACDSSCHEMA
 90
        0
  1
AcDb_Thumbnail_Schema
  2
AcDbDs::ID
280
    10
 91
        8
  2
Thumbnail_Data
280
    15
 91
        0
101
ACDSRECORD
 95
        0
 90
        1
  2
AcDbDs::TreatedAsObjectData
280
     1
291
     1
101
ACDSRECORD
 95
        0
 90
        2
  2
AcDbDs::Legacy
280
     1
291
     1
101
ACDSRECORD
  1
AcDbDs::ID
 90
        3
  2
AcDs:Indexable
280
     1
291
     1
101
ACDSRECORD
  1
AcDbDs::ID
 90
        4
  2
AcDbDs::HandleAttribute
280
     7
282
     1
  0
ACDSSCHEMA
 90
        1
  1
AcDbDs::TreatedAsObjectDataSchema
  2
AcDbDs::TreatedAsObjectData
280
     1
 91
        0
  0
ACDSSCHEMA
 90
        2
  1
AcDbDs::LegacySchema
  2
AcDbDs::Legacy
280
     1
 91
        0
  0
ACDSSCHEMA
 90
        3
  1
AcDbDs::IndexedPropertySchema
  2
AcDs:Indexable
280
     1
 91
        0
  0
ACDSSCHEMA
 90
        4
  1
AcDbDs::HandleAttributeSchema
  2
AcDbDs::HandleAttribute
280
     7
 91
        1
284
     1
  0
ACDSRECORD
 90
        0
  2
AcDbDs::ID
280
    10
320
7DCC
  2
Thumbnail_Data
280
    15
 94
     1804
310
89504E470D0A1A0A0000000D49484452000001000000007C0803000000B13B9E5A00000300504C5445000000000000C8C8C80000000000000000000000000000000000000000000000000000330000660000990000CC0000FF0033000033330033660033990033CC0033FF0066000066330066660066990066CC0066FF0099
310
000099330099660099990099CC0099FF00CC0000CC3300CC6600CC9900CCCC00CCFF00FF0000FF3300FF6600FF9900FFCC00FFFF3300003300333300663300993300CC3300FF3333003333333333663333993333CC3333FF3366003366333366663366993366CC3366FF3399003399333399663399993399CC3399FF33CC00
310
33CC3333CC6633CC9933CCCC33CCFF33FF0033FF3333FF6633FF9933FFCC33FFFF6600006600336600666600996600CC6600FF6633006633336633666633996633CC6633FF6666006666336666666666996666CC6666FF6699006699336699666699996699CC6699FF66CC0066CC3366CC6666CC9966CCCC66CCFF66FF0066
310
FF3366FF6666FF9966FFCC66FFFF9900009900339900669900999900CC9900FF9933009933339933669933999933CC9933FF9966009966339966669966999966CC9966FF9999009999339999669999999999CC9999FF99CC0099CC3399CC6699CC9999CCCC99CCFF99FF0099FF3399FF6699FF9999FFCC99FFFFCC0000CC00
310
33CC0066CC0099CC00CCCC00FFCC3300CC3333CC3366CC3399CC33CCCC33FFCC6600CC6633CC6666CC6699CC66CCCC66FFCC9900CC9933CC9966CC9999CC99CCCC99FFCCCC00CCCC33CCCC66CCCC99CCCCCCCCCCFFCCFF00CCFF33CCFF66CCFF99CCFFCCCCFFFFFF0000FF0033FF0066FF0099FF00CCFF00FFFF3300FF3333
310
FF3366FF3399FF33CCFF33FFFF6600FF6633FF6666FF6699FF66CCFF66FFFF9900FF9933FF9966FF9999FF99CCFF99FFFFCC00FFCC33FFCC66FFCC99FFCCCCFFCCFFFFFF00FFFF33FFFF66FFFF99FFFFCCFFFFFF0000000D0D0D1A1A1A2828283535354343435050505D5D5D6B6B6B787878868686939393A1A1A1AEAEAEBB
310
BBBBC9C9C9D6D6D6E4E4E4F1F1F1FFFFFF00000000000000000000000000000000000000000000000000000000000008F1915C000003924944415478DAED9D49B224210886398E1BEE7F19AEE1BE3B4545D41CA287E816F817AFAA32B35E049F080E5408F01F2AEF048E943F5EB30B20AFF63A03B03ABD3B0F9809440C38D5
310
8FFF984C34E3FFF3EF02C03F0250F25BC972993B49BBC817006EBDFD4C00B9C47310D3968E9D6FEE0CBC0E0690B3FCE9B9ADDA2D9FD60FC5F2F2B5C301B48CAE3CA07A39BF0E1F60F60B6DF6B931407581D6C059750A6808FA53AD0B451608003112F4B81E6065FEB36FC7751CA022A664859E426C10000D00C6CB1D806485
310
3E3CCCC63D00F298EF242936F35DF67D872B20A15028140A85426E94FC9A8E45895F005D5A2F00D01D80A90B0400CB00E8128E4A3B5926505B1CA5FD570FC0001000EC86800D80250D3A03D0DF25309F06BE01800010005C6501A700D688EF02C03A141E47C5ED0DD99EFC506D639DF01900DFF10240F93A5E234167005C7B
310
C07D0CF00160ABF4FA847100E0130095E1A15F00E410C0BBAC03F8DD0742A15028E44F2E52E44700EE389006F0F38F3302E6478B836BD3EBF481CD2753FECD86537F7D0260CF033E78B70670AD9C902D0FB8840F73430580D7CE8C01286B81A9AE92929A16D2EC01BC76763880712D74DA28196DEB006405B9903200403529
310
329154AB24498203A86D0405E0EC40A8005C4522BC3102CA031E0120180250ECBF3C8009EC002C5DC01280699B4400C00A00AD0290BDC121C3690FA895D4B6005C65A134558BA21E1211B4EB5339A9150F40F6EFB2315A5B9ADB9E260FE895151C2D8FF70071EA9A045A102CB6D53942B5D222806E4D05C076318032DB2392
310
648FE357AE5A1A3C7D1B1D51CC87B544A603D879C03566060B0010C4E75B810407015EF2A1CE017A6C1000A78F044B9F4FCDF89A12DA2C813E0038BC928C637E33A40E723A803A039254A8BB408F01707A10441862E116C05316300000A46CB40DF0601C07809E0CD90130CDFFA7DAD16925680580E9F0DF14BC568A2E0B22
310
CB8376564346A5F93EA9E530F9DAF1005E3CE0668DD88E07C08B07480FB8D901B1FABBC2D52EEF00EEB68092CD10A026439663C0ED0F26081FA3200D2385B301BCDEA0310DEA4101011D3F139CB77A871B7A2B907600C814009A00C023002BF5119F6B85AD56027D8E011445C3A15028140A8542A19065B93F6021C38D49F9
310
CB774D00803B00C38903D3893CC3C133663C006E002806FB23188EF7805FF0EF6CA80B441084BD45FDA4A97E2CD57CD21658CF02FA709976F28833003D00C226F47BE80272CCDA7AD85C04C1BF05E007C84A3AAC37FBFAA90000000049454E44AE4260820C38B47052EC274EF972C019CDA89160A47E70ED80DF9105FE0035
310
8D4051C16977150000000049454E44AE426082454E44AE426082
  0
ENDSEC
  0
EOF
