  0
SECTION
  2
HEADER
  9
$ACADVER
  1
AC1009
  9
$INSBASE
 10
0.0
 20
0.0
 30
0.0
  9
$EXTMIN
 10
250.0
 20
300.0
 30
0.0
  9
$EXTMAX
 10
1850.0
 20
2786.6522620000001
 30
0.0
  9
$LIMMIN
 10
0.0
 20
0.0
  9
$LIMMAX
 10
297.0
 20
210.0
  9
$ORTHOMODE
 70
     0
  9
$REGENMODE
 70
     1
  9
$FILLMODE
 70
     0
  9
$QTEXTMODE
 70
     0
  9
$MIRRTEXT
 70
     1
  9
$DRAGMODE
 70
     2
  9
$LTSCALE
 40
100.0
  9
$OSMODE
 70
    37
  9
$ATTMODE
 70
     1
  9
$TEXTSIZE
 40
180.0
  9
$TRACEWID
 40
0.05
  9
$TEXTSTYLE
  7
STANDARD
  9
$CLAYER
  8
3
  9
$CELTYPE
  6
BYLAYER
  9
$CECOLOR
 62
   256
  9
$DIMSCALE
 40
10.0
  9
$DIMASZ
 40
2.0
  9
$DIMEXO
 40
0.5
  9
$DIMDLI
 40
10.0
  9
$DIMRND
 40
0.0
  9
$DIMDLE
 40
0.0
  9
$DIMEXE
 40
1.0
  9
$DIMTP
 40
1.0
  9
$DIMTM
 40
1.0
  9
$DIMTXT
 40
3.0
  9
$DIMCEN
 40
0.0
  9
$DIMTSZ
 40
0.0
  9
$DIMTOL
 70
     0
  9
$DIMLIM
 70
     0
  9
$DIMTIH
 70
     0
  9
$DIMTOH
 70
     0
  9
$DIMSE1
 70
     0
  9
$DIMSE2
 70
     0
  9
$DIMTAD
 70
     1
  9
$DIMZIN
 70
     8
  9
$DIMBLK
  1

  9
$DIMASO
 70
     1
  9
$DIMSHO
 70
     1
  9
$DIMPOST
  1

  9
$DIMAPOST
  1

  9
$DIMALT
 70
     0
  9
$DIMALTD
 70
     2
  9
$DIMALTF
 40
0.039
  9
$DIMLFAC
 40
1.0
  9
$DIMTOFL
 70
     1
  9
$DIMTVP
 40
0.0
  9
$DIMTIX
 70
     0
  9
$DIMSOXD
 70
     0
  9
$DIMSAH
 70
     1
  9
$DIMBLK1
  1
OPEN
  9
$DIMBLK2
  1
OPEN
  9
$DIMSTYLE
  2
IGA
  9
$DIMCLRD
 70
     0
  9
$DIMCLRE
 70
     0
  9
$DIMCLRT
 70
     0
  9
$DIMTFAC
 40
10.0
  9
$DIMGAP
 40
1.0
  9
$LUNITS
 70
     2
  9
$LUPREC
 70
     3
  9
$SKETCHINC
 40
0.1
  9
$FILLETRAD
 40
50.0
  9
$AUNITS
 70
     0
  9
$AUPREC
 70
     0
  9
$MENU
  1
acad
  9
$ELEVATION
 40
0.0
  9
$PELEVATION
 40
0.0
  9
$THICKNESS
 40
0.0
  9
$LIMCHECK
 70
     0
  9
$BLIPMODE
 70
     0
  9
$CHAMFERA
 40
0.5
  9
$CHAMFERB
 40
0.5
  9
$SKPOLY
 70
     0
  9
$TDCREATE
 40
2450737.6877446761
  9
$TDUPDATE
 40
2454953.8621192239
  9
$TDINDWG
 40
0.0111681944
  9
$TDUSRTIMER
 40
0.0111681944
  9
$USRTIMER
 70
     1
  9
$ANGBASE
 50
0.0
  9
$ANGDIR
 70
     0
  9
$PDMODE
 70
     0
  9
$PDSIZE
 40
0.0
  9
$PLINEWID
 40
0.0
  9
$COORDS
 70
     1
  9
$SPLFRAME
 70
     0
  9
$SPLINETYPE
 70
     6
  9
$SPLINESEGS
 70
     8
  9
$ATTDIA
 70
     0
  9
$ATTREQ
 70
     1
  9
$HANDLING
 70
 10241
  9
$HANDSEED
  5
7F5A
  9
$SURFTAB1
 70
     6
  9
$SURFTAB2
 70
     6
  9
$SURFTYPE
 70
     6
  9
$SURFU
 70
     6
  9
$SURFV
 70
     6
  9
$UCSNAME
  2

  9
$UCSORG
 10
0.0
 20
0.0
 30
0.0
  9
$UCSXDIR
 10
1.0
 20
0.0
 30
0.0
  9
$UCSYDIR
 10
0.0
 20
1.0
 30
0.0
  9
$PUCSNAME
  2

  9
$PUCSORG
 10
0.0
 20
0.0
 30
0.0
  9
$PUCSXDIR
 10
1.0
 20
0.0
 30
0.0
  9
$PUCSYDIR
 10
0.0
 20
1.0
 30
0.0
  9
$USERI1
 70
     0
  9
$USERI2
 70
     0
  9
$USERI3
 70
     0
  9
$USERI4
 70
     0
  9
$USERI5
 70
     0
  9
$USERR1
 40
0.0
  9
$USERR2
 40
0.0
  9
$USERR3
 40
0.0
  9
$USERR4
 40
0.0
  9
$USERR5
 40
0.0
  9
$WORLDVIEW
 70
     1
  9
$SHADEDGE
 70
     3
  9
$SHADEDIF
 70
    70
  9
$TILEMODE
 70
     1
  9
$MAXACTVP
 70
    16
  9
$PLIMCHECK
 70
     0
  9
$PEXTMIN
 10
1.0000000000000000E+020
 20
1.0000000000000000E+020
 30
1.0000000000000000E+020
  9
$PEXTMAX
 10
-1.0000000000000000E+020
 20
-1.0000000000000000E+020
 30
-1.0000000000000000E+020
  9
$PLIMMIN
 10
0.0
 20
0.0
  9
$PLIMMAX
 10
12.0
 20
9.0
  9
$UNITMODE
 70
     0
  9
$VISRETAIN
 70
     0
  9
$PLINEGEN
 70
     0
  9
$PSLTSCALE
 70
     1
  0
ENDSEC
  0
SECTION
  2
TABLES
  0
TABLE
  2
VPORT
 70
     2
  0
VPORT
  2
*ACTIVE
 70
     0
 10
0.0
 20
0.0
 11
1.0
 21
1.0
 12
2599.3954246823741
 22
1755.1102167937149
 13
0.0
 23
0.0
 14
10.0
 24
10.0
 15
10.0
 25
10.0
 16
0.0
 26
0.0
 36
1.0
 17
0.0
 27
0.0
 37
0.0
 40
3384.7202369232782
 41
1.5051150895140659
 42
50.0
 43
0.0
 44
0.0
 50
0.0
 51
0.0
 71
     0
 72
   100
 73
     1
 74
     0
 75
     0
 76
     0
 77
     0
 78
     0
  0
ENDTAB
  0
TABLE
  2
LTYPE
 70
     2
  0
LTYPE
  2
CONTINUOUS
 70
     0
  3
Solid line
 72
    65
 73
     0
 40
0.0
  0
LTYPE
  2
CENTER
 70
     0
  3
____ _ ____ _ ____ _ ____ _ ____ _ ____ _ ____ 
 72
    65
 73
     4
 40
2.0
 49
1.25
 49
-0.25
 49
0.25
 49
-0.25
  0
ENDTAB
  0
TABLE
  2
LAYER
 70
     6
  0
LAYER
  2
0
 70
     0
 62
     7
  6
CONTINUOUS
  0
LAYER
  2
3
 70
     0
 62
     2
  6
CONTINUOUS
  0
LAYER
  2
2
 70
     0
 62
     3
  6
CENTER
  0
LAYER
  2
1
 70
     0
 62
     4
  6
CONTINUOUS
  0
LAYER
  2
4
 70
     0
 62
     7
  6
CONTINUOUS
  0
LAYER
  2
DEFPOINTS
 70
     0
 62
     7
  6
CONTINUOUS
  0
ENDTAB
  0
TABLE
  2
STYLE
 70
     1
  0
STYLE
  2
STANDARD
 70
     0
 40
0.0
 41
1.0
 50
0.0
 71
     0
 42
180.0
  3
simplex.shx
  4
extfont.shx
  0
ENDTAB
  0
TABLE
  2
VIEW
 70
     0
  0
ENDTAB
  0
TABLE
  2
UCS
 70
     0
  0
ENDTAB
  0
TABLE
  2
APPID
 70
     1
  0
APPID
  2
ACAD
 70
     0
  0
ENDTAB
  0
TABLE
  2
DIMSTYLE
 70
     1
  0
DIMSTYLE
  2
IGA
 70
     0
  3

  4

  5

  6
OPEN
  7
OPEN
 40
2.0
 41
2.0
 42
0.5
 43
10.0
 44
1.0
 45
0.0
 46
0.0
 47
1.0
 48
1.0
140
3.0
141
0.0
142
0.0
143
0.03937
144
1.0
145
0.0
146
10.0
147
1.0
 71
     0
 72
     0
 73
     0
 74
     0
 75
     0
 76
     0
 77
     1
 78
     8
170
     0
171
     2
172
     0
173
     1
174
     0
175
     0
176
     0
177
     0
178
     0
  0
ENDTAB
  0
ENDSEC
  0
SECTION
  2
BLOCKS
  0
BLOCK
  8
0
  2
$MODEL_SPACE
 70
     0
 10
0.0
 20
0.0
 30
0.0
  3
$MODEL_SPACE
  1

  0
ENDBLK
  5
1B
  8
0
  0
BLOCK
 67
     1
  8
0
  2
$PAPER_SPACE
 70
     0
 10
0.0
 20
0.0
 30
0.0
  3
$PAPER_SPACE
  1

  0
ENDBLK
  5
18
 67
     1
  8
0
  0
BLOCK
  8
0
  2
_OPEN
 70
     0
 10
0.0
 20
0.0
 30
0.0
  3
_OPEN
  1

  0
LINE
  5
7B2D
  8
0
  6
BYBLOCK
 62
     0
 10
-1.0
 20
0.166667
 30
0.0
 11
0.0
 21
0.0
 31
0.0
  0
LINE
  5
7B2E
  8
0
  6
BYBLOCK
 62
     0
 10
0.0
 20
0.0
 30
0.0
 11
-1.0
 21
-0.166667
 31
0.0
  0
LINE
  5
7B2F
  8
0
  6
BYBLOCK
 62
     0
 10
0.0
 20
0.0
 30
0.0
 11
-1.0
 21
0.0
 31
0.0
  0
ENDBLK
  5
7B30
  8
0
  0
BLOCK
  8
0
  2
*D1
 70
     1
 10
0.0
 20
0.0
 30
0.0
  3
*D1
  1

  0
LINE
  5
7E9A
  8
3
  6
CONTINUOUS
 62
     0
 10
543.43206545822147
 20
790.29725912589265
 30
0.0
 11
543.43206545822147
 21
716.27885012589263
 31
0.0
  0
LINE
  5
7E9B
  8
3
  6
CONTINUOUS
 62
     0
 10
728.43206545822159
 20
790.29725912589265
 30
0.0
 11
728.43206545822159
 21
716.27885012589263
 31
0.0
  0
LINE
  5
7E9C
  8
3
  6
CONTINUOUS
 62
     0
 10
563.43206545822147
 20
726.27885012589263
 30
0.0
 11
708.43206545822147
 21
726.27885012589263
 31
0.0
  0
INSERT
  5
7E9D
  8
3
  6
CONTINUOUS
 62
     0
  2
_OPEN
 10
543.43206545822147
 20
726.27885012589263
 30
0.0
 41
20.0
 42
20.0
 43
20.0
 50
180.0
  0
INSERT
  5
7E9E
  8
3
  6
CONTINUOUS
 62
     0
  2
_OPEN
 10
728.43206545822159
 20
726.27885012589263
 30
0.0
 41
20.0
 42
20.0
 43
20.0
  0
TEXT
  8
3
  40
30
  5
7F46
  62
0
  72
0
  71
0
 10
584.755
 20
698.179
 30
0.000000
  1
185
  0
POINT
  5
7EA0
  8
DEFPOINTS
  6
CONTINUOUS
 62
     0
 10
543.43206545822147
 20
795.29725912589265
 30
0.0
  0
POINT
  5
7EA1
  8
DEFPOINTS
  6
CONTINUOUS
 62
     0
 10
728.43206545822159
 20
795.29725912589265
 30
0.0
  0
POINT
  5
7EA2
  8
DEFPOINTS
  6
CONTINUOUS
 62
     0
 10
728.43206545822159
 20
726.27885012589263
 30
0.0
  0
ENDBLK
  5
7B3D
  8
0
  0
BLOCK
  8
0
  2
*D2
 70
     1
 10
0.0
 20
0.0
 30
0.0
  3
*D2
  1

  0
LINE
  5
7EA3
  8
3
  6
CONTINUOUS
 62
     0
 10
1223.4320654582209
 20
790.29725912589265
 30
0.0
 11
1223.4320654582209
 21
716.27885012589263
 31
0.0
  0
LINE
  5
7EA4
  8
3
  6
CONTINUOUS
 62
     0
 10
748.43206545822159
 20
726.27885012589263
 30
0.0
 11
1203.4320654582209
 21
726.27885012589263
 31
0.0
  0
INSERT
  5
7EA5
  8
3
  6
CONTINUOUS
 62
     0
  2
_OPEN
 10
728.43206545822159
 20
726.27885012589263
 30
0.0
 41
20.0
 42
20.0
 43
20.0
 50
180.0
  0
INSERT
  5
7EA6
  8
3
  6
CONTINUOUS
 62
     0
  2
_OPEN
 10
1223.4320654582209
 20
726.27885012589263
 30
0.0
 41
20.0
 42
20.0
 43
20.0
  0
TEXT
  8
3
  40
30
  5
7F47
  62
0
  72
0
  71
0
 10
915.932
 20
698.179
 30
0.000000
  1
495
  0
POINT
  5
7EA8
  8
DEFPOINTS
  6
CONTINUOUS
 62
     0
 10
728.43206545822159
 20
795.29725912589265
 30
0.0
  0
POINT
  5
7EA9
  8
DEFPOINTS
  6
CONTINUOUS
 62
     0
 10
1223.4320654582209
 20
795.29725912589265
 30
0.0
  0
POINT
  5
7EAA
  8
DEFPOINTS
  6
CONTINUOUS
 62
     0
 10
1223.4320654582209
 20
726.27885012589263
 30
0.0
  0
ENDBLK
  5
7B49
  8
0
  0
BLOCK
  8
0
  2
*D3
 70
     1
 10
0.0
 20
0.0
 30
0.0
  3
*D3
  1

  0
LINE
  5
7EAB
  8
3
  6
CONTINUOUS
 62
     0
 10
568.43206545822147
 20
1143.297259125892
 30
0.0
 11
568.43206545822147
 21
1309.248361125892
 31
0.0
  0
LINE
  5
7EAC
  8
3
  6
CONTINUOUS
 62
     0
 10
728.43206545822159
 20
1272.864447125892
 30
0.0
 11
728.43206545822159
 21
1309.248361125892
 31
0.0
  0
LINE
  5
7EAD
  8
3
  6
CONTINUOUS
 62
     0
 10
548.43206545822159
 20
1299.248361125892
 30
0.0
 11
528.43206545822159
 21
1299.248361125892
 31
0.0
  0
LINE
  5
7EAE
  8
3
  6
CONTINUOUS
 62
     0
 10
748.43206545822159
 20
1299.248361125892
 30
0.0
 11
768.43206545822159
 21
1299.248361125892
 31
0.0
  0
LINE
  5
7EAF
  8
3
  6
CONTINUOUS
 62
     0
 10
568.43206545822147
 20
1299.248361125892
 30
0.0
 11
728.43206545822159
 21
1299.248361125892
 31
0.0
  0
INSERT
  5
7EB0
  8
3
  6
CONTINUOUS
 62
     0
  2
_OPEN
 10
568.43206545822147
 20
1299.248361125892
 30
0.0
 41
20.0
 42
20.0
 43
20.0
  0
INSERT
  5
7EB1
  8
3
  6
CONTINUOUS
 62
     0
  2
_OPEN
 10
728.43206545822159
 20
1299.248361125892
 30
0.0
 41
20.0
 42
20.0
 43
20.0
 50
180.0
  0
TEXT
  8
3
  40
30
  5
7F48
  62
0
  72
0
  71
0
 10
574.146
 20
1271.15
 30
0.000000
  1
160
  0
POINT
  5
7EB3
  8
DEFPOINTS
  6
CONTINUOUS
 62
     0
 10
568.43206545822147
 20
1138.297259125892
 30
0.0
  0
POINT
  5
7EB4
  8
DEFPOINTS
  6
CONTINUOUS
 62
     0
 10
728.43206545822159
 20
1267.864447125892
 30
0.0
  0
POINT
  5
7EB5
  8
DEFPOINTS
  6
CONTINUOUS
 62
     0
 10
728.43206545822159
 20
1299.248361125892
 30
0.0
  0
ENDBLK
  5
7B56
  8
0
  0
BLOCK
  8
0
  2
*D4
 70
     1
 10
0.0
 20
0.0
 30
0.0
  3
*D4
  1

  0
LINE
  5
7EB6
  8
3
  6
CONTINUOUS
 62
     0
 10
907.43206545822159
 20
1121.4407454643849
 30
0.0
 11
907.43206545822159
 21
1309.248361125892
 31
0.0
  0
LINE
  5
7EB7
  8
3
  6
CONTINUOUS
 62
     0
 10
748.43206545822159
 20
1299.248361125892
 30
0.0
 11
887.43206545822159
 21
1299.248361125892
 31
0.0
  0
INSERT
  5
7EB8
  8
3
  6
CONTINUOUS
 62
     0
  2
_OPEN
 10
728.43206545822159
 20
1299.248361125892
 30
0.0
 41
20.0
 42
20.0
 43
20.0
 50
180.0
  0
INSERT
  5
7EB9
  8
3
  6
CONTINUOUS
 62
     0
  2
_OPEN
 10
907.43206545822159
 20
1299.248361125892
 30
0.0
 41
20.0
 42
20.0
 43
20.0
  0
TEXT
  8
3
  40
30
  5
7F49
  62
0
  72
0
  71
0
 10
757.932
 20
1271.15
 30
0.000000
  1
179
  0
POINT
  5
7EBB
  8
DEFPOINTS
  6
CONTINUOUS
 62
     0
 10
728.43206545822159
 20
1267.864447125892
 30
0.0
  0
POINT
  5
7EBC
  8
DEFPOINTS
  6
CONTINUOUS
 62
     0
 10
907.43206545822159
 20
1116.4407454643849
 30
0.0
  0
POINT
  5
7EBD
  8
DEFPOINTS
  6
CONTINUOUS
 62
     0
 10
907.43206545822159
 20
1299.248361125892
 30
0.0
  0
ENDBLK
  5
7DA0
  8
0
  0
BLOCK
  8
0
  2
*D5
 70
     1
 10
0.0
 20
0.0
 30
0.0
  3
*D5
  1

  0
LINE
  5
7EBE
  8
3
  6
CONTINUOUS
 62
     0
 10
563.43206545822147
 20
1117.297259125892
 30
0.0
 11
516.31543845822182
 21
1117.297259125892
 31
0.0
  0
LINE
  5
7EBF
  8
3
  6
CONTINUOUS
 62
     0
 10
563.43206545822147
 20
917.29725912589254
 30
0.0
 11
516.31543845822182
 21
917.29725912589254
 31
0.0
  0
LINE
  5
7EC0
  8
3
  6
CONTINUOUS
 62
     0
 10
526.31543845822182
 20
1097.297259125892
 30
0.0
 11
526.31543845822182
 21
937.29725912589265
 31
0.0
  0
INSERT
  5
7EC1
  8
3
  6
CONTINUOUS
 62
     0
  2
_OPEN
 10
526.31543845822182
 20
1117.297259125892
 30
0.0
 41
20.0
 42
20.0
 43
20.0
 50
90.0
  0
INSERT
  5
7EC2
  8
3
  6
CONTINUOUS
 62
     0
  2
_OPEN
 10
526.31543845822182
 20
917.29725912589254
 30
0.0
 41
20.0
 42
20.0
 43
20.0
 50
270.0
  0
TEXT
  8
3
  40
30
  5
7F4A
  62
0
  72
0
  71
0
 10
441.315
 20
970.572
 30
0.000000
  1
200
  0
POINT
  5
7EC4
  8
DEFPOINTS
  6
CONTINUOUS
 62
     0
 10
568.43206545822147
 20
1117.297259125892
 30
0.0
  0
POINT
  5
7EC5
  8
DEFPOINTS
  6
CONTINUOUS
 62
     0
 10
568.43206545822147
 20
917.29725912589254
 30
0.0
  0
POINT
  5
7EC6
  8
DEFPOINTS
  6
CONTINUOUS
 62
     0
 10
526.31543845822182
 20
917.29725912589254
 30
0.0
  0
ENDBLK
  5
7B73
  8
0
  0
BLOCK
  8
0
  2
*D6
 70
     1
 10
0.0
 20
0.0
 30
0.0
  3
*D6
  1

  0
LINE
  5
7EC7
  8
3
  6
CONTINUOUS
 62
     0
 10
723.43206545822159
 20
1267.864447125892
 30
0.0
 11
403.41257718733323
 21
1267.8644471258931
 31
0.0
  0
LINE
  5
7EC8
  8
3
  6
CONTINUOUS
 62
     0
 10
563.43206545822147
 20
1117.297259125892
 30
0.0
 11
403.41257718733311
 21
1117.297259125892
 31
0.0
  0
LINE
  5
7EC9
  8
3
  6
CONTINUOUS
 62
     0
 10
413.41257718733323
 20
1247.8644471258931
 30
0.0
 11
413.41257718733311
 21
1137.297259125892
 31
0.0
  0
INSERT
  5
7ECA
  8
3
  6
CONTINUOUS
 62
     0
  2
_OPEN
 10
413.41257718733323
 20
1267.8644471258931
 30
0.0
 41
20.0
 42
20.0
 43
20.0
 50
90.0
  0
INSERT
  5
7ECB
  8
3
  6
CONTINUOUS
 62
     0
  2
_OPEN
 10
413.41257718733311
 20
1117.297259125892
 30
0.0
 41
20.0
 42
20.0
 43
20.0
 50
270.0
  0
TEXT
  8
3
  40
30
  5
7F4B
  62
0
  72
0
  71
0
 10
328.413
 20
1139.79
 30
0.000000
  1
151
  0
POINT
  5
7ECD
  8
DEFPOINTS
  6
CONTINUOUS
 62
     0
 10
728.43206545822159
 20
1267.864447125892
 30
0.0
  0
POINT
  5
7ECE
  8
DEFPOINTS
  6
CONTINUOUS
 62
     0
 10
568.43206545822147
 20
1117.297259125892
 30
0.0
  0
POINT
  5
7ECF
  8
DEFPOINTS
  6
CONTINUOUS
 62
     0
 10
413.41257718733311
 20
1117.297259125892
 30
0.0
  0
ENDBLK
  5
7D3B
  8
0
  0
BLOCK
  8
0
  2
*D7
 70
     1
 10
0.0
 20
0.0
 30
0.0
  3
*D7
  1

  0
LINE
  5
7ED0
  8
3
  6
CONTINUOUS
 62
     0
 10
1228.4320654582209
 20
2056.5159916571779
 30
0.0
 11
1320.9226534582219
 21
2056.5159916571779
 31
0.0
  0
LINE
  5
7ED1
  8
3
  6
CONTINUOUS
 62
     0
 10
1228.4320654582209
 20
1832.5159916571779
 30
0.0
 11
1320.9226534582219
 21
1832.5159916571779
 31
0.0
  0
LINE
  5
7ED2
  8
3
  6
CONTINUOUS
 62
     0
 10
1310.9226534582219
 20
2036.5159916571779
 30
0.0
 11
1310.9226534582219
 21
1852.5159916571779
 31
0.0
  0
INSERT
  5
7ED3
  8
3
  6
CONTINUOUS
 62
     0
  2
_OPEN
 10
1310.9226534582219
 20
2056.5159916571779
 30
0.0
 41
20.0
 42
20.0
 43
20.0
 50
90.0
  0
INSERT
  5
7ED4
  8
3
  6
CONTINUOUS
 62
     0
  2
_OPEN
 10
1310.9226534582219
 20
1832.5159916571779
 30
0.0
 41
20.0
 42
20.0
 43
20.0
 50
270.0
  0
TEXT
  8
3
  40
30
  5
7F4C
  62
0
  72
0
  71
0
 10
1225.92
 20
1887.38
 30
0.000000
  1
224
  0
POINT
  5
7ED6
  8
DEFPOINTS
  6
CONTINUOUS
 62
     0
 10
1223.4320654582209
 20
2056.5159916571779
 30
0.0
  0
POINT
  5
7ED7
  8
DEFPOINTS
  6
CONTINUOUS
 62
     0
 10
1223.4320654582209
 20
1832.5159916571779
 30
0.0
  0
POINT
  5
7ED8
  8
DEFPOINTS
  6
CONTINUOUS
 62
     0
 10
1310.9226534582219
 20
1832.5159916571779
 30
0.0
  0
ENDBLK
  5
7BB3
  8
0
  0
BLOCK
  8
0
  2
*D8
 70
     1
 10
0.0
 20
0.0
 30
0.0
  3
*D8
  1

  0
LINE
  5
7ED9
  8
3
  6
CONTINUOUS
 62
     0
 10
543.43206545822147
 20
1827.5159916571779
 30
0.0
 11
543.43206545822147
 21
1664.3283606571781
 31
0.0
  0
LINE
  5
7EDA
  8
3
  6
CONTINUOUS
 62
     0
 10
1223.4320654582209
 20
1827.5159916571779
 30
0.0
 11
1223.4320654582209
 21
1664.3283606571781
 31
0.0
  0
LINE
  5
7EDB
  8
3
  6
CONTINUOUS
 62
     0
 10
563.43206545822147
 20
1674.3283606571781
 30
0.0
 11
1203.4320654582209
 21
1674.3283606571781
 31
0.0
  0
INSERT
  5
7EDC
  8
3
  6
CONTINUOUS
 62
     0
  2
_OPEN
 10
543.43206545822147
 20
1674.3283606571781
 30
0.0
 41
20.0
 42
20.0
 43
20.0
 50
180.0
  0
INSERT
  5
7EDD
  8
3
  6
CONTINUOUS
 62
     0
  2
_OPEN
 10
1223.4320654582209
 20
1674.3283606571781
 30
0.0
 41
20.0
 42
20.0
 43
20.0
  0
TEXT
  8
3
  40
30
  5
7F4D
  62
0
  72
0
  71
0
 10
814.551
 20
1646.23
 30
0.000000
  1
680
  0
POINT
  5
7EDF
  8
DEFPOINTS
  6
CONTINUOUS
 62
     0
 10
543.43206545822147
 20
1832.5159916571779
 30
0.0
  0
POINT
  5
7EE0
  8
DEFPOINTS
  6
CONTINUOUS
 62
     0
 10
1223.4320654582209
 20
1832.5159916571779
 30
0.0
  0
POINT
  5
7EE1
  8
DEFPOINTS
  6
CONTINUOUS
 62
     0
 10
1223.4320654582209
 20
1674.3283606571781
 30
0.0
  0
ENDBLK
  5
7BC0
  8
0
  0
BLOCK
  8
0
  2
*D9
 70
     1
 10
0.0
 20
0.0
 30
0.0
  3
*D9
  1

  0
LINE
  5
7EE2
  8
3
  6
CONTINUOUS
 62
     0
 10
1451.8014529308491
 20
790.29725912589265
 30
0.0
 11
1451.8014529308491
 21
725.05870912589262
 31
0.0
  0
LINE
  5
7EE3
  8
3
  6
CONTINUOUS
 62
     0
 10
1665.8014529308491
 20
790.29725912589265
 30
0.0
 11
1665.8014529308491
 21
725.05870912589262
 31
0.0
  0
LINE
  5
7EE4
  8
3
  6
CONTINUOUS
 62
     0
 10
1471.8014529308491
 20
735.05870912589262
 30
0.0
 11
1645.8014529308491
 21
735.05870912589262
 31
0.0
  0
INSERT
  5
7EE5
  8
3
  6
CONTINUOUS
 62
     0
  2
_OPEN
 10
1451.8014529308491
 20
735.05870912589262
 30
0.0
 41
20.0
 42
20.0
 43
20.0
 50
180.0
  0
INSERT
  5
7EE6
  8
3
  6
CONTINUOUS
 62
     0
  2
_OPEN
 10
1665.8014529308491
 20
735.05870912589262
 30
0.0
 41
20.0
 42
20.0
 43
20.0
  0
TEXT
  8
3
  40
30
  5
7F4E
  62
0
  72
0
  71
0
 10
1494.52
 20
706.959
 30
0.000000
  1
214
  0
POINT
  5
7EE8
  8
DEFPOINTS
  6
CONTINUOUS
 62
     0
 10
1451.8014529308491
 20
795.29725912589265
 30
0.0
  0
POINT
  5
7EE9
  8
DEFPOINTS
  6
CONTINUOUS
 62
     0
 10
1665.8014529308491
 20
795.29725912589265
 30
0.0
  0
POINT
  5
7EEA
  8
DEFPOINTS
  6
CONTINUOUS
 62
     0
 10
1665.8014529308491
 20
735.05870912589262
 30
0.0
  0
ENDBLK
  5
7BCF
  8
0
  0
BLOCK
  8
0
  2
*D10
 70
     1
 10
0.0
 20
0.0
 30
0.0
  3
*D10
  1

  0
LINE
  5
7EEB
  8
3
  6
CONTINUOUS
 62
     0
 10
1675.8014529308491
 20
790.29725912589265
 30
0.0
 11
1675.8014529308491
 21
725.05870912589262
 31
0.0
  0
LINE
  5
7EEC
  8
3
  6
CONTINUOUS
 62
     0
 10
1645.8014529308491
 20
735.05870912589262
 30
0.0
 11
1625.8014529308491
 21
735.05870912589262
 31
0.0
  0
LINE
  5
7EED
  8
3
  6
CONTINUOUS
 62
     0
 10
1695.8014529308491
 20
735.05870912589262
 30
0.0
 11
1715.8014529308491
 21
735.05870912589262
 31
0.0
  0
TEXT
  8
3
  40
30
  5
7F4F
  62
0
  72
0
  71
0
 10
1653.39
 20
706.826
 30
0.000000
  1
10
  0
LINE
  5
7EEF
  8
3
  6
CONTINUOUS
 62
     0
 10
1665.8014529308491
 20
735.05870912589262
 30
0.0
 11
1675.8014529308491
 21
735.05870912589262
 31
0.0
  0
INSERT
  5
7EF0
  8
3
  6
CONTINUOUS
 62
     0
  2
_OPEN
 10
1665.8014529308491
 20
735.05870912589262
 30
0.0
 41
20.0
 42
20.0
 43
20.0
  0
INSERT
  5
7EF1
  8
3
  6
CONTINUOUS
 62
     0
  2
_OPEN
 10
1675.8014529308491
 20
735.05870912589262
 30
0.0
 41
20.0
 42
20.0
 43
20.0
 50
180.0
  0
POINT
  5
7EF2
  8
DEFPOINTS
  6
CONTINUOUS
 62
     0
 10
1665.8014529308491
 20
795.29725912589265
 30
0.0
  0
POINT
  5
7EF3
  8
DEFPOINTS
  6
CONTINUOUS
 62
     0
 10
1675.8014529308491
 20
795.29725912589265
 30
0.0
  0
POINT
  5
7EF4
  8
DEFPOINTS
  6
CONTINUOUS
 62
     0
 10
1675.8014529308491
 20
735.05870912589262
 30
0.0
  0
ENDBLK
  5
7BFA
  8
0
  0
BLOCK
  8
0
  2
*D11
 70
     1
 10
0.0
 20
0.0
 30
0.0
  3
*D11
  1

  0
LINE
  5
7EF5
  8
3
  6
CONTINUOUS
 62
     0
 10
1595.8014529308491
 20
1261.297259125892
 30
0.0
 11
1595.8014529308491
 21
1307.5312241258921
 31
0.0
  0
LINE
  5
7EF6
  8
3
  6
CONTINUOUS
 62
     0
 10
1735.8014529308491
 20
1261.297259125892
 30
0.0
 11
1735.8014529308491
 21
1307.5312241258921
 31
0.0
  0
LINE
  5
7EF7
  8
3
  6
CONTINUOUS
 62
     0
 10
1615.8014529308491
 20
1297.5312241258921
 30
0.0
 11
1715.8014529308491
 21
1297.5312241258921
 31
0.0
  0
INSERT
  5
7EF8
  8
3
  6
CONTINUOUS
 62
     0
  2
_OPEN
 10
1595.8014529308491
 20
1297.5312241258921
 30
0.0
 41
20.0
 42
20.0
 43
20.0
 50
180.0
  0
INSERT
  5
7EF9
  8
3
  6
CONTINUOUS
 62
     0
  2
_OPEN
 10
1735.8014529308491
 20
1297.5312241258921
 30
0.0
 41
20.0
 42
20.0
 43
20.0
  0
TEXT
  8
3
  40
30
  5
7F50
  62
0
  72
0
  71
0
 10
1610.09
 20
1269.43
 30
0.000000
  1
140
  0
POINT
  5
7EFB
  8
DEFPOINTS
  6
CONTINUOUS
 62
     0
 10
1595.8014529308491
 20
1256.297259125892
 30
0.0
  0
POINT
  5
7EFC
  8
DEFPOINTS
  6
CONTINUOUS
 62
     0
 10
1735.8014529308491
 20
1256.297259125892
 30
0.0
  0
POINT
  5
7EFD
  8
DEFPOINTS
  6
CONTINUOUS
 62
     0
 10
1735.8014529308491
 20
1297.5312241258921
 30
0.0
  0
ENDBLK
  5
7C06
  8
0
  0
BLOCK
  8
0
  2
*D12
 70
     1
 10
0.0
 20
0.0
 30
0.0
  3
*D12
  1

  0
LINE
  5
7EFE
  8
3
  6
CONTINUOUS
 62
     0
 10
1365.8014529308491
 20
1232.297259125892
 30
0.0
 11
1365.8014529308491
 21
1372.356530125892
 31
0.0
  0
LINE
  5
7EFF
  8
3
  6
CONTINUOUS
 62
     0
 10
1665.8014529308491
 20
1356.708455125892
 30
0.0
 11
1665.8014529308491
 21
1372.356530125892
 31
0.0
  0
LINE
  5
7F00
  8
3
  6
CONTINUOUS
 62
     0
 10
1385.8014529308491
 20
1362.356530125892
 30
0.0
 11
1645.8014529308491
 21
1362.356530125892
 31
0.0
  0
INSERT
  5
7F01
  8
3
  6
CONTINUOUS
 62
     0
  2
_OPEN
 10
1365.8014529308491
 20
1362.356530125892
 30
0.0
 41
20.0
 42
20.0
 43
20.0
 50
180.0
  0
INSERT
  5
7F02
  8
3
  6
CONTINUOUS
 62
     0
  2
_OPEN
 10
1665.8014529308491
 20
1362.356530125892
 30
0.0
 41
20.0
 42
20.0
 43
20.0
  0
TEXT
  8
3
  40
30
  5
7F51
  62
0
  72
0
  71
0
 10
1455.47
 20
1359.26
 30
0.000000
  1
MAX
  0
TEXT
  8
3
  40
30
  5
7F52
  62
0
  72
0
  71
0
 10
1455.47
 20
1320.26
 30
0.000000
  1
300
  0
POINT
  5
7F04
  8
DEFPOINTS
  6
CONTINUOUS
 62
     0
 10
1365.8014529308491
 20
1227.297259125892
 30
0.0
  0
POINT
  5
7F05
  8
DEFPOINTS
  6
CONTINUOUS
 62
     0
 10
1665.8014529308491
 20
1351.708455125892
 30
0.0
  0
POINT
  5
7F06
  8
DEFPOINTS
  6
CONTINUOUS
 62
     0
 10
1665.8014529308491
 20
1362.356530125892
 30
0.0
  0
ENDBLK
  5
7D79
  8
0
  0
BLOCK
  8
0
  2
*D13
 70
     1
 10
0.0
 20
0.0
 30
0.0
  3
*D13
  1

  0
LINE
  5
7F07
  8
3
  6
CONTINUOUS
 62
     0
 10
1743.8014529308491
 20
1242.297259125892
 30
0.0
 11
1743.8014529308491
 21
1372.356530125892
 31
0.0
  0
LINE
  5
7F08
  8
3
  6
CONTINUOUS
 62
     0
 10
1685.8014529308491
 20
1362.356530125892
 30
0.0
 11
1723.8014529308491
 21
1362.356530125892
 31
0.0
  0
TEXT
  8
3
  40
30
  5
7F53
  62
0
  72
0
  71
0
 10
1642.61
 20
1334.26
 30
0.000000
  1
78
  0
INSERT
  5
7F0A
  8
3
  6
CONTINUOUS
 62
     0
  2
_OPEN
 10
1665.8014529308491
 20
1362.356530125892
 30
0.0
 41
20.0
 42
20.0
 43
20.0
 50
180.0
  0
INSERT
  5
7F0B
  8
3
  6
CONTINUOUS
 62
     0
  2
_OPEN
 10
1743.8014529308491
 20
1362.356530125892
 30
0.0
 41
20.0
 42
20.0
 43
20.0
  0
POINT
  5
7F0C
  8
DEFPOINTS
  6
CONTINUOUS
 62
     0
 10
1665.8014529308491
 20
1351.708455125892
 30
0.0
  0
POINT
  5
7F0D
  8
DEFPOINTS
  6
CONTINUOUS
 62
     0
 10
1743.8014529308491
 20
1237.297259125892
 30
0.0
  0
POINT
  5
7F0E
  8
DEFPOINTS
  6
CONTINUOUS
 62
     0
 10
1743.8014529308491
 20
1362.356530125892
 30
0.0
  0
ENDBLK
  5
7D26
  8
0
  0
BLOCK
  8
0
  2
*D14
 70
     1
 10
0.0
 20
0.0
 30
0.0
  3
*D14
  1

  0
LINE
  5
7F0F
  8
3
  6
CONTINUOUS
 62
     0
 10
1748.8014529308491
 20
1217.297259125892
 30
0.0
 11
1825.5504899308489
 21
1217.297259125892
 31
0.0
  0
LINE
  5
7F10
  8
3
  6
CONTINUOUS
 62
     0
 10
1748.8014529308491
 20
1017.297259125892
 30
0.0
 11
1825.5504899308489
 21
1017.297259125892
 31
0.0
  0
LINE
  5
7F11
  8
3
  6
CONTINUOUS
 62
     0
 10
1815.5504899308489
 20
1197.297259125892
 30
0.0
 11
1815.5504899308489
 21
1037.297259125892
 31
0.0
  0
INSERT
  5
7F12
  8
3
  6
CONTINUOUS
 62
     0
  2
_OPEN
 10
1815.5504899308489
 20
1217.297259125892
 30
0.0
 41
20.0
 42
20.0
 43
20.0
 50
90.0
  0
INSERT
  5
7F13
  8
3
  6
CONTINUOUS
 62
     0
  2
_OPEN
 10
1815.5504899308489
 20
1017.297259125892
 30
0.0
 41
20.0
 42
20.0
 43
20.0
 50
270.0
  0
TEXT
  8
3
  40
30
  5
7F54
  62
0
  72
0
  71
0
 10
1730.55
 20
1062.89
 30
0.000000
  1
φ200
  0
POINT
  5
7F15
  8
DEFPOINTS
  6
CONTINUOUS
 62
     0
 10
1743.8014529308491
 20
1217.297259125892
 30
0.0
  0
POINT
  5
7F16
  8
DEFPOINTS
  6
CONTINUOUS
 62
     0
 10
1743.8014529308491
 20
1017.297259125892
 30
0.0
  0
POINT
  5
7F17
  8
DEFPOINTS
  6
CONTINUOUS
 62
     0
 10
1815.5504899308489
 20
1017.297259125892
 30
0.0
  0
ENDBLK
  5
7D84
  8
0
  0
BLOCK
  8
0
  2
*D15
 70
     1
 10
0.0
 20
0.0
 30
0.0
  3
*D15
  1

  0
LINE
  5
7F18
  8
3
  6
CONTINUOUS
 62
     0
 10
563.43206545822147
 20
842.29725912589254
 30
0.0
 11
403.412577187333
 21
842.29725912589254
 31
0.0
  0
LINE
  5
7F19
  8
3
  6
CONTINUOUS
 62
     0
 10
413.412577187333
 20
1097.297259125892
 30
0.0
 11
413.41257718733289
 21
862.29725912589265
 31
0.0
  0
INSERT
  5
7F1A
  8
3
  6
CONTINUOUS
 62
     0
  2
_OPEN
 10
413.412577187333
 20
1117.297259125892
 30
0.0
 41
20.0
 42
20.0
 43
20.0
 50
90.0
  0
INSERT
  5
7F1B
  8
3
  6
CONTINUOUS
 62
     0
  2
_OPEN
 10
413.41257718733289
 20
842.29725912589254
 30
0.0
 41
20.0
 42
20.0
 43
20.0
 50
270.0
  0
TEXT
  8
3
  40
30
  5
7F55
  62
0
  72
0
  71
0
 10
328.413
 20
926.697
 30
0.000000
  1
275
  0
POINT
  5
7F1D
  8
DEFPOINTS
  6
CONTINUOUS
 62
     0
 10
568.43206545822147
 20
1117.297259125892
 30
0.0
  0
POINT
  5
7F1E
  8
DEFPOINTS
  6
CONTINUOUS
 62
     0
 10
568.43206545822147
 20
842.29725912589254
 30
0.0
  0
POINT
  5
7F1F
  8
DEFPOINTS
  6
CONTINUOUS
 62
     0
 10
413.41257718733289
 20
842.29725912589254
 30
0.0
  0
ENDBLK
  5
7D45
  8
0
  0
BLOCK
  8
0
  2
*D16
 70
     1
 10
0.0
 20
0.0
 30
0.0
  3
*D16
  1

  0
LINE
  5
7F20
  8
3
  6
CONTINUOUS
 62
     0
 10
563.43206545822147
 20
842.29725912589254
 30
0.0
 11
404.02525318733302
 21
842.29725912589254
 31
0.0
  0
LINE
  5
7F21
  8
3
  6
CONTINUOUS
 62
     0
 10
538.43206545822147
 20
795.29725912589265
 30
0.0
 11
404.02525318733302
 21
795.29725912589265
 31
0.0
  0
LINE
  5
7F22
  8
3
  6
CONTINUOUS
 62
     0
 10
414.02525318733302
 20
862.29725912589265
 30
0.0
 11
414.02525318733302
 21
882.29725912589265
 31
0.0
  0
LINE
  5
7F23
  8
3
  6
CONTINUOUS
 62
     0
 10
414.02525318733302
 20
775.29725912589265
 30
0.0
 11
414.02525318733302
 21
686.72583055446398
 31
0.0
  0
LINE
  5
7F24
  8
3
  6
CONTINUOUS
 62
     0
 10
414.02525318733302
 20
842.29725912589254
 30
0.0
 11
414.02525318733302
 21
795.29725912589265
 31
0.0
  0
INSERT
  5
7F25
  8
3
  6
CONTINUOUS
 62
     0
  2
_OPEN
 10
414.02525318733302
 20
842.29725912589254
 30
0.0
 41
20.0
 42
20.0
 43
20.0
 50
270.0
  0
INSERT
  5
7F26
  8
3
  6
CONTINUOUS
 62
     0
  2
_OPEN
 10
414.02525318733302
 20
795.29725912589265
 30
0.0
 41
20.0
 42
20.0
 43
20.0
 50
90.0
  0
TEXT
  8
3
  40
30
  5
7F56
  62
0
  72
0
  71
0
 10
329.025
 20
667.912
 30
0.000000
  1
47
  0
POINT
  5
7F28
  8
DEFPOINTS
  6
CONTINUOUS
 62
     0
 10
568.43206545822147
 20
842.29725912589254
 30
0.0
  0
POINT
  5
7F29
  8
DEFPOINTS
  6
CONTINUOUS
 62
     0
 10
543.43206545822147
 20
795.29725912589265
 30
0.0
  0
POINT
  5
7F2A
  8
DEFPOINTS
  6
CONTINUOUS
 62
     0
 10
414.02525318733302
 20
795.29725912589265
 30
0.0
  0
ENDBLK
  5
7D6E
  8
0
  0
BLOCK
  8
0
  2
*D17
 70
     1
 10
0.0
 20
0.0
 30
0.0
  3
*D17
  1

  0
LINE
  5
7F2B
  8
3
  6
CONTINUOUS
 62
     0
 10
723.43206545822159
 20
1267.864447125892
 30
0.0
 11
332.48279918733311
 21
1267.8644471258931
 31
0.0
  0
LINE
  5
7F2C
  8
3
  6
CONTINUOUS
 62
     0
 10
538.43206545822147
 20
795.29725912589265
 30
0.0
 11
332.482799187333
 21
795.29725912589265
 31
0.0
  0
LINE
  5
7F2D
  8
3
  6
CONTINUOUS
 62
     0
 10
342.48279918733311
 20
1247.8644471258931
 30
0.0
 11
342.482799187333
 21
815.29725912589265
 31
0.0
  0
INSERT
  5
7F2E
  8
3
  6
CONTINUOUS
 62
     0
  2
_OPEN
 10
342.48279918733311
 20
1267.8644471258931
 30
0.0
 41
20.0
 42
20.0
 43
20.0
 50
90.0
  0
INSERT
  5
7F2F
  8
3
  6
CONTINUOUS
 62
     0
  2
_OPEN
 10
342.482799187333
 20
795.29725912589265
 30
0.0
 41
20.0
 42
20.0
 43
20.0
 50
270.0
  0
TEXT
  8
3
  40
30
  5
7F57
  62
0
  72
0
  71
0
 10
257.483
 20
993.054
 30
0.000000
  1
473
  0
POINT
  5
7F31
  8
DEFPOINTS
  6
CONTINUOUS
 62
     0
 10
728.43206545822159
 20
1267.864447125892
 30
0.0
  0
POINT
  5
7F32
  8
DEFPOINTS
  6
CONTINUOUS
 62
     0
 10
543.43206545822147
 20
795.29725912589265
 30
0.0
  0
POINT
  5
7F33
  8
DEFPOINTS
  6
CONTINUOUS
 62
     0
 10
342.482799187333
 20
795.29725912589265
 30
0.0
  0
ENDBLK
  5
7D5C
  8
0
  0
BLOCK
  8
0
  2
*D18
 70
     1
 10
0.0
 20
0.0
 30
0.0
  3
*D18
  1

  0
LINE
  5
7F34
  8
3
  6
CONTINUOUS
 62
     0
 10
578.43206545822159
 20
906.29725912589265
 30
0.0
 11
453.74174345822178
 21
906.29725912589265
 31
0.0
  0
LINE
  5
7F35
  8
3
  6
CONTINUOUS
 62
     0
 10
578.43206545822159
 20
1117.297259125892
 30
0.0
 11
453.74174345822178
 21
1117.297259125892
 31
0.0
  0
LINE
  5
7F36
  8
3
  6
CONTINUOUS
 62
     0
 10
463.74174345822178
 20
926.29725912589265
 30
0.0
 11
463.74174345822178
 21
1097.297259125892
 31
0.0
  0
INSERT
  5
7F37
  8
3
  6
CONTINUOUS
 62
     0
  2
_OPEN
 10
463.74174345822178
 20
906.29725912589265
 30
0.0
 41
20.0
 42
20.0
 43
20.0
 50
270.0
  0
INSERT
  5
7F38
  8
3
  6
CONTINUOUS
 62
     0
  2
_OPEN
 10
463.74174345822178
 20
1117.297259125892
 30
0.0
 41
20.0
 42
20.0
 43
20.0
 50
90.0
  0
TEXT
  8
3
  40
30
  5
7F58
  62
0
  72
0
  71
0
 10
378.742
 20
969.060
 30
0.000000
  1
211
  0
POINT
  5
7F3A
  8
DEFPOINTS
  6
CONTINUOUS
 62
     0
 10
583.43206545822147
 20
906.29725912589265
 30
0.0
  0
POINT
  5
7F3B
  8
DEFPOINTS
  6
CONTINUOUS
 62
     0
 10
583.43206545822147
 20
1117.297259125892
 30
0.0
  0
POINT
  5
7F3C
  8
DEFPOINTS
  6
CONTINUOUS
 62
     0
 10
463.74174345822178
 20
1117.297259125892
 30
0.0
  0
ENDBLK
  5
7D0B
  8
0
  0
BLOCK
  8
0
  2
*D19
 70
     1
 10
0.0
 20
0.0
 30
0.0
  3
*D19
  1

  0
LINE
  5
7F3D
  8
3
 62
     0
 10
568.43206545822147
 20
1143.297259125892
 30
0.0
 11
568.43206545822147
 21
1364.4483789315041
 31
0.0
  0
LINE
  5
7F3E
  8
3
 62
     0
 10
1223.4320654582209
 20
825.29725912589265
 30
0.0
 11
1223.4320654582209
 21
1364.4483789315041
 31
0.0
  0
LINE
  5
7F3F
  8
3
 62
     0
 10
588.43206545822147
 20
1354.4483789315041
 30
0.0
 11
1203.4320654582209
 21
1354.4483789315041
 31
0.0
  0
INSERT
  5
7F40
  8
3
 62
     0
  2
_OPEN
 10
568.43206545822147
 20
1354.4483789315041
 30
0.0
 41
20.0
 42
20.0
 43
20.0
 50
180.0
  0
INSERT
  5
7F41
  8
3
 62
     0
  2
_OPEN
 10
1223.4320654582209
 20
1354.4483789315041
 30
0.0
 41
20.0
 42
20.0
 43
20.0
  0
TEXT
  8
3
  40
30
  5
7F59
  62
0
  72
0
  71
0
 10
836.636
 20
1326.35
 30
0.000000
  1
655
  0
POINT
  5
7F43
  8
DEFPOINTS
 62
     0
 10
568.43206545822147
 20
1138.297259125892
 30
0.0
  0
POINT
  5
7F44
  8
DEFPOINTS
 62
     0
 10
1223.4320654582209
 20
820.29725912589265
 30
0.0
  0
POINT
  5
7F45
  8
DEFPOINTS
 62
     0
 10
1223.4320654582209
 20
1354.4483789315041
 30
0.0
  0
ENDBLK
  5
7D90
  8
0
  0
ENDSEC
  0
SECTION
  2
ENTITIES
  0
CIRCLE
  5
7A86
  8
1
  6
CONTINUOUS
 10
728.43206545822159
 20
1117.297259125892
 30
0.0
 40
120.0
  0
LINE
  5
7A87
  8
1
  6
CONTINUOUS
 10
1198.4320654582209
 20
892.29725912589254
 30
0.0
 11
568.43206545822147
 21
892.29725912589254
 31
0.0
  0
LINE
  5
7A88
  8
1
  6
CONTINUOUS
 10
1198.4320654582209
 20
842.29725912589254
 30
0.0
 11
568.43206545822147
 21
842.29725912589254
 31
0.0
  0
LINE
  5
7A89
  8
1
  6
CONTINUOUS
 10
676.83206545822156
 20
1242.297259125892
 30
0.0
 11
593.43206545822147
 21
1170.997259125892
 31
0.0
  0
LINE
  5
7A8A
  8
1
  6
CONTINUOUS
 10
863.43206545822159
 20
1150.5972591258919
 30
0.0
 11
593.43206545822147
 21
1150.5972591258919
 31
0.0
  0
ARC
  5
7A8B
  8
1
  6
CONTINUOUS
 10
739.43206545822159
 20
1128.297259125892
 30
0.0
 40
140.0
 50
89.400000000000006
 51
180.39999999999989
  0
LINE
  5
7A8C
  8
1
  6
CONTINUOUS
 10
583.43206545822147
 20
906.29725912589265
 30
0.0
 11
712.43206545822147
 21
906.29725912589265
 31
0.0
  0
LINE
  5
7A8D
  8
1
  6
CONTINUOUS
 10
1223.4320654582209
 20
820.29725912589265
 30
0.0
 11
543.43206545822147
 21
820.29725912589265
 31
0.0
  0
LINE
  5
7A8E
  8
1
  6
CONTINUOUS
 10
1223.4320654582209
 20
795.29725912589265
 30
0.0
 11
543.43206545822147
 21
795.29725912589265
 31
0.0
  0
LINE
  5
7A8F
  8
1
  6
CONTINUOUS
 10
583.43206545822147
 20
1117.297259125892
 30
0.0
 11
583.43206545822147
 21
1127.297259125892
 31
0.0
  0
LINE
  5
7A90
  8
1
  6
CONTINUOUS
 10
593.43206545822147
 20
892.29725912589254
 30
0.0
 11
593.43206545822147
 21
1170.997259125892
 31
0.0
  0
LINE
  5
7A91
  8
1
  6
CONTINUOUS
 10
568.43206545822147
 20
896.29725912589265
 30
0.0
 11
568.43206545822147
 21
1138.297259125892
 31
0.0
  0
LINE
  5
7A92
  8
1
  6
CONTINUOUS
 10
543.43206545822147
 20
795.29725912589265
 30
0.0
 11
543.43206545822147
 21
820.29725912589265
 31
0.0
  0
LINE
  5
7A93
  8
1
  6
CONTINUOUS
 10
568.43206545822147
 20
842.29725912589254
 30
0.0
 11
568.43206545822147
 21
892.29725912589254
 31
0.0
  0
LINE
  5
7A94
  8
1
  6
CONTINUOUS
 10
583.43206545822147
 20
906.29725912589265
 30
0.0
 11
583.43206545822147
 21
917.29725912589254
 31
0.0
  0
LINE
  5
7A95
  8
1
  6
CONTINUOUS
 10
568.43206545822147
 20
917.29725912589254
 30
0.0
 11
583.43206545822147
 21
917.29725912589254
 31
0.0
  0
LINE
  5
7A96
  8
1
  6
CONTINUOUS
 10
568.43206545822147
 20
1118.297259125892
 30
0.0
 11
583.43206545822147
 21
1103.297259125892
 31
0.0
  0
LINE
  5
7A97
  8
1
  6
CONTINUOUS
 10
583.43206545822147
 20
931.29725912589242
 30
0.0
 11
583.43206545822147
 21
1103.297259125892
 31
0.0
  0
LINE
  5
7A98
  8
1
  6
CONTINUOUS
 10
568.43206545822147
 20
916.29725912589265
 30
0.0
 11
583.43206545822147
 21
931.29725912589242
 31
0.0
  0
LINE
  5
7A99
  8
1
  6
CONTINUOUS
 10
568.43206545822147
 20
1117.297259125892
 30
0.0
 11
583.43206545822147
 21
1117.297259125892
 31
0.0
  0
LINE
  5
7A9A
  8
1
  6
CONTINUOUS
 10
583.43206545822147
 20
1127.297259125892
 30
0.0
 11
599.43206545822159
 21
1127.297259125892
 31
0.0
  0
LINE
  5
7A9B
  8
1
  6
CONTINUOUS
 10
940.13206545822175
 20
912.99725912589258
 30
0.0
 11
1191.1320654582209
 21
912.99725912589258
 31
0.0
  0
LINE
  5
7A9C
  8
1
  6
CONTINUOUS
 10
1151.4320654582209
 20
1227.297259125892
 30
0.0
 11
621.43206545822147
 21
1227.297259125892
 31
0.0
  0
CIRCLE
  5
7A9D
  8
1
  6
CONTINUOUS
 10
1028.6320654582209
 20
993.39725912589245
 30
0.0
 40
35.0
  0
ARC
  5
7A9E
  8
1
  6
CONTINUOUS
 10
1032.9320654582209
 20
992.99725912589247
 30
0.0
 40
85.0
 50
324.69999999999987
 51
215.30000000000001
  0
LINE
  5
7A9F
  8
2
  6
CENTER
 10
1063.6320654582209
 20
993.39725912589245
 30
0.0
 11
993.63206545822175
 21
993.39725912589245
 31
0.0
  0
LINE
  5
7AA0
  8
1
  6
CONTINUOUS
 10
749.63206545822163
 20
1162.5972591258919
 30
0.0
 11
1043.4320654582209
 21
1025.0972591258919
 31
0.0
  0
CIRCLE
  5
7AA1
  8
1
  6
CONTINUOUS
 10
728.43206545822159
 20
1117.297259125892
 30
0.0
 40
100.0
  0
LINE
  5
7AA2
  8
1
  6
CONTINUOUS
 10
621.43206545822147
 20
892.29725912589254
 30
0.0
 11
621.43206545822147
 21
1227.297259125892
 31
0.0
  0
LINE
  5
7AA3
  8
1
  6
CONTINUOUS
 10
863.43206545822159
 20
1170.997259125892
 30
0.0
 11
863.43206545822159
 21
892.29725912589254
 31
0.0
  0
ARC
  5
7AA4
  8
1
  6
CONTINUOUS
 10
742.43206545822147
 20
1103.297259125892
 30
0.0
 40
165.0
 50
359.69999999999999
 51
90.599999999999994
  0
LINE
  5
7AA5
  8
2
  6
CENTER
 10
728.43206545822159
 20
752.51771212589256
 30
0.0
 11
728.43206545822159
 21
1286.359397125892
 31
0.0
  0
CIRCLE
  5
7AA6
  8
1
  6
CONTINUOUS
 10
728.43206545822159
 20
1117.297259125892
 30
0.0
 40
50.0
  0
ARC
  5
7AA7
  8
1
  6
CONTINUOUS
 10
712.43206545822147
 20
1101.297259125892
 30
0.0
 40
195.0
 50
270.0
 51
0.3
  0
LINE
  5
7AA8
  8
1
  6
CONTINUOUS
 10
711.53206545822161
 20
1070.297259125892
 30
0.0
 11
1016.732065458221
 21
960.49725912589236
 31
0.0
  0
LINE
  5
7AA9
  8
2
  6
CENTER
 10
1768.665882930849
 20
1117.297259125892
 30
0.0
 11
1326.7408179308491
 21
1117.297259125892
 31
0.0
  0
LINE
  5
7AAA
  8
1
  6
CONTINUOUS
 10
940.13206545822175
 20
892.29725912589254
 30
0.0
 11
940.13206545822175
 21
912.99725912589258
 31
0.0
  0
LINE
  5
7AAB
  8
1
  6
CONTINUOUS
 10
955.43206545822159
 20
912.99725912589258
 30
0.0
 11
955.43206545822159
 21
920.99725912589258
 31
0.0
  0
LINE
  5
7AAC
  8
1
  6
CONTINUOUS
 10
955.43206545822159
 20
920.99725912589258
 30
0.0
 11
963.63206545822175
 21
943.79725912589242
 31
0.0
  0
LINE
  5
7AAD
  8
1
  6
CONTINUOUS
 10
780.03206545822161
 20
1242.297259125892
 30
0.0
 11
863.43206545822159
 21
1170.997259125892
 31
0.0
  0
LINE
  5
7AAE
  8
1
  6
CONTINUOUS
 10
676.83206545822156
 20
1242.297259125892
 30
0.0
 11
780.03206545822161
 21
1242.297259125892
 31
0.0
  0
LINE
  5
7AAF
  8
1
  6
CONTINUOUS
 10
1151.4320654582209
 20
892.29725912589254
 30
0.0
 11
1151.4320654582209
 21
1227.297259125892
 31
0.0
  0
LINE
  5
7AB0
  8
1
  6
CONTINUOUS
 10
1110.4320654582209
 20
920.99725912589258
 30
0.0
 11
1102.332065458221
 21
943.79725912589242
 31
0.0
  0
LINE
  5
7AB1
  8
1
  6
CONTINUOUS
 10
1110.4320654582209
 20
912.99725912589258
 30
0.0
 11
1110.4320654582209
 21
920.99725912589258
 31
0.0
  0
LINE
  5
7AB2
  8
2
  6
CENTER
 10
1028.6320654582209
 20
958.39725912589245
 30
0.0
 11
1028.6320654582209
 21
1028.3972591258921
 31
0.0
  0
LINE
  5
7AB3
  8
1
  6
CONTINUOUS
 10
1198.4320654582209
 20
842.29725912589254
 30
0.0
 11
1198.4320654582209
 21
892.29725912589254
 31
0.0
  0
LINE
  5
7AB4
  8
1
  6
CONTINUOUS
 10
1191.1320654582209
 20
912.99725912589258
 30
0.0
 11
1191.1320654582209
 21
892.29725912589254
 31
0.0
  0
LINE
  5
7AB5
  8
1
  6
CONTINUOUS
 10
1223.4320654582209
 20
795.29725912589265
 30
0.0
 11
1223.4320654582209
 21
820.29725912589265
 31
0.0
  0
LINE
  5
7AB6
  8
1
  6
CONTINUOUS
 10
543.43206545822147
 20
1832.5159916571779
 30
0.0
 11
716.43206545822159
 21
1832.5159916571779
 31
0.0
  0
LINE
  5
7AB7
  8
1
  6
CONTINUOUS
 10
608.43206545822147
 20
1968.5159916571779
 30
0.0
 11
848.43206545822159
 21
1968.5159916571779
 31
0.0
  0
LINE
  5
7AB8
  8
1
  6
CONTINUOUS
 10
568.43206545822147
 20
2116.515991657177
 30
0.0
 11
897.43206545822159
 21
2116.515991657177
 31
0.0
  0
LINE
  5
7AB9
  8
1
  6
CONTINUOUS
 10
568.43206545822147
 20
1976.515991657177
 30
0.0
 11
897.43206545822159
 21
1976.515991657177
 31
0.0
  0
LINE
  5
7ABA
  8
1
  6
CONTINUOUS
 10
608.43206545822147
 20
2124.515991657177
 30
0.0
 11
848.43206545822159
 21
2124.515991657177
 31
0.0
  0
LINE
  5
7ABB
  8
1
  6
CONTINUOUS
 10
568.43206545822147
 20
2137.515991657177
 30
0.0
 11
568.43206545822147
 21
1955.515991657177
 31
0.0
  0
LINE
  5
7ABC
  8
1
  6
CONTINUOUS
 10
543.43206545822147
 20
2056.5159916571779
 30
0.0
 11
568.43206545822147
 21
2056.5159916571779
 31
0.0
  0
LINE
  5
7ABD
  8
1
  6
CONTINUOUS
 10
543.43206545822147
 20
1832.5159916571779
 30
0.0
 11
543.43206545822147
 21
2056.5159916571779
 31
0.0
  0
LINE
  5
7ABE
  8
1
  6
CONTINUOUS
 10
608.43206545822147
 20
1976.515991657177
 30
0.0
 11
608.43206545822147
 21
1968.5159916571779
 31
0.0
  0
LINE
  5
7ABF
  8
1
  6
CONTINUOUS
 10
568.43206545822147
 20
1975.5159916571779
 30
0.0
 11
583.43206545822147
 21
1990.515991657177
 31
0.0
  0
LINE
  5
7AC0
  8
1
  6
CONTINUOUS
 10
583.43206545822147
 20
2102.5159916571779
 30
0.0
 11
583.43206545822147
 21
1990.515991657177
 31
0.0
  0
LINE
  5
7AC1
  8
1
  6
CONTINUOUS
 10
568.43206545822147
 20
2117.5159916571779
 30
0.0
 11
583.43206545822147
 21
2102.5159916571779
 31
0.0
  0
LINE
  5
7AC2
  8
1
  6
CONTINUOUS
 10
608.43206545822147
 20
2116.515991657177
 30
0.0
 11
608.43206545822147
 21
2124.515991657177
 31
0.0
  0
LINE
  5
7AC3
  8
1
  6
CONTINUOUS
 10
621.43206545822147
 20
1746.5159916571779
 30
0.0
 11
1151.4320654582209
 21
1746.5159916571779
 31
0.0
  0
LINE
  5
7AC4
  8
1
  6
CONTINUOUS
 10
621.43206545822147
 20
1821.5159916571779
 30
0.0
 11
1151.4320654582209
 21
1821.5159916571779
 31
0.0
  0
LINE
  5
7AC5
  8
1
  6
CONTINUOUS
 10
1063.6320654582209
 20
1799.0159916571779
 30
0.0
 11
993.63206545822175
 21
1799.0159916571779
 31
0.0
  0
LINE
  5
7AC6
  8
1
  6
CONTINUOUS
 10
1063.6320654582209
 20
1769.0159916571779
 30
0.0
 11
993.63206545822175
 21
1769.0159916571779
 31
0.0
  0
LINE
  5
7AC7
  8
1
  6
CONTINUOUS
 10
947.9320654582217
 20
2042.615991657178
 30
0.0
 11
1117.9320654582209
 21
2042.615991657178
 31
0.0
  0
LINE
  5
7AC8
  8
1
  6
CONTINUOUS
 10
947.9320654582217
 20
1851.7159916571779
 30
0.0
 11
1117.9320654582209
 21
1851.7159916571779
 31
0.0
  0
LINE
  5
7AC9
  8
1
  6
CONTINUOUS
 10
907.4320654582217
 20
2056.5159916571779
 30
0.0
 11
1223.4320654582209
 21
2056.5159916571779
 31
0.0
  0
LINE
  5
7ACA
  8
1
  6
CONTINUOUS
 10
740.43206545822159
 20
1832.5159916571779
 30
0.0
 11
1016.6320654582209
 21
1832.5159916571779
 31
0.0
  0
LINE
  5
7ACB
  8
1
  6
CONTINUOUS
 10
716.43206545822159
 20
1968.5159916571779
 30
0.0
 11
716.43206545822159
 21
1799.0159916571779
 31
0.0
  0
LINE
  5
7ACC
  8
1
  6
CONTINUOUS
 10
740.43206545822159
 20
1968.5159916571779
 30
0.0
 11
740.43206545822159
 21
1799.0159916571779
 31
0.0
  0
LINE
  5
7ACD
  8
1
  6
CONTINUOUS
 10
778.43206545822159
 20
1769.0159916571779
 30
0.0
 11
678.43206545822159
 21
1769.0159916571779
 31
0.0
  0
LINE
  5
7ACE
  8
1
  6
CONTINUOUS
 10
778.43206545822159
 20
1799.0159916571779
 30
0.0
 11
678.43206545822159
 21
1799.0159916571779
 31
0.0
  0
LINE
  5
7ACF
  8
1
  6
CONTINUOUS
 10
621.43206545822147
 20
1746.5159916571779
 30
0.0
 11
621.43206545822147
 21
1821.5159916571779
 31
0.0
  0
LINE
  5
7AD0
  8
1
  6
CONTINUOUS
 10
678.43206545822159
 20
1769.0159916571779
 30
0.0
 11
678.43206545822159
 21
1799.0159916571779
 31
0.0
  0
LINE
  5
7AD1
  8
1
  6
CONTINUOUS
 10
778.43206545822159
 20
1769.0159916571779
 30
0.0
 11
778.43206545822159
 21
1799.0159916571779
 31
0.0
  0
LINE
  5
7AD2
  8
1
  6
CONTINUOUS
 10
1016.6320654582209
 20
1799.0159916571779
 30
0.0
 11
1016.6320654582209
 21
1851.7159916571779
 31
0.0
  0
LINE
  5
7AD3
  8
1
  6
CONTINUOUS
 10
993.63206545822175
 20
1769.0159916571779
 30
0.0
 11
993.63206545822175
 21
1799.0159916571779
 31
0.0
  0
LINE
  5
7AD4
  8
1
  6
CONTINUOUS
 10
848.43206545822159
 20
1976.515991657177
 30
0.0
 11
848.43206545822159
 21
1968.5159916571779
 31
0.0
  0
ARC
  5
7AD5
  8
1
  6
CONTINUOUS
 10
897.43206545822159
 20
1986.5159916571779
 30
0.0
 40
10.0
 50
270.0
 51
0.0
  0
ARC
  5
7AD6
  8
1
  6
CONTINUOUS
 10
897.43206545822159
 20
2106.5159916571779
 30
0.0
 40
10.0
 50
0.0
 51
90.0
  0
LINE
  5
7AD7
  8
1
  6
CONTINUOUS
 10
907.4320654582217
 20
2106.5159916571779
 30
0.0
 11
907.4320654582217
 21
1986.5159916571779
 31
0.0
  0
LINE
  5
7AD8
  8
1
  6
CONTINUOUS
 10
848.43206545822159
 20
2116.515991657177
 30
0.0
 11
848.43206545822159
 21
2124.515991657177
 31
0.0
  0
LINE
  5
7AD9
  8
1
  6
CONTINUOUS
 10
947.9320654582217
 20
1851.7159916571779
 30
0.0
 11
947.9320654582217
 21
2042.615991657178
 31
0.0
  0
LINE
  5
7ADA
  8
1
  6
CONTINUOUS
 10
1040.6320654582209
 20
1832.5159916571779
 30
0.0
 11
1223.4320654582209
 21
1832.5159916571779
 31
0.0
  0
LINE
  5
7ADB
  8
1
  6
CONTINUOUS
 10
1040.6320654582209
 20
1799.0159916571779
 30
0.0
 11
1040.6320654582209
 21
1851.7159916571779
 31
0.0
  0
LINE
  5
7ADC
  8
1
  6
CONTINUOUS
 10
1063.6320654582209
 20
1769.0159916571779
 30
0.0
 11
1063.6320654582209
 21
1799.0159916571779
 31
0.0
  0
LINE
  5
7ADD
  8
1
  6
CONTINUOUS
 10
1151.4320654582209
 20
1746.5159916571779
 30
0.0
 11
1151.4320654582209
 21
1821.5159916571779
 31
0.0
  0
LINE
  5
7ADE
  8
1
  6
CONTINUOUS
 10
1117.9320654582209
 20
1851.7159916571779
 30
0.0
 11
1117.9320654582209
 21
2042.615991657178
 31
0.0
  0
LINE
  5
7ADF
  8
1
  6
CONTINUOUS
 10
1223.4320654582209
 20
1832.5159916571779
 30
0.0
 11
1223.4320654582209
 21
2056.5159916571779
 31
0.0
  0
LINE
  5
7AE1
  8
1
  6
CONTINUOUS
 10
1451.8014529308491
 20
795.29725912589265
 30
0.0
 11
1675.8014529308491
 21
795.29725912589265
 31
0.0
  0
LINE
  5
7AE2
  8
1
  6
CONTINUOUS
 10
1451.8014529308491
 20
820.29725912589265
 30
0.0
 11
1675.8014529308491
 21
820.29725912589265
 31
0.0
  0
LINE
  5
7AE3
  8
1
  6
CONTINUOUS
 10
1475.8014529308491
 20
1083.997259125892
 30
0.0
 11
1587.8014529308491
 21
1170.997259125892
 31
0.0
  0
LINE
  5
7AE4
  8
1
  6
CONTINUOUS
 10
1365.8014529308491
 20
892.29725912589254
 30
0.0
 11
1675.8014529308491
 21
892.29725912589254
 31
0.0
  0
LINE
  5
7AE5
  8
1
  6
CONTINUOUS
 10
1451.8014529308491
 20
842.29725912589254
 30
0.0
 11
1675.8014529308491
 21
842.29725912589254
 31
0.0
  0
LINE
  5
7AE6
  8
1
  6
CONTINUOUS
 10
1418.3014529308491
 20
1167.297259125892
 30
0.0
 11
1418.3014529308491
 21
1067.297259125892
 31
0.0
  0
LINE
  5
7AE7
  8
1
  6
CONTINUOUS
 10
1388.3014529308491
 20
1167.297259125892
 30
0.0
 11
1388.3014529308491
 21
1067.297259125892
 31
0.0
  0
LINE
  5
7AE8
  8
1
  6
CONTINUOUS
 10
1440.8014529308491
 20
1227.297259125892
 30
0.0
 11
1440.8014529308491
 21
892.29725912589254
 31
0.0
  0
LINE
  5
7AE9
  8
1
  6
CONTINUOUS
 10
1365.8014529308491
 20
1227.297259125892
 30
0.0
 11
1365.8014529308491
 21
892.29725912589254
 31
0.0
  0
LINE
  5
7AED
  8
1
  6
CONTINUOUS
 10
1451.8014529308491
 20
820.29725912589265
 30
0.0
 11
1451.8014529308491
 21
795.29725912589265
 31
0.0
  0
LINE
  5
7AEE
  8
1
  6
CONTINUOUS
 10
1418.3014529308491
 20
1105.297259125892
 30
0.0
 11
1503.201452930849
 21
1105.297259125892
 31
0.0
  0
LINE
  5
7AEF
  8
1
  6
CONTINUOUS
 10
1418.3014529308491
 20
981.39725912589245
 30
0.0
 11
1475.8014529308491
 21
981.39725912589245
 31
0.0
  0
LINE
  5
7AF0
  8
1
  6
CONTINUOUS
 10
1418.3014529308491
 20
1005.397259125892
 30
0.0
 11
1475.8014529308491
 21
1005.397259125892
 31
0.0
  0
LINE
  5
7AF1
  8
1
  6
CONTINUOUS
 10
1388.3014529308491
 20
958.39725912589245
 30
0.0
 11
1418.3014529308491
 21
958.39725912589245
 31
0.0
  0
LINE
  5
7AF2
  8
1
  6
CONTINUOUS
 10
1388.3014529308491
 20
1028.3972591258921
 30
0.0
 11
1418.3014529308491
 21
1028.3972591258921
 31
0.0
  0
LINE
  5
7AF3
  8
1
  6
CONTINUOUS
 10
1418.3014529308491
 20
1028.3972591258921
 30
0.0
 11
1418.3014529308491
 21
958.39725912589245
 31
0.0
  0
LINE
  5
7AF4
  8
1
  6
CONTINUOUS
 10
1388.3014529308491
 20
1028.3972591258921
 30
0.0
 11
1388.3014529308491
 21
958.39725912589245
 31
0.0
  0
LINE
  5
7AF5
  8
1
  6
CONTINUOUS
 10
1388.3014529308491
 20
1067.297259125892
 30
0.0
 11
1418.3014529308491
 21
1067.297259125892
 31
0.0
  0
LINE
  5
7AF6
  8
1
  6
CONTINUOUS
 10
1475.8014529308491
 20
1083.997259125892
 30
0.0
 11
1475.8014529308491
 21
892.29725912589254
 31
0.0
  0
LINE
  5
7AF7
  8
1
  6
CONTINUOUS
 10
1451.8014529308491
 20
892.29725912589254
 30
0.0
 11
1451.8014529308491
 21
842.29725912589254
 31
0.0
  0
LINE
  5
7AF8
  8
1
  6
CONTINUOUS
 10
1418.3014529308491
 20
1129.297259125892
 30
0.0
 11
1534.1014529308491
 21
1129.297259125892
 31
0.0
  0
LINE
  5
7AF9
  8
1
  6
CONTINUOUS
 10
1388.3014529308491
 20
1167.297259125892
 30
0.0
 11
1418.3014529308491
 21
1167.297259125892
 31
0.0
  0
LINE
  5
7AFA
  8
1
  6
CONTINUOUS
 10
1365.8014529308491
 20
1227.297259125892
 30
0.0
 11
1440.8014529308491
 21
1227.297259125892
 31
0.0
  0
LINE
  5
7AFB
  8
1
  6
CONTINUOUS
 10
1743.8014529308491
 20
997.29725912589242
 30
0.0
 11
1743.8014529308491
 21
1237.297259125892
 31
0.0
  0
LINE
  5
7AFC
  8
1
  6
CONTINUOUS
 10
1735.8014529308491
 20
1256.297259125892
 30
0.0
 11
1735.8014529308491
 21
917.29725912589254
 31
0.0
  0
LINE
  5
7AFD
  8
1
  6
CONTINUOUS
 10
1595.8014529308491
 20
917.29725912589254
 30
0.0
 11
1595.8014529308491
 21
1256.297259125892
 31
0.0
  0
LINE
  5
7AFE
  8
1
  6
CONTINUOUS
 10
1588.0014529308489
 20
892.29725912589254
 30
0.0
 11
1588.0014529308489
 21
1237.297259125892
 31
0.0
  0
LINE
  5
7AFF
  8
1
  6
CONTINUOUS
 10
1675.8014529308491
 20
820.29725912589265
 30
0.0
 11
1675.8014529308491
 21
795.29725912589265
 31
0.0
  0
LINE
  5
7B00
  8
1
  6
CONTINUOUS
 10
1595.8014529308491
 20
1117.297259125892
 30
0.0
 11
1735.8014529308491
 21
1117.297259125892
 31
0.0
  0
LINE
  5
7B01
  8
1
  6
CONTINUOUS
 10
1735.8014529308491
 20
917.29725912589254
 30
0.0
 11
1595.8014529308491
 21
917.29725912589254
 31
0.0
  0
LINE
  5
7B02
  8
1
  6
CONTINUOUS
 10
1595.8014529308491
 20
917.29725912589254
 30
0.0
 11
1735.8014529308491
 21
1117.297259125892
 31
0.0
  0
LINE
  5
7B03
  8
1
  6
CONTINUOUS
 10
1735.8014529308491
 20
917.29725912589254
 30
0.0
 11
1595.8014529308491
 21
1117.297259125892
 31
0.0
  0
LINE
  5
7B04
  8
1
  6
CONTINUOUS
 10
1596.0014529308489
 20
997.29725912589242
 30
0.0
 11
1588.0014529308489
 21
997.29725912589242
 31
0.0
  0
LINE
  5
7B05
  8
1
  6
CONTINUOUS
 10
1735.6014529308491
 20
997.29725912589242
 30
0.0
 11
1743.8014529308491
 21
997.29725912589242
 31
0.0
  0
LINE
  5
7B06
  8
1
  6
CONTINUOUS
 10
1675.8014529308491
 20
892.29725912589254
 30
0.0
 11
1675.8014529308491
 21
842.29725912589254
 31
0.0
  0
LINE
  5
7B07
  8
1
  6
CONTINUOUS
 10
1607.8014529308491
 20
1268.297259125892
 30
0.0
 11
1723.8014529308491
 21
1268.297259125892
 31
0.0
  0
LINE
  5
7B08
  8
1
  6
CONTINUOUS
 10
1596.0014529308489
 20
1237.297259125892
 30
0.0
 11
1588.0014529308489
 21
1237.297259125892
 31
0.0
  0
ARC
  5
7B09
  8
1
  6
CONTINUOUS
 10
1607.8014529308491
 20
1256.297259125892
 30
0.0
 40
12.0
 50
90.0
 51
180.0
  0
LINE
  5
7B0A
  8
1
  6
CONTINUOUS
 10
1735.6014529308491
 20
1237.297259125892
 30
0.0
 11
1743.8014529308491
 21
1237.297259125892
 31
0.0
  0
ARC
  5
7B0B
  8
1
  6
CONTINUOUS
 10
1723.8014529308491
 20
1256.297259125892
 30
0.0
 40
12.0
 50
0.0
 51
90.0
  0
LINE
  5
7B0C
  8
4
  6
CONTINUOUS
 10
1850.0
 20
500.0
 30
0.0
 11
1850.0
 21
300.0
 31
0.0
  0
LINE
  5
7B0D
  8
4
  6
CONTINUOUS
 10
1150.0
 20
500.0
 30
0.0
 11
1150.0
 21
300.0
 31
0.0
  0
LINE
  5
7B0E
  8
4
  6
CONTINUOUS
 10
650.0
 20
500.0
 30
0.0
 11
650.0
 21
300.0
 31
0.0
  0
LINE
  5
7B11
  8
4
  6
CONTINUOUS
 10
650.0
 20
300.0
 30
0.0
 11
1850.0
 21
300.0
 31
0.0
  0
LINE
  5
7B12
  8
4
  6
CONTINUOUS
 10
650.0
 20
400.0
 30
0.0
 11
1850.0
 21
400.0
 31
0.0
  0
TEXT
  5
7B13
  8
4
  6
CONTINUOUS
 10
688.50208099999998
 20
431.543026
 30
0.0
 40
50.0
  1
機器名称
  0
TEXT
  5
7B14
  8
4
  6
CONTINUOUS
 10
686.258106
 20
321.64515699999993
 30
0.0
 40
50.0
  1
機器型番
  0
TEXT
  5
7B15
  8
4
  6
CONTINUOUS
 10
1177.678744999999
 20
422.57176900000002
 30
0.0
 40
45.0
  1
ミツヤニューマルチファン
  0
TEXT
  5
7B16
  8
4
  6
CONTINUOUS
 10
1186.6544960000001
 20
317.159584
 30
0.0
 40
50.0
  1
NM#1 1/4-1
  0
TEXT
  5
7B18
  8
4
  6
CONTINUOUS
 10
789.52291300000002
 20
2376.6554470000001
 30
0.0
 40
54.0
  1
床置防振ベット
  0
TEXT
  5
7B19
  8
4
  6
CONTINUOUS
 10
316.16759300000001
 20
2533.8809759999999
 30
0.0
 40
72.0
  1
ベルト駆動式片吸込片持多翼ファン
  0
LINE
  5
7B1A
  8
4
  6
CONTINUOUS
 10
250.0
 20
2469.408754
 30
0.0
 11
1850.0
 21
2469.408754
 31
0.0
  0
LINE
  5
7B1B
  8
4
  6
CONTINUOUS
 10
250.0
 20
2669.408754
 30
0.0
 11
1850.0
 21
2669.408754
 31
0.0
  0
LINE
  5
7B1C
  8
4
  6
CONTINUOUS
 10
650.0
 20
500.0
 30
0.0
 11
1850.0
 21
500.0
 31
0.0
  0
LINE
  5
7B1D
  8
4
  6
CONTINUOUS
 10
250.0
 20
2669.408754
 30
0.0
 11
250.0
 21
2469.408754
 31
0.0
  0
TEXT
  5
7B1E
  8
4
  6
CONTINUOUS
 10
353.66408100000001
 20
2375.5460829999988
 30
0.0
 40
54.0
  1
右回転左横向
  0
TEXT
  5
7B1F
  8
4
  6
CONTINUOUS
 10
1468.9695589999999
 20
2706.0610809999998
 30
0.0
 40
56.0
  1
No.
  0
TEXT
  5
7B20
  8
4
  6
CONTINUOUS
 10
1311.296063
 20
2383.4288409999999
 30
0.0
 40
54.0
  1
縮尺：1/10
  0
LINE
  5
7B21
  8
4
  6
CONTINUOUS
 10
1850.0
 20
2669.408754
 30
0.0
 11
1850.0
 21
2469.408754
 31
0.0
  0
LINE
  5
7B23
  8
4
  6
CONTINUOUS
 10
1440.617422
 20
2681.2635829999999
 30
0.0
 11
1440.617422
 21
2786.6522620000001
 31
0.0
  0
LINE
  5
7B24
  8
4
  6
CONTINUOUS
 10
1440.617422
 20
2786.6522620000001
 30
0.0
 11
1850.0
 21
2786.6522620000001
 31
0.0
  0
LINE
  5
7B25
  8
4
  6
CONTINUOUS
 10
1850.0
 20
2786.6522620000001
 30
0.0
 11
1850.0
 21
2681.2635829999999
 31
0.0
  0
LINE
  5
7B26
  8
4
  6
CONTINUOUS
 10
1850.0
 20
2681.2635829999999
 30
0.0
 11
1440.617422
 21
2681.2635829999999
 31
0.0
  0
DIMENSION
  5
7B3E
  8
3
  6
CONTINUOUS
  2
*D1
 10
728.43206545822159
 20
726.27885012589263
 30
0.0
 11
644.75452745822167
 21
726.27885012589263
 31
0.0
 70
   128
 13
543.43206545822147
 23
795.29725912589265
 33
0.0
 14
728.43206545822159
 24
795.29725912589265
 34
0.0
1001
ACAD
1000
DSTYLE
1002
{
1070
   287
1070
     3
1070
   287
1070
     3
1070
    40
1040
10.0
1070
   143
1040
0.039
1070
   172
1070
     1
1070
   271
1070
     0
1070
   279
1070
     0
1070
   288
1070
     1
1002
}
  0
DIMENSION
  5
7B4A
  8
3
  6
CONTINUOUS
  2
*D2
 10
1223.4320654582209
 20
726.27885012589263
 30
0.0
 11
975.93206545822159
 21
751.27885012589263
 31
0.0
 70
     0
 13
728.43206545822159
 23
795.29725912589265
 33
0.0
 14
1223.4320654582209
 24
795.29725912589265
 34
0.0
1001
ACAD
1000
DSTYLE
1002
{
1070
   287
1070
     4
1070
   287
1070
     4
1070
    40
1040
10.0
1070
    75
1070
     1
1070
   143
1040
0.039
1070
   172
1070
     1
1070
   271
1070
     0
1070
   279
1070
     1
1070
   288
1070
     1
1002
}
  0
DIMENSION
  5
7B57
  8
3
  6
CONTINUOUS
  2
*D3
 10
728.43206545822159
 20
1299.248361125892
 30
0.0
 11
634.1463504582216
 21
1299.248361125892
 31
0.0
 70
   128
 13
568.43206545822147
 23
1138.297259125892
 33
0.0
 14
728.43206545822159
 24
1267.864447125892
 34
0.0
1001
ACAD
1000
DSTYLE
1002
{
1070
   287
1070
     3
1070
   287
1070
     3
1070
    40
1040
10.0
1070
   143
1040
0.039
1070
   172
1070
     1
1070
   271
1070
     0
1070
   279
1070
     0
1070
   288
1070
     1
1002
}
  0
DIMENSION
  5
7B67
  8
3
  6
CONTINUOUS
  2
*D4
 10
907.43206545822159
 20
1299.248361125892
 30
0.0
 11
817.93206545822159
 21
1324.248361125892
 31
0.0
 70
     0
 13
728.43206545822159
 23
1267.864447125892
 33
0.0
 14
907.43206545822159
 24
1116.4407454643849
 34
0.0
1001
ACAD
1000
DSTYLE
1002
{
1070
   287
1070
     4
1070
   287
1070
     4
1070
    40
1040
10.0
1070
    75
1070
     1
1070
   143
1040
0.039
1070
   172
1070
     1
1070
   271
1070
     0
1070
   279
1070
     1
1070
   288
1070
     1
1002
}
  0
DIMENSION
  5
7B74
  8
3
  6
CONTINUOUS
  2
*D5
 10
526.31543845822182
 20
917.29725912589254
 30
0.0
 11
526.31543845822159
 21
1023.6715511258921
 31
0.0
 70
   128
 13
568.43206545822147
 23
1117.297259125892
 33
0.0
 14
568.43206545822147
 24
917.29725912589254
 34
0.0
 50
90.0
1001
ACAD
1000
DSTYLE
1002
{
1070
   287
1070
     3
1070
   287
1070
     3
1070
    40
1040
10.0
1070
   143
1040
0.039
1070
   172
1070
     1
1070
   271
1070
     0
1070
   279
1070
     0
1070
   288
1070
     1
1002
}
  0
DIMENSION
  5
7B8E
  8
3
  6
CONTINUOUS
  2
*D6
 10
413.41257718733311
 20
1117.297259125892
 30
0.0
 11
413.41257718733289
 21
1192.892570125892
 31
0.0
 70
   128
 13
728.43206545822159
 23
1267.864447125892
 33
0.0
 14
568.43206545822147
 24
1117.297259125892
 34
0.0
 50
90.0
1001
ACAD
1000
DSTYLE
1002
{
1070
   287
1070
     3
1070
   287
1070
     3
1070
    40
1040
10.0
1070
   143
1040
0.039
1070
   172
1070
     1
1070
   271
1070
     0
1070
   279
1070
     0
1070
   288
1070
     1
1002
}
  0
DIMENSION
  5
7BB4
  8
3
  6
CONTINUOUS
  2
*D7
 10
1310.9226534582219
 20
1832.5159916571779
 30
0.0
 11
1310.922653458221
 21
1940.478614657178
 31
0.0
 70
   128
 13
1223.4320654582209
 23
2056.5159916571779
 33
0.0
 14
1223.4320654582209
 24
1832.5159916571779
 34
0.0
 50
90.0
1001
ACAD
1000
DSTYLE
1002
{
1070
   287
1070
     3
1070
   287
1070
     3
1070
    40
1040
10.0
1070
   143
1040
0.039
1070
   172
1070
     1
1070
   271
1070
     0
1070
   279
1070
     0
1070
   288
1070
     1
1002
}
  0
DIMENSION
  5
7BC1
  8
3
  6
CONTINUOUS
  2
*D8
 10
1223.4320654582209
 20
1674.3283606571781
 30
0.0
 11
874.55128445822174
 21
1674.3283606571781
 31
0.0
 70
   128
 13
543.43206545822147
 23
1832.5159916571779
 33
0.0
 14
1223.4320654582209
 24
1832.5159916571779
 34
0.0
1001
ACAD
1000
DSTYLE
1002
{
1070
   287
1070
     3
1070
   287
1070
     3
1070
    40
1040
10.0
1070
   143
1040
0.039
1070
   172
1070
     1
1070
   271
1070
     0
1070
   279
1070
     0
1070
   288
1070
     1
1002
}
  0
LINE
  5
7BC2
  8
2
  6
CENTER
 10
1665.8014529308491
 20
746.48322012589244
 30
0.0
 11
1665.8014529308491
 21
1303.476782125892
 31
0.0
  0
DIMENSION
  5
7BD0
  8
3
  6
CONTINUOUS
  2
*D9
 10
1665.8014529308491
 20
735.05870912589262
 30
0.0
 11
1554.5173349308491
 21
735.05870912589262
 31
0.0
 70
   128
 13
1451.8014529308491
 23
795.29725912589265
 33
0.0
 14
1665.8014529308491
 24
795.29725912589265
 34
0.0
1001
ACAD
1000
DSTYLE
1002
{
1070
   287
1070
     3
1070
   287
1070
     3
1070
    40
1040
10.0
1070
   143
1040
0.039
1070
   172
1070
     1
1070
   271
1070
     0
1070
   279
1070
     0
1070
   288
1070
     1
1002
}
  0
DIMENSION
  5
7BE0
  8
3
  6
CONTINUOUS
  2
*D10
 10
1675.8014529308491
 20
735.05870912589262
 30
0.0
 11
1713.385031930849
 21
734.9258761258925
 31
0.0
 70
   128
 13
1665.8014529308491
 23
795.29725912589265
 33
0.0
 14
1675.8014529308491
 24
795.29725912589265
 34
0.0
1001
ACAD
1000
DSTYLE
1002
{
1070
   287
1070
     4
1070
   287
1070
     4
1070
    40
1040
10.0
1070
    75
1070
     1
1070
   143
1040
0.039
1070
   172
1070
     1
1070
   271
1070
     0
1070
   279
1070
     1
1070
   288
1070
     1
1002
}
  0
DIMENSION
  5
7C07
  8
3
  6
CONTINUOUS
  2
*D11
 10
1735.8014529308491
 20
1297.5312241258921
 30
0.0
 11
1670.087166930849
 21
1297.5312241258921
 31
0.0
 70
   128
 13
1595.8014529308491
 23
1256.297259125892
 33
0.0
 14
1735.8014529308491
 24
1256.297259125892
 34
0.0
1001
ACAD
1000
DSTYLE
1002
{
1070
   287
1070
     3
1070
   287
1070
     3
1070
    40
1040
10.0
1070
   143
1040
0.039
1070
   172
1070
     1
1070
   271
1070
     0
1070
   279
1070
     0
1070
   288
1070
     1
1002
}
  0
DIMENSION
  5
7C14
  8
3
  6
CONTINUOUS
  2
*D12
 10
1665.8014529308491
 20
1362.356530125892
 30
0.0
 11
1515.473584930849
 21
1362.356530125892
 31
0.0
 70
   128
  1
MAX\P300
 13
1365.8014529308491
 23
1227.297259125892
 33
0.0
 14
1665.8014529308491
 24
1351.708455125892
 34
0.0
1001
ACAD
1000
DSTYLE
1002
{
1070
   287
1070
     3
1070
   287
1070
     3
1070
    40
1040
10.0
1070
   143
1040
0.039
1070
   172
1070
     1
1070
   271
1070
     0
1070
   279
1070
     0
1070
   288
1070
     1
1002
}
  0
DIMENSION
  5
7C22
  8
3
  6
CONTINUOUS
  2
*D13
 10
1743.8014529308491
 20
1362.356530125892
 30
0.0
 11
1702.6143459308489
 21
1362.356530125892
 31
0.0
 70
   128
 13
1665.8014529308491
 23
1351.708455125892
 33
0.0
 14
1743.8014529308491
 24
1237.297259125892
 34
0.0
1001
ACAD
1000
DSTYLE
1002
{
1070
   287
1070
     4
1070
   287
1070
     4
1070
    40
1040
10.0
1070
    75
1070
     1
1070
   143
1040
0.039
1070
   172
1070
     1
1070
   271
1070
     0
1070
   279
1070
     1
1070
   288
1070
     1
1002
}
  0
LINE
  5
7C3B
  8
3
  6
CONTINUOUS
 10
1743.8014529308491
 20
1217.297259125892
 30
0.0
 11
1750.5300659308491
 21
1217.297259125892
 31
0.0
  0
LINE
  5
7C3D
  8
3
  6
CONTINUOUS
 10
1743.8014529308491
 20
1017.297259125892
 30
0.0
 11
1752.5860449308491
 21
1017.297259125892
 31
0.0
  0
DIMENSION
  5
7C4A
  8
3
  6
CONTINUOUS
  2
*D14
 10
1815.5504899308489
 20
1017.297259125892
 30
0.0
 11
1815.5504899308489
 21
1115.9910211258921
 31
0.0
 70
   128
 13
1743.8014529308491
 23
1217.297259125892
 33
0.0
 14
1743.8014529308491
 24
1017.297259125892
 34
0.0
 50
90.0
1001
ACAD
1000
DSTYLE
1002
{
1070
   287
1070
     3
1070
   287
1070
     3
1070
     3
1000
φ<>
1070
    40
1040
10.0
1070
   143
1040
0.039
1070
   172
1070
     1
1070
   271
1070
     0
1070
   279
1070
     0
1070
   288
1070
     1
1002
}
  0
LINE
  5
7C4B
  8
2
  6
CENTER
 10
1176.735104458221
 20
1117.297259125892
 30
0.0
 11
512.74878945822149
 21
1115.1854621258919
 31
0.0
  0
LINE
  5
7C4C
  8
2
  6
CENTER
 10
728.43206545822159
 20
1710.7883946571781
 30
0.0
 11
728.43206545822159
 21
2153.479238657178
 31
0.0
  0
LINE
  5
7C4E
  8
2
  6
CENTER
 10
926.46998045822158
 20
2046.5159916571779
 30
0.0
 11
535.55513045822147
 21
2046.5159916571779
 31
0.0
  0
DIMENSION
  5
7C66
  8
3
  6
CONTINUOUS
  2
*D15
 10
413.41257718733289
 20
842.29725912589254
 30
0.0
 11
388.41257718733277
 21
979.79725912589254
 31
0.0
 70
     0
 13
568.43206545822147
 23
1117.297259125892
 33
0.0
 14
568.43206545822147
 24
842.29725912589254
 34
0.0
 50
90.0
1001
ACAD
1000
DSTYLE
1002
{
1070
   287
1070
     4
1070
   287
1070
     4
1070
    40
1040
10.0
1070
    75
1070
     1
1070
   143
1040
0.039
1070
   172
1070
     1
1070
   271
1070
     0
1070
   279
1070
     1
1070
   288
1070
     1
1002
}
  0
DIMENSION
  5
7C76
  8
3
  6
CONTINUOUS
  2
*D16
 10
414.02525318733302
 20
795.29725912589265
 30
0.0
 11
414.02525318733291
 21
721.01154484017843
 31
0.0
 70
   128
 13
568.43206545822147
 23
842.29725912589254
 33
0.0
 14
543.43206545822147
 24
795.29725912589265
 34
0.0
 50
90.0
1001
ACAD
1000
DSTYLE
1002
{
1070
   287
1070
     3
1070
   287
1070
     3
1070
    40
1040
10.0
1070
   143
1040
0.039
1070
   172
1070
     1
1070
   271
1070
     0
1070
   279
1070
     0
1070
   288
1070
     1
1002
}
  0
DIMENSION
  5
7C9D
  8
3
  6
CONTINUOUS
  2
*D17
 10
342.482799187333
 20
795.29725912589265
 30
0.0
 11
342.48279918733289
 21
1046.1537571258921
 31
0.0
 70
   128
 13
728.43206545822159
 23
1267.864447125892
 33
0.0
 14
543.43206545822147
 24
795.29725912589265
 34
0.0
 50
90.0
1001
ACAD
1000
DSTYLE
1002
{
1070
   287
1070
     3
1070
   287
1070
     3
1070
    40
1040
10.0
1070
   143
1040
0.039
1070
   172
1070
     1
1070
   271
1070
     0
1070
   279
1070
     0
1070
   288
1070
     1
1002
}
  0
DIMENSION
  5
7D0C
  8
3
  6
CONTINUOUS
  2
*D18
 10
463.74174345822178
 20
1117.297259125892
 30
0.0
 11
463.74174345822161
 21
1022.159576125892
 31
0.0
 70
   128
 13
583.43206545822147
 23
906.29725912589265
 33
0.0
 14
583.43206545822147
 24
1117.297259125892
 34
0.0
 50
90.0
1001
ACAD
1000
DSTYLE
1002
{
1070
   287
1070
     3
1070
   287
1070
     3
1070
    40
1040
10.0
1070
   143
1040
0.039
1070
   172
1070
     1
1070
   271
1070
     0
1070
   279
1070
     0
1070
   288
1070
     1
1002
}
  0
DIMENSION
  5
7D91
  8
3
  2
*D19
 10
1223.4320654582209
 20
1354.4483789315041
 30
0.0
 11
896.63566974134108
 21
1354.4483789315041
 31
0.0
 70
   128
 13
568.43206545822147
 23
1138.297259125892
 33
0.0
 14
1223.4320654582209
 24
820.29725912589265
 34
0.0
1001
ACAD
1000
DSTYLE
1002
{
1070
   287
1070
     3
1070
   287
1070
     3
1070
    40
1040
10.0
1070
   143
1040
0.039
1070
   172
1070
     1
1070
   271
1070
     0
1070
   279
1070
     0
1070
   288
1070
     1
1002
}
  0
ENDSEC
  0
EOF
