  0
SECTION
  2
HEADER
  9
$ACADVER
  1
AC1009
  9
$INSBASE
 10
0.0
 20
0.0
 30
0.0
  9
$EXTMIN
 10
250.0
 20
300.0
 30
0.0
  9
$EXTMAX
 10
1850.0
 20
2786.6522620000001
 30
0.0
  9
$LIMMIN
 10
0.0
 20
0.0
  9
$LIMMAX
 10
297.0
 20
210.0
  9
$ORTHOMODE
 70
     0
  9
$REGENMODE
 70
     1
  9
$FILLMODE
 70
     0
  9
$QTEXTMODE
 70
     0
  9
$MIRRTEXT
 70
     1
  9
$DRAGMODE
 70
     2
  9
$LTSCALE
 40
100.0
  9
$OSMODE
 70
    37
  9
$ATTMODE
 70
     1
  9
$TEXTSIZE
 40
180.0
  9
$TRACEWID
 40
0.05
  9
$TEXTSTYLE
  7
STANDARD
  9
$CLAYER
  8
3
  9
$CELTYPE
  6
BYLAYER
  9
$CECOLOR
 62
   256
  9
$DIMSCALE
 40
10.0
  9
$DIMASZ
 40
2.0
  9
$DIMEXO
 40
0.5
  9
$DIMDLI
 40
10.0
  9
$DIMRND
 40
0.0
  9
$DIMDLE
 40
0.0
  9
$DIMEXE
 40
1.0
  9
$DIMTP
 40
1.0
  9
$DIMTM
 40
1.0
  9
$DIMTXT
 40
3.0
  9
$DIMCEN
 40
0.0
  9
$DIMTSZ
 40
0.0
  9
$DIMTOL
 70
     0
  9
$DIMLIM
 70
     0
  9
$DIMTIH
 70
     0
  9
$DIMTOH
 70
     0
  9
$DIMSE1
 70
     0
  9
$DIMSE2
 70
     0
  9
$DIMTAD
 70
     1
  9
$DIMZIN
 70
     8
  9
$DIMBLK
  1

  9
$DIMASO
 70
     1
  9
$DIMSHO
 70
     1
  9
$DIMPOST
  1

  9
$DIMAPOST
  1

  9
$DIMALT
 70
     0
  9
$DIMALTD
 70
     2
  9
$DIMALTF
 40
0.039
  9
$DIMLFAC
 40
1.0
  9
$DIMTOFL
 70
     1
  9
$DIMTVP
 40
0.0
  9
$DIMTIX
 70
     0
  9
$DIMSOXD
 70
     0
  9
$DIMSAH
 70
     1
  9
$DIMBLK1
  1
OPEN
  9
$DIMBLK2
  1
OPEN
  9
$DIMSTYLE
  2
IGA
  9
$DIMCLRD
 70
     0
  9
$DIMCLRE
 70
     0
  9
$DIMCLRT
 70
     0
  9
$DIMTFAC
 40
10.0
  9
$DIMGAP
 40
1.0
  9
$LUNITS
 70
     2
  9
$LUPREC
 70
     3
  9
$SKETCHINC
 40
0.1
  9
$FILLETRAD
 40
50.0
  9
$AUNITS
 70
     0
  9
$AUPREC
 70
     0
  9
$MENU
  1
acad
  9
$ELEVATION
 40
0.0
  9
$PELEVATION
 40
0.0
  9
$THICKNESS
 40
0.0
  9
$LIMCHECK
 70
     0
  9
$BLIPMODE
 70
     0
  9
$CHAMFERA
 40
0.5
  9
$CHAMFERB
 40
0.5
  9
$SKPOLY
 70
     0
  9
$TDCREATE
 40
2450737.6612087958
  9
$TDUPDATE
 40
2454953.8620586921
  9
$TDINDWG
 40
0.0069291204
  9
$TDUSRTIMER
 40
0.0069291204
  9
$USRTIMER
 70
     1
  9
$ANGBASE
 50
0.0
  9
$ANGDIR
 70
     0
  9
$PDMODE
 70
     0
  9
$PDSIZE
 40
0.0
  9
$PLINEWID
 40
0.0
  9
$COORDS
 70
     1
  9
$SPLFRAME
 70
     0
  9
$SPLINETYPE
 70
     6
  9
$SPLINESEGS
 70
     8
  9
$ATTDIA
 70
     0
  9
$ATTREQ
 70
     1
  9
$HANDLING
 70
 10241
  9
$HANDSEED
  5
7E8E
  9
$SURFTAB1
 70
     6
  9
$SURFTAB2
 70
     6
  9
$SURFTYPE
 70
     6
  9
$SURFU
 70
     6
  9
$SURFV
 70
     6
  9
$UCSNAME
  2

  9
$UCSORG
 10
0.0
 20
0.0
 30
0.0
  9
$UCSXDIR
 10
1.0
 20
0.0
 30
0.0
  9
$UCSYDIR
 10
0.0
 20
1.0
 30
0.0
  9
$PUCSNAME
  2

  9
$PUCSORG
 10
0.0
 20
0.0
 30
0.0
  9
$PUCSXDIR
 10
1.0
 20
0.0
 30
0.0
  9
$PUCSYDIR
 10
0.0
 20
1.0
 30
0.0
  9
$USERI1
 70
     0
  9
$USERI2
 70
     0
  9
$USERI3
 70
     0
  9
$USERI4
 70
     0
  9
$USERI5
 70
     0
  9
$USERR1
 40
0.0
  9
$USERR2
 40
0.0
  9
$USERR3
 40
0.0
  9
$USERR4
 40
0.0
  9
$USERR5
 40
0.0
  9
$WORLDVIEW
 70
     1
  9
$SHADEDGE
 70
     3
  9
$SHADEDIF
 70
    70
  9
$TILEMODE
 70
     1
  9
$MAXACTVP
 70
    16
  9
$PLIMCHECK
 70
     0
  9
$PEXTMIN
 10
1.0000000000000000E+020
 20
1.0000000000000000E+020
 30
1.0000000000000000E+020
  9
$PEXTMAX
 10
-1.0000000000000000E+020
 20
-1.0000000000000000E+020
 30
-1.0000000000000000E+020
  9
$PLIMMIN
 10
0.0
 20
0.0
  9
$PLIMMAX
 10
12.0
 20
9.0
  9
$UNITMODE
 70
     0
  9
$VISRETAIN
 70
     0
  9
$PLINEGEN
 70
     0
  9
$PSLTSCALE
 70
     1
  0
ENDSEC
  0
SECTION
  2
TABLES
  0
TABLE
  2
VPORT
 70
     2
  0
VPORT
  2
*ACTIVE
 70
     0
 10
0.0
 20
0.0
 11
1.0
 21
1.0
 12
2591.321891638836
 22
1791.4410741348329
 13
0.0
 23
0.0
 14
10.0
 24
10.0
 15
10.0
 25
10.0
 16
0.0
 26
0.0
 36
1.0
 17
0.0
 27
0.0
 37
0.0
 40
3384.7202369232782
 41
1.5051150895140659
 42
50.0
 43
0.0
 44
0.0
 50
0.0
 51
0.0
 71
     0
 72
   100
 73
     1
 74
     0
 75
     0
 76
     0
 77
     0
 78
     0
  0
ENDTAB
  0
TABLE
  2
LTYPE
 70
     2
  0
LTYPE
  2
CONTINUOUS
 70
     0
  3
Solid line
 72
    65
 73
     0
 40
0.0
  0
LTYPE
  2
CENTER
 70
     0
  3
____ _ ____ _ ____ _ ____ _ ____ _ ____ _ ____ 
 72
    65
 73
     4
 40
2.0
 49
1.25
 49
-0.25
 49
0.25
 49
-0.25
  0
ENDTAB
  0
TABLE
  2
LAYER
 70
     6
  0
LAYER
  2
0
 70
     0
 62
     7
  6
CONTINUOUS
  0
LAYER
  2
3
 70
     0
 62
     2
  6
CONTINUOUS
  0
LAYER
  2
2
 70
     0
 62
     3
  6
CENTER
  0
LAYER
  2
1
 70
     0
 62
     4
  6
CONTINUOUS
  0
LAYER
  2
4
 70
     0
 62
     7
  6
CONTINUOUS
  0
LAYER
  2
DEFPOINTS
 70
     0
 62
     7
  6
CONTINUOUS
  0
ENDTAB
  0
TABLE
  2
STYLE
 70
     1
  0
STYLE
  2
STANDARD
 70
     0
 40
0.0
 41
1.0
 50
0.0
 71
     0
 42
180.0
  3
simplex.shx
  4
extfont.shx
  0
ENDTAB
  0
TABLE
  2
VIEW
 70
     0
  0
ENDTAB
  0
TABLE
  2
UCS
 70
     0
  0
ENDTAB
  0
TABLE
  2
APPID
 70
     1
  0
APPID
  2
ACAD
 70
     0
  0
ENDTAB
  0
TABLE
  2
DIMSTYLE
 70
     1
  0
DIMSTYLE
  2
IGA
 70
     0
  3

  4

  5

  6
OPEN
  7
OPEN
 40
2.0
 41
2.0
 42
0.5
 43
10.0
 44
1.0
 45
0.0
 46
0.0
 47
1.0
 48
1.0
140
3.0
141
0.0
142
0.0
143
0.03937
144
1.0
145
0.0
146
10.0
147
1.0
 71
     0
 72
     0
 73
     0
 74
     0
 75
     0
 76
     0
 77
     1
 78
     8
170
     0
171
     2
172
     0
173
     1
174
     0
175
     0
176
     0
177
     0
178
     0
  0
ENDTAB
  0
ENDSEC
  0
SECTION
  2
BLOCKS
  0
BLOCK
  8
0
  2
$MODEL_SPACE
 70
     0
 10
0.0
 20
0.0
 30
0.0
  3
$MODEL_SPACE
  1

  0
ENDBLK
  5
1B
  8
0
  0
BLOCK
 67
     1
  8
0
  2
$PAPER_SPACE
 70
     0
 10
0.0
 20
0.0
 30
0.0
  3
$PAPER_SPACE
  1

  0
ENDBLK
  5
18
 67
     1
  8
0
  0
BLOCK
  8
0
  2
_OPEN
 70
     0
 10
0.0
 20
0.0
 30
0.0
  3
_OPEN
  1

  0
LINE
  5
7B2D
  8
0
  6
BYBLOCK
 62
     0
 10
-1.0
 20
0.166667
 30
0.0
 11
0.0
 21
0.0
 31
0.0
  0
LINE
  5
7B2E
  8
0
  6
BYBLOCK
 62
     0
 10
0.0
 20
0.0
 30
0.0
 11
-1.0
 21
-0.166667
 31
0.0
  0
LINE
  5
7B2F
  8
0
  6
BYBLOCK
 62
     0
 10
0.0
 20
0.0
 30
0.0
 11
-1.0
 21
0.0
 31
0.0
  0
ENDBLK
  5
7B30
  8
0
  0
BLOCK
  8
0
  2
*D1
 70
     1
 10
0.0
 20
0.0
 30
0.0
  3
*D1
  1

  0
LINE
  5
7DDA
  8
3
  6
CONTINUOUS
 62
     0
 10
368.47830899999991
 20
887.02629961349771
 30
0.0
 11
368.47830899999991
 21
825.57564761349761
 31
0.0
  0
LINE
  5
7DDB
  8
3
  6
CONTINUOUS
 62
     0
 10
863.47830899999985
 20
887.02629961349771
 30
0.0
 11
863.47830899999985
 21
825.57564761349761
 31
0.0
  0
LINE
  5
7DDC
  8
3
  6
CONTINUOUS
 62
     0
 10
388.47830899999991
 20
835.57564761349761
 30
0.0
 11
843.47830899999985
 21
835.57564761349761
 31
0.0
  0
INSERT
  5
7DDD
  8
3
  6
CONTINUOUS
 62
     0
  2
_OPEN
 10
368.47830899999991
 20
835.57564761349761
 30
0.0
 41
20.0
 42
20.0
 43
20.0
 50
180.0
  0
INSERT
  5
7DDE
  8
3
  6
CONTINUOUS
 62
     0
  2
_OPEN
 10
863.47830899999985
 20
835.57564761349761
 30
0.0
 41
20.0
 42
20.0
 43
20.0
  0
TEXT
  8
3
  40
30
  5
7E7B
  62
0
  72
0
  71
0
 10
560.986
 20
807.476
 30
0.000000
  1
495
  0
POINT
  5
7DE0
  8
DEFPOINTS
  6
CONTINUOUS
 62
     0
 10
368.47830899999991
 20
892.02629961349783
 30
0.0
  0
POINT
  5
7DE1
  8
DEFPOINTS
  6
CONTINUOUS
 62
     0
 10
863.47830899999985
 20
892.02629961349783
 30
0.0
  0
POINT
  5
7DE2
  8
DEFPOINTS
  6
CONTINUOUS
 62
     0
 10
863.47830899999985
 20
835.57564761349761
 30
0.0
  0
ENDBLK
  5
7B3D
  8
0
  0
BLOCK
  8
0
  2
*D2
 70
     1
 10
0.0
 20
0.0
 30
0.0
  3
*D2
  1

  0
LINE
  5
7DE3
  8
3
  6
CONTINUOUS
 62
     0
 10
1048.4783090000001
 20
887.02629961349771
 30
0.0
 11
1048.4783090000001
 21
825.57564761349761
 31
0.0
  0
LINE
  5
7DE4
  8
3
  6
CONTINUOUS
 62
     0
 10
883.47830899999997
 20
835.57564761349761
 30
0.0
 11
1028.4783090000001
 21
835.57564761349761
 31
0.0
  0
INSERT
  5
7DE5
  8
3
  6
CONTINUOUS
 62
     0
  2
_OPEN
 10
863.47830899999985
 20
835.57564761349761
 30
0.0
 41
20.0
 42
20.0
 43
20.0
 50
180.0
  0
INSERT
  5
7DE6
  8
3
  6
CONTINUOUS
 62
     0
  2
_OPEN
 10
1048.4783090000001
 20
835.57564761349761
 30
0.0
 41
20.0
 42
20.0
 43
20.0
  0
TEXT
  8
3
  40
30
  5
7E7C
  62
0
  72
0
  71
0
 10
895.978
 20
807.476
 30
0.000000
  1
185
  0
POINT
  5
7DE8
  8
DEFPOINTS
  6
CONTINUOUS
 62
     0
 10
863.47830899999985
 20
892.02629961349783
 30
0.0
  0
POINT
  5
7DE9
  8
DEFPOINTS
  6
CONTINUOUS
 62
     0
 10
1048.4783090000001
 20
892.02629961349783
 30
0.0
  0
POINT
  5
7DEA
  8
DEFPOINTS
  6
CONTINUOUS
 62
     0
 10
1048.4783090000001
 20
835.57564761349761
 30
0.0
  0
ENDBLK
  5
7B49
  8
0
  0
BLOCK
  8
0
  2
*D3
 70
     1
 10
0.0
 20
0.0
 30
0.0
  3
*D3
  1

  0
LINE
  5
7DEB
  8
3
  6
CONTINUOUS
 62
     0
 10
663.47830899999985
 20
1379.026299613497
 30
0.0
 11
663.47830899999985
 21
1428.079283613497
 31
0.0
  0
LINE
  5
7DEC
  8
3
  6
CONTINUOUS
 62
     0
 10
863.47830899999985
 20
1379.026299613497
 30
0.0
 11
863.47830899999985
 21
1428.079283613497
 31
0.0
  0
LINE
  5
7DED
  8
3
  6
CONTINUOUS
 62
     0
 10
683.47830899999997
 20
1418.079283613497
 30
0.0
 11
843.47830899999985
 21
1418.079283613497
 31
0.0
  0
INSERT
  5
7DEE
  8
3
  6
CONTINUOUS
 62
     0
  2
_OPEN
 10
663.47830899999985
 20
1418.079283613497
 30
0.0
 41
20.0
 42
20.0
 43
20.0
 50
180.0
  0
INSERT
  5
7DEF
  8
3
  6
CONTINUOUS
 62
     0
  2
_OPEN
 10
863.47830899999985
 20
1418.079283613497
 30
0.0
 41
20.0
 42
20.0
 43
20.0
  0
TEXT
  8
3
  40
30
  5
7E7D
  62
0
  72
0
  71
0
 10
716.791
 20
1389.98
 30
0.000000
  1
200
  0
POINT
  5
7DF1
  8
DEFPOINTS
  6
CONTINUOUS
 62
     0
 10
663.47830899999985
 20
1374.026299613497
 30
0.0
  0
POINT
  5
7DF2
  8
DEFPOINTS
  6
CONTINUOUS
 62
     0
 10
863.47830899999985
 20
1374.026299613497
 30
0.0
  0
POINT
  5
7DF3
  8
DEFPOINTS
  6
CONTINUOUS
 62
     0
 10
863.47830899999985
 20
1418.079283613497
 30
0.0
  0
ENDBLK
  5
7B56
  8
0
  0
BLOCK
  8
0
  2
*D4
 70
     1
 10
0.0
 20
0.0
 30
0.0
  3
*D4
  1

  0
LINE
  5
7DF4
  8
3
  6
CONTINUOUS
 62
     0
 10
652.47830899999985
 20
1364.026299613497
 30
0.0
 11
652.47830899999985
 21
1482.650393613497
 31
0.0
  0
LINE
  5
7DF5
  8
3
  6
CONTINUOUS
 62
     0
 10
863.47830899999985
 20
1379.026299613497
 30
0.0
 11
863.47830899999985
 21
1482.650393613497
 31
0.0
  0
LINE
  5
7DF6
  8
3
  6
CONTINUOUS
 62
     0
 10
672.47830899999985
 20
1472.650393613497
 30
0.0
 11
843.47830899999985
 21
1472.650393613497
 31
0.0
  0
INSERT
  5
7DF7
  8
3
  6
CONTINUOUS
 62
     0
  2
_OPEN
 10
652.47830899999985
 20
1472.650393613497
 30
0.0
 41
20.0
 42
20.0
 43
20.0
 50
180.0
  0
INSERT
  5
7DF8
  8
3
  6
CONTINUOUS
 62
     0
  2
_OPEN
 10
863.47830899999985
 20
1472.650393613497
 30
0.0
 41
20.0
 42
20.0
 43
20.0
  0
TEXT
  8
3
  40
30
  5
7E7E
  62
0
  72
0
  71
0
 10
709.980
 20
1444.55
 30
0.000000
  1
211
  0
POINT
  5
7DFA
  8
DEFPOINTS
  6
CONTINUOUS
 62
     0
 10
652.47830899999985
 20
1359.026299613497
 30
0.0
  0
POINT
  5
7DFB
  8
DEFPOINTS
  6
CONTINUOUS
 62
     0
 10
863.47830899999985
 20
1374.026299613497
 30
0.0
  0
POINT
  5
7DFC
  8
DEFPOINTS
  6
CONTINUOUS
 62
     0
 10
863.47830899999985
 20
1472.650393613497
 30
0.0
  0
ENDBLK
  5
7B63
  8
0
  0
BLOCK
  8
0
  2
*D5
 70
     1
 10
0.0
 20
0.0
 30
0.0
  3
*D5
  1

  0
LINE
  5
7DFD
  8
3
  6
CONTINUOUS
 62
     0
 10
1014.045497
 20
1219.026299613497
 30
0.0
 11
1014.045497
 21
1482.650393613497
 31
0.0
  0
LINE
  5
7DFE
  8
3
  6
CONTINUOUS
 62
     0
 10
883.47830899999997
 20
1472.650393613497
 30
0.0
 11
994.04549700000007
 21
1472.650393613497
 31
0.0
  0
INSERT
  5
7DFF
  8
3
  6
CONTINUOUS
 62
     0
  2
_OPEN
 10
863.47830899999985
 20
1472.650393613497
 30
0.0
 41
20.0
 42
20.0
 43
20.0
 50
180.0
  0
INSERT
  5
7E00
  8
3
  6
CONTINUOUS
 62
     0
  2
_OPEN
 10
1014.045497
 20
1472.650393613497
 30
0.0
 41
20.0
 42
20.0
 43
20.0
  0
TEXT
  8
3
  40
30
  5
7E7F
  62
0
  72
0
  71
0
 10
878.762
 20
1444.55
 30
0.000000
  1
151
  0
POINT
  5
7E02
  8
DEFPOINTS
  6
CONTINUOUS
 62
     0
 10
863.47830899999985
 20
1374.026299613497
 30
0.0
  0
POINT
  5
7E03
  8
DEFPOINTS
  6
CONTINUOUS
 62
     0
 10
1014.045497
 20
1214.026299613497
 30
0.0
  0
POINT
  5
7E04
  8
DEFPOINTS
  6
CONTINUOUS
 62
     0
 10
1014.045497
 20
1472.650393613497
 30
0.0
  0
ENDBLK
  5
7B6F
  8
0
  0
BLOCK
  8
0
  2
*D6
 70
     1
 10
0.0
 20
0.0
 30
0.0
  3
*D6
  1

  0
LINE
  5
7E05
  8
3
  6
CONTINUOUS
 62
     0
 10
889.47830899999997
 20
1374.026299613497
 30
0.0
 11
1108.661421
 21
1374.026299613497
 31
0.0
  0
LINE
  5
7E06
  8
3
  6
CONTINUOUS
 62
     0
 10
1019.045497
 20
1214.026299613497
 30
0.0
 11
1108.661421
 21
1214.026299613497
 31
0.0
  0
LINE
  5
7E07
  8
3
  6
CONTINUOUS
 62
     0
 10
1098.661421
 20
1354.026299613497
 30
0.0
 11
1098.661421
 21
1234.026299613497
 31
0.0
  0
INSERT
  5
7E08
  8
3
  6
CONTINUOUS
 62
     0
  2
_OPEN
 10
1098.661421
 20
1374.026299613497
 30
0.0
 41
20.0
 42
20.0
 43
20.0
 50
90.0
  0
INSERT
  5
7E09
  8
3
  6
CONTINUOUS
 62
     0
  2
_OPEN
 10
1098.661421
 20
1214.026299613497
 30
0.0
 41
20.0
 42
20.0
 43
20.0
 50
270.0
  0
TEXT
  8
3
  40
30
  5
7E80
  62
0
  72
0
  71
0
 10
1013.66
 20
1238.69
 30
0.000000
  1
160
  0
POINT
  5
7E0B
  8
DEFPOINTS
  6
CONTINUOUS
 62
     0
 10
884.47830899999985
 20
1374.026299613497
 30
0.0
  0
POINT
  5
7E0C
  8
DEFPOINTS
  6
CONTINUOUS
 62
     0
 10
1014.045497
 20
1214.026299613497
 30
0.0
  0
POINT
  5
7E0D
  8
DEFPOINTS
  6
CONTINUOUS
 62
     0
 10
1098.661421
 20
1214.026299613497
 30
0.0
  0
ENDBLK
  5
7B89
  8
0
  0
BLOCK
  8
0
  2
*D7
 70
     1
 10
0.0
 20
0.0
 30
0.0
  3
*D7
  1

  0
LINE
  5
7E0E
  8
3
  6
CONTINUOUS
 62
     0
 10
1028.4783090000001
 20
939.02629961349771
 30
0.0
 11
1108.661421
 21
939.02629961349771
 31
0.0
  0
LINE
  5
7E0F
  8
3
  6
CONTINUOUS
 62
     0
 10
1098.661421
 20
1194.026299613497
 30
0.0
 11
1098.661421
 21
959.02629961349783
 31
0.0
  0
INSERT
  5
7E10
  8
3
  6
CONTINUOUS
 62
     0
  2
_OPEN
 10
1098.661421
 20
1214.026299613497
 30
0.0
 41
20.0
 42
20.0
 43
20.0
 50
90.0
  0
INSERT
  5
7E11
  8
3
  6
CONTINUOUS
 62
     0
  2
_OPEN
 10
1098.661421
 20
939.02629961349771
 30
0.0
 41
20.0
 42
20.0
 43
20.0
 50
270.0
  0
TEXT
  8
3
  40
30
  5
7E81
  62
0
  72
0
  71
0
 10
1013.66
 20
1023.43
 30
0.000000
  1
275
  0
POINT
  5
7E13
  8
DEFPOINTS
  6
CONTINUOUS
 62
     0
 10
1014.045497
 20
1214.026299613497
 30
0.0
  0
POINT
  5
7E14
  8
DEFPOINTS
  6
CONTINUOUS
 62
     0
 10
1023.478309
 20
939.02629961349771
 30
0.0
  0
POINT
  5
7E15
  8
DEFPOINTS
  6
CONTINUOUS
 62
     0
 10
1098.661421
 20
939.02629961349771
 30
0.0
  0
ENDBLK
  5
7B95
  8
0
  0
BLOCK
  8
0
  2
*D8
 70
     1
 10
0.0
 20
0.0
 30
0.0
  3
*D8
  1

  0
LINE
  5
7E16
  8
3
  6
CONTINUOUS
 62
     0
 10
1028.4783090000001
 20
939.02629961349771
 30
0.0
 11
1108.8369150000001
 21
939.02629961349771
 31
0.0
  0
LINE
  5
7E17
  8
3
  6
CONTINUOUS
 62
     0
 10
1053.4783090000001
 20
892.02629961349783
 30
0.0
 11
1108.8369150000001
 21
892.02629961349783
 31
0.0
  0
LINE
  5
7E18
  8
3
  6
CONTINUOUS
 62
     0
 10
1098.8369150000001
 20
959.02629961349783
 30
0.0
 11
1098.8369150000001
 21
979.02629961349771
 31
0.0
  0
LINE
  5
7E19
  8
3
  6
CONTINUOUS
 62
     0
 10
1098.8369150000001
 20
872.02629961349771
 30
0.0
 11
1098.8369150000001
 21
783.45487104206916
 31
0.0
  0
LINE
  5
7E1A
  8
3
  6
CONTINUOUS
 62
     0
 10
1098.8369150000001
 20
939.02629961349771
 30
0.0
 11
1098.8369150000001
 21
892.02629961349783
 31
0.0
  0
INSERT
  5
7E1B
  8
3
  6
CONTINUOUS
 62
     0
  2
_OPEN
 10
1098.8369150000001
 20
939.02629961349771
 30
0.0
 41
20.0
 42
20.0
 43
20.0
 50
270.0
  0
INSERT
  5
7E1C
  8
3
  6
CONTINUOUS
 62
     0
  2
_OPEN
 10
1098.8369150000001
 20
892.02629961349783
 30
0.0
 41
20.0
 42
20.0
 43
20.0
 50
90.0
  0
TEXT
  8
3
  40
30
  5
7E82
  62
0
  72
0
  71
0
 10
1013.84
 20
764.641
 30
0.000000
  1
47
  0
POINT
  5
7E1E
  8
DEFPOINTS
  6
CONTINUOUS
 62
     0
 10
1023.478309
 20
939.02629961349771
 30
0.0
  0
POINT
  5
7E1F
  8
DEFPOINTS
  6
CONTINUOUS
 62
     0
 10
1048.4783090000001
 20
892.02629961349783
 30
0.0
  0
POINT
  5
7E20
  8
DEFPOINTS
  6
CONTINUOUS
 62
     0
 10
1098.8369150000001
 20
892.02629961349783
 30
0.0
  0
ENDBLK
  5
7CC8
  8
0
  0
BLOCK
  8
0
  2
*D9
 70
     1
 10
0.0
 20
0.0
 30
0.0
  3
*D9
  1

  0
LINE
  5
7E21
  8
3
  6
CONTINUOUS
 62
     0
 10
894.47830899999985
 20
1374.026299613497
 30
0.0
 11
1173.8701269999999
 21
1374.026299613497
 31
0.0
  0
LINE
  5
7E22
  8
3
  6
CONTINUOUS
 62
     0
 10
1053.4783090000001
 20
892.02629961349783
 30
0.0
 11
1173.8701269999999
 21
892.02629961349783
 31
0.0
  0
LINE
  5
7E23
  8
3
  6
CONTINUOUS
 62
     0
 10
1163.8701269999999
 20
1354.026299613497
 30
0.0
 11
1163.8701269999999
 21
912.02629961349771
 31
0.0
  0
INSERT
  5
7E24
  8
3
  6
CONTINUOUS
 62
     0
  2
_OPEN
 10
1163.8701269999999
 20
1374.026299613497
 30
0.0
 41
20.0
 42
20.0
 43
20.0
 50
90.0
  0
INSERT
  5
7E25
  8
3
  6
CONTINUOUS
 62
     0
  2
_OPEN
 10
1163.8701269999999
 20
892.02629961349783
 30
0.0
 41
20.0
 42
20.0
 43
20.0
 50
270.0
  0
TEXT
  8
3
  40
30
  5
7E83
  62
0
  72
0
  71
0
 10
1078.87
 20
1075.22
 30
0.000000
  1
482
  0
POINT
  5
7E27
  8
DEFPOINTS
  6
CONTINUOUS
 62
     0
 10
889.47830899999997
 20
1374.026299613497
 30
0.0
  0
POINT
  5
7E28
  8
DEFPOINTS
  6
CONTINUOUS
 62
     0
 10
1048.4783090000001
 20
892.02629961349783
 30
0.0
  0
POINT
  5
7E29
  8
DEFPOINTS
  6
CONTINUOUS
 62
     0
 10
1163.8701269999999
 20
892.02629961349783
 30
0.0
  0
ENDBLK
  5
7BCC
  8
0
  0
BLOCK
  8
0
  2
*D10
 70
     1
 10
0.0
 20
0.0
 30
0.0
  3
*D10
  1

  0
LINE
  5
7E2A
  8
3
  6
CONTINUOUS
 62
     0
 10
368.47830899999991
 20
1908.1484479999999
 30
0.0
 11
368.47830899999991
 21
1752.656099
 31
0.0
  0
LINE
  5
7E2B
  8
3
  6
CONTINUOUS
 62
     0
 10
1048.4783090000001
 20
1908.1484479999999
 30
0.0
 11
1048.4783090000001
 21
1752.656099
 31
0.0
  0
LINE
  5
7E2C
  8
3
  6
CONTINUOUS
 62
     0
 10
388.47830899999991
 20
1762.6560989999989
 30
0.0
 11
1028.4783090000001
 21
1762.6560989999989
 31
0.0
  0
INSERT
  5
7E2D
  8
3
  6
CONTINUOUS
 62
     0
  2
_OPEN
 10
368.47830899999991
 20
1762.6560989999989
 30
0.0
 41
20.0
 42
20.0
 43
20.0
 50
180.0
  0
INSERT
  5
7E2E
  8
3
  6
CONTINUOUS
 62
     0
  2
_OPEN
 10
1048.4783090000001
 20
1762.6560989999989
 30
0.0
 41
20.0
 42
20.0
 43
20.0
  0
TEXT
  8
3
  40
30
  5
7E84
  62
0
  72
0
  71
0
 10
643.365
 20
1734.56
 30
0.000000
  1
680
  0
POINT
  5
7E30
  8
DEFPOINTS
  6
CONTINUOUS
 62
     0
 10
368.47830899999991
 20
1913.1484479999999
 30
0.0
  0
POINT
  5
7E31
  8
DEFPOINTS
  6
CONTINUOUS
 62
     0
 10
1048.4783090000001
 20
1913.1484479999999
 30
0.0
  0
POINT
  5
7E32
  8
DEFPOINTS
  6
CONTINUOUS
 62
     0
 10
1048.4783090000001
 20
1762.6560989999989
 30
0.0
  0
ENDBLK
  5
7BD9
  8
0
  0
BLOCK
  8
0
  2
*D11
 70
     1
 10
0.0
 20
0.0
 30
0.0
  3
*D11
  1

  0
LINE
  5
7E33
  8
3
  6
CONTINUOUS
 62
     0
 10
1436.169474457746
 20
887.02629961349771
 30
0.0
 11
1436.169474457746
 21
816.30596361349762
 31
0.0
  0
LINE
  5
7E34
  8
3
  6
CONTINUOUS
 62
     0
 10
1650.169474457746
 20
887.02629961349771
 30
0.0
 11
1650.169474457746
 21
816.30596361349762
 31
0.0
  0
LINE
  5
7E35
  8
3
  6
CONTINUOUS
 62
     0
 10
1456.169474457746
 20
826.30596361349751
 30
0.0
 11
1630.169474457746
 21
826.30596361349751
 31
0.0
  0
INSERT
  5
7E36
  8
3
  6
CONTINUOUS
 62
     0
  2
_OPEN
 10
1436.169474457746
 20
826.30596361349751
 30
0.0
 41
20.0
 42
20.0
 43
20.0
 50
180.0
  0
INSERT
  5
7E37
  8
3
  6
CONTINUOUS
 62
     0
  2
_OPEN
 10
1650.169474457746
 20
826.30596361349751
 30
0.0
 41
20.0
 42
20.0
 43
20.0
  0
TEXT
  8
3
  40
30
  5
7E85
  62
0
  72
0
  71
0
 10
1491.64
 20
798.206
 30
0.000000
  1
214
  0
POINT
  5
7E39
  8
DEFPOINTS
  6
CONTINUOUS
 62
     0
 10
1436.169474457746
 20
892.02629961349783
 30
0.0
  0
POINT
  5
7E3A
  8
DEFPOINTS
  6
CONTINUOUS
 62
     0
 10
1650.169474457746
 20
892.02629961349783
 30
0.0
  0
POINT
  5
7E3B
  8
DEFPOINTS
  6
CONTINUOUS
 62
     0
 10
1650.169474457746
 20
826.30596361349751
 30
0.0
  0
ENDBLK
  5
7BF5
  8
0
  0
BLOCK
  8
0
  2
*D12
 70
     1
 10
0.0
 20
0.0
 30
0.0
  3
*D12
  1

  0
LINE
  5
7E3C
  8
3
  6
CONTINUOUS
 62
     0
 10
1660.169474457746
 20
887.02629961349771
 30
0.0
 11
1660.169474457746
 21
816.30596361349762
 31
0.0
  0
LINE
  5
7E3D
  8
3
  6
CONTINUOUS
 62
     0
 10
1630.169474457746
 20
826.30596361349751
 30
0.0
 11
1610.169474457746
 21
826.30596361349751
 31
0.0
  0
LINE
  5
7E3E
  8
3
  6
CONTINUOUS
 62
     0
 10
1680.169474457746
 20
826.30596361349751
 30
0.0
 11
1700.169474457746
 21
826.30596361349751
 31
0.0
  0
TEXT
  8
3
  40
30
  5
7E86
  62
0
  72
0
  71
0
 10
1635.95
 20
797.859
 30
0.000000
  1
10
  0
LINE
  5
7E40
  8
3
  6
CONTINUOUS
 62
     0
 10
1650.169474457746
 20
826.30596361349751
 30
0.0
 11
1660.169474457746
 21
826.30596361349751
 31
0.0
  0
INSERT
  5
7E41
  8
3
  6
CONTINUOUS
 62
     0
  2
_OPEN
 10
1650.169474457746
 20
826.30596361349751
 30
0.0
 41
20.0
 42
20.0
 43
20.0
  0
INSERT
  5
7E42
  8
3
  6
CONTINUOUS
 62
     0
  2
_OPEN
 10
1660.169474457746
 20
826.30596361349751
 30
0.0
 41
20.0
 42
20.0
 43
20.0
 50
180.0
  0
POINT
  5
7E43
  8
DEFPOINTS
  6
CONTINUOUS
 62
     0
 10
1650.169474457746
 20
892.02629961349783
 30
0.0
  0
POINT
  5
7E44
  8
DEFPOINTS
  6
CONTINUOUS
 62
     0
 10
1660.169474457746
 20
892.02629961349783
 30
0.0
  0
POINT
  5
7E45
  8
DEFPOINTS
  6
CONTINUOUS
 62
     0
 10
1660.169474457746
 20
826.30596361349751
 30
0.0
  0
ENDBLK
  5
7C20
  8
0
  0
BLOCK
  8
0
  2
*D13
 70
     1
 10
0.0
 20
0.0
 30
0.0
  3
*D13
  1

  0
LINE
  5
7E46
  8
3
  6
CONTINUOUS
 62
     0
 10
1580.169474457746
 20
1379.026299613497
 30
0.0
 11
1580.169474457746
 21
1421.0205876134969
 31
0.0
  0
LINE
  5
7E47
  8
3
  6
CONTINUOUS
 62
     0
 10
1720.169474457746
 20
1379.026299613497
 30
0.0
 11
1720.169474457746
 21
1421.0205876134969
 31
0.0
  0
LINE
  5
7E48
  8
3
  6
CONTINUOUS
 62
     0
 10
1600.169474457746
 20
1411.0205876134969
 30
0.0
 11
1700.169474457746
 21
1411.0205876134969
 31
0.0
  0
INSERT
  5
7E49
  8
3
  6
CONTINUOUS
 62
     0
  2
_OPEN
 10
1580.169474457746
 20
1411.0205876134969
 30
0.0
 41
20.0
 42
20.0
 43
20.0
 50
180.0
  0
INSERT
  5
7E4A
  8
3
  6
CONTINUOUS
 62
     0
  2
_OPEN
 10
1720.169474457746
 20
1411.0205876134969
 30
0.0
 41
20.0
 42
20.0
 43
20.0
  0
TEXT
  8
3
  40
30
  5
7E87
  62
0
  72
0
  71
0
 10
1585.88
 20
1382.92
 30
0.000000
  1
140
  0
POINT
  5
7E4C
  8
DEFPOINTS
  6
CONTINUOUS
 62
     0
 10
1580.169474457746
 20
1374.026299613497
 30
0.0
  0
POINT
  5
7E4D
  8
DEFPOINTS
  6
CONTINUOUS
 62
     0
 10
1720.169474457746
 20
1374.026299613497
 30
0.0
  0
POINT
  5
7E4E
  8
DEFPOINTS
  6
CONTINUOUS
 62
     0
 10
1720.169474457746
 20
1411.0205876134969
 30
0.0
  0
ENDBLK
  5
7C2C
  8
0
  0
BLOCK
  8
0
  2
*D14
 70
     1
 10
0.0
 20
0.0
 30
0.0
  3
*D14
  1

  0
LINE
  5
7E4F
  8
3
  6
CONTINUOUS
 62
     0
 10
1350.169474457746
 20
1329.026299613497
 30
0.0
 11
1350.169474457746
 21
1482.4770756134969
 31
0.0
  0
LINE
  5
7E50
  8
3
  6
CONTINUOUS
 62
     0
 10
1650.169474457746
 20
1465.193914613498
 30
0.0
 11
1650.169474457746
 21
1482.4770756134969
 31
0.0
  0
LINE
  5
7E51
  8
3
  6
CONTINUOUS
 62
     0
 10
1370.169474457746
 20
1472.4770756134969
 30
0.0
 11
1630.169474457746
 21
1472.4770756134969
 31
0.0
  0
INSERT
  5
7E52
  8
3
  6
CONTINUOUS
 62
     0
  2
_OPEN
 10
1350.169474457746
 20
1472.4770756134969
 30
0.0
 41
20.0
 42
20.0
 43
20.0
 50
180.0
  0
INSERT
  5
7E53
  8
3
  6
CONTINUOUS
 62
     0
  2
_OPEN
 10
1650.169474457746
 20
1472.4770756134969
 30
0.0
 41
20.0
 42
20.0
 43
20.0
  0
TEXT
  8
3
  40
30
  5
7E88
  62
0
  72
0
  71
0
 10
1435.58
 20
1469.38
 30
0.000000
  1
MAX
  0
TEXT
  8
3
  40
30
  5
7E89
  62
0
  72
0
  71
0
 10
1435.58
 20
1430.38
 30
0.000000
  1
300
  0
POINT
  5
7E55
  8
DEFPOINTS
  6
CONTINUOUS
 62
     0
 10
1350.169474457746
 20
1324.026299613497
 30
0.0
  0
POINT
  5
7E56
  8
DEFPOINTS
  6
CONTINUOUS
 62
     0
 10
1650.169474457746
 20
1460.1939146134971
 30
0.0
  0
POINT
  5
7E57
  8
DEFPOINTS
  6
CONTINUOUS
 62
     0
 10
1650.169474457746
 20
1472.4770756134969
 30
0.0
  0
ENDBLK
  5
7CE0
  8
0
  0
BLOCK
  8
0
  2
*D15
 70
     1
 10
0.0
 20
0.0
 30
0.0
  3
*D15
  1

  0
LINE
  5
7E58
  8
3
  6
CONTINUOUS
 62
     0
 10
1728.169474457746
 20
1339.026299613497
 30
0.0
 11
1728.169474457746
 21
1482.4770756134969
 31
0.0
  0
LINE
  5
7E59
  8
3
  6
CONTINUOUS
 62
     0
 10
1670.169474457746
 20
1472.4770756134969
 30
0.0
 11
1708.169474457746
 21
1472.4770756134969
 31
0.0
  0
TEXT
  8
3
  40
30
  5
7E8A
  62
0
  72
0
  71
0
 10
1620.13
 20
1442.79
 30
0.000000
  1
78
  0
INSERT
  5
7E5B
  8
3
  6
CONTINUOUS
 62
     0
  2
_OPEN
 10
1650.169474457746
 20
1472.4770756134969
 30
0.0
 41
20.0
 42
20.0
 43
20.0
 50
180.0
  0
INSERT
  5
7E5C
  8
3
  6
CONTINUOUS
 62
     0
  2
_OPEN
 10
1728.169474457746
 20
1472.4770756134969
 30
0.0
 41
20.0
 42
20.0
 43
20.0
  0
POINT
  5
7E5D
  8
DEFPOINTS
  6
CONTINUOUS
 62
     0
 10
1650.169474457746
 20
1460.1939146134971
 30
0.0
  0
POINT
  5
7E5E
  8
DEFPOINTS
  6
CONTINUOUS
 62
     0
 10
1728.169474457746
 20
1334.026299613497
 30
0.0
  0
POINT
  5
7E5F
  8
DEFPOINTS
  6
CONTINUOUS
 62
     0
 10
1728.169474457746
 20
1472.4770756134969
 30
0.0
  0
ENDBLK
  5
7C92
  8
0
  0
BLOCK
  8
0
  2
*D16
 70
     1
 10
0.0
 20
0.0
 30
0.0
  3
*D16
  1

  0
LINE
  5
7E60
  8
3
  6
CONTINUOUS
 62
     0
 10
1733.169474457746
 20
1314.026299613497
 30
0.0
 11
1798.8003644577459
 21
1314.026299613497
 31
0.0
  0
LINE
  5
7E61
  8
3
  6
CONTINUOUS
 62
     0
 10
1733.169474457746
 20
1114.026299613497
 30
0.0
 11
1798.8003644577459
 21
1114.026299613497
 31
0.0
  0
LINE
  5
7E62
  8
3
  6
CONTINUOUS
 62
     0
 10
1788.8003644577459
 20
1294.026299613497
 30
0.0
 11
1788.8003644577459
 21
1134.026299613497
 31
0.0
  0
INSERT
  5
7E63
  8
3
  6
CONTINUOUS
 62
     0
  2
_OPEN
 10
1788.8003644577459
 20
1314.026299613497
 30
0.0
 41
20.0
 42
20.0
 43
20.0
 50
90.0
  0
INSERT
  5
7E64
  8
3
  6
CONTINUOUS
 62
     0
  2
_OPEN
 10
1788.8003644577459
 20
1114.026299613497
 30
0.0
 41
20.0
 42
20.0
 43
20.0
 50
270.0
  0
TEXT
  8
3
  40
30
  5
7E8B
  62
0
  72
0
  71
0
 10
1703.80
 20
1174.35
 30
0.000000
  1
φ200
  0
POINT
  5
7E66
  8
DEFPOINTS
  6
CONTINUOUS
 62
     0
 10
1728.169474457746
 20
1314.026299613497
 30
0.0
  0
POINT
  5
7E67
  8
DEFPOINTS
  6
CONTINUOUS
 62
     0
 10
1728.169474457746
 20
1114.026299613497
 30
0.0
  0
POINT
  5
7E68
  8
DEFPOINTS
  6
CONTINUOUS
 62
     0
 10
1788.8003644577459
 20
1114.026299613497
 30
0.0
  0
ENDBLK
  5
7CEB
  8
0
  0
BLOCK
  8
0
  2
*D17
 70
     1
 10
0.0
 20
0.0
 30
0.0
  3
*D17
  1

  0
LINE
  5
7E69
  8
3
 62
     0
 10
363.47830899999991
 20
2137.1484479999999
 30
0.0
 11
314.03833016297392
 21
2137.1484479999999
 31
0.0
  0
LINE
  5
7E6A
  8
3
 62
     0
 10
363.47830899999991
 20
1913.1484479999999
 30
0.0
 11
314.03833016297381
 21
1913.1484479999999
 31
0.0
  0
LINE
  5
7E6B
  8
3
 62
     0
 10
324.03833016297392
 20
2117.1484479999999
 30
0.0
 11
324.03833016297392
 21
1933.1484479999999
 31
0.0
  0
INSERT
  5
7E6C
  8
3
 62
     0
  2
_OPEN
 10
324.03833016297392
 20
2137.1484479999999
 30
0.0
 41
20.0
 42
20.0
 43
20.0
 50
90.0
  0
INSERT
  5
7E6D
  8
3
 62
     0
  2
_OPEN
 10
324.03833016297381
 20
1913.1484479999999
 30
0.0
 41
20.0
 42
20.0
 43
20.0
 50
270.0
  0
TEXT
  8
3
  40
30
  5
7E8C
  62
0
  72
0
  71
0
 10
239.038
 20
1975.92
 30
0.000000
  1
224
  0
POINT
  5
7E6F
  8
DEFPOINTS
 62
     0
 10
368.47830899999991
 20
2137.1484479999999
 30
0.0
  0
POINT
  5
7E70
  8
DEFPOINTS
 62
     0
 10
368.47830899999991
 20
1913.1484479999999
 30
0.0
  0
POINT
  5
7E71
  8
DEFPOINTS
 62
     0
 10
324.03833016297381
 20
1913.1484479999999
 30
0.0
  0
ENDBLK
  5
7CBB
  8
0
  0
BLOCK
  8
0
  2
*D18
 70
     1
 10
0.0
 20
0.0
 30
0.0
  3
*D18
  1

  0
LINE
  5
7E72
  8
3
 62
     0
 10
1014.045497
 20
1224.026299613497
 30
0.0
 11
1014.045497
 21
1540.2266988437691
 31
0.0
  0
LINE
  5
7E73
  8
3
 62
     0
 10
368.47830899999991
 20
922.02629961349771
 30
0.0
 11
368.47830900000002
 21
1540.2266988437691
 31
0.0
  0
LINE
  5
7E74
  8
3
 62
     0
 10
994.04549700000007
 20
1530.2266988437691
 30
0.0
 11
388.47830900000002
 21
1530.2266988437691
 31
0.0
  0
INSERT
  5
7E75
  8
3
 62
     0
  2
_OPEN
 10
1014.045497
 20
1530.2266988437691
 30
0.0
 41
20.0
 42
20.0
 43
20.0
  0
INSERT
  5
7E76
  8
3
 62
     0
  2
_OPEN
 10
368.47830900000002
 20
1530.2266988437691
 30
0.0
 41
20.0
 42
20.0
 43
20.0
 50
180.0
  0
TEXT
  8
3
  40
30
  5
7E8D
  62
0
  72
0
  71
0
 10
652.625
 20
1502.13
 30
0.000000
  1
646
  0
POINT
  5
7E78
  8
DEFPOINTS
 62
     0
 10
1014.045497
 20
1219.026299613497
 30
0.0
  0
POINT
  5
7E79
  8
DEFPOINTS
 62
     0
 10
368.47830899999991
 20
917.02629961349783
 30
0.0
  0
POINT
  5
7E7A
  8
DEFPOINTS
 62
     0
 10
368.47830900000002
 20
1530.2266988437691
 30
0.0
  0
ENDBLK
  5
7CD4
  8
0
  0
ENDSEC
  0
SECTION
  2
ENTITIES
  0
LINE
  5
7A86
  8
1
  6
CONTINUOUS
 10
368.47830899999991
 20
917.02629961349783
 30
0.0
 11
1048.4783090000001
 21
917.02629961349783
 31
0.0
  0
LINE
  5
7A87
  8
1
  6
CONTINUOUS
 10
368.47830899999991
 20
892.02629961349783
 30
0.0
 11
1048.4783090000001
 21
892.02629961349783
 31
0.0
  0
ARC
  5
7A88
  8
1
  6
CONTINUOUS
 10
849.47830899999997
 20
1200.026299613497
 30
0.0
 40
165.0
 50
269.69999999999999
 51
0.6
  0
ARC
  5
7A89
  8
1
  6
CONTINUOUS
 10
847.47830899999985
 20
1230.026299613497
 30
0.0
 40
195.0
 50
180.0
 51
270.30000000000001
  0
ARC
  5
7A8A
  8
1
  6
CONTINUOUS
 10
558.87830899999994
 20
1089.7262996134971
 30
0.0
 40
85.0
 50
324.69999999999987
 51
215.30000000000001
  0
LINE
  5
7A8B
  8
1
  6
CONTINUOUS
 10
440.47830899999991
 20
1324.026299613497
 30
0.0
 11
970.47830899999985
 21
1324.026299613497
 31
0.0
  0
LINE
  5
7A8C
  8
1
  6
CONTINUOUS
 10
651.77830900000004
 20
1009.726299613497
 30
0.0
 11
400.77830899999998
 21
1009.726299613497
 31
0.0
  0
LINE
  5
7A8D
  8
1
  6
CONTINUOUS
 10
393.47830899999991
 20
939.02629961349771
 30
0.0
 11
1023.478309
 21
939.02629961349771
 31
0.0
  0
LINE
  5
7A8E
  8
1
  6
CONTINUOUS
 10
393.47830899999991
 20
989.02629961349771
 30
0.0
 11
1023.478309
 21
989.02629961349771
 31
0.0
  0
LINE
  5
7A8F
  8
1
  6
CONTINUOUS
 10
548.47830899999985
 20
1121.826299613497
 30
0.0
 11
842.27830900000015
 21
1259.326299613497
 31
0.0
  0
LINE
  5
7A90
  8
1
  6
CONTINUOUS
 10
575.1783089999999
 20
1057.2262996134971
 30
0.0
 11
880.37830899999994
 21
1167.026299613497
 31
0.0
  0
LINE
  5
7A91
  8
1
  6
CONTINUOUS
 10
440.47830899999991
 20
989.02629961349771
 30
0.0
 11
440.47830899999991
 21
1324.026299613497
 31
0.0
  0
LINE
  5
7A92
  8
1
  6
CONTINUOUS
 10
368.47830899999991
 20
892.02629961349783
 30
0.0
 11
368.47830899999991
 21
917.02629961349783
 31
0.0
  0
LINE
  5
7A93
  8
1
  6
CONTINUOUS
 10
400.77830899999998
 20
1009.726299613497
 30
0.0
 11
400.77830899999998
 21
989.02629961349771
 31
0.0
  0
LINE
  5
7A94
  8
1
  6
CONTINUOUS
 10
393.47830899999991
 20
939.02629961349771
 30
0.0
 11
393.47830899999991
 21
989.02629961349771
 31
0.0
  0
LINE
  5
7A95
  8
2
  6
CENTER
 10
528.27830900000004
 20
1090.1262996134969
 30
0.0
 11
598.27830900000004
 21
1090.1262996134969
 31
0.0
  0
CIRCLE
  5
7A96
  8
1
  6
CONTINUOUS
 10
563.27830900000004
 20
1090.1262996134969
 30
0.0
 40
35.0
  0
LINE
  5
7A97
  8
1
  6
CONTINUOUS
 10
481.378309
 20
1009.726299613497
 30
0.0
 11
481.378309
 21
1017.726299613497
 31
0.0
  0
LINE
  5
7A98
  8
1
  6
CONTINUOUS
 10
481.378309
 20
1017.726299613497
 30
0.0
 11
489.57830899999999
 21
1040.526299613497
 31
0.0
  0
LINE
  5
7A99
  8
2
  6
CENTER
 10
563.27830900000004
 20
1055.1262996134969
 30
0.0
 11
563.27830900000004
 21
1125.1262996134981
 31
0.0
  0
LINE
  5
7A9A
  8
1
  6
CONTINUOUS
 10
636.37830899999994
 20
1017.726299613497
 30
0.0
 11
628.27830900000004
 21
1040.526299613497
 31
0.0
  0
LINE
  5
7A9B
  8
1
  6
CONTINUOUS
 10
636.37830899999994
 20
1009.726299613497
 30
0.0
 11
636.37830899999994
 21
1017.726299613497
 31
0.0
  0
CIRCLE
  5
7A9C
  8
1
  6
CONTINUOUS
 10
863.47830899999985
 20
1214.026299613497
 30
0.0
 40
100.0
  0
CIRCLE
  5
7A9D
  8
1
  6
CONTINUOUS
 10
863.47830899999985
 20
1214.026299613497
 30
0.0
 40
120.0
  0
ARC
  5
7A9E
  8
1
  6
CONTINUOUS
 10
874.47830899999997
 20
1203.026299613497
 30
0.0
 40
140.0
 50
359.39999999999992
 51
90.40000000000002
  0
LINE
  5
7A9F
  8
1
  6
CONTINUOUS
 10
728.47830899999985
 20
1267.7262996134971
 30
0.0
 11
728.47830899999985
 21
989.02629961349771
 31
0.0
  0
LINE
  5
7AA0
  8
1
  6
CONTINUOUS
 10
998.47830899999997
 20
989.02629961349771
 30
0.0
 11
998.47830899999997
 21
1267.7262996134971
 31
0.0
  0
LINE
  5
7AA1
  8
1
  6
CONTINUOUS
 10
970.47830899999985
 20
989.02629961349771
 30
0.0
 11
970.47830899999985
 21
1324.026299613497
 31
0.0
  0
CIRCLE
  5
7AA2
  8
1
  6
CONTINUOUS
 10
863.47830899999985
 20
1214.026299613497
 30
0.0
 40
50.0
  0
LINE
  5
7AA3
  8
2
  6
CENTER
 10
863.47830899999985
 20
875.97331961349767
 30
0.0
 11
863.47830899999985
 21
1436.901006613497
 31
0.0
  0
LINE
  5
7AA4
  8
1
  6
CONTINUOUS
 10
728.47830899999985
 20
1180.7262996134971
 30
0.0
 11
998.47830899999997
 21
1180.7262996134971
 31
0.0
  0
LINE
  5
7AA5
  8
2
  6
CENTER
 10
421.46440000000001
 20
1214.026299613497
 30
0.0
 11
1053.4498209999999
 21
1214.026299613497
 31
0.0
  0
LINE
  5
7AA6
  8
1
  6
CONTINUOUS
 10
651.77830900000004
 20
989.02629961349771
 30
0.0
 11
651.77830900000004
 21
1009.726299613497
 31
0.0
  0
LINE
  5
7AA7
  8
1
  6
CONTINUOUS
 10
1023.478309
 20
939.02629961349771
 30
0.0
 11
1023.478309
 21
989.02629961349771
 31
0.0
  0
LINE
  5
7AA8
  8
1
  6
CONTINUOUS
 10
642.47830899999997
 20
1374.026299613497
 30
0.0
 11
884.47830899999985
 21
1374.026299613497
 31
0.0
  0
LINE
  5
7AA9
  8
1
  6
CONTINUOUS
 10
677.47830899999985
 20
1359.026299613497
 30
0.0
 11
849.47830899999997
 21
1359.026299613497
 31
0.0
  0
LINE
  5
7AAA
  8
1
  6
CONTINUOUS
 10
915.07830899999999
 20
1339.026299613497
 30
0.0
 11
811.87830899999994
 21
1339.026299613497
 31
0.0
  0
LINE
  5
7AAB
  8
1
  6
CONTINUOUS
 10
811.87830899999994
 20
1339.026299613497
 30
0.0
 11
728.47830899999985
 21
1267.7262996134971
 31
0.0
  0
LINE
  5
7AAC
  8
1
  6
CONTINUOUS
 10
652.47830899999985
 20
1359.026299613497
 30
0.0
 11
652.47830899999985
 21
1230.026299613497
 31
0.0
  0
LINE
  5
7AAD
  8
1
  6
CONTINUOUS
 10
662.47830899999997
 20
1374.026299613497
 30
0.0
 11
677.47830899999985
 21
1359.026299613497
 31
0.0
  0
LINE
  5
7AAE
  8
1
  6
CONTINUOUS
 10
663.47830899999985
 20
1374.026299613497
 30
0.0
 11
663.47830899999985
 21
1359.026299613497
 31
0.0
  0
LINE
  5
7AAF
  8
1
  6
CONTINUOUS
 10
652.47830899999985
 20
1359.026299613497
 30
0.0
 11
663.47830899999985
 21
1359.026299613497
 31
0.0
  0
LINE
  5
7AB0
  8
1
  6
CONTINUOUS
 10
915.07830899999999
 20
1339.026299613497
 30
0.0
 11
998.47830899999997
 21
1267.7262996134971
 31
0.0
  0
LINE
  5
7AB1
  8
1
  6
CONTINUOUS
 10
873.47830899999997
 20
1359.026299613497
 30
0.0
 11
873.47830899999997
 21
1343.026299613497
 31
0.0
  0
LINE
  5
7AB2
  8
1
  6
CONTINUOUS
 10
863.47830899999985
 20
1374.026299613497
 30
0.0
 11
863.47830899999985
 21
1359.026299613497
 31
0.0
  0
LINE
  5
7AB3
  8
1
  6
CONTINUOUS
 10
864.47830899999997
 20
1374.026299613497
 30
0.0
 11
849.47830899999997
 21
1359.026299613497
 31
0.0
  0
LINE
  5
7AB4
  8
1
  6
CONTINUOUS
 10
863.47830899999985
 20
1359.026299613497
 30
0.0
 11
873.47830899999997
 21
1359.026299613497
 31
0.0
  0
LINE
  5
7AB6
  8
1
  6
CONTINUOUS
 10
1436.169474457746
 20
917.02629961349783
 30
0.0
 11
1660.169474457746
 21
917.02629961349783
 31
0.0
  0
LINE
  5
7AB7
  8
1
  6
CONTINUOUS
 10
1436.169474457746
 20
892.02629961349783
 30
0.0
 11
1660.169474457746
 21
892.02629961349783
 31
0.0
  0
LINE
  5
7AB8
  8
1
  6
CONTINUOUS
 10
1402.669474457746
 20
1202.026299613497
 30
0.0
 11
1487.5694744577461
 21
1202.026299613497
 31
0.0
  0
LINE
  5
7AB9
  8
1
  6
CONTINUOUS
 10
1402.669474457746
 20
1226.026299613497
 30
0.0
 11
1518.4694744577459
 21
1226.026299613497
 31
0.0
  0
LINE
  5
7ABA
  8
1
  6
CONTINUOUS
 10
1402.669474457746
 20
1078.1262996134969
 30
0.0
 11
1460.169474457746
 21
1078.1262996134969
 31
0.0
  0
LINE
  5
7ABB
  8
1
  6
CONTINUOUS
 10
1402.669474457746
 20
1102.1262996134969
 30
0.0
 11
1460.169474457746
 21
1102.1262996134969
 31
0.0
  0
LINE
  5
7ABC
  8
1
  6
CONTINUOUS
 10
1350.169474457746
 20
989.02629961349771
 30
0.0
 11
1660.169474457746
 21
989.02629961349771
 31
0.0
  0
LINE
  5
7ABD
  8
1
  6
CONTINUOUS
 10
1436.169474457746
 20
939.02629961349771
 30
0.0
 11
1660.169474457746
 21
939.02629961349771
 31
0.0
  0
LINE
  5
7ABE
  8
1
  6
CONTINUOUS
 10
1402.669474457746
 20
1264.026299613497
 30
0.0
 11
1402.669474457746
 21
1164.026299613497
 31
0.0
  0
LINE
  5
7ABF
  8
1
  6
CONTINUOUS
 10
1372.669474457746
 20
1264.026299613497
 30
0.0
 11
1372.669474457746
 21
1164.026299613497
 31
0.0
  0
LINE
  5
7AC0
  8
1
  6
CONTINUOUS
 10
1425.169474457746
 20
1324.026299613497
 30
0.0
 11
1425.169474457746
 21
989.02629961349771
 31
0.0
  0
LINE
  5
7AC1
  8
1
  6
CONTINUOUS
 10
1350.169474457746
 20
1324.026299613497
 30
0.0
 11
1350.169474457746
 21
989.02629961349771
 31
0.0
  0
LINE
  5
7AC2
  8
1
  6
CONTINUOUS
 10
1048.4783090000001
 20
892.02629961349783
 30
0.0
 11
1048.4783090000001
 21
917.02629961349783
 31
0.0
  0
LINE
  5
7AC3
  8
1
  6
CONTINUOUS
 10
1436.169474457746
 20
917.02629961349783
 30
0.0
 11
1436.169474457746
 21
892.02629961349783
 31
0.0
  0
POINT
  5
7AC6
  8
1
  6
CONTINUOUS
 10
1356.39993
 20
917.02629961349783
 30
0.0
  0
LINE
  5
7AC7
  8
1
  6
CONTINUOUS
 10
1372.669474457746
 20
1055.1262996134969
 30
0.0
 11
1402.669474457746
 21
1055.1262996134969
 31
0.0
  0
LINE
  5
7AC8
  8
1
  6
CONTINUOUS
 10
1372.669474457746
 20
1125.1262996134981
 30
0.0
 11
1402.669474457746
 21
1125.1262996134981
 31
0.0
  0
LINE
  5
7AC9
  8
1
  6
CONTINUOUS
 10
1402.669474457746
 20
1125.1262996134981
 30
0.0
 11
1402.669474457746
 21
1055.1262996134969
 31
0.0
  0
LINE
  5
7ACA
  8
1
  6
CONTINUOUS
 10
1372.669474457746
 20
1125.1262996134981
 30
0.0
 11
1372.669474457746
 21
1055.1262996134969
 31
0.0
  0
LINE
  5
7ACB
  8
1
  6
CONTINUOUS
 10
1372.669474457746
 20
1164.026299613497
 30
0.0
 11
1402.669474457746
 21
1164.026299613497
 31
0.0
  0
LINE
  5
7ACC
  8
1
  6
CONTINUOUS
 10
1436.169474457746
 20
989.02629961349771
 30
0.0
 11
1436.169474457746
 21
939.02629961349771
 31
0.0
  0
LINE
  5
7ACD
  8
1
  6
CONTINUOUS
 10
1372.669474457746
 20
1264.026299613497
 30
0.0
 11
1402.669474457746
 21
1264.026299613497
 31
0.0
  0
LINE
  5
7ACE
  8
1
  6
CONTINUOUS
 10
1350.169474457746
 20
1324.026299613497
 30
0.0
 11
1425.169474457746
 21
1324.026299613497
 31
0.0
  0
LINE
  5
7ACF
  8
1
  6
CONTINUOUS
 10
1728.169474457746
 20
1334.026299613497
 30
0.0
 11
1728.169474457746
 21
1094.026299613497
 31
0.0
  0
LINE
  5
7AD0
  8
1
  6
CONTINUOUS
 10
1580.169474457746
 20
1374.026299613497
 30
0.0
 11
1580.169474457746
 21
1045.026299613497
 31
0.0
  0
LINE
  5
7AD1
  8
1
  6
CONTINUOUS
 10
1720.169474457746
 20
1374.026299613497
 30
0.0
 11
1720.169474457746
 21
1045.026299613497
 31
0.0
  0
LINE
  5
7AD2
  8
1
  6
CONTINUOUS
 10
1572.169474457746
 20
1334.026299613497
 30
0.0
 11
1572.169474457746
 21
989.02629961349771
 31
0.0
  0
LINE
  5
7AD3
  8
1
  6
CONTINUOUS
 10
1460.169474457746
 20
1180.7262996134971
 30
0.0
 11
1572.169474457746
 21
1267.7262996134971
 31
0.0
  0
LINE
  5
7AD4
  8
1
  6
CONTINUOUS
 10
1590.169474457746
 20
1035.026299613497
 30
0.0
 11
1710.169474457746
 21
1035.026299613497
 31
0.0
  0
LINE
  5
7AD5
  8
1
  6
CONTINUOUS
 10
1460.169474457746
 20
1180.7262996134971
 30
0.0
 11
1460.169474457746
 21
989.02629961349771
 31
0.0
  0
ARC
  5
7AD6
  8
1
  6
CONTINUOUS
 10
1590.169474457746
 20
1045.026299613497
 30
0.0
 40
10.0
 50
180.0
 51
270.0
  0
LINE
  5
7AD7
  8
1
  6
CONTINUOUS
 10
1580.169474457746
 20
1094.026299613497
 30
0.0
 11
1572.169474457746
 21
1094.026299613497
 31
0.0
  0
LINE
  5
7AD8
  8
1
  6
CONTINUOUS
 10
1660.169474457746
 20
917.02629961349783
 30
0.0
 11
1660.169474457746
 21
892.02629961349783
 31
0.0
  0
LINE
  5
7AD9
  8
1
  6
CONTINUOUS
 10
1720.169474457746
 20
1094.026299613497
 30
0.0
 11
1728.169474457746
 21
1094.026299613497
 31
0.0
  0
ARC
  5
7ADA
  8
1
  6
CONTINUOUS
 10
1710.169474457746
 20
1045.026299613497
 30
0.0
 40
10.0
 50
270.0
 51
0.0
  0
LINE
  5
7ADB
  8
1
  6
CONTINUOUS
 10
1660.169474457746
 20
989.02629961349771
 30
0.0
 11
1660.169474457746
 21
939.02629961349771
 31
0.0
  0
LINE
  5
7ADC
  8
1
  6
CONTINUOUS
 10
1594.169474457746
 20
1359.026299613497
 30
0.0
 11
1706.169474457746
 21
1359.026299613497
 31
0.0
  0
LINE
  5
7ADD
  8
1
  6
CONTINUOUS
 10
1559.169474457746
 20
1374.026299613497
 30
0.0
 11
1741.169474457746
 21
1374.026299613497
 31
0.0
  0
LINE
  5
7ADE
  8
1
  6
CONTINUOUS
 10
1579.169474457746
 20
1374.026299613497
 30
0.0
 11
1594.169474457746
 21
1359.026299613497
 31
0.0
  0
LINE
  5
7ADF
  8
1
  6
CONTINUOUS
 10
1580.169474457746
 20
1334.026299613497
 30
0.0
 11
1572.169474457746
 21
1334.026299613497
 31
0.0
  0
LINE
  5
7AE0
  8
1
  6
CONTINUOUS
 10
1720.169474457746
 20
1334.026299613497
 30
0.0
 11
1728.169474457746
 21
1334.026299613497
 31
0.0
  0
LINE
  5
7AE1
  8
1
  6
CONTINUOUS
 10
1721.169474457746
 20
1374.026299613497
 30
0.0
 11
1706.169474457746
 21
1359.026299613497
 31
0.0
  0
LINE
  5
7AE2
  8
1
  6
CONTINUOUS
 10
1048.4783090000001
 20
1913.1484479999999
 30
0.0
 11
875.47830899999997
 21
1913.1484479999999
 31
0.0
  0
LINE
  5
7AE3
  8
1
  6
CONTINUOUS
 10
1048.4783090000001
 20
2137.1484479999999
 30
0.0
 11
1014.478309
 21
2137.1484479999999
 31
0.0
  0
LINE
  5
7AE4
  8
1
  6
CONTINUOUS
 10
663.47830899999985
 20
2137.1484479999999
 30
0.0
 11
368.47830899999991
 21
2137.1484479999999
 31
0.0
  0
LINE
  5
7AE5
  8
1
  6
CONTINUOUS
 10
643.87830899999994
 20
1932.348448
 30
0.0
 11
473.878309
 21
1932.348448
 31
0.0
  0
LINE
  5
7AE6
  8
1
  6
CONTINUOUS
 10
643.87830899999994
 20
2123.2484479999998
 30
0.0
 11
473.878309
 21
2123.2484479999998
 31
0.0
  0
LINE
  5
7AE7
  8
1
  6
CONTINUOUS
 10
970.47830899999985
 20
1902.1484479999999
 30
0.0
 11
440.47830899999991
 21
1902.1484479999999
 31
0.0
  0
LINE
  5
7AE8
  8
1
  6
CONTINUOUS
 10
970.47830899999985
 20
1827.1484479999999
 30
0.0
 11
440.47830899999991
 21
1827.1484479999999
 31
0.0
  0
LINE
  5
7AE9
  8
1
  6
CONTINUOUS
 10
851.47830899999985
 20
1913.1484479999999
 30
0.0
 11
575.27830900000004
 21
1913.1484479999999
 31
0.0
  0
LINE
  5
7AEA
  8
1
  6
CONTINUOUS
 10
551.27830900000004
 20
1913.1484479999999
 30
0.0
 11
368.47830899999991
 21
1913.1484479999999
 31
0.0
  0
LINE
  5
7AEB
  8
1
  6
CONTINUOUS
 10
368.47830899999991
 20
1913.1484479999999
 30
0.0
 11
368.47830899999991
 21
2137.1484479999999
 31
0.0
  0
LINE
  5
7AEC
  8
1
  6
CONTINUOUS
 10
575.27830900000004
 20
1879.6484479999999
 30
0.0
 11
575.27830900000004
 21
1932.348448
 31
0.0
  0
LINE
  5
7AED
  8
1
  6
CONTINUOUS
 10
551.27830900000004
 20
1879.6484479999999
 30
0.0
 11
551.27830900000004
 21
1932.348448
 31
0.0
  0
LINE
  5
7AEE
  8
1
  6
CONTINUOUS
 10
528.27830900000004
 20
1849.6484479999999
 30
0.0
 11
598.27830900000004
 21
1849.6484479999999
 31
0.0
  0
LINE
  5
7AEF
  8
1
  6
CONTINUOUS
 10
528.27830900000004
 20
1879.6484479999999
 30
0.0
 11
598.27830900000004
 21
1879.6484479999999
 31
0.0
  0
LINE
  5
7AF0
  8
1
  6
CONTINUOUS
 10
528.27830900000004
 20
1849.6484479999999
 30
0.0
 11
528.27830900000004
 21
1879.6484479999999
 31
0.0
  0
LINE
  5
7AF1
  8
1
  6
CONTINUOUS
 10
440.47830899999991
 20
1827.1484479999999
 30
0.0
 11
440.47830899999991
 21
1902.1484479999999
 31
0.0
  0
LINE
  5
7AF2
  8
1
  6
CONTINUOUS
 10
598.27830900000004
 20
1849.6484479999999
 30
0.0
 11
598.27830900000004
 21
1879.6484479999999
 31
0.0
  0
LINE
  5
7AF3
  8
1
  6
CONTINUOUS
 10
473.878309
 20
1932.348448
 30
0.0
 11
473.878309
 21
2123.2484479999998
 31
0.0
  0
LINE
  5
7AF4
  8
1
  6
CONTINUOUS
 10
663.47830899999985
 20
2197.1484479999999
 30
0.0
 11
863.47830899999985
 21
2057.148447999999
 31
0.0
  0
LINE
  5
7AF5
  8
1
  6
CONTINUOUS
 10
663.47830899999985
 20
2057.148447999999
 30
0.0
 11
863.47830899999985
 21
2197.1484479999999
 31
0.0
  0
LINE
  5
7AF6
  8
1
  6
CONTINUOUS
 10
663.47830899999985
 20
2057.148447999999
 30
0.0
 11
1002.478309
 21
2057.148447999999
 31
0.0
  0
LINE
  5
7AF7
  8
1
  6
CONTINUOUS
 10
1002.478309
 20
2197.1484479999999
 30
0.0
 11
663.47830899999985
 21
2197.1484479999999
 31
0.0
  0
LINE
  5
7AF8
  8
1
  6
CONTINUOUS
 10
743.47830899999985
 20
2049.3484480000002
 30
0.0
 11
983.47830899999997
 21
2049.3484480000002
 31
0.0
  0
LINE
  5
7AF9
  8
1
  6
CONTINUOUS
 10
743.47830899999985
 20
2204.9484480000001
 30
0.0
 11
983.47830899999997
 21
2204.9484480000001
 31
0.0
  0
LINE
  5
7AFA
  8
1
  6
CONTINUOUS
 10
813.47830899999985
 20
1879.6484479999999
 30
0.0
 11
913.47830899999985
 21
1879.6484479999999
 31
0.0
  0
LINE
  5
7AFB
  8
1
  6
CONTINUOUS
 10
813.47830899999985
 20
1849.6484479999999
 30
0.0
 11
913.47830899999985
 21
1849.6484479999999
 31
0.0
  0
LINE
  5
7AFC
  8
1
  6
CONTINUOUS
 10
813.47830899999985
 20
1849.6484479999999
 30
0.0
 11
813.47830899999985
 21
1879.6484479999999
 31
0.0
  0
LINE
  5
7AFD
  8
1
  6
CONTINUOUS
 10
663.47830899999985
 20
2197.1484479999999
 30
0.0
 11
663.47830899999985
 21
2057.148447999999
 31
0.0
  0
LINE
  5
7AFE
  8
1
  6
CONTINUOUS
 10
643.87830899999994
 20
1932.348448
 30
0.0
 11
643.87830899999994
 21
2123.2484479999998
 31
0.0
  0
LINE
  5
7AFF
  8
1
  6
CONTINUOUS
 10
743.47830899999985
 20
2057.3484480000002
 30
0.0
 11
743.47830899999985
 21
2049.3484480000002
 31
0.0
  0
LINE
  5
7B00
  8
1
  6
CONTINUOUS
 10
743.47830899999985
 20
2196.9484480000001
 30
0.0
 11
743.47830899999985
 21
2204.9484480000001
 31
0.0
  0
LINE
  5
7B01
  8
1
  6
CONTINUOUS
 10
851.47830899999985
 20
1879.6484479999999
 30
0.0
 11
851.47830899999985
 21
2049.3484480000002
 31
0.0
  0
LINE
  5
7B02
  8
1
  6
CONTINUOUS
 10
875.47830899999997
 20
1879.6484479999999
 30
0.0
 11
875.47830899999997
 21
2049.3484480000002
 31
0.0
  0
LINE
  5
7B03
  8
1
  6
CONTINUOUS
 10
913.47830899999985
 20
1849.6484479999999
 30
0.0
 11
913.47830899999985
 21
1879.6484479999999
 31
0.0
  0
LINE
  5
7B04
  8
1
  6
CONTINUOUS
 10
970.47830899999985
 20
1827.1484479999999
 30
0.0
 11
970.47830899999985
 21
1902.1484479999999
 31
0.0
  0
LINE
  5
7B05
  8
1
  6
CONTINUOUS
 10
863.47830899999985
 20
2057.148447999999
 30
0.0
 11
863.47830899999985
 21
2197.1484479999999
 31
0.0
  0
ARC
  5
7B06
  8
1
  6
CONTINUOUS
 10
1002.478309
 20
2185.1484479999999
 30
0.0
 40
12.0
 50
0.0
 51
90.0
  0
ARC
  5
7B07
  8
1
  6
CONTINUOUS
 10
1002.478309
 20
2069.148447999999
 30
0.0
 40
12.0
 50
270.0
 51
0.0
  0
LINE
  5
7B08
  8
1
  6
CONTINUOUS
 10
983.47830899999997
 20
2057.3484480000002
 30
0.0
 11
983.47830899999997
 21
2049.3484480000002
 31
0.0
  0
LINE
  5
7B09
  8
1
  6
CONTINUOUS
 10
983.47830899999997
 20
2196.9484480000001
 30
0.0
 11
983.47830899999997
 21
2204.9484480000001
 31
0.0
  0
LINE
  5
7B0A
  8
1
  6
CONTINUOUS
 10
1014.478309
 20
2069.148447999999
 30
0.0
 11
1014.478309
 21
2185.1484479999999
 31
0.0
  0
LINE
  5
7B0B
  8
1
  6
CONTINUOUS
 10
1048.4783090000001
 20
1913.1484479999999
 30
0.0
 11
1048.4783090000001
 21
2137.1484479999999
 31
0.0
  0
LINE
  5
7B0C
  8
4
  6
CONTINUOUS
 10
1850.0
 20
500.0
 30
0.0
 11
1850.0
 21
300.0
 31
0.0
  0
LINE
  5
7B0D
  8
4
  6
CONTINUOUS
 10
1150.0
 20
500.0
 30
0.0
 11
1150.0
 21
300.0
 31
0.0
  0
LINE
  5
7B0E
  8
4
  6
CONTINUOUS
 10
650.0
 20
500.0
 30
0.0
 11
650.0
 21
300.0
 31
0.0
  0
LINE
  5
7B11
  8
4
  6
CONTINUOUS
 10
650.0
 20
300.0
 30
0.0
 11
1850.0
 21
300.0
 31
0.0
  0
LINE
  5
7B12
  8
4
  6
CONTINUOUS
 10
650.0
 20
400.0
 30
0.0
 11
1850.0
 21
400.0
 31
0.0
  0
TEXT
  5
7B13
  8
4
  6
CONTINUOUS
 10
688.50208099999998
 20
431.543026
 30
0.0
 40
50.0
  1
機器名称
  0
TEXT
  5
7B14
  8
4
  6
CONTINUOUS
 10
686.258106
 20
321.64515699999993
 30
0.0
 40
50.0
  1
機器型番
  0
TEXT
  5
7B15
  8
4
  6
CONTINUOUS
 10
1177.678744999999
 20
422.57176900000002
 30
0.0
 40
45.0
  1
ミツヤニューマルチファン
  0
TEXT
  5
7B16
  8
4
  6
CONTINUOUS
 10
1186.6544960000001
 20
317.159584
 30
0.0
 40
50.0
  1
NM#1 1/4-1
  0
TEXT
  5
7B18
  8
4
  6
CONTINUOUS
 10
769.18242399999986
 20
2383.4288409999999
 30
0.0
 40
54.0
  1
床置防振ベット
  0
TEXT
  5
7B19
  8
4
  6
CONTINUOUS
 10
316.16759300000001
 20
2533.8809759999999
 30
0.0
 40
72.0
  1
ベルト駆動式片吸込片持多翼ファン
  0
LINE
  5
7B1A
  8
4
  6
CONTINUOUS
 10
250.0
 20
2469.408754
 30
0.0
 11
1850.0
 21
2469.408754
 31
0.0
  0
LINE
  5
7B1B
  8
4
  6
CONTINUOUS
 10
250.0
 20
2669.408754
 30
0.0
 11
1850.0
 21
2669.408754
 31
0.0
  0
LINE
  5
7B1C
  8
4
  6
CONTINUOUS
 10
650.0
 20
500.0
 30
0.0
 11
1850.0
 21
500.0
 31
0.0
  0
LINE
  5
7B1D
  8
4
  6
CONTINUOUS
 10
250.0
 20
2669.408754
 30
0.0
 11
250.0
 21
2469.408754
 31
0.0
  0
TEXT
  5
7B1E
  8
4
  6
CONTINUOUS
 10
333.32359200000002
 20
2382.3194779999999
 30
0.0
 40
54.0
  1
右回転上向
  0
TEXT
  5
7B1F
  8
4
  6
CONTINUOUS
 10
1468.9695589999999
 20
2706.0610809999998
 30
0.0
 40
56.0
  1
No.
  0
TEXT
  5
7B20
  8
4
  6
CONTINUOUS
 10
1311.296063
 20
2383.4288409999999
 30
0.0
 40
54.0
  1
縮尺：1/10
  0
LINE
  5
7B21
  8
4
  6
CONTINUOUS
 10
1850.0
 20
2669.408754
 30
0.0
 11
1850.0
 21
2469.408754
 31
0.0
  0
LINE
  5
7B23
  8
4
  6
CONTINUOUS
 10
1440.617422
 20
2681.2635829999999
 30
0.0
 11
1440.617422
 21
2786.6522620000001
 31
0.0
  0
LINE
  5
7B24
  8
4
  6
CONTINUOUS
 10
1440.617422
 20
2786.6522620000001
 30
0.0
 11
1850.0
 21
2786.6522620000001
 31
0.0
  0
LINE
  5
7B25
  8
4
  6
CONTINUOUS
 10
1850.0
 20
2786.6522620000001
 30
0.0
 11
1850.0
 21
2681.2635829999999
 31
0.0
  0
LINE
  5
7B26
  8
4
  6
CONTINUOUS
 10
1850.0
 20
2681.2635829999999
 30
0.0
 11
1440.617422
 21
2681.2635829999999
 31
0.0
  0
DIMENSION
  5
7B3E
  8
3
  6
CONTINUOUS
  2
*D1
 10
863.47830899999985
 20
835.57564761349761
 30
0.0
 11
620.98560299999997
 21
835.57564761349761
 31
0.0
 70
   128
 13
368.47830899999991
 23
892.02629961349783
 33
0.0
 14
863.47830899999985
 24
892.02629961349783
 34
0.0
1001
ACAD
1000
DSTYLE
1002
{
1070
   287
1070
     3
1070
   287
1070
     3
1070
    40
1040
10.0
1070
   143
1040
0.039
1070
   172
1070
     1
1070
   271
1070
     0
1070
   279
1070
     0
1070
   288
1070
     1
1002
}
  0
DIMENSION
  5
7B4A
  8
3
  6
CONTINUOUS
  2
*D2
 10
1048.4783090000001
 20
835.57564761349761
 30
0.0
 11
955.97830900000008
 21
860.57564761349761
 31
0.0
 70
     0
 13
863.47830899999985
 23
892.02629961349783
 33
0.0
 14
1048.4783090000001
 24
892.02629961349783
 34
0.0
1001
ACAD
1000
DSTYLE
1002
{
1070
   287
1070
     4
1070
   287
1070
     4
1070
    40
1040
10.0
1070
    75
1070
     1
1070
   143
1040
0.039
1070
   172
1070
     1
1070
   271
1070
     0
1070
   279
1070
     1
1070
   288
1070
     1
1002
}
  0
DIMENSION
  5
7B57
  8
3
  6
CONTINUOUS
  2
*D3
 10
863.47830899999985
 20
1418.079283613497
 30
0.0
 11
776.79095999999993
 21
1418.079283613497
 31
0.0
 70
   128
 13
663.47830899999985
 23
1374.026299613497
 33
0.0
 14
863.47830899999985
 24
1374.026299613497
 34
0.0
1001
ACAD
1000
DSTYLE
1002
{
1070
   287
1070
     3
1070
   287
1070
     3
1070
    40
1040
10.0
1070
   143
1040
0.039
1070
   172
1070
     1
1070
   271
1070
     0
1070
   279
1070
     0
1070
   288
1070
     1
1002
}
  0
DIMENSION
  5
7B64
  8
3
  6
CONTINUOUS
  2
*D4
 10
863.47830899999985
 20
1472.650393613497
 30
0.0
 11
769.98004900000001
 21
1472.650393613497
 31
0.0
 70
   128
 13
652.47830899999985
 23
1359.026299613497
 33
0.0
 14
863.47830899999985
 24
1374.026299613497
 34
0.0
1001
ACAD
1000
DSTYLE
1002
{
1070
   287
1070
     3
1070
   287
1070
     3
1070
    40
1040
10.0
1070
   143
1040
0.039
1070
   172
1070
     1
1070
   271
1070
     0
1070
   279
1070
     0
1070
   288
1070
     1
1002
}
  0
DIMENSION
  5
7B70
  8
3
  6
CONTINUOUS
  2
*D5
 10
1014.045497
 20
1472.650393613497
 30
0.0
 11
938.76190300000007
 21
1497.650393613497
 31
0.0
 70
     0
 13
863.47830899999985
 23
1374.026299613497
 33
0.0
 14
1014.045497
 24
1214.026299613497
 34
0.0
1001
ACAD
1000
DSTYLE
1002
{
1070
   287
1070
     4
1070
   287
1070
     4
1070
    40
1040
10.0
1070
    75
1070
     1
1070
   143
1040
0.039
1070
   172
1070
     1
1070
   271
1070
     0
1070
   279
1070
     1
1070
   288
1070
     1
1002
}
  0
DIMENSION
  5
7B8A
  8
3
  6
CONTINUOUS
  2
*D6
 10
1098.661421
 20
1214.026299613497
 30
0.0
 11
1098.661421
 21
1291.7927106134971
 31
0.0
 70
   128
 13
884.47830899999985
 23
1374.026299613497
 33
0.0
 14
1014.045497
 24
1214.026299613497
 34
0.0
 50
90.0
1001
ACAD
1000
DSTYLE
1002
{
1070
   287
1070
     3
1070
   287
1070
     3
1070
    40
1040
10.0
1070
   143
1040
0.039
1070
   172
1070
     1
1070
   271
1070
     0
1070
   279
1070
     0
1070
   288
1070
     1
1002
}
  0
DIMENSION
  5
7B96
  8
3
  6
CONTINUOUS
  2
*D7
 10
1098.661421
 20
939.02629961349771
 30
0.0
 11
1073.6614209999991
 21
1076.526299613497
 31
0.0
 70
     0
 13
1014.045497
 23
1214.026299613497
 33
0.0
 14
1023.478309
 24
939.02629961349771
 34
0.0
 50
90.0
1001
ACAD
1000
DSTYLE
1002
{
1070
   287
1070
     4
1070
   287
1070
     4
1070
    40
1040
10.0
1070
    75
1070
     1
1070
   143
1040
0.039
1070
   172
1070
     1
1070
   271
1070
     0
1070
   279
1070
     1
1070
   288
1070
     1
1002
}
  0
DIMENSION
  5
7BA6
  8
3
  6
CONTINUOUS
  2
*D8
 10
1098.8369150000001
 20
892.02629961349783
 30
0.0
 11
1098.8369150000001
 21
817.74058532778361
 31
0.0
 70
   128
 13
1023.478309
 23
939.02629961349771
 33
0.0
 14
1048.4783090000001
 24
892.02629961349783
 34
0.0
 50
90.0
1001
ACAD
1000
DSTYLE
1002
{
1070
   287
1070
     3
1070
   287
1070
     3
1070
    40
1040
10.0
1070
   143
1040
0.039
1070
   172
1070
     1
1070
   271
1070
     0
1070
   279
1070
     0
1070
   288
1070
     1
1002
}
  0
DIMENSION
  5
7BCD
  8
3
  6
CONTINUOUS
  2
*D9
 10
1163.8701269999999
 20
892.02629961349783
 30
0.0
 11
1163.870126999999
 21
1128.320605613497
 31
0.0
 70
   128
 13
889.47830899999997
 23
1374.026299613497
 33
0.0
 14
1048.4783090000001
 24
892.02629961349783
 34
0.0
 50
90.0
1001
ACAD
1000
DSTYLE
1002
{
1070
   287
1070
     3
1070
   287
1070
     3
1070
    40
1040
10.0
1070
   143
1040
0.039
1070
   172
1070
     1
1070
   271
1070
     0
1070
   279
1070
     0
1070
   288
1070
     1
1002
}
  0
DIMENSION
  5
7BDA
  8
3
  6
CONTINUOUS
  2
*D10
 10
1048.4783090000001
 20
1762.6560989999989
 30
0.0
 11
703.36469399999987
 21
1762.6560989999989
 31
0.0
 70
   128
 13
368.47830899999991
 23
1913.1484479999999
 33
0.0
 14
1048.4783090000001
 24
1913.1484479999999
 34
0.0
1001
ACAD
1000
DSTYLE
1002
{
1070
   287
1070
     3
1070
   287
1070
     3
1070
    40
1040
10.0
1070
   143
1040
0.039
1070
   172
1070
     1
1070
   271
1070
     0
1070
   279
1070
     0
1070
   288
1070
     1
1002
}
  0
LINE
  5
7BE8
  8
2
  6
CENTER
 10
1650.169474457746
 20
831.34193061349765
 30
0.0
 11
1650.169474457746
 21
1415.472128613497
 31
0.0
  0
DIMENSION
  5
7BF6
  8
3
  6
CONTINUOUS
  2
*D11
 10
1650.169474457746
 20
826.30596361349751
 30
0.0
 11
1551.6445744577461
 21
826.30596361349751
 31
0.0
 70
   128
 13
1436.169474457746
 23
892.02629961349783
 33
0.0
 14
1650.169474457746
 24
892.02629961349783
 34
0.0
1001
ACAD
1000
DSTYLE
1002
{
1070
   287
1070
     3
1070
   287
1070
     3
1070
    40
1040
10.0
1070
   143
1040
0.039
1070
   172
1070
     1
1070
   271
1070
     0
1070
   279
1070
     0
1070
   288
1070
     1
1002
}
  0
DIMENSION
  5
7C06
  8
3
  6
CONTINUOUS
  2
*D12
 10
1660.169474457746
 20
826.30596361349751
 30
0.0
 11
1695.9477274577459
 21
825.95912861349746
 31
0.0
 70
   128
 13
1650.169474457746
 23
892.02629961349783
 33
0.0
 14
1660.169474457746
 24
892.02629961349783
 34
0.0
1001
ACAD
1000
DSTYLE
1002
{
1070
   287
1070
     4
1070
   287
1070
     4
1070
    40
1040
10.0
1070
    75
1070
     1
1070
   143
1040
0.039
1070
   172
1070
     1
1070
   271
1070
     0
1070
   279
1070
     1
1070
   288
1070
     1
1002
}
  0
DIMENSION
  5
7C2D
  8
3
  6
CONTINUOUS
  2
*D13
 10
1720.169474457746
 20
1411.0205876134969
 30
0.0
 11
1645.8837604577459
 21
1411.0205876134969
 31
0.0
 70
   128
 13
1580.169474457746
 23
1374.026299613497
 33
0.0
 14
1720.169474457746
 24
1374.026299613497
 34
0.0
1001
ACAD
1000
DSTYLE
1002
{
1070
   287
1070
     3
1070
   287
1070
     3
1070
    40
1040
10.0
1070
   143
1040
0.039
1070
   172
1070
     1
1070
   271
1070
     0
1070
   279
1070
     0
1070
   288
1070
     1
1002
}
  0
DIMENSION
  5
7C3A
  8
3
  6
CONTINUOUS
  2
*D14
 10
1650.169474457746
 20
1472.4770756134969
 30
0.0
 11
1495.575129457746
 21
1472.4770756134969
 31
0.0
 70
   128
  1
MAX\P300
 13
1350.169474457746
 23
1324.026299613497
 33
0.0
 14
1650.169474457746
 24
1460.1939146134971
 34
0.0
1001
ACAD
1000
DSTYLE
1002
{
1070
   287
1070
     3
1070
   287
1070
     3
1070
    40
1040
10.0
1070
   143
1040
0.039
1070
   172
1070
     1
1070
   271
1070
     0
1070
   279
1070
     0
1070
   288
1070
     1
1002
}
  0
DIMENSION
  5
7C48
  8
3
  6
CONTINUOUS
  2
*D15
 10
1728.169474457746
 20
1472.4770756134969
 30
0.0
 11
1680.1288304577461
 21
1470.894598613497
 31
0.0
 70
   128
 13
1650.169474457746
 23
1460.1939146134971
 33
0.0
 14
1728.169474457746
 24
1334.026299613497
 34
0.0
1001
ACAD
1000
DSTYLE
1002
{
1070
   287
1070
     4
1070
   287
1070
     4
1070
    40
1040
10.0
1070
    75
1070
     1
1070
   143
1040
0.039
1070
   172
1070
     1
1070
   271
1070
     0
1070
   279
1070
     1
1070
   288
1070
     1
1002
}
  0
LINE
  5
7C62
  8
3
  6
CONTINUOUS
 10
1728.169474457746
 20
1314.026299613497
 30
0.0
 11
1738.9280054577459
 21
1314.026299613497
 31
0.0
  0
LINE
  5
7C64
  8
3
  6
CONTINUOUS
 10
1728.169474457746
 20
1114.026299613497
 30
0.0
 11
1739.5514074577461
 21
1114.026299613497
 31
0.0
  0
DIMENSION
  5
7C71
  8
3
  6
CONTINUOUS
  2
*D16
 10
1788.8003644577459
 20
1114.026299613497
 30
0.0
 11
1788.8003644577459
 21
1227.454871042069
 31
0.0
 70
   128
 13
1728.169474457746
 23
1314.026299613497
 33
0.0
 14
1728.169474457746
 24
1114.026299613497
 34
0.0
 50
90.0
1001
ACAD
1000
DSTYLE
1002
{
1070
   287
1070
     3
1070
   287
1070
     3
1070
     3
1000
φ<>
1070
    40
1040
10.0
1070
   143
1040
0.039
1070
   172
1070
     1
1070
   271
1070
     0
1070
   279
1070
     0
1070
   288
1070
     1
1002
}
  0
LINE
  5
7C72
  8
2
  6
CENTER
 10
863.47830899999985
 20
1799.3455499999991
 30
0.0
 11
863.47830899999985
 21
2238.2110269999989
 31
0.0
  0
LINE
  5
7C73
  8
2
  6
CENTER
 10
1313.9277284577461
 20
1214.026299613497
 30
0.0
 11
1732.7653564577461
 21
1214.026299613497
 31
0.0
  0
LINE
  5
7C93
  8
2
  6
CENTER
 10
457.42090700000011
 20
2127.148447999999
 30
0.0
 11
723.7766190000001
 21
2127.148447999999
 31
0.0
  0
LINE
  5
7C94
  8
2
  6
CENTER
 10
723.7766190000001
 20
2127.148447999999
 30
0.0
 11
1099.8313820000001
 21
2127.148447999999
 31
0.0
  0
DIMENSION
  5
7CB0
  8
3
  2
*D17
 10
324.03833016297381
 20
1913.1484479999999
 30
0.0
 11
324.03833016297352
 21
2029.0233434734951
 31
0.0
 70
   128
 13
368.47830899999991
 23
2137.1484479999999
 33
0.0
 14
368.47830899999991
 24
1913.1484479999999
 34
0.0
 50
90.0
1001
ACAD
1000
DSTYLE
1002
{
1070
   287
1070
     3
1070
   287
1070
     3
1070
    40
1040
10.0
1070
   143
1040
0.039
1070
   172
1070
     1
1070
   271
1070
     0
1070
   279
1070
     0
1070
   288
1070
     1
1002
}
  0
DIMENSION
  5
7CD5
  8
3
  2
*D18
 10
368.47830900000002
 20
1530.2266988437691
 30
0.0
 11
712.62501191110266
 21
1530.2266988437691
 31
0.0
 70
   128
 13
1014.045497
 23
1219.026299613497
 33
0.0
 14
368.47830899999991
 24
917.02629961349783
 34
0.0
1001
ACAD
1000
DSTYLE
1002
{
1070
   287
1070
     3
1070
   287
1070
     3
1070
    40
1040
10.0
1070
   143
1040
0.039
1070
   172
1070
     1
1070
   271
1070
     0
1070
   279
1070
     0
1070
   288
1070
     1
1002
}
  0
ENDSEC
  0
EOF
