  0
SECTION
  2
HEADER
  9
$ACADVER
  1
AC1009
  9
$INSBASE
 10
0.0
 20
0.0
 30
0.0
  9
$EXTMIN
 10
248.29568958641889
 20
300.0
 30
0.0
  9
$EXTMAX
 10
1850.0
 20
2786.6522620000001
 30
0.0
  9
$LIMMIN
 10
0.0
 20
0.0
  9
$LIMMAX
 10
297.0
 20
210.0
  9
$ORTHOMODE
 70
     0
  9
$REGENMODE
 70
     1
  9
$FILLMODE
 70
     0
  9
$QTEXTMODE
 70
     0
  9
$MIRRTEXT
 70
     1
  9
$DRAGMODE
 70
     2
  9
$LTSCALE
 40
100.0
  9
$OSMODE
 70
    37
  9
$ATTMODE
 70
     1
  9
$TEXTSIZE
 40
180.0
  9
$TRACEWID
 40
0.05
  9
$TEXTSTYLE
  7
STANDARD
  9
$CLAYER
  8
3
  9
$CELTYPE
  6
BYLAYER
  9
$CECOLOR
 62
   256
  9
$DIMSCALE
 40
10.0
  9
$DIMASZ
 40
2.0
  9
$DIMEXO
 40
0.5
  9
$DIMDLI
 40
10.0
  9
$DIMRND
 40
0.0
  9
$DIMDLE
 40
0.0
  9
$DIMEXE
 40
1.0
  9
$DIMTP
 40
1.0
  9
$DIMTM
 40
1.0
  9
$DIMTXT
 40
3.0
  9
$DIMCEN
 40
0.0
  9
$DIMTSZ
 40
0.0
  9
$DIMTOL
 70
     0
  9
$DIMLIM
 70
     0
  9
$DIMTIH
 70
     0
  9
$DIMTOH
 70
     0
  9
$DIMSE1
 70
     0
  9
$DIMSE2
 70
     0
  9
$DIMTAD
 70
     1
  9
$DIMZIN
 70
     8
  9
$DIMBLK
  1

  9
$DIMASO
 70
     1
  9
$DIMSHO
 70
     1
  9
$DIMPOST
  1

  9
$DIMAPOST
  1

  9
$DIMALT
 70
     0
  9
$DIMALTD
 70
     2
  9
$DIMALTF
 40
0.039
  9
$DIMLFAC
 40
1.0
  9
$DIMTOFL
 70
     1
  9
$DIMTVP
 40
0.0
  9
$DIMTIX
 70
     0
  9
$DIMSOXD
 70
     0
  9
$DIMSAH
 70
     1
  9
$DIMBLK1
  1
OPEN
  9
$DIMBLK2
  1
OPEN
  9
$DIMSTYLE
  2
IGA
  9
$DIMCLRD
 70
     0
  9
$DIMCLRE
 70
     0
  9
$DIMCLRT
 70
     0
  9
$DIMTFAC
 40
10.0
  9
$DIMGAP
 40
1.0
  9
$LUNITS
 70
     2
  9
$LUPREC
 70
     3
  9
$SKETCHINC
 40
0.1
  9
$FILLETRAD
 40
50.0
  9
$AUNITS
 70
     0
  9
$AUPREC
 70
     0
  9
$MENU
  1
acad
  9
$ELEVATION
 40
0.0
  9
$PELEVATION
 40
0.0
  9
$THICKNESS
 40
0.0
  9
$LIMCHECK
 70
     0
  9
$BLIPMODE
 70
     0
  9
$CHAMFERA
 40
0.5
  9
$CHAMFERB
 40
0.5
  9
$SKPOLY
 70
     0
  9
$TDCREATE
 40
2450737.6028733789
  9
$TDUPDATE
 40
2454953.8619978121
  9
$TDINDWG
 40
0.0059849421
  9
$TDUSRTIMER
 40
0.0059849421
  9
$USRTIMER
 70
     1
  9
$ANGBASE
 50
0.0
  9
$ANGDIR
 70
     0
  9
$PDMODE
 70
     0
  9
$PDSIZE
 40
0.0
  9
$PLINEWID
 40
0.0
  9
$COORDS
 70
     1
  9
$SPLFRAME
 70
     0
  9
$SPLINETYPE
 70
     6
  9
$SPLINESEGS
 70
     8
  9
$ATTDIA
 70
     0
  9
$ATTREQ
 70
     1
  9
$HANDLING
 70
 10241
  9
$HANDSEED
  5
7EA1
  9
$SURFTAB1
 70
     6
  9
$SURFTAB2
 70
     6
  9
$SURFTYPE
 70
     6
  9
$SURFU
 70
     6
  9
$SURFV
 70
     6
  9
$UCSNAME
  2

  9
$UCSORG
 10
0.0
 20
0.0
 30
0.0
  9
$UCSXDIR
 10
1.0
 20
0.0
 30
0.0
  9
$UCSYDIR
 10
0.0
 20
1.0
 30
0.0
  9
$PUCSNAME
  2

  9
$PUCSORG
 10
0.0
 20
0.0
 30
0.0
  9
$PUCSXDIR
 10
1.0
 20
0.0
 30
0.0
  9
$PUCSYDIR
 10
0.0
 20
1.0
 30
0.0
  9
$USERI1
 70
     0
  9
$USERI2
 70
     0
  9
$USERI3
 70
     0
  9
$USERI4
 70
     0
  9
$USERI5
 70
     0
  9
$USERR1
 40
0.0
  9
$USERR2
 40
0.0
  9
$USERR3
 40
0.0
  9
$USERR4
 40
0.0
  9
$USERR5
 40
0.0
  9
$WORLDVIEW
 70
     1
  9
$SHADEDGE
 70
     3
  9
$SHADEDIF
 70
    70
  9
$TILEMODE
 70
     1
  9
$MAXACTVP
 70
    16
  9
$PLIMCHECK
 70
     0
  9
$PEXTMIN
 10
1.0000000000000000E+020
 20
1.0000000000000000E+020
 30
1.0000000000000000E+020
  9
$PEXTMAX
 10
-1.0000000000000000E+020
 20
-1.0000000000000000E+020
 30
-1.0000000000000000E+020
  9
$PLIMMIN
 10
0.0
 20
0.0
  9
$PLIMMAX
 10
12.0
 20
9.0
  9
$UNITMODE
 70
     0
  9
$VISRETAIN
 70
     0
  9
$PLINEGEN
 70
     0
  9
$PSLTSCALE
 70
     1
  0
ENDSEC
  0
SECTION
  2
TABLES
  0
TABLE
  2
VPORT
 70
     2
  0
VPORT
  2
*ACTIVE
 70
     0
 10
0.0
 20
0.0
 11
1.0
 21
1.0
 12
2607.4689460201498
 22
1751.07344700011
 13
0.0
 23
0.0
 14
10.0
 24
10.0
 15
10.0
 25
10.0
 16
0.0
 26
0.0
 36
1.0
 17
0.0
 27
0.0
 37
0.0
 40
3384.7202272745312
 41
1.5051150895140659
 42
50.0
 43
0.0
 44
0.0
 50
0.0
 51
0.0
 71
     0
 72
   100
 73
     1
 74
     0
 75
     0
 76
     0
 77
     0
 78
     0
  0
ENDTAB
  0
TABLE
  2
LTYPE
 70
     2
  0
LTYPE
  2
CONTINUOUS
 70
     0
  3
Solid line
 72
    65
 73
     0
 40
0.0
  0
LTYPE
  2
CENTER
 70
     0
  3
____ _ ____ _ ____ _ ____ _ ____ _ ____ _ ____ 
 72
    65
 73
     4
 40
2.0
 49
1.25
 49
-0.25
 49
0.25
 49
-0.25
  0
ENDTAB
  0
TABLE
  2
LAYER
 70
     6
  0
LAYER
  2
0
 70
     0
 62
     7
  6
CONTINUOUS
  0
LAYER
  2
3
 70
     0
 62
     2
  6
CONTINUOUS
  0
LAYER
  2
2
 70
     0
 62
     3
  6
CENTER
  0
LAYER
  2
1
 70
     0
 62
     4
  6
CONTINUOUS
  0
LAYER
  2
4
 70
     0
 62
     7
  6
CONTINUOUS
  0
LAYER
  2
DEFPOINTS
 70
     0
 62
     7
  6
CONTINUOUS
  0
ENDTAB
  0
TABLE
  2
STYLE
 70
     1
  0
STYLE
  2
STANDARD
 70
     0
 40
0.0
 41
1.0
 50
0.0
 71
     0
 42
180.0
  3
simplex.shx
  4
extfont.shx
  0
ENDTAB
  0
TABLE
  2
VIEW
 70
     0
  0
ENDTAB
  0
TABLE
  2
UCS
 70
     0
  0
ENDTAB
  0
TABLE
  2
APPID
 70
     1
  0
APPID
  2
ACAD
 70
     0
  0
ENDTAB
  0
TABLE
  2
DIMSTYLE
 70
     1
  0
DIMSTYLE
  2
IGA
 70
     0
  3

  4

  5

  6
OPEN
  7
OPEN
 40
2.0
 41
2.0
 42
0.5
 43
10.0
 44
1.0
 45
0.0
 46
0.0
 47
1.0
 48
1.0
140
3.0
141
0.0
142
0.0
143
0.03937
144
1.0
145
0.0
146
10.0
147
1.0
 71
     0
 72
     0
 73
     0
 74
     0
 75
     0
 76
     0
 77
     1
 78
     8
170
     0
171
     2
172
     0
173
     1
174
     0
175
     0
176
     0
177
     0
178
     0
  0
ENDTAB
  0
ENDSEC
  0
SECTION
  2
BLOCKS
  0
BLOCK
  8
0
  2
$MODEL_SPACE
 70
     0
 10
0.0
 20
0.0
 30
0.0
  3
$MODEL_SPACE
  1

  0
ENDBLK
  5
1B
  8
0
  0
BLOCK
 67
     1
  8
0
  2
$PAPER_SPACE
 70
     0
 10
0.0
 20
0.0
 30
0.0
  3
$PAPER_SPACE
  1

  0
ENDBLK
  5
18
 67
     1
  8
0
  0
BLOCK
  8
0
  2
_OPEN
 70
     0
 10
0.0
 20
0.0
 30
0.0
  3
_OPEN
  1

  0
LINE
  5
7B31
  8
0
  6
BYBLOCK
 62
     0
 10
-1.0
 20
0.166667
 30
0.0
 11
0.0
 21
0.0
 31
0.0
  0
LINE
  5
7B32
  8
0
  6
BYBLOCK
 62
     0
 10
0.0
 20
0.0
 30
0.0
 11
-1.0
 21
-0.166667
 31
0.0
  0
LINE
  5
7B33
  8
0
  6
BYBLOCK
 62
     0
 10
0.0
 20
0.0
 30
0.0
 11
-1.0
 21
0.0
 31
0.0
  0
ENDBLK
  5
7B34
  8
0
  0
BLOCK
  8
0
  2
*D1
 70
     1
 10
0.0
 20
0.0
 30
0.0
  3
*D1
  1

  0
LINE
  5
7DED
  8
3
  6
CONTINUOUS
 62
     0
 10
999.42229804898102
 20
1288.6647699812729
 30
0.0
 11
1073.059797048981
 21
1288.6647699812729
 31
0.0
  0
LINE
  5
7DEE
  8
3
  6
CONTINUOUS
 62
     0
 10
999.42229804898102
 20
1088.664769981272
 30
0.0
 11
1073.059797048981
 21
1088.664769981272
 31
0.0
  0
LINE
  5
7DEF
  8
3
  6
CONTINUOUS
 62
     0
 10
1063.059797048981
 20
1268.664769981272
 30
0.0
 11
1063.059797048981
 21
1108.6647699812729
 31
0.0
  0
INSERT
  5
7DF0
  8
3
  6
CONTINUOUS
 62
     0
  2
_OPEN
 10
1063.059797048981
 20
1288.6647699812729
 30
0.0
 41
20.0
 42
20.0
 43
20.0
 50
90.0
  0
INSERT
  5
7DF1
  8
3
  6
CONTINUOUS
 62
     0
  2
_OPEN
 10
1063.059797048981
 20
1088.664769981272
 30
0.0
 41
20.0
 42
20.0
 43
20.0
 50
270.0
  0
TEXT
  8
3
  40
30
  5
7E8E
  62
0
  72
0
  71
0
 10
978.060
 20
1138.03
 30
0.000000
  1
200
  0
POINT
  5
7DF3
  8
DEFPOINTS
  6
CONTINUOUS
 62
     0
 10
994.42229804898102
 20
1288.6647699812729
 30
0.0
  0
POINT
  5
7DF4
  8
DEFPOINTS
  6
CONTINUOUS
 62
     0
 10
994.42229804898102
 20
1088.664769981272
 30
0.0
  0
POINT
  5
7DF5
  8
DEFPOINTS
  6
CONTINUOUS
 62
     0
 10
1063.059797048981
 20
1088.664769981272
 30
0.0
  0
ENDBLK
  5
7B41
  8
0
  0
BLOCK
  8
0
  2
*D2
 70
     1
 10
0.0
 20
0.0
 30
0.0
  3
*D2
  1

  0
LINE
  5
7DF6
  8
3
  6
CONTINUOUS
 62
     0
 10
984.42229804898102
 20
1299.6647699812729
 30
0.0
 11
1130.9501250489809
 21
1299.6647699812729
 31
0.0
  0
LINE
  5
7DF7
  8
3
  6
CONTINUOUS
 62
     0
 10
999.42229804898102
 20
1088.664769981272
 30
0.0
 11
1130.9501250489809
 21
1088.664769981272
 31
0.0
  0
LINE
  5
7DF8
  8
3
  6
CONTINUOUS
 62
     0
 10
1120.9501250489809
 20
1279.664769981272
 30
0.0
 11
1120.9501250489809
 21
1108.6647699812729
 31
0.0
  0
INSERT
  5
7DF9
  8
3
  6
CONTINUOUS
 62
     0
  2
_OPEN
 10
1120.9501250489809
 20
1299.6647699812729
 30
0.0
 41
20.0
 42
20.0
 43
20.0
 50
90.0
  0
INSERT
  5
7DFA
  8
3
  6
CONTINUOUS
 62
     0
  2
_OPEN
 10
1120.9501250489809
 20
1088.664769981272
 30
0.0
 41
20.0
 42
20.0
 43
20.0
 50
270.0
  0
TEXT
  8
3
  40
30
  5
7E8F
  62
0
  72
0
  71
0
 10
1035.95
 20
1144.47
 30
0.000000
  1
211
  0
POINT
  5
7DFC
  8
DEFPOINTS
  6
CONTINUOUS
 62
     0
 10
979.42229804898091
 20
1299.6647699812729
 30
0.0
  0
POINT
  5
7DFD
  8
DEFPOINTS
  6
CONTINUOUS
 62
     0
 10
994.42229804898102
 20
1088.664769981272
 30
0.0
  0
POINT
  5
7DFE
  8
DEFPOINTS
  6
CONTINUOUS
 62
     0
 10
1120.9501250489809
 20
1088.664769981272
 30
0.0
  0
ENDBLK
  5
7B4E
  8
0
  0
BLOCK
  8
0
  2
*D3
 70
     1
 10
0.0
 20
0.0
 30
0.0
  3
*D3
  1

  0
LINE
  5
7DFF
  8
3
  6
CONTINUOUS
 62
     0
 10
999.42229804898102
 20
813.6647699812728
 30
0.0
 11
1130.9501250489809
 21
813.6647699812728
 31
0.0
  0
LINE
  5
7E00
  8
3
  6
CONTINUOUS
 62
     0
 10
1120.9501250489809
 20
1068.6647699812729
 30
0.0
 11
1120.9501250489809
 21
833.66476998127268
 31
0.0
  0
INSERT
  5
7E01
  8
3
  6
CONTINUOUS
 62
     0
  2
_OPEN
 10
1120.9501250489809
 20
1088.664769981272
 30
0.0
 41
20.0
 42
20.0
 43
20.0
 50
90.0
  0
INSERT
  5
7E02
  8
3
  6
CONTINUOUS
 62
     0
  2
_OPEN
 10
1120.9501250489809
 20
813.6647699812728
 30
0.0
 41
20.0
 42
20.0
 43
20.0
 50
270.0
  0
TEXT
  8
3
  40
30
  5
7E90
  62
0
  72
0
  71
0
 10
1035.95
 20
898.065
 30
0.000000
  1
275
  0
POINT
  5
7E04
  8
DEFPOINTS
  6
CONTINUOUS
 62
     0
 10
994.42229804898102
 20
1088.664769981272
 30
0.0
  0
POINT
  5
7E05
  8
DEFPOINTS
  6
CONTINUOUS
 62
     0
 10
994.42229804898102
 20
813.6647699812728
 30
0.0
  0
POINT
  5
7E06
  8
DEFPOINTS
  6
CONTINUOUS
 62
     0
 10
1120.9501250489809
 20
813.6647699812728
 30
0.0
  0
ENDBLK
  5
7B5A
  8
0
  0
BLOCK
  8
0
  2
*D4
 70
     1
 10
0.0
 20
0.0
 30
0.0
  3
*D4
  1

  0
LINE
  5
7E07
  8
3
  6
CONTINUOUS
 62
     0
 10
999.42229804898102
 20
813.6647699812728
 30
0.0
 11
1130.9501250489809
 21
813.6647699812728
 31
0.0
  0
LINE
  5
7E08
  8
3
  6
CONTINUOUS
 62
     0
 10
1024.422298048981
 20
766.66476998127268
 30
0.0
 11
1130.9501250489809
 21
766.66476998127268
 31
0.0
  0
LINE
  5
7E09
  8
3
  6
CONTINUOUS
 62
     0
 10
1120.9501250489809
 20
833.66476998127268
 30
0.0
 11
1120.9501250489809
 21
853.6647699812728
 31
0.0
  0
LINE
  5
7E0A
  8
3
  6
CONTINUOUS
 62
     0
 10
1120.9501250489809
 20
746.66476998127268
 30
0.0
 11
1120.9501250489809
 21
658.09334140984424
 31
0.0
  0
LINE
  5
7E0B
  8
3
  6
CONTINUOUS
 62
     0
 10
1120.9501250489809
 20
813.6647699812728
 30
0.0
 11
1120.9501250489809
 21
766.66476998127268
 31
0.0
  0
INSERT
  5
7E0C
  8
3
  6
CONTINUOUS
 62
     0
  2
_OPEN
 10
1120.9501250489809
 20
813.6647699812728
 30
0.0
 41
20.0
 42
20.0
 43
20.0
 50
270.0
  0
INSERT
  5
7E0D
  8
3
  6
CONTINUOUS
 62
     0
  2
_OPEN
 10
1120.9501250489809
 20
766.66476998127268
 30
0.0
 41
20.0
 42
20.0
 43
20.0
 50
90.0
  0
TEXT
  8
3
  40
30
  5
7E91
  62
0
  72
0
  71
0
 10
1035.95
 20
639.279
 30
0.000000
  1
47
  0
POINT
  5
7E0F
  8
DEFPOINTS
  6
CONTINUOUS
 62
     0
 10
994.42229804898102
 20
813.6647699812728
 30
0.0
  0
POINT
  5
7E10
  8
DEFPOINTS
  6
CONTINUOUS
 62
     0
 10
1019.422298048981
 20
766.66476998127268
 30
0.0
  0
POINT
  5
7E11
  8
DEFPOINTS
  6
CONTINUOUS
 62
     0
 10
1120.9501250489809
 20
766.66476998127268
 30
0.0
  0
ENDBLK
  5
7CE1
  8
0
  0
BLOCK
  8
0
  2
*D5
 70
     1
 10
0.0
 20
0.0
 30
0.0
  3
*D5
  1

  0
LINE
  5
7E12
  8
3
  6
CONTINUOUS
 62
     0
 10
999.42229804898102
 20
1309.6647699812729
 30
0.0
 11
1223.6075320489811
 21
1309.6647699812729
 31
0.0
  0
LINE
  5
7E13
  8
3
  6
CONTINUOUS
 62
     0
 10
1024.422298048981
 20
766.66476998127268
 30
0.0
 11
1223.6075320489811
 21
766.66476998127268
 31
0.0
  0
LINE
  5
7E14
  8
3
  6
CONTINUOUS
 62
     0
 10
1213.6075320489811
 20
1289.6647699812729
 30
0.0
 11
1213.6075320489811
 21
786.6647699812728
 31
0.0
  0
INSERT
  5
7E15
  8
3
  6
CONTINUOUS
 62
     0
  2
_OPEN
 10
1213.6075320489811
 20
1309.6647699812729
 30
0.0
 41
20.0
 42
20.0
 43
20.0
 50
90.0
  0
INSERT
  5
7E16
  8
3
  6
CONTINUOUS
 62
     0
  2
_OPEN
 10
1213.6075320489811
 20
766.66476998127268
 30
0.0
 41
20.0
 42
20.0
 43
20.0
 50
270.0
  0
TEXT
  8
3
  40
30
  5
7E92
  62
0
  72
0
  71
0
 10
1128.61
 20
983.704
 30
0.000000
  1
543
  0
POINT
  5
7E18
  8
DEFPOINTS
  6
CONTINUOUS
 62
     0
 10
994.42229804898102
 20
1309.6647699812729
 30
0.0
  0
POINT
  5
7E19
  8
DEFPOINTS
  6
CONTINUOUS
 62
     0
 10
1019.422298048981
 20
766.66476998127268
 30
0.0
  0
POINT
  5
7E1A
  8
DEFPOINTS
  6
CONTINUOUS
 62
     0
 10
1213.6075320489811
 20
766.66476998127268
 30
0.0
  0
ENDBLK
  5
7B77
  8
0
  0
BLOCK
  8
0
  2
*D6
 70
     1
 10
0.0
 20
0.0
 30
0.0
  3
*D6
  1

  0
LINE
  5
7E1B
  8
3
  6
CONTINUOUS
 62
     0
 10
339.42229804898102
 20
761.6647699812728
 30
0.0
 11
339.42229804898102
 21
691.95064698127283
 31
0.0
  0
LINE
  5
7E1C
  8
3
  6
CONTINUOUS
 62
     0
 10
834.42229804898079
 20
761.6647699812728
 30
0.0
 11
834.42229804898079
 21
691.95064698127283
 31
0.0
  0
LINE
  5
7E1D
  8
3
  6
CONTINUOUS
 62
     0
 10
359.42229804898102
 20
701.95064698127283
 30
0.0
 11
814.42229804898091
 21
701.95064698127283
 31
0.0
  0
INSERT
  5
7E1E
  8
3
  6
CONTINUOUS
 62
     0
  2
_OPEN
 10
339.42229804898102
 20
701.95064698127283
 30
0.0
 41
20.0
 42
20.0
 43
20.0
 50
180.0
  0
INSERT
  5
7E1F
  8
3
  6
CONTINUOUS
 62
     0
  2
_OPEN
 10
834.42229804898079
 20
701.95064698127283
 30
0.0
 41
20.0
 42
20.0
 43
20.0
  0
TEXT
  8
3
  40
30
  5
7E93
  62
0
  72
0
  71
0
 10
529.227
 20
673.851
 30
0.000000
  1
495
  0
POINT
  5
7E21
  8
DEFPOINTS
  6
CONTINUOUS
 62
     0
 10
339.42229804898102
 20
766.66476998127268
 30
0.0
  0
POINT
  5
7E22
  8
DEFPOINTS
  6
CONTINUOUS
 62
     0
 10
834.42229804898079
 20
766.66476998127268
 30
0.0
  0
POINT
  5
7E23
  8
DEFPOINTS
  6
CONTINUOUS
 62
     0
 10
834.42229804898079
 20
701.95064698127283
 30
0.0
  0
ENDBLK
  5
7B9E
  8
0
  0
BLOCK
  8
0
  2
*D7
 70
     1
 10
0.0
 20
0.0
 30
0.0
  3
*D7
  1

  0
LINE
  5
7E24
  8
3
  6
CONTINUOUS
 62
     0
 10
1019.422298048981
 20
761.6647699812728
 30
0.0
 11
1019.422298048981
 21
691.95064698127283
 31
0.0
  0
LINE
  5
7E25
  8
3
  6
CONTINUOUS
 62
     0
 10
854.42229804898091
 20
701.95064698127283
 30
0.0
 11
999.42229804898102
 21
701.95064698127283
 31
0.0
  0
INSERT
  5
7E26
  8
3
  6
CONTINUOUS
 62
     0
  2
_OPEN
 10
834.42229804898079
 20
701.95064698127283
 30
0.0
 41
20.0
 42
20.0
 43
20.0
 50
180.0
  0
INSERT
  5
7E27
  8
3
  6
CONTINUOUS
 62
     0
  2
_OPEN
 10
1019.422298048981
 20
701.95064698127283
 30
0.0
 41
20.0
 42
20.0
 43
20.0
  0
TEXT
  8
3
  40
30
  5
7E94
  62
0
  72
0
  71
0
 10
866.922
 20
673.851
 30
0.000000
  1
185
  0
POINT
  5
7E29
  8
DEFPOINTS
  6
CONTINUOUS
 62
     0
 10
834.42229804898079
 20
766.66476998127268
 30
0.0
  0
POINT
  5
7E2A
  8
DEFPOINTS
  6
CONTINUOUS
 62
     0
 10
1019.422298048981
 20
766.66476998127268
 30
0.0
  0
POINT
  5
7E2B
  8
DEFPOINTS
  6
CONTINUOUS
 62
     0
 10
1019.422298048981
 20
701.95064698127283
 30
0.0
  0
ENDBLK
  5
7BAA
  8
0
  0
BLOCK
  8
0
  2
*D8
 70
     1
 10
0.0
 20
0.0
 30
0.0
  3
*D8
  1

  0
LINE
  5
7E2C
  8
3
  6
CONTINUOUS
 62
     0
 10
655.42229804898091
 20
1093.664769981272
 30
0.0
 11
655.42229804898091
 21
1358.6018719812721
 31
0.0
  0
LINE
  5
7E2D
  8
3
  6
CONTINUOUS
 62
     0
 10
834.42229804898079
 20
1304.007250981273
 30
0.0
 11
834.42229804898079
 21
1358.6018719812721
 31
0.0
  0
LINE
  5
7E2E
  8
3
  6
CONTINUOUS
 62
     0
 10
675.42229804898079
 20
1348.6018719812721
 30
0.0
 11
814.42229804898091
 21
1348.6018719812721
 31
0.0
  0
INSERT
  5
7E2F
  8
3
  6
CONTINUOUS
 62
     0
  2
_OPEN
 10
655.42229804898091
 20
1348.6018719812721
 30
0.0
 41
20.0
 42
20.0
 43
20.0
 50
180.0
  0
INSERT
  5
7E30
  8
3
  6
CONTINUOUS
 62
     0
  2
_OPEN
 10
834.42229804898079
 20
1348.6018719812721
 30
0.0
 41
20.0
 42
20.0
 43
20.0
  0
TEXT
  8
3
  40
30
  5
7E95
  62
0
  72
0
  71
0
 10
685.281
 20
1320.50
 30
0.000000
  1
179
  0
POINT
  5
7E32
  8
DEFPOINTS
  6
CONTINUOUS
 62
     0
 10
655.42229804898091
 20
1088.664769981272
 30
0.0
  0
POINT
  5
7E33
  8
DEFPOINTS
  6
CONTINUOUS
 62
     0
 10
834.42229804898079
 20
1299.0072509812719
 30
0.0
  0
POINT
  5
7E34
  8
DEFPOINTS
  6
CONTINUOUS
 62
     0
 10
834.42229804898079
 20
1348.6018719812721
 30
0.0
  0
ENDBLK
  5
7CFE
  8
0
  0
BLOCK
  8
0
  2
*D9
 70
     1
 10
0.0
 20
0.0
 30
0.0
  3
*D9
  1

  0
LINE
  5
7E35
  8
3
  6
CONTINUOUS
 62
     0
 10
339.42229804898102
 20
1767.6563132956289
 30
0.0
 11
339.42229804898102
 21
1607.965615295629
 31
0.0
  0
LINE
  5
7E36
  8
3
  6
CONTINUOUS
 62
     0
 10
1019.422298048981
 20
1767.6563132956289
 30
0.0
 11
1019.422298048981
 21
1607.965615295629
 31
0.0
  0
LINE
  5
7E37
  8
3
  6
CONTINUOUS
 62
     0
 10
359.42229804898102
 20
1617.965615295629
 30
0.0
 11
999.42229804898102
 21
1617.965615295629
 31
0.0
  0
INSERT
  5
7E38
  8
3
  6
CONTINUOUS
 62
     0
  2
_OPEN
 10
339.42229804898102
 20
1617.965615295629
 30
0.0
 41
20.0
 42
20.0
 43
20.0
 50
180.0
  0
INSERT
  5
7E39
  8
3
  6
CONTINUOUS
 62
     0
  2
_OPEN
 10
1019.422298048981
 20
1617.965615295629
 30
0.0
 41
20.0
 42
20.0
 43
20.0
  0
TEXT
  8
3
  40
30
  5
7E96
  62
0
  72
0
  71
0
 10
654.396
 20
1589.87
 30
0.000000
  1
680
  0
POINT
  5
7E3B
  8
DEFPOINTS
  6
CONTINUOUS
 62
     0
 10
339.42229804898102
 20
1772.6563132956289
 30
0.0
  0
POINT
  5
7E3C
  8
DEFPOINTS
  6
CONTINUOUS
 62
     0
 10
1019.422298048981
 20
1772.6563132956289
 30
0.0
  0
POINT
  5
7E3D
  8
DEFPOINTS
  6
CONTINUOUS
 62
     0
 10
1019.422298048981
 20
1617.965615295629
 30
0.0
  0
ENDBLK
  5
7BDE
  8
0
  0
BLOCK
  8
0
  2
*D10
 70
     1
 10
0.0
 20
0.0
 30
0.0
  3
*D10
  1

  0
LINE
  5
7E3E
  8
3
  6
CONTINUOUS
 62
     0
 10
1590.581350590759
 20
1293.6647699812729
 30
0.0
 11
1590.581350590759
 21
1337.6670029812719
 31
0.0
  0
LINE
  5
7E3F
  8
3
  6
CONTINUOUS
 62
     0
 10
1730.581350590759
 20
1293.6647699812729
 30
0.0
 11
1730.581350590759
 21
1337.6670029812719
 31
0.0
  0
LINE
  5
7E40
  8
3
  6
CONTINUOUS
 62
     0
 10
1610.581350590759
 20
1327.6670029812719
 30
0.0
 11
1710.581350590759
 21
1327.6670029812719
 31
0.0
  0
INSERT
  5
7E41
  8
3
  6
CONTINUOUS
 62
     0
  2
_OPEN
 10
1590.581350590759
 20
1327.6670029812719
 30
0.0
 41
20.0
 42
20.0
 43
20.0
 50
180.0
  0
INSERT
  5
7E42
  8
3
  6
CONTINUOUS
 62
     0
  2
_OPEN
 10
1730.581350590759
 20
1327.6670029812719
 30
0.0
 41
20.0
 42
20.0
 43
20.0
  0
TEXT
  8
3
  40
30
  5
7E97
  62
0
  72
0
  71
0
 10
1596.30
 20
1299.57
 30
0.000000
  1
140
  0
POINT
  5
7E44
  8
DEFPOINTS
  6
CONTINUOUS
 62
     0
 10
1590.581350590759
 20
1288.6647699812729
 30
0.0
  0
POINT
  5
7E45
  8
DEFPOINTS
  6
CONTINUOUS
 62
     0
 10
1730.581350590759
 20
1288.6647699812729
 30
0.0
  0
POINT
  5
7E46
  8
DEFPOINTS
  6
CONTINUOUS
 62
     0
 10
1730.581350590759
 20
1327.6670029812719
 30
0.0
  0
ENDBLK
  5
7BF8
  8
0
  0
BLOCK
  8
0
  2
*D11
 70
     1
 10
0.0
 20
0.0
 30
0.0
  3
*D11
  1

  0
LINE
  5
7E47
  8
3
  6
CONTINUOUS
 62
     0
 10
1360.581350590759
 20
1203.6647699812729
 30
0.0
 11
1360.581350590759
 21
1392.881161981272
 31
0.0
  0
LINE
  5
7E48
  8
3
  6
CONTINUOUS
 62
     0
 10
1660.581350590759
 20
1377.0828329812721
 30
0.0
 11
1660.581350590759
 21
1392.881161981272
 31
0.0
  0
LINE
  5
7E49
  8
3
  6
CONTINUOUS
 62
     0
 10
1380.581350590759
 20
1382.881161981272
 30
0.0
 11
1640.581350590759
 21
1382.881161981272
 31
0.0
  0
INSERT
  5
7E4A
  8
3
  6
CONTINUOUS
 62
     0
  2
_OPEN
 10
1360.581350590759
 20
1382.881161981272
 30
0.0
 41
20.0
 42
20.0
 43
20.0
 50
180.0
  0
INSERT
  5
7E4B
  8
3
  6
CONTINUOUS
 62
     0
  2
_OPEN
 10
1660.581350590759
 20
1382.881161981272
 30
0.0
 41
20.0
 42
20.0
 43
20.0
  0
TEXT
  8
3
  40
30
  5
7E98
  62
0
  72
0
  71
0
 10
1446.50
 20
1379.78
 30
0.000000
  1
MAX
  0
TEXT
  8
3
  40
30
  5
7E99
  62
0
  72
0
  71
0
 10
1446.50
 20
1340.78
 30
0.000000
  1
300
  0
POINT
  5
7E4D
  8
DEFPOINTS
  6
CONTINUOUS
 62
     0
 10
1360.581350590759
 20
1198.6647699812729
 30
0.0
  0
POINT
  5
7E4E
  8
DEFPOINTS
  6
CONTINUOUS
 62
     0
 10
1660.581350590759
 20
1372.0828329812721
 30
0.0
  0
POINT
  5
7E4F
  8
DEFPOINTS
  6
CONTINUOUS
 62
     0
 10
1660.581350590759
 20
1382.881161981272
 30
0.0
  0
ENDBLK
  5
7CBC
  8
0
  0
BLOCK
  8
0
  2
*D12
 70
     1
 10
0.0
 20
0.0
 30
0.0
  3
*D12
  1

  0
LINE
  5
7E50
  8
3
  6
CONTINUOUS
 62
     0
 10
1738.581350590759
 20
1213.6647699812729
 30
0.0
 11
1738.581350590759
 21
1392.881161981272
 31
0.0
  0
LINE
  5
7E51
  8
3
  6
CONTINUOUS
 62
     0
 10
1680.581350590759
 20
1382.881161981272
 30
0.0
 11
1718.581350590759
 21
1382.881161981272
 31
0.0
  0
TEXT
  8
3
  40
30
  5
7E9A
  62
0
  72
0
  71
0
 10
1639.95
 20
1354.78
 30
0.000000
  1
78
  0
INSERT
  5
7E53
  8
3
  6
CONTINUOUS
 62
     0
  2
_OPEN
 10
1660.581350590759
 20
1382.881161981272
 30
0.0
 41
20.0
 42
20.0
 43
20.0
 50
180.0
  0
INSERT
  5
7E54
  8
3
  6
CONTINUOUS
 62
     0
  2
_OPEN
 10
1738.581350590759
 20
1382.881161981272
 30
0.0
 41
20.0
 42
20.0
 43
20.0
  0
POINT
  5
7E55
  8
DEFPOINTS
  6
CONTINUOUS
 62
     0
 10
1660.581350590759
 20
1372.0828329812721
 30
0.0
  0
POINT
  5
7E56
  8
DEFPOINTS
  6
CONTINUOUS
 62
     0
 10
1738.581350590759
 20
1208.6647699812729
 30
0.0
  0
POINT
  5
7E57
  8
DEFPOINTS
  6
CONTINUOUS
 62
     0
 10
1738.581350590759
 20
1382.881161981272
 30
0.0
  0
ENDBLK
  5
7CA2
  8
0
  0
BLOCK
  8
0
  2
*D13
 70
     1
 10
0.0
 20
0.0
 30
0.0
  3
*D13
  1

  0
LINE
  5
7E58
  8
3
  6
CONTINUOUS
 62
     0
 10
1743.581350590759
 20
1188.664769981272
 30
0.0
 11
1812.454188590759
 21
1188.664769981272
 31
0.0
  0
LINE
  5
7E59
  8
3
  6
CONTINUOUS
 62
     0
 10
1743.581350590759
 20
988.6647699812728
 30
0.0
 11
1812.454188590759
 21
988.66476998127257
 31
0.0
  0
LINE
  5
7E5A
  8
3
  6
CONTINUOUS
 62
     0
 10
1802.454188590759
 20
1168.664769981272
 30
0.0
 11
1802.454188590759
 21
1008.664769981272
 31
0.0
  0
INSERT
  5
7E5B
  8
3
  6
CONTINUOUS
 62
     0
  2
_OPEN
 10
1802.454188590759
 20
1188.664769981272
 30
0.0
 41
20.0
 42
20.0
 43
20.0
 50
90.0
  0
INSERT
  5
7E5C
  8
3
  6
CONTINUOUS
 62
     0
  2
_OPEN
 10
1802.454188590759
 20
988.66476998127257
 30
0.0
 41
20.0
 42
20.0
 43
20.0
 50
270.0
  0
TEXT
  8
3
  40
30
  5
7E9B
  62
0
  72
0
  71
0
 10
1717.45
 20
1022.14
 30
0.000000
  1
φ200
  0
POINT
  5
7E5E
  8
DEFPOINTS
  6
CONTINUOUS
 62
     0
 10
1738.581350590759
 20
1188.664769981272
 30
0.0
  0
POINT
  5
7E5F
  8
DEFPOINTS
  6
CONTINUOUS
 62
     0
 10
1738.581350590759
 20
988.6647699812728
 30
0.0
  0
POINT
  5
7E60
  8
DEFPOINTS
  6
CONTINUOUS
 62
     0
 10
1802.454188590759
 20
988.66476998127257
 30
0.0
  0
ENDBLK
  5
7CC7
  8
0
  0
BLOCK
  8
0
  2
*D14
 70
     1
 10
0.0
 20
0.0
 30
0.0
  3
*D14
  1

  0
LINE
  5
7E61
  8
3
  6
CONTINUOUS
 62
     0
 10
1446.581350590759
 20
761.6647699812728
 30
0.0
 11
1446.581350590759
 21
691.39001398127266
 31
0.0
  0
LINE
  5
7E62
  8
3
  6
CONTINUOUS
 62
     0
 10
1660.581350590759
 20
761.6647699812728
 30
0.0
 11
1660.581350590759
 21
691.39001398127266
 31
0.0
  0
LINE
  5
7E63
  8
3
  6
CONTINUOUS
 62
     0
 10
1466.581350590759
 20
701.39001398127277
 30
0.0
 11
1640.581350590759
 21
701.39001398127277
 31
0.0
  0
INSERT
  5
7E64
  8
3
  6
CONTINUOUS
 62
     0
  2
_OPEN
 10
1446.581350590759
 20
701.39001398127277
 30
0.0
 41
20.0
 42
20.0
 43
20.0
 50
180.0
  0
INSERT
  5
7E65
  8
3
  6
CONTINUOUS
 62
     0
  2
_OPEN
 10
1660.581350590759
 20
701.39001398127277
 30
0.0
 41
20.0
 42
20.0
 43
20.0
  0
TEXT
  8
3
  40
30
  5
7E9C
  62
0
  72
0
  71
0
 10
1498.82
 20
673.290
 30
0.000000
  1
214
  0
POINT
  5
7E67
  8
DEFPOINTS
  6
CONTINUOUS
 62
     0
 10
1446.581350590759
 20
766.66476998127268
 30
0.0
  0
POINT
  5
7E68
  8
DEFPOINTS
  6
CONTINUOUS
 62
     0
 10
1660.581350590759
 20
766.66476998127268
 30
0.0
  0
POINT
  5
7E69
  8
DEFPOINTS
  6
CONTINUOUS
 62
     0
 10
1660.581350590759
 20
701.39001398127277
 30
0.0
  0
ENDBLK
  5
7C4A
  8
0
  0
BLOCK
  8
0
  2
*D15
 70
     1
 10
0.0
 20
0.0
 30
0.0
  3
*D15
  1

  0
LINE
  5
7E6A
  8
3
  6
CONTINUOUS
 62
     0
 10
1670.581350590759
 20
761.6647699812728
 30
0.0
 11
1670.581350590759
 21
691.39001398127266
 31
0.0
  0
LINE
  5
7E6B
  8
3
  6
CONTINUOUS
 62
     0
 10
1640.581350590759
 20
701.39001398127277
 30
0.0
 11
1620.581350590759
 21
701.39001398127277
 31
0.0
  0
LINE
  5
7E6C
  8
3
  6
CONTINUOUS
 62
     0
 10
1690.581350590759
 20
701.39001398127277
 30
0.0
 11
1710.581350590759
 21
701.39001398127277
 31
0.0
  0
TEXT
  8
3
  40
30
  5
7E9D
  62
0
  72
0
  71
0
 10
1638.60
 20
673.290
 30
0.000000
  1
10
  0
LINE
  5
7E6E
  8
3
  6
CONTINUOUS
 62
     0
 10
1660.581350590759
 20
701.39001398127277
 30
0.0
 11
1670.581350590759
 21
701.39001398127277
 31
0.0
  0
INSERT
  5
7E6F
  8
3
  6
CONTINUOUS
 62
     0
  2
_OPEN
 10
1660.581350590759
 20
701.39001398127277
 30
0.0
 41
20.0
 42
20.0
 43
20.0
  0
INSERT
  5
7E70
  8
3
  6
CONTINUOUS
 62
     0
  2
_OPEN
 10
1670.581350590759
 20
701.39001398127277
 30
0.0
 41
20.0
 42
20.0
 43
20.0
 50
180.0
  0
POINT
  5
7E71
  8
DEFPOINTS
  6
CONTINUOUS
 62
     0
 10
1660.581350590759
 20
766.66476998127268
 30
0.0
  0
POINT
  5
7E72
  8
DEFPOINTS
  6
CONTINUOUS
 62
     0
 10
1670.581350590759
 20
766.66476998127268
 30
0.0
  0
POINT
  5
7E73
  8
DEFPOINTS
  6
CONTINUOUS
 62
     0
 10
1670.581350590759
 20
701.39001398127277
 30
0.0
  0
ENDBLK
  5
7C75
  8
0
  0
BLOCK
  8
0
  2
*D16
 70
     1
 10
0.0
 20
0.0
 30
0.0
  3
*D16
  1

  0
LINE
  5
7E74
  8
3
  6
CONTINUOUS
 62
     0
 10
994.42229804898102
 20
1314.6647699812729
 30
0.0
 11
994.42229804898102
 21
1358.6018719812721
 31
0.0
  0
LINE
  5
7E75
  8
3
  6
CONTINUOUS
 62
     0
 10
854.42229804898091
 20
1348.6018719812721
 30
0.0
 11
974.42229804898102
 21
1348.6018719812721
 31
0.0
  0
INSERT
  5
7E76
  8
3
  6
CONTINUOUS
 62
     0
  2
_OPEN
 10
834.42229804898079
 20
1348.6018719812721
 30
0.0
 41
20.0
 42
20.0
 43
20.0
 50
180.0
  0
INSERT
  5
7E77
  8
3
  6
CONTINUOUS
 62
     0
  2
_OPEN
 10
994.42229804898102
 20
1348.6018719812721
 30
0.0
 41
20.0
 42
20.0
 43
20.0
  0
TEXT
  8
3
  40
30
  5
7E9E
  62
0
  72
0
  71
0
 10
854.422
 20
1320.50
 30
0.000000
  1
160
  0
POINT
  5
7E79
  8
DEFPOINTS
  6
CONTINUOUS
 62
     0
 10
834.42229804898079
 20
1299.0072509812719
 30
0.0
  0
POINT
  5
7E7A
  8
DEFPOINTS
  6
CONTINUOUS
 62
     0
 10
994.42229804898102
 20
1309.6647699812729
 30
0.0
  0
POINT
  5
7E7B
  8
DEFPOINTS
  6
CONTINUOUS
 62
     0
 10
994.42229804898102
 20
1348.6018719812721
 30
0.0
  0
ENDBLK
  5
7C87
  8
0
  0
BLOCK
  8
0
  2
*D17
 70
     1
 10
0.0
 20
0.0
 30
0.0
  3
*D17
  1

  0
LINE
  5
7E7C
  8
3
 62
     0
 10
994.42229804898102
 20
1314.6647699812729
 30
0.0
 11
994.42229804898102
 21
1419.9048852556471
 31
0.0
  0
LINE
  5
7E7D
  8
3
 62
     0
 10
339.42229804898102
 20
796.66476998127268
 30
0.0
 11
339.42229804898102
 21
1419.9048852556471
 31
0.0
  0
LINE
  5
7E7E
  8
3
 62
     0
 10
974.42229804898102
 20
1409.9048852556471
 30
0.0
 11
359.42229804898102
 21
1409.9048852556471
 31
0.0
  0
INSERT
  5
7E7F
  8
3
 62
     0
  2
_OPEN
 10
994.42229804898102
 20
1409.9048852556471
 30
0.0
 41
20.0
 42
20.0
 43
20.0
  0
INSERT
  5
7E80
  8
3
 62
     0
  2
_OPEN
 10
339.42229804898102
 20
1409.9048852556471
 30
0.0
 41
20.0
 42
20.0
 43
20.0
 50
180.0
  0
TEXT
  8
3
  40
30
  5
7E9F
  62
0
  72
0
  71
0
 10
636.461
 20
1381.80
 30
0.000000
  1
655
  0
POINT
  5
7E82
  8
DEFPOINTS
 62
     0
 10
994.42229804898102
 20
1309.6647699812729
 30
0.0
  0
POINT
  5
7E83
  8
DEFPOINTS
 62
     0
 10
339.42229804898102
 20
791.66476998127268
 30
0.0
  0
POINT
  5
7E84
  8
DEFPOINTS
 62
     0
 10
339.42229804898102
 20
1409.9048852556471
 30
0.0
  0
ENDBLK
  5
7CD3
  8
0
  0
BLOCK
  8
0
  2
*D18
 70
     1
 10
0.0
 20
0.0
 30
0.0
  3
*D18
  1

  0
LINE
  5
7E85
  8
3
 62
     0
 10
334.42229804898102
 20
1996.6563132956289
 30
0.0
 11
278.29568958641931
 21
1996.6563132956289
 31
0.0
  0
LINE
  5
7E86
  8
3
 62
     0
 10
334.42229804898102
 20
1772.6563132956289
 30
0.0
 11
278.29568958641931
 21
1772.6563132956289
 31
0.0
  0
LINE
  5
7E87
  8
3
 62
     0
 10
288.29568958641931
 20
1976.6563132956289
 30
0.0
 11
288.29568958641931
 21
1792.6563132956289
 31
0.0
  0
INSERT
  5
7E88
  8
3
 62
     0
  2
_OPEN
 10
288.29568958641931
 20
1996.6563132956289
 30
0.0
 41
20.0
 42
20.0
 43
20.0
 50
90.0
  0
INSERT
  5
7E89
  8
3
 62
     0
  2
_OPEN
 10
288.29568958641931
 20
1772.6563132956289
 30
0.0
 41
20.0
 42
20.0
 43
20.0
 50
270.0
  0
TEXT
  8
3
  40
30
  5
7EA0
  62
0
  72
0
  71
0
 10
203.296
 20
1827.97
 30
0.000000
  1
224
  0
POINT
  5
7E8B
  8
DEFPOINTS
 62
     0
 10
339.42229804898102
 20
1996.6563132956289
 30
0.0
  0
POINT
  5
7E8C
  8
DEFPOINTS
 62
     0
 10
339.42229804898102
 20
1772.6563132956289
 30
0.0
  0
POINT
  5
7E8D
  8
DEFPOINTS
 62
     0
 10
288.29568958641931
 20
1772.6563132956289
 30
0.0
  0
ENDBLK
  5
7CED
  8
0
  0
ENDSEC
  0
SECTION
  2
ENTITIES
  0
CIRCLE
  5
7A87
  8
1
  6
CONTINUOUS
 10
834.42229804898079
 20
1088.664769981272
 30
0.0
 40
100.0
  0
LINE
  5
7A88
  8
1
  6
CONTINUOUS
 10
339.42229804898102
 20
766.66476998127268
 30
0.0
 11
1019.422298048981
 21
766.66476998127268
 31
0.0
  0
LINE
  5
7A89
  8
1
  6
CONTINUOUS
 10
339.42229804898102
 20
791.66476998127268
 30
0.0
 11
1019.422298048981
 21
791.66476998127268
 31
0.0
  0
LINE
  5
7A8A
  8
1
  6
CONTINUOUS
 10
364.42229804898102
 20
863.6647699812728
 30
0.0
 11
994.42229804898102
 21
863.6647699812728
 31
0.0
  0
LINE
  5
7A8B
  8
1
  6
CONTINUOUS
 10
364.42229804898102
 20
813.6647699812728
 30
0.0
 11
994.42229804898102
 21
813.6647699812728
 31
0.0
  0
LINE
  5
7A8C
  8
1
  6
CONTINUOUS
 10
886.02229804898082
 20
1213.6647699812729
 30
0.0
 11
969.42229804898102
 21
1142.364769981272
 31
0.0
  0
LINE
  5
7A8D
  8
1
  6
CONTINUOUS
 10
699.42229804898091
 20
1055.364769981272
 30
0.0
 11
969.42229804898102
 21
1055.364769981272
 31
0.0
  0
ARC
  5
7A8E
  8
1
  6
CONTINUOUS
 10
823.42229804898091
 20
1077.664769981272
 30
0.0
 40
140.0
 50
269.39999999999992
 51
0.4
  0
LINE
  5
7A8F
  8
1
  6
CONTINUOUS
 10
979.42229804898091
 20
1299.6647699812729
 30
0.0
 11
850.42229804898079
 21
1299.6647699812729
 31
0.0
  0
CIRCLE
  5
7A90
  8
1
  6
CONTINUOUS
 10
834.42229804898079
 20
1088.664769981272
 30
0.0
 40
120.0
  0
LINE
  5
7A91
  8
1
  6
CONTINUOUS
 10
411.42229804898091
 20
1198.6647699812729
 30
0.0
 11
941.42229804898102
 21
1198.6647699812729
 31
0.0
  0
LINE
  5
7A92
  8
1
  6
CONTINUOUS
 10
622.72229804898086
 20
884.36476998127284
 30
0.0
 11
371.72229804898092
 21
884.36476998127284
 31
0.0
  0
CIRCLE
  5
7A93
  8
1
  6
CONTINUOUS
 10
534.22229804898086
 20
964.76476998127271
 30
0.0
 40
35.0
  0
ARC
  5
7A94
  8
1
  6
CONTINUOUS
 10
529.82229804898088
 20
964.36476998127284
 30
0.0
 40
85.0
 50
324.69999999999987
 51
215.30000000000001
  0
LINE
  5
7A95
  8
2
  6
CENTER
 10
499.22229804898097
 20
964.76476998127271
 30
0.0
 11
569.22229804898086
 21
964.76476998127271
 31
0.0
  0
LINE
  5
7A96
  8
1
  6
CONTINUOUS
 10
519.42229804898091
 20
996.46476998127275
 30
0.0
 11
813.22229804898097
 21
1133.964769981272
 31
0.0
  0
LINE
  5
7A97
  8
1
  6
CONTINUOUS
 10
411.42229804898091
 20
863.6647699812728
 30
0.0
 11
411.42229804898091
 21
1198.6647699812729
 31
0.0
  0
LINE
  5
7A98
  8
1
  6
CONTINUOUS
 10
339.42229804898102
 20
766.66476998127268
 30
0.0
 11
339.42229804898102
 21
791.66476998127268
 31
0.0
  0
LINE
  5
7A99
  8
1
  6
CONTINUOUS
 10
364.42229804898102
 20
813.6647699812728
 30
0.0
 11
364.42229804898102
 21
863.6647699812728
 31
0.0
  0
LINE
  5
7A9A
  8
1
  6
CONTINUOUS
 10
371.72229804898092
 20
884.36476998127284
 30
0.0
 11
371.72229804898092
 21
863.6647699812728
 31
0.0
  0
LINE
  5
7A9B
  8
1
  6
CONTINUOUS
 10
452.32229804898083
 20
892.36476998127284
 30
0.0
 11
460.52229804898087
 21
915.16476998127268
 31
0.0
  0
LINE
  5
7A9C
  8
1
  6
CONTINUOUS
 10
452.32229804898083
 20
884.36476998127284
 30
0.0
 11
452.32229804898083
 21
892.36476998127284
 31
0.0
  0
LINE
  5
7A9D
  8
2
  6
CENTER
 10
834.42229804898079
 20
743.01494698127283
 30
0.0
 11
834.42229804898079
 21
1327.6958609812721
 31
0.0
  0
CIRCLE
  5
7A9E
  8
1
  6
CONTINUOUS
 10
834.42229804898079
 20
1088.664769981272
 30
0.0
 40
50.0
  0
LINE
  5
7A9F
  8
1
  6
CONTINUOUS
 10
699.42229804898091
 20
1142.364769981272
 30
0.0
 11
699.42229804898091
 21
863.6647699812728
 31
0.0
  0
ARC
  5
7AA0
  8
1
  6
CONTINUOUS
 10
820.42229804898091
 20
1102.6647699812729
 30
0.0
 40
165.0
 50
179.6999999999999
 51
270.60000000000002
  0
LINE
  5
7AA1
  8
1
  6
CONTINUOUS
 10
546.12229804898095
 20
931.86476998127284
 30
0.0
 11
851.32229804898088
 21
1041.6647699812729
 31
0.0
  0
LINE
  5
7AA2
  8
1
  6
CONTINUOUS
 10
622.72229804898086
 20
863.6647699812728
 30
0.0
 11
622.72229804898086
 21
884.36476998127284
 31
0.0
  0
LINE
  5
7AA3
  8
1
  6
CONTINUOUS
 10
607.32229804898077
 20
884.36476998127284
 30
0.0
 11
607.32229804898077
 21
892.36476998127284
 31
0.0
  0
LINE
  5
7AA4
  8
1
  6
CONTINUOUS
 10
607.32229804898077
 20
892.36476998127284
 30
0.0
 11
599.22229804898097
 21
915.16476998127268
 31
0.0
  0
LINE
  5
7AA5
  8
2
  6
CENTER
 10
534.22229804898086
 20
929.76476998127282
 30
0.0
 11
534.22229804898086
 21
999.76476998127293
 31
0.0
  0
LINE
  5
7AA6
  8
2
  6
CENTER
 10
598.75971304898087
 20
1088.664769981272
 30
0.0
 11
1099.5658210489801
 21
1088.664769981272
 31
0.0
  0
LINE
  5
7AA7
  8
1
  6
CONTINUOUS
 10
782.82229804898077
 20
1213.6647699812729
 30
0.0
 11
699.42229804898091
 21
1142.364769981272
 31
0.0
  0
ARC
  5
7AA8
  8
1
  6
CONTINUOUS
 10
850.42229804898079
 20
1104.664769981272
 30
0.0
 40
195.0
 50
90.0
 51
180.30000000000001
  0
LINE
  5
7AA9
  8
1
  6
CONTINUOUS
 10
886.02229804898082
 20
1213.6647699812729
 30
0.0
 11
782.82229804898077
 21
1213.6647699812729
 31
0.0
  0
LINE
  5
7AAD
  8
1
  6
CONTINUOUS
 10
1360.581350590759
 20
863.6647699812728
 30
0.0
 11
1670.581350590759
 21
863.6647699812728
 31
0.0
  0
LINE
  5
7AAE
  8
1
  6
CONTINUOUS
 10
1360.581350590759
 20
1198.6647699812729
 30
0.0
 11
1435.581350590759
 21
1198.6647699812729
 31
0.0
  0
LINE
  5
7AAF
  8
1
  6
CONTINUOUS
 10
969.42229804898102
 20
863.6647699812728
 30
0.0
 11
969.42229804898102
 21
1142.364769981272
 31
0.0
  0
LINE
  5
7AB0
  8
1
  6
CONTINUOUS
 10
994.42229804898102
 20
1087.664769981272
 30
0.0
 11
979.42229804898091
 21
1102.6647699812729
 31
0.0
  0
LINE
  5
7AB1
  8
1
  6
CONTINUOUS
 10
994.42229804898102
 20
1309.6647699812729
 30
0.0
 11
994.42229804898102
 21
1067.664769981272
 31
0.0
  0
LINE
  5
7AB2
  8
1
  6
CONTINUOUS
 10
1360.581350590759
 20
1198.6647699812729
 30
0.0
 11
1360.581350590759
 21
863.6647699812728
 31
0.0
  0
LINE
  5
7AB3
  8
1
  6
CONTINUOUS
 10
941.42229804898102
 20
863.6647699812728
 30
0.0
 11
941.42229804898102
 21
1198.6647699812729
 31
0.0
  0
LINE
  5
7AB4
  8
1
  6
CONTINUOUS
 10
1019.422298048981
 20
766.66476998127268
 30
0.0
 11
1019.422298048981
 21
791.66476998127268
 31
0.0
  0
LINE
  5
7AB5
  8
1
  6
CONTINUOUS
 10
979.42229804898091
 20
1088.664769981272
 30
0.0
 11
979.42229804898091
 21
1078.6647699812729
 31
0.0
  0
LINE
  5
7AB6
  8
1
  6
CONTINUOUS
 10
994.42229804898102
 20
1088.664769981272
 30
0.0
 11
979.42229804898091
 21
1088.664769981272
 31
0.0
  0
LINE
  5
7AB7
  8
1
  6
CONTINUOUS
 10
979.42229804898091
 20
1078.6647699812729
 30
0.0
 11
963.42229804898091
 21
1078.6647699812729
 31
0.0
  0
LINE
  5
7AB8
  8
1
  6
CONTINUOUS
 10
994.42229804898102
 20
813.6647699812728
 30
0.0
 11
994.42229804898102
 21
863.6647699812728
 31
0.0
  0
LINE
  5
7ABA
  8
1
  6
CONTINUOUS
 10
979.42229804898091
 20
1299.6647699812729
 30
0.0
 11
979.42229804898091
 21
1288.6647699812729
 31
0.0
  0
LINE
  5
7ABB
  8
1
  6
CONTINUOUS
 10
994.42229804898102
 20
1288.6647699812729
 30
0.0
 11
979.42229804898091
 21
1288.6647699812729
 31
0.0
  0
LINE
  5
7ABC
  8
1
  6
CONTINUOUS
 10
979.42229804898091
 20
1274.664769981272
 30
0.0
 11
979.42229804898091
 21
1102.6647699812729
 31
0.0
  0
LINE
  5
7ABD
  8
1
  6
CONTINUOUS
 10
994.42229804898102
 20
1289.6647699812729
 30
0.0
 11
979.42229804898091
 21
1274.664769981272
 31
0.0
  0
LINE
  5
7ABE
  8
1
  6
CONTINUOUS
 10
1730.581350590759
 20
1288.6647699812729
 30
0.0
 11
1590.581350590759
 21
1088.664769981272
 31
0.0
  0
LINE
  5
7ABF
  8
1
  6
CONTINUOUS
 10
1590.581350590759
 20
1288.6647699812729
 30
0.0
 11
1730.581350590759
 21
1088.664769981272
 31
0.0
  0
LINE
  5
7AC0
  8
1
  6
CONTINUOUS
 10
1590.581350590759
 20
1288.6647699812729
 30
0.0
 11
1590.581350590759
 21
949.6647699812728
 31
0.0
  0
LINE
  5
7AC1
  8
1
  6
CONTINUOUS
 10
1730.581350590759
 20
949.6647699812728
 30
0.0
 11
1730.581350590759
 21
1288.6647699812729
 31
0.0
  0
LINE
  5
7AC2
  8
1
  6
CONTINUOUS
 10
1738.581350590759
 20
1208.6647699812729
 30
0.0
 11
1738.581350590759
 21
968.66476998127268
 31
0.0
  0
LINE
  5
7AC3
  8
1
  6
CONTINUOUS
 10
1582.581350590759
 20
1208.6647699812729
 30
0.0
 11
1582.581350590759
 21
863.6647699812728
 31
0.0
  0
LINE
  5
7AC4
  8
1
  6
CONTINUOUS
 10
1470.581350590759
 20
1055.364769981272
 30
0.0
 11
1582.581350590759
 21
1142.364769981272
 31
0.0
  0
LINE
  5
7AC5
  8
1
  6
CONTINUOUS
 10
1435.581350590759
 20
1198.6647699812729
 30
0.0
 11
1435.581350590759
 21
863.6647699812728
 31
0.0
  0
LINE
  5
7AC6
  8
1
  6
CONTINUOUS
 10
1383.081350590759
 20
1138.664769981272
 30
0.0
 11
1383.081350590759
 21
1038.664769981272
 31
0.0
  0
LINE
  5
7AC7
  8
1
  6
CONTINUOUS
 10
1413.081350590759
 20
1138.664769981272
 30
0.0
 11
1413.081350590759
 21
1038.664769981272
 31
0.0
  0
LINE
  5
7AC8
  8
1
  6
CONTINUOUS
 10
1446.581350590759
 20
766.66476998127268
 30
0.0
 11
1670.581350590759
 21
766.66476998127268
 31
0.0
  0
LINE
  5
7AC9
  8
1
  6
CONTINUOUS
 10
1446.581350590759
 20
791.66476998127268
 30
0.0
 11
1670.581350590759
 21
791.66476998127268
 31
0.0
  0
LINE
  5
7ACA
  8
1
  6
CONTINUOUS
 10
1446.581350590759
 20
813.6647699812728
 30
0.0
 11
1670.581350590759
 21
813.6647699812728
 31
0.0
  0
LINE
  5
7ACB
  8
1
  6
CONTINUOUS
 10
1446.581350590759
 20
791.66476998127268
 30
0.0
 11
1446.581350590759
 21
766.66476998127268
 31
0.0
  0
LINE
  5
7ACC
  8
1
  6
CONTINUOUS
 10
1413.081350590759
 20
1076.6647699812729
 30
0.0
 11
1497.9813505907589
 21
1076.6647699812729
 31
0.0
  0
LINE
  5
7ACD
  8
1
  6
CONTINUOUS
 10
1446.581350590759
 20
863.6647699812728
 30
0.0
 11
1446.581350590759
 21
813.6647699812728
 31
0.0
  0
LINE
  5
7ACE
  8
1
  6
CONTINUOUS
 10
1470.581350590759
 20
1055.364769981272
 30
0.0
 11
1470.581350590759
 21
863.6647699812728
 31
0.0
  0
LINE
  5
7ACF
  8
1
  6
CONTINUOUS
 10
1383.081350590759
 20
1038.664769981272
 30
0.0
 11
1413.081350590759
 21
1038.664769981272
 31
0.0
  0
LINE
  5
7AD0
  8
1
  6
CONTINUOUS
 10
1383.081350590759
 20
999.76476998127293
 30
0.0
 11
1383.081350590759
 21
929.76476998127282
 31
0.0
  0
LINE
  5
7AD1
  8
1
  6
CONTINUOUS
 10
1413.081350590759
 20
999.76476998127293
 30
0.0
 11
1413.081350590759
 21
929.76476998127282
 31
0.0
  0
LINE
  5
7AD2
  8
1
  6
CONTINUOUS
 10
1383.081350590759
 20
999.76476998127293
 30
0.0
 11
1413.081350590759
 21
999.76476998127293
 31
0.0
  0
LINE
  5
7AD3
  8
1
  6
CONTINUOUS
 10
1383.081350590759
 20
929.76476998127282
 30
0.0
 11
1413.081350590759
 21
929.76476998127282
 31
0.0
  0
LINE
  5
7AD4
  8
1
  6
CONTINUOUS
 10
1413.081350590759
 20
976.76476998127282
 30
0.0
 11
1470.581350590759
 21
976.76476998127282
 31
0.0
  0
LINE
  5
7AD5
  8
1
  6
CONTINUOUS
 10
1413.081350590759
 20
952.76476998127282
 30
0.0
 11
1470.581350590759
 21
952.76476998127282
 31
0.0
  0
LINE
  5
7AD6
  8
1
  6
CONTINUOUS
 10
1670.581350590759
 20
791.66476998127268
 30
0.0
 11
1670.581350590759
 21
766.66476998127268
 31
0.0
  0
LINE
  5
7AD7
  8
1
  6
CONTINUOUS
 10
1590.581350590759
 20
1088.664769981272
 30
0.0
 11
1730.581350590759
 21
1088.664769981272
 31
0.0
  0
LINE
  5
7AD8
  8
1
  6
CONTINUOUS
 10
1602.581350590759
 20
937.6647699812728
 30
0.0
 11
1718.581350590759
 21
937.6647699812728
 31
0.0
  0
ARC
  5
7AD9
  8
1
  6
CONTINUOUS
 10
1602.581350590759
 20
949.6647699812728
 30
0.0
 40
12.0
 50
180.0
 51
270.0
  0
LINE
  5
7ADA
  8
1
  6
CONTINUOUS
 10
1590.7813505907591
 20
968.66476998127268
 30
0.0
 11
1582.581350590759
 21
968.66476998127268
 31
0.0
  0
LINE
  5
7ADB
  8
1
  6
CONTINUOUS
 10
1670.581350590759
 20
863.6647699812728
 30
0.0
 11
1670.581350590759
 21
813.6647699812728
 31
0.0
  0
ARC
  5
7ADC
  8
1
  6
CONTINUOUS
 10
1718.581350590759
 20
949.6647699812728
 30
0.0
 40
12.0
 50
270.0
 51
0.0
  0
LINE
  5
7ADD
  8
1
  6
CONTINUOUS
 10
1730.381350590759
 20
968.66476998127268
 30
0.0
 11
1738.581350590759
 21
968.66476998127268
 31
0.0
  0
ARC
  5
7ADE
  8
1
  6
CONTINUOUS
 10
1718.581350590759
 20
949.6647699812728
 30
0.0
 40
12.0
 50
270.0
 51
0.0
  0
LINE
  5
7ADF
  8
1
  6
CONTINUOUS
 10
1413.081350590759
 20
1100.6647699812729
 30
0.0
 11
1528.881350590759
 21
1100.6647699812729
 31
0.0
  0
LINE
  5
7AE0
  8
1
  6
CONTINUOUS
 10
1383.081350590759
 20
1138.664769981272
 30
0.0
 11
1413.081350590759
 21
1138.664769981272
 31
0.0
  0
LINE
  5
7AE1
  8
1
  6
CONTINUOUS
 10
1730.581350590759
 20
1288.6647699812729
 30
0.0
 11
1590.581350590759
 21
1288.6647699812729
 31
0.0
  0
LINE
  5
7AE2
  8
1
  6
CONTINUOUS
 10
1590.7813505907591
 20
1208.6647699812729
 30
0.0
 11
1582.581350590759
 21
1208.6647699812729
 31
0.0
  0
LINE
  5
7AE3
  8
1
  6
CONTINUOUS
 10
1730.381350590759
 20
1208.6647699812729
 30
0.0
 11
1738.581350590759
 21
1208.6647699812729
 31
0.0
  0
LINE
  5
7AE4
  8
1
  6
CONTINUOUS
 10
954.42229804898091
 20
1908.6563132956289
 30
0.0
 11
714.42229804898091
 21
1908.6563132956289
 31
0.0
  0
LINE
  5
7AE5
  8
1
  6
CONTINUOUS
 10
994.42229804898102
 20
2056.6563132956289
 30
0.0
 11
665.42229804898091
 21
2056.6563132956289
 31
0.0
  0
LINE
  5
7AE6
  8
1
  6
CONTINUOUS
 10
994.42229804898102
 20
1916.6563132956289
 30
0.0
 11
665.42229804898091
 21
1916.6563132956289
 31
0.0
  0
LINE
  5
7AE7
  8
1
  6
CONTINUOUS
 10
954.42229804898091
 20
2064.6563132956289
 30
0.0
 11
714.42229804898091
 21
2064.6563132956289
 31
0.0
  0
LINE
  5
7AE8
  8
1
  6
CONTINUOUS
 10
1019.422298048981
 20
1772.6563132956289
 30
0.0
 11
846.42229804898091
 21
1772.6563132956289
 31
0.0
  0
LINE
  5
7AE9
  8
1
  6
CONTINUOUS
 10
941.42229804898102
 20
1686.6563132956289
 30
0.0
 11
411.42229804898091
 21
1686.6563132956289
 31
0.0
  0
LINE
  5
7AEA
  8
1
  6
CONTINUOUS
 10
941.42229804898102
 20
1761.6563132956289
 30
0.0
 11
411.42229804898091
 21
1761.6563132956289
 31
0.0
  0
LINE
  5
7AEB
  8
1
  6
CONTINUOUS
 10
655.42229804898091
 20
1996.6563132956289
 30
0.0
 11
339.42229804898102
 21
1996.6563132956289
 31
0.0
  0
LINE
  5
7AEC
  8
1
  6
CONTINUOUS
 10
499.22229804898097
 20
1739.1563132956289
 30
0.0
 11
569.22229804898086
 21
1739.1563132956289
 31
0.0
  0
LINE
  5
7AED
  8
1
  6
CONTINUOUS
 10
499.22229804898097
 20
1709.1563132956289
 30
0.0
 11
569.22229804898086
 21
1709.1563132956289
 31
0.0
  0
LINE
  5
7AEE
  8
1
  6
CONTINUOUS
 10
614.82229804898077
 20
1982.7563132956291
 30
0.0
 11
444.82229804898083
 21
1982.7563132956291
 31
0.0
  0
LINE
  5
7AEF
  8
1
  6
CONTINUOUS
 10
614.82229804898077
 20
1791.856313295629
 30
0.0
 11
444.82229804898083
 21
1791.856313295629
 31
0.0
  0
LINE
  5
7AF0
  8
1
  6
CONTINUOUS
 10
522.22229804898086
 20
1739.1563132956289
 30
0.0
 11
522.22229804898086
 21
1791.856313295629
 31
0.0
  0
LINE
  5
7AF1
  8
1
  6
CONTINUOUS
 10
411.42229804898091
 20
1686.6563132956289
 30
0.0
 11
411.42229804898091
 21
1761.6563132956289
 31
0.0
  0
LINE
  5
7AF2
  8
1
  6
CONTINUOUS
 10
499.22229804898097
 20
1709.1563132956289
 30
0.0
 11
499.22229804898097
 21
1739.1563132956289
 31
0.0
  0
LINE
  5
7AF3
  8
1
  6
CONTINUOUS
 10
522.22229804898086
 20
1772.6563132956289
 30
0.0
 11
339.42229804898102
 21
1772.6563132956289
 31
0.0
  0
LINE
  5
7AF4
  8
1
  6
CONTINUOUS
 10
339.42229804898102
 20
1772.6563132956289
 30
0.0
 11
339.42229804898102
 21
1996.6563132956289
 31
0.0
  0
LINE
  5
7AF5
  8
1
  6
CONTINUOUS
 10
444.82229804898083
 20
1791.856313295629
 30
0.0
 11
444.82229804898083
 21
1982.7563132956291
 31
0.0
  0
LINE
  5
7AF6
  8
1
  6
CONTINUOUS
 10
822.42229804898091
 20
1772.6563132956289
 30
0.0
 11
546.22229804898086
 21
1772.6563132956289
 31
0.0
  0
LINE
  5
7AF7
  8
1
  6
CONTINUOUS
 10
546.22229804898086
 20
1739.1563132956289
 30
0.0
 11
546.22229804898086
 21
1791.856313295629
 31
0.0
  0
LINE
  5
7AF8
  8
1
  6
CONTINUOUS
 10
569.22229804898086
 20
1709.1563132956289
 30
0.0
 11
569.22229804898086
 21
1739.1563132956289
 31
0.0
  0
LINE
  5
7AF9
  8
1
  6
CONTINUOUS
 10
614.82229804898077
 20
1791.856313295629
 30
0.0
 11
614.82229804898077
 21
1982.7563132956291
 31
0.0
  0
LINE
  5
7AFA
  8
1
  6
CONTINUOUS
 10
714.42229804898091
 20
1916.6563132956289
 30
0.0
 11
714.42229804898091
 21
1908.6563132956289
 31
0.0
  0
ARC
  5
7AFB
  8
1
  6
CONTINUOUS
 10
665.42229804898091
 20
1926.6563132956289
 30
0.0
 40
10.0
 50
180.0
 51
270.0
  0
ARC
  5
7AFC
  8
1
  6
CONTINUOUS
 10
665.42229804898091
 20
2046.6563132956289
 30
0.0
 40
10.0
 50
90.0
 51
180.0
  0
LINE
  5
7AFD
  8
1
  6
CONTINUOUS
 10
655.42229804898091
 20
2046.6563132956289
 30
0.0
 11
655.42229804898091
 21
1926.6563132956289
 31
0.0
  0
LINE
  5
7AFE
  8
1
  6
CONTINUOUS
 10
714.42229804898091
 20
2056.6563132956289
 30
0.0
 11
714.42229804898091
 21
2064.6563132956289
 31
0.0
  0
LINE
  5
7AFF
  8
1
  6
CONTINUOUS
 10
822.42229804898091
 20
1908.6563132956289
 30
0.0
 11
822.42229804898091
 21
1739.1563132956289
 31
0.0
  0
LINE
  5
7B00
  8
1
  6
CONTINUOUS
 10
846.42229804898091
 20
1908.6563132956289
 30
0.0
 11
846.42229804898091
 21
1739.1563132956289
 31
0.0
  0
LINE
  5
7B01
  8
1
  6
CONTINUOUS
 10
784.42229804898091
 20
1709.1563132956289
 30
0.0
 11
884.42229804898079
 21
1709.1563132956289
 31
0.0
  0
LINE
  5
7B02
  8
1
  6
CONTINUOUS
 10
784.42229804898091
 20
1739.1563132956289
 30
0.0
 11
884.42229804898079
 21
1739.1563132956289
 31
0.0
  0
LINE
  5
7B03
  8
1
  6
CONTINUOUS
 10
784.42229804898091
 20
1709.1563132956289
 30
0.0
 11
784.42229804898091
 21
1739.1563132956289
 31
0.0
  0
LINE
  5
7B04
  8
1
  6
CONTINUOUS
 10
884.42229804898079
 20
1709.1563132956289
 30
0.0
 11
884.42229804898079
 21
1739.1563132956289
 31
0.0
  0
LINE
  5
7B05
  8
1
  6
CONTINUOUS
 10
994.42229804898102
 20
2077.6563132956289
 30
0.0
 11
994.42229804898102
 21
1895.6563132956289
 31
0.0
  0
LINE
  5
7B06
  8
1
  6
CONTINUOUS
 10
941.42229804898102
 20
1686.6563132956289
 30
0.0
 11
941.42229804898102
 21
1761.6563132956289
 31
0.0
  0
LINE
  5
7B07
  8
1
  6
CONTINUOUS
 10
954.42229804898091
 20
1916.6563132956289
 30
0.0
 11
954.42229804898091
 21
1908.6563132956289
 31
0.0
  0
LINE
  5
7B08
  8
1
  6
CONTINUOUS
 10
994.42229804898102
 20
1915.6563132956289
 30
0.0
 11
979.42229804898091
 21
1930.6563132956289
 31
0.0
  0
LINE
  5
7B09
  8
1
  6
CONTINUOUS
 10
979.42229804898091
 20
2042.6563132956289
 30
0.0
 11
979.42229804898091
 21
1930.6563132956289
 31
0.0
  0
LINE
  5
7B0A
  8
1
  6
CONTINUOUS
 10
994.42229804898102
 20
2057.6563132956289
 30
0.0
 11
979.42229804898091
 21
2042.6563132956289
 31
0.0
  0
LINE
  5
7B0B
  8
1
  6
CONTINUOUS
 10
954.42229804898091
 20
2056.6563132956289
 30
0.0
 11
954.42229804898091
 21
2064.6563132956289
 31
0.0
  0
LINE
  5
7B0C
  8
1
  6
CONTINUOUS
 10
1019.422298048981
 20
1772.6563132956289
 30
0.0
 11
1019.422298048981
 21
1996.6563132956289
 31
0.0
  0
LINE
  5
7B0D
  8
1
  6
CONTINUOUS
 10
1019.422298048981
 20
1996.6563132956289
 30
0.0
 11
994.42229804898102
 21
1996.6563132956289
 31
0.0
  0
LINE
  5
7B0E
  8
4
  6
CONTINUOUS
 10
1850.0
 20
500.0
 30
0.0
 11
1850.0
 21
300.0
 31
0.0
  0
LINE
  5
7B0F
  8
4
  6
CONTINUOUS
 10
1150.0
 20
500.0
 30
0.0
 11
1150.0
 21
300.0
 31
0.0
  0
LINE
  5
7B10
  8
4
  6
CONTINUOUS
 10
650.0
 20
500.0
 30
0.0
 11
650.0
 21
300.0
 31
0.0
  0
LINE
  5
7B13
  8
4
  6
CONTINUOUS
 10
650.0
 20
300.0
 30
0.0
 11
1850.0
 21
300.0
 31
0.0
  0
LINE
  5
7B14
  8
4
  6
CONTINUOUS
 10
650.0
 20
400.0
 30
0.0
 11
1850.0
 21
400.0
 31
0.0
  0
TEXT
  5
7B15
  8
4
  6
CONTINUOUS
 10
688.50208099999998
 20
431.543026
 30
0.0
 40
50.0
  1
機器名称
  0
TEXT
  5
7B16
  8
4
  6
CONTINUOUS
 10
686.258106
 20
321.64515699999993
 30
0.0
 40
50.0
  1
機器型番
  0
TEXT
  5
7B17
  8
4
  6
CONTINUOUS
 10
1177.678744999999
 20
422.57176900000002
 30
0.0
 40
45.0
  1
ミツヤニューマルチファン
  0
TEXT
  5
7B18
  8
4
  6
CONTINUOUS
 10
1186.6544960000001
 20
317.159584
 30
0.0
 40
50.0
  1
NM#1 1/4-1
  0
TEXT
  5
7B1A
  8
4
  6
CONTINUOUS
 10
771.80901200000005
 20
2383.4288409999999
 30
0.0
 40
54.0
  1
床置防振ベット
  0
TEXT
  5
7B1B
  8
4
  6
CONTINUOUS
 10
316.16759300000001
 20
2533.8809759999999
 30
0.0
 40
72.0
  1
ベルト駆動式片吸込片持多翼ファン
  0
LINE
  5
7B1C
  8
4
  6
CONTINUOUS
 10
250.0
 20
2469.408754
 30
0.0
 11
1850.0
 21
2469.408754
 31
0.0
  0
LINE
  5
7B1D
  8
4
  6
CONTINUOUS
 10
250.0
 20
2669.408754
 30
0.0
 11
1850.0
 21
2669.408754
 31
0.0
  0
LINE
  5
7B1E
  8
4
  6
CONTINUOUS
 10
650.0
 20
500.0
 30
0.0
 11
1850.0
 21
500.0
 31
0.0
  0
LINE
  5
7B1F
  8
4
  6
CONTINUOUS
 10
250.0
 20
2669.408754
 30
0.0
 11
250.0
 21
2469.408754
 31
0.0
  0
TEXT
  5
7B20
  8
4
  6
CONTINUOUS
 10
335.95017999999988
 20
2382.3194779999999
 30
0.0
 40
54.0
  1
右回転右横向
  0
TEXT
  5
7B21
  8
4
  6
CONTINUOUS
 10
1468.9695589999999
 20
2706.0610809999998
 30
0.0
 40
56.0
  1
No.
  0
TEXT
  5
7B22
  8
4
  6
CONTINUOUS
 10
1311.296063
 20
2383.4288409999999
 30
0.0
 40
54.0
  1
縮尺：1/10
  0
LINE
  5
7B23
  8
4
  6
CONTINUOUS
 10
1850.0
 20
2669.408754
 30
0.0
 11
1850.0
 21
2469.408754
 31
0.0
  0
LINE
  5
7B25
  8
4
  6
CONTINUOUS
 10
1440.617422
 20
2681.2635829999999
 30
0.0
 11
1440.617422
 21
2786.6522620000001
 31
0.0
  0
LINE
  5
7B26
  8
4
  6
CONTINUOUS
 10
1440.617422
 20
2786.6522620000001
 30
0.0
 11
1850.0
 21
2786.6522620000001
 31
0.0
  0
LINE
  5
7B27
  8
4
  6
CONTINUOUS
 10
1850.0
 20
2786.6522620000001
 30
0.0
 11
1850.0
 21
2681.2635829999999
 31
0.0
  0
LINE
  5
7B28
  8
4
  6
CONTINUOUS
 10
1850.0
 20
2681.2635829999999
 30
0.0
 11
1440.617422
 21
2681.2635829999999
 31
0.0
  0
LINE
  5
7B2D
  8
2
  6
CENTER
 10
617.01248304898093
 20
1986.6563132956289
 30
0.0
 11
1041.8177430489809
 21
1986.6563132956289
 31
0.0
  0
LINE
  5
7B2E
  8
2
  6
CENTER
 10
1660.581350590759
 20
1330.3045269812719
 30
0.0
 11
1660.581350590759
 21
704.06169098127282
 31
0.0
  0
DIMENSION
  5
7B42
  8
3
  6
CONTINUOUS
  2
*D1
 10
1063.059797048981
 20
1088.664769981272
 30
0.0
 11
1063.059797048981
 21
1191.126785981272
 31
0.0
 70
   128
 13
994.42229804898102
 23
1288.6647699812729
 33
0.0
 14
994.42229804898102
 24
1088.664769981272
 34
0.0
 50
90.0
1001
ACAD
1000
DSTYLE
1002
{
1070
   287
1070
     3
1070
   287
1070
     3
1070
    40
1040
10.0
1070
   143
1040
0.039
1070
   172
1070
     1
1070
   271
1070
     0
1070
   279
1070
     0
1070
   288
1070
     1
1002
}
  0
DIMENSION
  5
7B4F
  8
3
  6
CONTINUOUS
  2
*D2
 10
1120.9501250489809
 20
1088.664769981272
 30
0.0
 11
1120.9501250489809
 21
1197.574902981273
 31
0.0
 70
   128
 13
979.42229804898091
 23
1299.6647699812729
 33
0.0
 14
994.42229804898102
 24
1088.664769981272
 34
0.0
 50
90.0
1001
ACAD
1000
DSTYLE
1002
{
1070
   287
1070
     3
1070
   287
1070
     3
1070
    40
1040
10.0
1070
   143
1040
0.039
1070
   172
1070
     1
1070
   271
1070
     0
1070
   279
1070
     0
1070
   288
1070
     1
1002
}
  0
DIMENSION
  5
7B5B
  8
3
  6
CONTINUOUS
  2
*D3
 10
1120.9501250489809
 20
813.6647699812728
 30
0.0
 11
1095.95012504898
 21
951.16476998127303
 31
0.0
 70
     0
 13
994.42229804898102
 23
1088.664769981272
 33
0.0
 14
994.42229804898102
 24
813.6647699812728
 34
0.0
 50
90.0
1001
ACAD
1000
DSTYLE
1002
{
1070
   287
1070
     4
1070
   287
1070
     4
1070
    40
1040
10.0
1070
    75
1070
     1
1070
   143
1040
0.039
1070
   172
1070
     1
1070
   271
1070
     0
1070
   279
1070
     1
1070
   288
1070
     1
1002
}
  0
DIMENSION
  5
7B6B
  8
3
  6
CONTINUOUS
  2
*D4
 10
1120.9501250489809
 20
766.66476998127268
 30
0.0
 11
1120.9501250489809
 21
692.37905569555846
 31
0.0
 70
   128
 13
994.42229804898102
 23
813.6647699812728
 33
0.0
 14
1019.422298048981
 24
766.66476998127268
 34
0.0
 50
90.0
1001
ACAD
1000
DSTYLE
1002
{
1070
   287
1070
     3
1070
   287
1070
     3
1070
    40
1040
10.0
1070
   143
1040
0.039
1070
   172
1070
     1
1070
   271
1070
     0
1070
   279
1070
     0
1070
   288
1070
     1
1002
}
  0
DIMENSION
  5
7B78
  8
3
  6
CONTINUOUS
  2
*D5
 10
1213.6075320489811
 20
766.66476998127268
 30
0.0
 11
1213.6075320489799
 21
1036.8042669812719
 31
0.0
 70
   128
 13
994.42229804898102
 23
1309.6647699812729
 33
0.0
 14
1019.422298048981
 24
766.66476998127268
 34
0.0
 50
90.0
1001
ACAD
1000
DSTYLE
1002
{
1070
   287
1070
     3
1070
   287
1070
     3
1070
    40
1040
10.0
1070
   143
1040
0.039
1070
   172
1070
     1
1070
   271
1070
     0
1070
   279
1070
     0
1070
   288
1070
     1
1002
}
  0
DIMENSION
  5
7B9F
  8
3
  6
CONTINUOUS
  2
*D6
 10
834.42229804898079
 20
701.95064698127283
 30
0.0
 11
589.22689904898095
 21
701.95064698127283
 31
0.0
 70
   128
 13
339.42229804898102
 23
766.66476998127268
 33
0.0
 14
834.42229804898079
 24
766.66476998127268
 34
0.0
1001
ACAD
1000
DSTYLE
1002
{
1070
   287
1070
     3
1070
   287
1070
     3
1070
    40
1040
10.0
1070
   143
1040
0.039
1070
   172
1070
     1
1070
   271
1070
     0
1070
   279
1070
     0
1070
   288
1070
     1
1002
}
  0
DIMENSION
  5
7BAB
  8
3
  6
CONTINUOUS
  2
*D7
 10
1019.422298048981
 20
701.95064698127283
 30
0.0
 11
926.92229804898113
 21
726.95064698127283
 31
0.0
 70
     0
 13
834.42229804898079
 23
766.66476998127268
 33
0.0
 14
1019.422298048981
 24
766.66476998127268
 34
0.0
1001
ACAD
1000
DSTYLE
1002
{
1070
   287
1070
     4
1070
   287
1070
     4
1070
    40
1040
10.0
1070
    75
1070
     1
1070
   143
1040
0.039
1070
   172
1070
     1
1070
   271
1070
     0
1070
   279
1070
     1
1070
   288
1070
     1
1002
}
  0
DIMENSION
  5
7BB8
  8
3
  6
CONTINUOUS
  2
*D8
 10
834.42229804898079
 20
1348.6018719812721
 30
0.0
 11
745.28147904898094
 21
1348.6018719812721
 31
0.0
 70
   128
 13
655.42229804898091
 23
1088.664769981272
 33
0.0
 14
834.42229804898079
 24
1299.0072509812719
 34
0.0
1001
ACAD
1000
DSTYLE
1002
{
1070
   287
1070
     3
1070
   287
1070
     3
1070
    40
1040
10.0
1070
   143
1040
0.039
1070
   172
1070
     1
1070
   271
1070
     0
1070
   279
1070
     0
1070
   288
1070
     1
1002
}
  0
DIMENSION
  5
7BDF
  8
3
  6
CONTINUOUS
  2
*D9
 10
1019.422298048981
 20
1617.965615295629
 30
0.0
 11
714.39568004898092
 21
1617.965615295629
 31
0.0
 70
   128
 13
339.42229804898102
 23
1772.6563132956289
 33
0.0
 14
1019.422298048981
 24
1772.6563132956289
 34
0.0
1001
ACAD
1000
DSTYLE
1002
{
1070
   287
1070
     3
1070
   287
1070
     3
1070
    40
1040
10.0
1070
   143
1040
0.039
1070
   172
1070
     1
1070
   271
1070
     0
1070
   279
1070
     0
1070
   288
1070
     1
1002
}
  0
DIMENSION
  5
7BF9
  8
3
  6
CONTINUOUS
  2
*D10
 10
1730.581350590759
 20
1327.6670029812719
 30
0.0
 11
1656.2956365907589
 21
1327.6670029812719
 31
0.0
 70
   128
 13
1590.581350590759
 23
1288.6647699812729
 33
0.0
 14
1730.581350590759
 24
1288.6647699812729
 34
0.0
1001
ACAD
1000
DSTYLE
1002
{
1070
   287
1070
     3
1070
   287
1070
     3
1070
    40
1040
10.0
1070
   143
1040
0.039
1070
   172
1070
     1
1070
   271
1070
     0
1070
   279
1070
     0
1070
   288
1070
     1
1002
}
  0
DIMENSION
  5
7C06
  8
3
  6
CONTINUOUS
  2
*D11
 10
1660.581350590759
 20
1382.881161981272
 30
0.0
 11
1506.504605590759
 21
1382.881161981272
 31
0.0
 70
   128
  1
MAX\P300
 13
1360.581350590759
 23
1198.6647699812729
 33
0.0
 14
1660.581350590759
 24
1372.0828329812721
 34
0.0
1001
ACAD
1000
DSTYLE
1002
{
1070
   287
1070
     3
1070
   287
1070
     3
1070
    40
1040
10.0
1070
   143
1040
0.039
1070
   172
1070
     1
1070
   271
1070
     0
1070
   279
1070
     0
1070
   288
1070
     1
1002
}
  0
DIMENSION
  5
7C14
  8
3
  6
CONTINUOUS
  2
*D12
 10
1738.581350590759
 20
1382.881161981272
 30
0.0
 11
1699.9472675907591
 21
1382.881161981272
 31
0.0
 70
   128
 13
1660.581350590759
 23
1372.0828329812721
 33
0.0
 14
1738.581350590759
 24
1208.6647699812729
 34
0.0
1001
ACAD
1000
DSTYLE
1002
{
1070
   287
1070
     4
1070
   287
1070
     4
1070
    40
1040
10.0
1070
    75
1070
     1
1070
   143
1040
0.039
1070
   172
1070
     1
1070
   271
1070
     0
1070
   279
1070
     1
1070
   288
1070
     1
1002
}
  0
LINE
  5
7C2F
  8
3
  6
CONTINUOUS
 10
1738.581350590759
 20
1188.664769981272
 30
0.0
 11
1746.2399415907589
 21
1188.664769981272
 31
0.0
  0
LINE
  5
7C31
  8
3
  6
CONTINUOUS
 10
1738.581350590759
 20
988.6647699812728
 30
0.0
 11
1747.489140590759
 21
988.6647699812728
 31
0.0
  0
DIMENSION
  5
7C3E
  8
3
  6
CONTINUOUS
  2
*D13
 10
1802.454188590759
 20
988.66476998127257
 30
0.0
 11
1802.454188590759
 21
1075.2361985527009
 31
0.0
 70
   128
 13
1738.581350590759
 23
1188.664769981272
 33
0.0
 14
1738.581350590759
 24
988.6647699812728
 34
0.0
 50
90.0
1001
ACAD
1000
DSTYLE
1002
{
1070
   287
1070
     3
1070
   287
1070
     3
1070
     3
1000
φ<>
1070
    40
1040
10.0
1070
   143
1040
0.039
1070
   172
1070
     1
1070
   271
1070
     0
1070
   279
1070
     0
1070
   288
1070
     1
1002
}
  0
DIMENSION
  5
7C4B
  8
3
  6
CONTINUOUS
  2
*D14
 10
1660.581350590759
 20
701.39001398127277
 30
0.0
 11
1558.818752590759
 21
701.39001398127277
 31
0.0
 70
   128
 13
1446.581350590759
 23
766.66476998127268
 33
0.0
 14
1660.581350590759
 24
766.66476998127268
 34
0.0
1001
ACAD
1000
DSTYLE
1002
{
1070
   287
1070
     3
1070
   287
1070
     3
1070
    40
1040
10.0
1070
   143
1040
0.039
1070
   172
1070
     1
1070
   271
1070
     0
1070
   279
1070
     0
1070
   288
1070
     1
1002
}
  0
DIMENSION
  5
7C5B
  8
3
  6
CONTINUOUS
  2
*D15
 10
1670.581350590759
 20
701.39001398127277
 30
0.0
 11
1698.597081590759
 21
701.39001398127277
 31
0.0
 70
   128
 13
1660.581350590759
 23
766.66476998127268
 33
0.0
 14
1670.581350590759
 24
766.66476998127268
 34
0.0
1001
ACAD
1000
DSTYLE
1002
{
1070
   287
1070
     4
1070
   287
1070
     4
1070
    40
1040
10.0
1070
    75
1070
     1
1070
   143
1040
0.039
1070
   172
1070
     1
1070
   271
1070
     0
1070
   279
1070
     1
1070
   288
1070
     1
1002
}
  0
LINE
  5
7C76
  8
2
  6
CENTER
 10
834.42229804898079
 20
1650.479519295629
 30
0.0
 11
834.42229804898079
 21
2131.7148262956289
 31
0.0
  0
LINE
  5
7C77
  8
2
  6
CENTER
 10
1312.4114455907591
 20
1088.664769981272
 30
0.0
 11
1751.5041155907591
 21
1088.664769981272
 31
0.0
  0
DIMENSION
  5
7C88
  8
3
  6
CONTINUOUS
  2
*D16
 10
994.42229804898102
 20
1348.6018719812721
 30
0.0
 11
914.42229804898113
 21
1373.6018719812721
 31
0.0
 70
     0
 13
834.42229804898079
 23
1299.0072509812719
 33
0.0
 14
994.42229804898102
 24
1309.6647699812729
 34
0.0
1001
ACAD
1000
DSTYLE
1002
{
1070
   287
1070
     4
1070
   287
1070
     4
1070
    40
1040
10.0
1070
    75
1070
     1
1070
   143
1040
0.039
1070
   172
1070
     1
1070
   271
1070
     0
1070
   279
1070
     1
1070
   288
1070
     1
1002
}
  0
DIMENSION
  5
7CD4
  8
3
  2
*D17
 10
339.42229804898102
 20
1409.9048852556471
 30
0.0
 11
696.46075782471405
 21
1409.9048852556471
 31
0.0
 70
   128
 13
994.42229804898102
 23
1309.6647699812729
 33
0.0
 14
339.42229804898102
 24
791.66476998127268
 34
0.0
1001
ACAD
1000
DSTYLE
1002
{
1070
   287
1070
     3
1070
   287
1070
     3
1070
    40
1040
10.0
1070
   143
1040
0.039
1070
   172
1070
     1
1070
   271
1070
     0
1070
   279
1070
     0
1070
   288
1070
     1
1002
}
  0
DIMENSION
  5
7CEE
  8
3
  2
*D18
 10
288.29568958641931
 20
1772.6563132956289
 30
0.0
 11
288.29568958641897
 21
1881.0688751804939
 31
0.0
 70
   128
 13
339.42229804898102
 23
1996.6563132956289
 33
0.0
 14
339.42229804898102
 24
1772.6563132956289
 34
0.0
 50
90.0
1001
ACAD
1000
DSTYLE
1002
{
1070
   287
1070
     3
1070
   287
1070
     3
1070
    40
1040
10.0
1070
   143
1040
0.039
1070
   172
1070
     1
1070
   271
1070
     0
1070
   279
1070
     0
1070
   288
1070
     1
1002
}
  0
ENDSEC
  0
EOF
