  0
SECTION
  2
HEADER
  9
$ACADVER
  1
AC1009
  9
$INSBASE
 10
0.0
 20
0.0
 30
0.0
  9
$EXTMIN
 10
216.44354934526561
 20
300.0
 30
0.0
  9
$EXTMAX
 10
1850.0
 20
2786.6522620000001
 30
0.0
  9
$LIMMIN
 10
0.0
 20
0.0
  9
$LIMMAX
 10
297.0
 20
210.0
  9
$ORTHOMODE
 70
     0
  9
$REGENMODE
 70
     1
  9
$FILLMODE
 70
     0
  9
$QTEXTMODE
 70
     0
  9
$MIRRTEXT
 70
     1
  9
$DRAGMODE
 70
     2
  9
$LTSCALE
 40
100.0
  9
$OSMODE
 70
    37
  9
$ATTMODE
 70
     1
  9
$TEXTSIZE
 40
180.0
  9
$TRACEWID
 40
0.05
  9
$TEXTSTYLE
  7
STANDARD
  9
$CLAYER
  8
3
  9
$CELTYPE
  6
BYLAYER
  9
$CECOLOR
 62
   256
  9
$DIMSCALE
 40
10.0
  9
$DIMASZ
 40
2.0
  9
$DIMEXO
 40
0.5
  9
$DIMDLI
 40
10.0
  9
$DIMRND
 40
0.0
  9
$DIMDLE
 40
0.0
  9
$DIMEXE
 40
1.0
  9
$DIMTP
 40
1.0
  9
$DIMTM
 40
1.0
  9
$DIMTXT
 40
3.0
  9
$DIMCEN
 40
0.0
  9
$DIMTSZ
 40
0.0
  9
$DIMTOL
 70
     0
  9
$DIMLIM
 70
     0
  9
$DIMTIH
 70
     0
  9
$DIMTOH
 70
     0
  9
$DIMSE1
 70
     0
  9
$DIMSE2
 70
     0
  9
$DIMTAD
 70
     1
  9
$DIMZIN
 70
     8
  9
$DIMBLK
  1

  9
$DIMASO
 70
     1
  9
$DIMSHO
 70
     1
  9
$DIMPOST
  1

  9
$DIMAPOST
  1

  9
$DIMALT
 70
     0
  9
$DIMALTD
 70
     2
  9
$DIMALTF
 40
0.039
  9
$DIMLFAC
 40
1.0
  9
$DIMTOFL
 70
     1
  9
$DIMTVP
 40
0.0
  9
$DIMTIX
 70
     0
  9
$DIMSOXD
 70
     0
  9
$DIMSAH
 70
     1
  9
$DIMBLK1
  1
OPEN
  9
$DIMBLK2
  1
OPEN
  9
$DIMSTYLE
  2
IGA
  9
$DIMCLRD
 70
     0
  9
$DIMCLRE
 70
     0
  9
$DIMCLRT
 70
     0
  9
$DIMTFAC
 40
10.0
  9
$DIMGAP
 40
1.0
  9
$LUNITS
 70
     2
  9
$LUPREC
 70
     3
  9
$SKETCHINC
 40
0.1
  9
$FILLETRAD
 40
50.0
  9
$AUNITS
 70
     0
  9
$AUPREC
 70
     0
  9
$MENU
  1
acad
  9
$ELEVATION
 40
0.0
  9
$PELEVATION
 40
0.0
  9
$THICKNESS
 40
0.0
  9
$LIMCHECK
 70
     0
  9
$BLIPMODE
 70
     0
  9
$CHAMFERA
 40
0.5
  9
$CHAMFERB
 40
0.5
  9
$SKPOLY
 70
     0
  9
$TDCREATE
 40
2450740.6582635422
  9
$TDUPDATE
 40
2454953.8619372798
  9
$TDINDWG
 40
0.0062609375
  9
$TDUSRTIMER
 40
0.0062609375
  9
$USRTIMER
 70
     1
  9
$ANGBASE
 50
0.0
  9
$ANGDIR
 70
     0
  9
$PDMODE
 70
     0
  9
$PDSIZE
 40
0.0
  9
$PLINEWID
 40
0.0
  9
$COORDS
 70
     1
  9
$SPLFRAME
 70
     0
  9
$SPLINETYPE
 70
     6
  9
$SPLINESEGS
 70
     8
  9
$ATTDIA
 70
     0
  9
$ATTREQ
 70
     1
  9
$HANDLING
 70
 10241
  9
$HANDSEED
  5
7F4B
  9
$SURFTAB1
 70
     6
  9
$SURFTAB2
 70
     6
  9
$SURFTYPE
 70
     6
  9
$SURFU
 70
     6
  9
$SURFV
 70
     6
  9
$UCSNAME
  2

  9
$UCSORG
 10
0.0
 20
0.0
 30
0.0
  9
$UCSXDIR
 10
1.0
 20
0.0
 30
0.0
  9
$UCSYDIR
 10
0.0
 20
1.0
 30
0.0
  9
$PUCSNAME
  2

  9
$PUCSORG
 10
0.0
 20
0.0
 30
0.0
  9
$PUCSXDIR
 10
1.0
 20
0.0
 30
0.0
  9
$PUCSYDIR
 10
0.0
 20
1.0
 30
0.0
  9
$USERI1
 70
     0
  9
$USERI2
 70
     0
  9
$USERI3
 70
     0
  9
$USERI4
 70
     0
  9
$USERI5
 70
     0
  9
$USERR1
 40
0.0
  9
$USERR2
 40
0.0
  9
$USERR3
 40
0.0
  9
$USERR4
 40
0.0
  9
$USERR5
 40
0.0
  9
$WORLDVIEW
 70
     1
  9
$SHADEDGE
 70
     3
  9
$SHADEDIF
 70
    70
  9
$TILEMODE
 70
     1
  9
$MAXACTVP
 70
    16
  9
$PLIMCHECK
 70
     0
  9
$PEXTMIN
 10
1.0000000000000000E+020
 20
1.0000000000000000E+020
 30
1.0000000000000000E+020
  9
$PEXTMAX
 10
-1.0000000000000000E+020
 20
-1.0000000000000000E+020
 30
-1.0000000000000000E+020
  9
$PLIMMIN
 10
0.0
 20
0.0
  9
$PLIMMAX
 10
12.0
 20
9.0
  9
$UNITMODE
 70
     0
  9
$VISRETAIN
 70
     0
  9
$PLINEGEN
 70
     0
  9
$PSLTSCALE
 70
     1
  0
ENDSEC
  0
SECTION
  2
TABLES
  0
TABLE
  2
VPORT
 70
     2
  0
VPORT
  2
*ACTIVE
 70
     0
 10
0.0
 20
0.0
 11
1.0
 21
1.0
 12
2525.471351969325
 22
1783.367554202646
 13
0.0
 23
0.0
 14
10.0
 24
10.0
 15
10.0
 25
10.0
 16
0.0
 26
0.0
 36
1.0
 17
0.0
 27
0.0
 37
0.0
 40
3384.7202369232768
 41
1.5051150895140659
 42
50.0
 43
0.0
 44
0.0
 50
0.0
 51
0.0
 71
     0
 72
   100
 73
     1
 74
     0
 75
     0
 76
     0
 77
     0
 78
     0
  0
ENDTAB
  0
TABLE
  2
LTYPE
 70
     2
  0
LTYPE
  2
CONTINUOUS
 70
     0
  3
Solid line
 72
    65
 73
     0
 40
0.0
  0
LTYPE
  2
CENTER
 70
     0
  3
____ _ ____ _ ____ _ ____ _ ____ _ ____ _ ____ 
 72
    65
 73
     4
 40
2.0
 49
1.25
 49
-0.25
 49
0.25
 49
-0.25
  0
ENDTAB
  0
TABLE
  2
LAYER
 70
     6
  0
LAYER
  2
0
 70
     0
 62
     7
  6
CONTINUOUS
  0
LAYER
  2
3
 70
     0
 62
     2
  6
CONTINUOUS
  0
LAYER
  2
2
 70
     0
 62
     3
  6
CENTER
  0
LAYER
  2
1
 70
     0
 62
     4
  6
CONTINUOUS
  0
LAYER
  2
4
 70
     0
 62
     7
  6
CONTINUOUS
  0
LAYER
  2
DEFPOINTS
 70
     0
 62
     7
  6
CONTINUOUS
  0
ENDTAB
  0
TABLE
  2
STYLE
 70
     1
  0
STYLE
  2
STANDARD
 70
     0
 40
0.0
 41
1.0
 50
0.0
 71
     0
 42
180.0
  3
simplex.shx
  4
extfont.shx
  0
ENDTAB
  0
TABLE
  2
VIEW
 70
     0
  0
ENDTAB
  0
TABLE
  2
UCS
 70
     0
  0
ENDTAB
  0
TABLE
  2
APPID
 70
     1
  0
APPID
  2
ACAD
 70
     0
  0
ENDTAB
  0
TABLE
  2
DIMSTYLE
 70
     1
  0
DIMSTYLE
  2
IGA
 70
     0
  3

  4

  5

  6
OPEN
  7
OPEN
 40
2.0
 41
2.0
 42
0.5
 43
10.0
 44
1.0
 45
0.0
 46
0.0
 47
1.0
 48
1.0
140
3.0
141
0.0
142
0.0
143
0.03937
144
1.0
145
0.0
146
10.0
147
1.0
 71
     0
 72
     0
 73
     0
 74
     0
 75
     0
 76
     0
 77
     1
 78
     8
170
     0
171
     2
172
     0
173
     1
174
     0
175
     0
176
     0
177
     0
178
     0
  0
ENDTAB
  0
ENDSEC
  0
SECTION
  2
BLOCKS
  0
BLOCK
  8
0
  2
$MODEL_SPACE
 70
     0
 10
0.0
 20
0.0
 30
0.0
  3
$MODEL_SPACE
  1

  0
ENDBLK
  5
1B
  8
0
  0
BLOCK
 67
     1
  8
0
  2
$PAPER_SPACE
 70
     0
 10
0.0
 20
0.0
 30
0.0
  3
$PAPER_SPACE
  1

  0
ENDBLK
  5
18
 67
     1
  8
0
  0
BLOCK
  8
0
  2
_OPEN
 70
     0
 10
0.0
 20
0.0
 30
0.0
  3
_OPEN
  1

  0
LINE
  5
7B2F
  8
0
  6
BYBLOCK
 62
     0
 10
-1.0
 20
0.166667
 30
0.0
 11
0.0
 21
0.0
 31
0.0
  0
LINE
  5
7B30
  8
0
  6
BYBLOCK
 62
     0
 10
0.0
 20
0.0
 30
0.0
 11
-1.0
 21
-0.166667
 31
0.0
  0
LINE
  5
7B31
  8
0
  6
BYBLOCK
 62
     0
 10
0.0
 20
0.0
 30
0.0
 11
-1.0
 21
0.0
 31
0.0
  0
ENDBLK
  5
7B32
  8
0
  0
BLOCK
  8
0
  2
*D1
 70
     1
 10
0.0
 20
0.0
 30
0.0
  3
*D1
  1

  0
LINE
  5
7E8D
  8
3
  6
CONTINUOUS
 62
     0
 10
319.48909300000003
 20
886.68296896254651
 30
0.0
 11
319.48909300000003
 21
796.04612396254652
 31
0.0
  0
LINE
  5
7E8E
  8
3
  6
CONTINUOUS
 62
     0
 10
814.48909300000003
 20
886.68296896254651
 30
0.0
 11
814.48909300000003
 21
796.04612396254652
 31
0.0
  0
LINE
  5
7E8F
  8
3
  6
CONTINUOUS
 62
     0
 10
339.48909300000003
 20
806.0461239625464
 30
0.0
 11
794.48909300000003
 21
806.0461239625464
 31
0.0
  0
INSERT
  5
7E90
  8
3
  6
CONTINUOUS
 62
     0
  2
_OPEN
 10
319.48909300000003
 20
806.0461239625464
 30
0.0
 41
20.0
 42
20.0
 43
20.0
 50
180.0
  0
INSERT
  5
7E91
  8
3
  6
CONTINUOUS
 62
     0
  2
_OPEN
 10
814.48909300000003
 20
806.0461239625464
 30
0.0
 41
20.0
 42
20.0
 43
20.0
  0
TEXT
  8
3
  40
30
  5
7F37
  62
0
  72
0
  71
0
 10
519.553
 20
777.946
 30
0.000000
  1
495
  0
POINT
  5
7E93
  8
DEFPOINTS
  6
CONTINUOUS
 62
     0
 10
319.48909300000003
 20
891.68296896254651
 30
0.0
  0
POINT
  5
7E94
  8
DEFPOINTS
  6
CONTINUOUS
 62
     0
 10
814.48909300000003
 20
891.68296896254651
 30
0.0
  0
POINT
  5
7E95
  8
DEFPOINTS
  6
CONTINUOUS
 62
     0
 10
814.48909300000003
 20
806.0461239625464
 30
0.0
  0
ENDBLK
  5
7B3F
  8
0
  0
BLOCK
  8
0
  2
*D2
 70
     1
 10
0.0
 20
0.0
 30
0.0
  3
*D2
  1

  0
LINE
  5
7E96
  8
3
  6
CONTINUOUS
 62
     0
 10
999.48909300000003
 20
886.68296896254651
 30
0.0
 11
999.48909300000003
 21
796.04612396254652
 31
0.0
  0
LINE
  5
7E97
  8
3
  6
CONTINUOUS
 62
     0
 10
834.48909300000003
 20
806.0461239625464
 30
0.0
 11
979.48909300000014
 21
806.0461239625464
 31
0.0
  0
INSERT
  5
7E98
  8
3
  6
CONTINUOUS
 62
     0
  2
_OPEN
 10
814.48909300000003
 20
806.0461239625464
 30
0.0
 41
20.0
 42
20.0
 43
20.0
 50
180.0
  0
INSERT
  5
7E99
  8
3
  6
CONTINUOUS
 62
     0
  2
_OPEN
 10
999.48909300000003
 20
806.0461239625464
 30
0.0
 41
20.0
 42
20.0
 43
20.0
  0
TEXT
  8
3
  40
30
  5
7F38
  62
0
  72
0
  71
0
 10
846.989
 20
777.946
 30
0.000000
  1
185
  0
POINT
  5
7E9B
  8
DEFPOINTS
  6
CONTINUOUS
 62
     0
 10
814.48909300000003
 20
891.68296896254651
 30
0.0
  0
POINT
  5
7E9C
  8
DEFPOINTS
  6
CONTINUOUS
 62
     0
 10
999.48909300000003
 20
891.68296896254651
 30
0.0
  0
POINT
  5
7E9D
  8
DEFPOINTS
  6
CONTINUOUS
 62
     0
 10
999.48909300000003
 20
806.0461239625464
 30
0.0
  0
ENDBLK
  5
7B4B
  8
0
  0
BLOCK
  8
0
  2
*D3
 70
     1
 10
0.0
 20
0.0
 30
0.0
  3
*D3
  1

  0
LINE
  5
7E9E
  8
3
  6
CONTINUOUS
 62
     0
 10
635.48909300000003
 20
1218.6829689625461
 30
0.0
 11
635.48909300000003
 21
1402.3869579625459
 31
0.0
  0
LINE
  5
7E9F
  8
3
  6
CONTINUOUS
 62
     0
 10
814.48909300000003
 20
1369.250156962546
 30
0.0
 11
814.48909300000003
 21
1402.3869579625459
 31
0.0
  0
LINE
  5
7EA0
  8
3
  6
CONTINUOUS
 62
     0
 10
655.48909300000003
 20
1392.3869579625459
 30
0.0
 11
794.48909300000003
 21
1392.3869579625459
 31
0.0
  0
INSERT
  5
7EA1
  8
3
  6
CONTINUOUS
 62
     0
  2
_OPEN
 10
635.48909300000003
 20
1392.3869579625459
 30
0.0
 41
20.0
 42
20.0
 43
20.0
 50
180.0
  0
INSERT
  5
7EA2
  8
3
  6
CONTINUOUS
 62
     0
  2
_OPEN
 10
814.48909300000003
 20
1392.3869579625459
 30
0.0
 41
20.0
 42
20.0
 43
20.0
  0
TEXT
  8
3
  40
30
  5
7F39
  62
0
  72
0
  71
0
 10
667.047
 20
1364.29
 30
0.000000
  1
179
  0
POINT
  5
7EA4
  8
DEFPOINTS
  6
CONTINUOUS
 62
     0
 10
635.48909300000003
 20
1213.6829689625461
 30
0.0
  0
POINT
  5
7EA5
  8
DEFPOINTS
  6
CONTINUOUS
 62
     0
 10
814.48909300000003
 20
1364.250156962546
 30
0.0
  0
POINT
  5
7EA6
  8
DEFPOINTS
  6
CONTINUOUS
 62
     0
 10
814.48909300000003
 20
1392.3869579625459
 30
0.0
  0
ENDBLK
  5
7D95
  8
0
  0
BLOCK
  8
0
  2
*D4
 70
     1
 10
0.0
 20
0.0
 30
0.0
  3
*D4
  1

  0
LINE
  5
7EA7
  8
3
  6
CONTINUOUS
 62
     0
 10
974.48909300000003
 20
1239.6829689625461
 30
0.0
 11
974.48909300000003
 21
1402.3869579625459
 31
0.0
  0
LINE
  5
7EA8
  8
3
  6
CONTINUOUS
 62
     0
 10
834.48909300000003
 20
1392.3869579625459
 30
0.0
 11
954.48909300000014
 21
1392.3869579625459
 31
0.0
  0
INSERT
  5
7EA9
  8
3
  6
CONTINUOUS
 62
     0
  2
_OPEN
 10
814.48909300000003
 20
1392.3869579625459
 30
0.0
 41
20.0
 42
20.0
 43
20.0
 50
180.0
  0
INSERT
  5
7EAA
  8
3
  6
CONTINUOUS
 62
     0
  2
_OPEN
 10
974.48909300000003
 20
1392.3869579625459
 30
0.0
 41
20.0
 42
20.0
 43
20.0
  0
TEXT
  8
3
  40
30
  5
7F3A
  62
0
  72
0
  71
0
 10
834.489
 20
1364.29
 30
0.000000
  1
160
  0
POINT
  5
7EAC
  8
DEFPOINTS
  6
CONTINUOUS
 62
     0
 10
814.48909300000003
 20
1364.250156962546
 30
0.0
  0
POINT
  5
7EAD
  8
DEFPOINTS
  6
CONTINUOUS
 62
     0
 10
974.48909300000003
 20
1234.6829689625461
 30
0.0
  0
POINT
  5
7EAE
  8
DEFPOINTS
  6
CONTINUOUS
 62
     0
 10
974.48909300000003
 20
1392.3869579625459
 30
0.0
  0
ENDBLK
  5
7B64
  8
0
  0
BLOCK
  8
0
  2
*D5
 70
     1
 10
0.0
 20
0.0
 30
0.0
  3
*D5
  1

  0
LINE
  5
7EAF
  8
3
  6
CONTINUOUS
 62
     0
 10
979.48909300000014
 20
1213.6829689625461
 30
0.0
 11
1062.35292
 21
1213.6829689625461
 31
0.0
  0
LINE
  5
7EB0
  8
3
  6
CONTINUOUS
 62
     0
 10
979.48909300000014
 20
1013.6829689625461
 30
0.0
 11
1062.35292
 21
1013.6829689625461
 31
0.0
  0
LINE
  5
7EB1
  8
3
  6
CONTINUOUS
 62
     0
 10
1052.35292
 20
1193.6829689625461
 30
0.0
 11
1052.35292
 21
1033.6829689625461
 31
0.0
  0
INSERT
  5
7EB2
  8
3
  6
CONTINUOUS
 62
     0
  2
_OPEN
 10
1052.35292
 20
1213.6829689625461
 30
0.0
 41
20.0
 42
20.0
 43
20.0
 50
90.0
  0
INSERT
  5
7EB3
  8
3
  6
CONTINUOUS
 62
     0
  2
_OPEN
 10
1052.35292
 20
1013.6829689625461
 30
0.0
 41
20.0
 42
20.0
 43
20.0
 50
270.0
  0
TEXT
  8
3
  40
30
  5
7F3B
  62
0
  72
0
  71
0
 10
967.353
 20
1066.76
 30
0.000000
  1
200
  0
POINT
  5
7EB5
  8
DEFPOINTS
  6
CONTINUOUS
 62
     0
 10
974.48909300000003
 20
1213.6829689625461
 30
0.0
  0
POINT
  5
7EB6
  8
DEFPOINTS
  6
CONTINUOUS
 62
     0
 10
974.48909300000003
 20
1013.6829689625461
 30
0.0
  0
POINT
  5
7EB7
  8
DEFPOINTS
  6
CONTINUOUS
 62
     0
 10
1052.35292
 20
1013.6829689625461
 30
0.0
  0
ENDBLK
  5
7B71
  8
0
  0
BLOCK
  8
0
  2
*D6
 70
     1
 10
0.0
 20
0.0
 30
0.0
  3
*D6
  1

  0
LINE
  5
7EB8
  8
3
  6
CONTINUOUS
 62
     0
 10
819.48909299999991
 20
1364.250156962546
 30
0.0
 11
1184.612796034623
 21
1364.250156962546
 31
0.0
  0
LINE
  5
7EB9
  8
3
  6
CONTINUOUS
 62
     0
 10
979.48909300000014
 20
1213.6829689625461
 30
0.0
 11
1184.612796034623
 21
1213.6829689625461
 31
0.0
  0
LINE
  5
7EBA
  8
3
  6
CONTINUOUS
 62
     0
 10
1174.612796034623
 20
1344.250156962546
 30
0.0
 11
1174.612796034623
 21
1233.6829689625461
 31
0.0
  0
INSERT
  5
7EBB
  8
3
  6
CONTINUOUS
 62
     0
  2
_OPEN
 10
1174.612796034623
 20
1364.250156962546
 30
0.0
 41
20.0
 42
20.0
 43
20.0
 50
90.0
  0
INSERT
  5
7EBC
  8
3
  6
CONTINUOUS
 62
     0
  2
_OPEN
 10
1174.612796034623
 20
1213.6829689625461
 30
0.0
 41
20.0
 42
20.0
 43
20.0
 50
270.0
  0
TEXT
  8
3
  40
30
  5
7F3C
  62
0
  72
0
  71
0
 10
1089.61
 20
1231.82
 30
0.000000
  1
151
  0
POINT
  5
7EBE
  8
DEFPOINTS
  6
CONTINUOUS
 62
     0
 10
814.48909300000003
 20
1364.250156962546
 30
0.0
  0
POINT
  5
7EBF
  8
DEFPOINTS
  6
CONTINUOUS
 62
     0
 10
974.48909300000003
 20
1213.6829689625461
 30
0.0
  0
POINT
  5
7EC0
  8
DEFPOINTS
  6
CONTINUOUS
 62
     0
 10
1174.612796034623
 20
1213.6829689625461
 30
0.0
  0
ENDBLK
  5
7D0B
  8
0
  0
BLOCK
  8
0
  2
*D7
 70
     1
 10
0.0
 20
0.0
 30
0.0
  3
*D7
  1

  0
LINE
  5
7EC1
  8
3
  6
CONTINUOUS
 62
     0
 10
979.48909300000014
 20
938.6829689625464
 30
0.0
 11
1184.612796034623
 21
938.6829689625464
 31
0.0
  0
LINE
  5
7EC2
  8
3
  6
CONTINUOUS
 62
     0
 10
1174.612796034623
 20
1193.6829689625461
 30
0.0
 11
1174.612796034623
 21
958.68296896254651
 31
0.0
  0
INSERT
  5
7EC3
  8
3
  6
CONTINUOUS
 62
     0
  2
_OPEN
 10
1174.612796034623
 20
1213.6829689625461
 30
0.0
 41
20.0
 42
20.0
 43
20.0
 50
90.0
  0
INSERT
  5
7EC4
  8
3
  6
CONTINUOUS
 62
     0
  2
_OPEN
 10
1174.612796034623
 20
938.6829689625464
 30
0.0
 41
20.0
 42
20.0
 43
20.0
 50
270.0
  0
TEXT
  8
3
  40
30
  5
7F3D
  62
0
  72
0
  71
0
 10
1089.61
 20
1023.08
 30
0.000000
  1
275
  0
POINT
  5
7EC6
  8
DEFPOINTS
  6
CONTINUOUS
 62
     0
 10
974.48909300000003
 20
1213.6829689625461
 30
0.0
  0
POINT
  5
7EC7
  8
DEFPOINTS
  6
CONTINUOUS
 62
     0
 10
974.48909300000003
 20
938.6829689625464
 30
0.0
  0
POINT
  5
7EC8
  8
DEFPOINTS
  6
CONTINUOUS
 62
     0
 10
1174.612796034623
 20
938.6829689625464
 30
0.0
  0
ENDBLK
  5
7D20
  8
0
  0
BLOCK
  8
0
  2
*D8
 70
     1
 10
0.0
 20
0.0
 30
0.0
  3
*D8
  1

  0
LINE
  5
7EC9
  8
3
  6
CONTINUOUS
 62
     0
 10
979.48909300000014
 20
938.6829689625464
 30
0.0
 11
1186.495593034623
 21
938.6829689625464
 31
0.0
  0
LINE
  5
7ECA
  8
3
  6
CONTINUOUS
 62
     0
 10
1004.489093
 20
891.68296896254651
 30
0.0
 11
1186.495593034623
 21
891.68296896254651
 31
0.0
  0
LINE
  5
7ECB
  8
3
  6
CONTINUOUS
 62
     0
 10
1176.495593034623
 20
958.68296896254651
 30
0.0
 11
1176.495593034623
 21
978.68296896254651
 31
0.0
  0
LINE
  5
7ECC
  8
3
  6
CONTINUOUS
 62
     0
 10
1176.495593034623
 20
871.6829689625464
 30
0.0
 11
1176.495593034623
 21
783.11154039111796
 31
0.0
  0
LINE
  5
7ECD
  8
3
  6
CONTINUOUS
 62
     0
 10
1176.495593034623
 20
938.6829689625464
 30
0.0
 11
1176.495593034623
 21
891.68296896254651
 31
0.0
  0
INSERT
  5
7ECE
  8
3
  6
CONTINUOUS
 62
     0
  2
_OPEN
 10
1176.495593034623
 20
938.6829689625464
 30
0.0
 41
20.0
 42
20.0
 43
20.0
 50
270.0
  0
INSERT
  5
7ECF
  8
3
  6
CONTINUOUS
 62
     0
  2
_OPEN
 10
1176.495593034623
 20
891.68296896254651
 30
0.0
 41
20.0
 42
20.0
 43
20.0
 50
90.0
  0
TEXT
  8
3
  40
30
  5
7F3E
  62
0
  72
0
  71
0
 10
1091.50
 20
764.297
 30
0.000000
  1
47
  0
POINT
  5
7ED1
  8
DEFPOINTS
  6
CONTINUOUS
 62
     0
 10
974.48909300000003
 20
938.6829689625464
 30
0.0
  0
POINT
  5
7ED2
  8
DEFPOINTS
  6
CONTINUOUS
 62
     0
 10
999.48909300000003
 20
891.68296896254651
 30
0.0
  0
POINT
  5
7ED3
  8
DEFPOINTS
  6
CONTINUOUS
 62
     0
 10
1176.495593034623
 20
891.68296896254651
 30
0.0
  0
ENDBLK
  5
7D62
  8
0
  0
BLOCK
  8
0
  2
*D9
 70
     1
 10
0.0
 20
0.0
 30
0.0
  3
*D9
  1

  0
LINE
  5
7ED4
  8
3
  6
CONTINUOUS
 62
     0
 10
819.48909299999991
 20
1364.250156962546
 30
0.0
 11
1240.538800305513
 21
1364.250156962546
 31
0.0
  0
LINE
  5
7ED5
  8
3
  6
CONTINUOUS
 62
     0
 10
1004.489093
 20
891.68296896254651
 30
0.0
 11
1240.538800305513
 21
891.68296896254651
 31
0.0
  0
LINE
  5
7ED6
  8
3
  6
CONTINUOUS
 62
     0
 10
1230.538800305513
 20
1344.250156962546
 30
0.0
 11
1230.538800305513
 21
911.68296896254651
 31
0.0
  0
INSERT
  5
7ED7
  8
3
  6
CONTINUOUS
 62
     0
  2
_OPEN
 10
1230.538800305513
 20
1364.250156962546
 30
0.0
 41
20.0
 42
20.0
 43
20.0
 50
90.0
  0
INSERT
  5
7ED8
  8
3
  6
CONTINUOUS
 62
     0
  2
_OPEN
 10
1230.538800305513
 20
891.68296896254651
 30
0.0
 41
20.0
 42
20.0
 43
20.0
 50
270.0
  0
TEXT
  8
3
  40
30
  5
7F3F
  62
0
  72
0
  71
0
 10
1145.54
 20
1066.30
 30
0.000000
  1
473
  0
POINT
  5
7EDA
  8
DEFPOINTS
  6
CONTINUOUS
 62
     0
 10
814.48909300000003
 20
1364.250156962546
 30
0.0
  0
POINT
  5
7EDB
  8
DEFPOINTS
  6
CONTINUOUS
 62
     0
 10
999.48909300000003
 20
891.68296896254651
 30
0.0
  0
POINT
  5
7EDC
  8
DEFPOINTS
  6
CONTINUOUS
 62
     0
 10
1230.538800305513
 20
891.68296896254651
 30
0.0
  0
ENDBLK
  5
7D37
  8
0
  0
BLOCK
  8
0
  2
*D10
 70
     1
 10
0.0
 20
0.0
 30
0.0
  3
*D10
  1

  0
LINE
  5
7EDD
  8
3
  6
CONTINUOUS
 62
     0
 10
319.48909300000003
 20
1840.629196915354
 30
0.0
 11
319.48909300000003
 21
1636.9044649153541
 31
0.0
  0
LINE
  5
7EDE
  8
3
  6
CONTINUOUS
 62
     0
 10
999.48909300000003
 20
1840.629196915354
 30
0.0
 11
999.48909300000003
 21
1636.9044649153541
 31
0.0
  0
LINE
  5
7EDF
  8
3
  6
CONTINUOUS
 62
     0
 10
339.48909300000003
 20
1646.9044649153529
 30
0.0
 11
979.48909300000014
 21
1646.9044649153529
 31
0.0
  0
INSERT
  5
7EE0
  8
3
  6
CONTINUOUS
 62
     0
  2
_OPEN
 10
319.48909300000003
 20
1646.9044649153529
 30
0.0
 41
20.0
 42
20.0
 43
20.0
 50
180.0
  0
INSERT
  5
7EE1
  8
3
  6
CONTINUOUS
 62
     0
  2
_OPEN
 10
999.48909300000003
 20
1646.9044649153529
 30
0.0
 41
20.0
 42
20.0
 43
20.0
  0
TEXT
  8
3
  40
30
  5
7F40
  62
0
  72
0
  71
0
 10
588.459
 20
1618.80
 30
0.000000
  1
680
  0
POINT
  5
7EE3
  8
DEFPOINTS
  6
CONTINUOUS
 62
     0
 10
319.48909300000003
 20
1845.6291969153531
 30
0.0
  0
POINT
  5
7EE4
  8
DEFPOINTS
  6
CONTINUOUS
 62
     0
 10
999.48909300000003
 20
1845.6291969153531
 30
0.0
  0
POINT
  5
7EE5
  8
DEFPOINTS
  6
CONTINUOUS
 62
     0
 10
999.48909300000003
 20
1646.9044649153529
 30
0.0
  0
ENDBLK
  5
7BCF
  8
0
  0
BLOCK
  8
0
  2
*D11
 70
     1
 10
0.0
 20
0.0
 30
0.0
  3
*D11
  1

  0
LINE
  5
7EE6
  8
3
  6
CONTINUOUS
 62
     0
 10
1583.8549132363121
 20
1357.6829689625461
 30
0.0
 11
1583.8549132363121
 21
1413.644207962546
 31
0.0
  0
LINE
  5
7EE7
  8
3
  6
CONTINUOUS
 62
     0
 10
1723.854913236313
 20
1357.6829689625461
 30
0.0
 11
1723.854913236313
 21
1413.644207962546
 31
0.0
  0
LINE
  5
7EE8
  8
3
  6
CONTINUOUS
 62
     0
 10
1603.8549132363121
 20
1403.644207962546
 30
0.0
 11
1703.8549132363121
 21
1403.644207962546
 31
0.0
  0
INSERT
  5
7EE9
  8
3
  6
CONTINUOUS
 62
     0
  2
_OPEN
 10
1583.8549132363121
 20
1403.644207962546
 30
0.0
 41
20.0
 42
20.0
 43
20.0
 50
180.0
  0
INSERT
  5
7EEA
  8
3
  6
CONTINUOUS
 62
     0
  2
_OPEN
 10
1723.854913236313
 20
1403.644207962546
 30
0.0
 41
20.0
 42
20.0
 43
20.0
  0
TEXT
  8
3
  40
30
  5
7F41
  62
0
  72
0
  71
0
 10
1589.57
 20
1375.54
 30
0.000000
  1
140
  0
POINT
  5
7EEC
  8
DEFPOINTS
  6
CONTINUOUS
 62
     0
 10
1583.8549132363121
 20
1352.6829689625461
 30
0.0
  0
POINT
  5
7EED
  8
DEFPOINTS
  6
CONTINUOUS
 62
     0
 10
1723.854913236313
 20
1352.6829689625461
 30
0.0
  0
POINT
  5
7EEE
  8
DEFPOINTS
  6
CONTINUOUS
 62
     0
 10
1723.854913236313
 20
1403.644207962546
 30
0.0
  0
ENDBLK
  5
7BED
  8
0
  0
BLOCK
  8
0
  2
*D12
 70
     1
 10
0.0
 20
0.0
 30
0.0
  3
*D12
  1

  0
LINE
  5
7EEF
  8
3
  6
CONTINUOUS
 62
     0
 10
1353.8549132363121
 20
1328.6829689625461
 30
0.0
 11
1353.8549132363121
 21
1466.309841962546
 31
0.0
  0
LINE
  5
7EF0
  8
3
  6
CONTINUOUS
 62
     0
 10
1653.854913236313
 20
1453.853887962546
 30
0.0
 11
1653.854913236313
 21
1466.309841962546
 31
0.0
  0
LINE
  5
7EF1
  8
3
  6
CONTINUOUS
 62
     0
 10
1373.8549132363121
 20
1456.309841962546
 30
0.0
 11
1633.854913236313
 21
1456.309841962546
 31
0.0
  0
INSERT
  5
7EF2
  8
3
  6
CONTINUOUS
 62
     0
  2
_OPEN
 10
1353.8549132363121
 20
1456.309841962546
 30
0.0
 41
20.0
 42
20.0
 43
20.0
 50
180.0
  0
INSERT
  5
7EF3
  8
3
  6
CONTINUOUS
 62
     0
  2
_OPEN
 10
1653.854913236313
 20
1456.309841962546
 30
0.0
 41
20.0
 42
20.0
 43
20.0
  0
TEXT
  8
3
  40
30
  5
7F42
  62
0
  72
0
  71
0
 10
1449.18
 20
1453.21
 30
0.000000
  1
MAX
  0
TEXT
  8
3
  40
30
  5
7F43
  62
0
  72
0
  71
0
 10
1449.18
 20
1414.21
 30
0.000000
  1
300
  0
POINT
  5
7EF5
  8
DEFPOINTS
  6
CONTINUOUS
 62
     0
 10
1353.8549132363121
 20
1323.6829689625461
 30
0.0
  0
POINT
  5
7EF6
  8
DEFPOINTS
  6
CONTINUOUS
 62
     0
 10
1653.854913236313
 20
1448.853887962546
 30
0.0
  0
POINT
  5
7EF7
  8
DEFPOINTS
  6
CONTINUOUS
 62
     0
 10
1653.854913236313
 20
1456.309841962546
 30
0.0
  0
ENDBLK
  5
7D6D
  8
0
  0
BLOCK
  8
0
  2
*D13
 70
     1
 10
0.0
 20
0.0
 30
0.0
  3
*D13
  1

  0
LINE
  5
7EF8
  8
3
  6
CONTINUOUS
 62
     0
 10
1731.854913236313
 20
1338.6829689625461
 30
0.0
 11
1731.854913236313
 21
1466.309841962546
 31
0.0
  0
LINE
  5
7EF9
  8
3
  6
CONTINUOUS
 62
     0
 10
1673.8549132363121
 20
1456.309841962546
 30
0.0
 11
1711.854913236313
 21
1456.309841962546
 31
0.0
  0
TEXT
  8
3
  40
30
  5
7F44
  62
0
  72
0
  71
0
 10
1633.70
 20
1428.21
 30
0.000000
  1
78
  0
INSERT
  5
7EFB
  8
3
  6
CONTINUOUS
 62
     0
  2
_OPEN
 10
1653.854913236313
 20
1456.309841962546
 30
0.0
 41
20.0
 42
20.0
 43
20.0
 50
180.0
  0
INSERT
  5
7EFC
  8
3
  6
CONTINUOUS
 62
     0
  2
_OPEN
 10
1731.854913236313
 20
1456.309841962546
 30
0.0
 41
20.0
 42
20.0
 43
20.0
  0
POINT
  5
7EFD
  8
DEFPOINTS
  6
CONTINUOUS
 62
     0
 10
1653.854913236313
 20
1448.853887962546
 30
0.0
  0
POINT
  5
7EFE
  8
DEFPOINTS
  6
CONTINUOUS
 62
     0
 10
1731.854913236313
 20
1333.6829689625461
 30
0.0
  0
POINT
  5
7EFF
  8
DEFPOINTS
  6
CONTINUOUS
 62
     0
 10
1731.854913236313
 20
1456.309841962546
 30
0.0
  0
ENDBLK
  5
7CBF
  8
0
  0
BLOCK
  8
0
  2
*D14
 70
     1
 10
0.0
 20
0.0
 30
0.0
  3
*D14
  1

  0
LINE
  5
7F00
  8
3
  6
CONTINUOUS
 62
     0
 10
1439.8549132363121
 20
886.68296896254651
 30
0.0
 11
1439.8549132363121
 21
819.77921896254645
 31
0.0
  0
LINE
  5
7F01
  8
3
  6
CONTINUOUS
 62
     0
 10
1653.854913236313
 20
886.68296896254651
 30
0.0
 11
1653.854913236313
 21
819.77921896254645
 31
0.0
  0
LINE
  5
7F02
  8
3
  6
CONTINUOUS
 62
     0
 10
1459.854913236313
 20
829.77921896254645
 30
0.0
 11
1633.854913236313
 21
829.77921896254645
 31
0.0
  0
INSERT
  5
7F03
  8
3
  6
CONTINUOUS
 62
     0
  2
_OPEN
 10
1439.8549132363121
 20
829.77921896254645
 30
0.0
 41
20.0
 42
20.0
 43
20.0
 50
180.0
  0
INSERT
  5
7F04
  8
3
  6
CONTINUOUS
 62
     0
  2
_OPEN
 10
1653.854913236313
 20
829.77921896254645
 30
0.0
 41
20.0
 42
20.0
 43
20.0
  0
TEXT
  8
3
  40
30
  5
7F45
  62
0
  72
0
  71
0
 10
1496.25
 20
801.679
 30
0.000000
  1
214
  0
POINT
  5
7F06
  8
DEFPOINTS
  6
CONTINUOUS
 62
     0
 10
1439.8549132363121
 20
891.68296896254651
 30
0.0
  0
POINT
  5
7F07
  8
DEFPOINTS
  6
CONTINUOUS
 62
     0
 10
1653.854913236313
 20
891.68296896254651
 30
0.0
  0
POINT
  5
7F08
  8
DEFPOINTS
  6
CONTINUOUS
 62
     0
 10
1653.854913236313
 20
829.77921896254645
 30
0.0
  0
ENDBLK
  5
7C2B
  8
0
  0
BLOCK
  8
0
  2
*D15
 70
     1
 10
0.0
 20
0.0
 30
0.0
  3
*D15
  1

  0
LINE
  5
7F09
  8
3
  6
CONTINUOUS
 62
     0
 10
1663.854913236313
 20
886.68296896254651
 30
0.0
 11
1663.854913236313
 21
819.77921896254645
 31
0.0
  0
LINE
  5
7F0A
  8
3
  6
CONTINUOUS
 62
     0
 10
1633.854913236313
 20
829.77921896254645
 30
0.0
 11
1613.854913236313
 21
829.77921896254645
 31
0.0
  0
LINE
  5
7F0B
  8
3
  6
CONTINUOUS
 62
     0
 10
1683.854913236313
 20
829.77921896254645
 30
0.0
 11
1703.8549132363121
 21
829.77921896254645
 31
0.0
  0
TEXT
  8
3
  40
30
  5
7F46
  62
0
  72
0
  71
0
 10
1646.88
 20
801.679
 30
0.000000
  1
10
  0
LINE
  5
7F0D
  8
3
  6
CONTINUOUS
 62
     0
 10
1653.854913236313
 20
829.77921896254645
 30
0.0
 11
1663.854913236313
 21
829.77921896254645
 31
0.0
  0
INSERT
  5
7F0E
  8
3
  6
CONTINUOUS
 62
     0
  2
_OPEN
 10
1653.854913236313
 20
829.77921896254645
 30
0.0
 41
20.0
 42
20.0
 43
20.0
  0
INSERT
  5
7F0F
  8
3
  6
CONTINUOUS
 62
     0
  2
_OPEN
 10
1663.854913236313
 20
829.77921896254645
 30
0.0
 41
20.0
 42
20.0
 43
20.0
 50
180.0
  0
POINT
  5
7F10
  8
DEFPOINTS
  6
CONTINUOUS
 62
     0
 10
1653.854913236313
 20
891.68296896254651
 30
0.0
  0
POINT
  5
7F11
  8
DEFPOINTS
  6
CONTINUOUS
 62
     0
 10
1663.854913236313
 20
891.68296896254651
 30
0.0
  0
POINT
  5
7F12
  8
DEFPOINTS
  6
CONTINUOUS
 62
     0
 10
1663.854913236313
 20
829.77921896254645
 30
0.0
  0
ENDBLK
  5
7C56
  8
0
  0
BLOCK
  8
0
  2
*D16
 70
     1
 10
0.0
 20
0.0
 30
0.0
  3
*D16
  1

  0
LINE
  5
7F13
  8
3
  6
CONTINUOUS
 62
     0
 10
1736.854913236313
 20
1313.6829689625461
 30
0.0
 11
1812.171314236313
 21
1313.6829689625461
 31
0.0
  0
LINE
  5
7F14
  8
3
  6
CONTINUOUS
 62
     0
 10
1736.854913236313
 20
1113.6829689625461
 30
0.0
 11
1812.171314236313
 21
1113.6829689625461
 31
0.0
  0
LINE
  5
7F15
  8
3
  6
CONTINUOUS
 62
     0
 10
1802.1713142363119
 20
1293.6829689625461
 30
0.0
 11
1802.1713142363119
 21
1133.6829689625461
 31
0.0
  0
INSERT
  5
7F16
  8
3
  6
CONTINUOUS
 62
     0
  2
_OPEN
 10
1802.1713142363119
 20
1313.6829689625461
 30
0.0
 41
20.0
 42
20.0
 43
20.0
 50
90.0
  0
INSERT
  5
7F17
  8
3
  6
CONTINUOUS
 62
     0
  2
_OPEN
 10
1802.1713142363119
 20
1113.6829689625461
 30
0.0
 41
20.0
 42
20.0
 43
20.0
 50
270.0
  0
TEXT
  8
3
  40
30
  5
7F47
  62
0
  72
0
  71
0
 10
1717.17
 20
1174.01
 30
0.000000
  1
φ200
  0
POINT
  5
7F19
  8
DEFPOINTS
  6
CONTINUOUS
 62
     0
 10
1731.854913236313
 20
1313.6829689625461
 30
0.0
  0
POINT
  5
7F1A
  8
DEFPOINTS
  6
CONTINUOUS
 62
     0
 10
1731.854913236313
 20
1113.6829689625461
 30
0.0
  0
POINT
  5
7F1B
  8
DEFPOINTS
  6
CONTINUOUS
 62
     0
 10
1802.1713142363119
 20
1113.6829689625461
 30
0.0
  0
ENDBLK
  5
7D78
  8
0
  0
BLOCK
  8
0
  2
*D17
 70
     1
 10
0.0
 20
0.0
 30
0.0
  3
*D17
  1

  0
LINE
  5
7F1C
  8
3
  6
CONTINUOUS
 62
     0
 10
979.48909300000014
 20
1213.6829689625461
 30
0.0
 11
1128.4944522708879
 21
1213.6829689625461
 31
0.0
  0
LINE
  5
7F1D
  8
3
  6
CONTINUOUS
 62
     0
 10
964.48909300000003
 20
1002.6829689625461
 30
0.0
 11
1128.4944522708879
 21
1002.6829689625461
 31
0.0
  0
LINE
  5
7F1E
  8
3
  6
CONTINUOUS
 62
     0
 10
1118.4944522708879
 20
1193.6829689625461
 30
0.0
 11
1118.4944522708879
 21
1022.6829689625461
 31
0.0
  0
INSERT
  5
7F1F
  8
3
  6
CONTINUOUS
 62
     0
  2
_OPEN
 10
1118.4944522708879
 20
1213.6829689625461
 30
0.0
 41
20.0
 42
20.0
 43
20.0
 50
90.0
  0
INSERT
  5
7F20
  8
3
  6
CONTINUOUS
 62
     0
  2
_OPEN
 10
1118.4944522708879
 20
1002.6829689625461
 30
0.0
 41
20.0
 42
20.0
 43
20.0
 50
270.0
  0
TEXT
  8
3
  40
30
  5
7F48
  62
0
  72
0
  71
0
 10
1033.49
 20
1061.20
 30
0.000000
  1
211
  0
POINT
  5
7F22
  8
DEFPOINTS
  6
CONTINUOUS
 62
     0
 10
974.48909300000003
 20
1213.6829689625461
 30
0.0
  0
POINT
  5
7F23
  8
DEFPOINTS
  6
CONTINUOUS
 62
     0
 10
959.48909300000003
 20
1002.6829689625461
 30
0.0
  0
POINT
  5
7F24
  8
DEFPOINTS
  6
CONTINUOUS
 62
     0
 10
1118.4944522708879
 20
1002.6829689625461
 30
0.0
  0
ENDBLK
  5
7CEA
  8
0
  0
BLOCK
  8
0
  2
*D18
 70
     1
 10
0.0
 20
0.0
 30
0.0
  3
*D18
  1

  0
LINE
  5
7F25
  8
3
 62
     0
 10
314.48909300000003
 20
2069.629196915354
 30
0.0
 11
246.44354934526589
 21
2069.629196915354
 31
0.0
  0
LINE
  5
7F26
  8
3
 62
     0
 10
314.48909300000003
 20
1845.6291969153531
 30
0.0
 11
246.44354934526589
 21
1845.6291969153531
 31
0.0
  0
LINE
  5
7F27
  8
3
 62
     0
 10
256.44354934526592
 20
2049.629196915354
 30
0.0
 11
256.44354934526592
 21
1865.6291969153531
 31
0.0
  0
INSERT
  5
7F28
  8
3
 62
     0
  2
_OPEN
 10
256.44354934526592
 20
2069.629196915354
 30
0.0
 41
20.0
 42
20.0
 43
20.0
 50
90.0
  0
INSERT
  5
7F29
  8
3
 62
     0
  2
_OPEN
 10
256.44354934526592
 20
1845.6291969153531
 30
0.0
 41
20.0
 42
20.0
 43
20.0
 50
270.0
  0
TEXT
  8
3
  40
30
  5
7F49
  62
0
  72
0
  71
0
 10
171.444
 20
1894.29
 30
0.000000
  1
224
  0
POINT
  5
7F2B
  8
DEFPOINTS
 62
     0
 10
319.48909300000003
 20
2069.629196915354
 30
0.0
  0
POINT
  5
7F2C
  8
DEFPOINTS
 62
     0
 10
319.48909300000003
 20
1845.6291969153531
 30
0.0
  0
POINT
  5
7F2D
  8
DEFPOINTS
 62
     0
 10
256.44354934526592
 20
1845.6291969153531
 30
0.0
  0
ENDBLK
  5
7D55
  8
0
  0
BLOCK
  8
0
  2
*D19
 70
     1
 10
0.0
 20
0.0
 30
0.0
  3
*D19
  1

  0
LINE
  5
7F2E
  8
3
 62
     0
 10
974.48909300000003
 20
1239.6829689625461
 30
0.0
 11
974.48909300000003
 21
1466.1639328807789
 31
0.0
  0
LINE
  5
7F2F
  8
3
 62
     0
 10
319.48909300000003
 20
921.6829689625464
 30
0.0
 11
319.48909300000008
 21
1466.1639328807789
 31
0.0
  0
LINE
  5
7F30
  8
3
 62
     0
 10
954.48909300000014
 20
1456.1639328807789
 30
0.0
 11
339.48909300000003
 21
1456.1639328807789
 31
0.0
  0
INSERT
  5
7F31
  8
3
 62
     0
  2
_OPEN
 10
974.48909300000003
 20
1456.1639328807789
 30
0.0
 41
20.0
 42
20.0
 43
20.0
  0
INSERT
  5
7F32
  8
3
 62
     0
  2
_OPEN
 10
319.48909300000008
 20
1456.1639328807789
 30
0.0
 41
20.0
 42
20.0
 43
20.0
 50
180.0
  0
TEXT
  8
3
  40
30
  5
7F4A
  62
0
  72
0
  71
0
 10
609.201
 20
1428.06
 30
0.000000
  1
655
  0
POINT
  5
7F34
  8
DEFPOINTS
 62
     0
 10
974.48909300000003
 20
1234.6829689625461
 30
0.0
  0
POINT
  5
7F35
  8
DEFPOINTS
 62
     0
 10
319.48909300000003
 20
916.68296896254651
 30
0.0
  0
POINT
  5
7F36
  8
DEFPOINTS
 62
     0
 10
319.48909300000008
 20
1456.1639328807789
 30
0.0
  0
ENDBLK
  5
7D84
  8
0
  0
ENDSEC
  0
SECTION
  2
ENTITIES
  0
LINE
  5
7A88
  8
1
  6
CONTINUOUS
 10
319.48909300000003
 20
891.68296896254651
 30
0.0
 11
999.48909300000003
 21
891.68296896254651
 31
0.0
  0
LINE
  5
7A89
  8
1
  6
CONTINUOUS
 10
319.48909300000003
 20
916.68296896254651
 30
0.0
 11
999.48909300000003
 21
916.68296896254651
 31
0.0
  0
ARC
  5
7A8A
  8
1
  6
CONTINUOUS
 10
830.48909300000003
 20
1197.6829689625461
 30
0.0
 40
195.0
 50
179.6999999999999
 51
270.0
  0
ARC
  5
7A8B
  8
1
  6
CONTINUOUS
 10
800.48909300000003
 20
1199.6829689625461
 30
0.0
 40
165.0
 50
89.400000000000006
 51
180.30000000000001
  0
LINE
  5
7A8C
  8
1
  6
CONTINUOUS
 10
391.48909300000003
 20
1323.6829689625461
 30
0.0
 11
921.48909300000014
 21
1323.6829689625461
 31
0.0
  0
LINE
  5
7A8D
  8
1
  6
CONTINUOUS
 10
344.48909300000003
 20
938.6829689625464
 30
0.0
 11
974.48909300000003
 21
938.6829689625464
 31
0.0
  0
LINE
  5
7A8E
  8
1
  6
CONTINUOUS
 10
344.48909300000003
 20
988.6829689625464
 30
0.0
 11
974.48909300000003
 21
988.6829689625464
 31
0.0
  0
LINE
  5
7A8F
  8
1
  6
CONTINUOUS
 10
526.18909299999984
 20
1056.8829689625461
 30
0.0
 11
831.38909299999989
 21
1166.6829689625461
 31
0.0
  0
LINE
  5
7A90
  8
1
  6
CONTINUOUS
 10
499.48909299999991
 20
1121.482968962546
 30
0.0
 11
793.28909299999998
 21
1258.982968962546
 31
0.0
  0
LINE
  5
7A91
  8
1
  6
CONTINUOUS
 10
391.48909300000003
 20
988.6829689625464
 30
0.0
 11
391.48909300000003
 21
1323.6829689625461
 31
0.0
  0
ARC
  5
7A92
  8
1
  6
CONTINUOUS
 10
509.889093
 20
1089.3829689625461
 30
0.0
 40
85.0
 50
324.69999999999987
 51
215.30000000000001
  0
LINE
  5
7A93
  8
1
  6
CONTINUOUS
 10
602.78909299999987
 20
1009.382968962546
 30
0.0
 11
351.78909299999998
 21
1009.382968962546
 31
0.0
  0
LINE
  5
7A94
  8
1
  6
CONTINUOUS
 10
319.48909300000003
 20
891.68296896254651
 30
0.0
 11
319.48909300000003
 21
916.68296896254651
 31
0.0
  0
LINE
  5
7A95
  8
1
  6
CONTINUOUS
 10
351.78909299999998
 20
1009.382968962546
 30
0.0
 11
351.78909299999998
 21
988.6829689625464
 31
0.0
  0
LINE
  5
7A96
  8
1
  6
CONTINUOUS
 10
344.48909300000003
 20
938.6829689625464
 30
0.0
 11
344.48909300000003
 21
988.6829689625464
 31
0.0
  0
LINE
  5
7A97
  8
1
  6
CONTINUOUS
 10
432.389093
 20
1009.382968962546
 30
0.0
 11
432.389093
 21
1017.382968962546
 31
0.0
  0
LINE
  5
7A98
  8
1
  6
CONTINUOUS
 10
432.389093
 20
1017.382968962546
 30
0.0
 11
440.58909299999999
 21
1040.1829689625461
 31
0.0
  0
LINE
  5
7A99
  8
2
  6
CENTER
 10
479.28909299999992
 20
1089.782968962546
 30
0.0
 11
549.28909299999987
 21
1089.782968962546
 31
0.0
  0
LINE
  5
7A9A
  8
2
  6
CENTER
 10
514.28909299999998
 20
1054.782968962546
 30
0.0
 11
514.28909299999998
 21
1124.782968962546
 31
0.0
  0
CIRCLE
  5
7A9B
  8
1
  6
CONTINUOUS
 10
514.28909299999998
 20
1089.782968962546
 30
0.0
 40
35.0
  0
LINE
  5
7A9C
  8
1
  6
CONTINUOUS
 10
587.38909299999989
 20
1017.382968962546
 30
0.0
 11
579.28909299999987
 21
1040.1829689625461
 31
0.0
  0
LINE
  5
7A9D
  8
1
  6
CONTINUOUS
 10
587.38909299999989
 20
1009.382968962546
 30
0.0
 11
587.38909299999989
 21
1017.382968962546
 31
0.0
  0
LINE
  5
7A9E
  8
1
  6
CONTINUOUS
 10
602.78909299999987
 20
988.6829689625464
 30
0.0
 11
602.78909299999987
 21
1009.382968962546
 31
0.0
  0
CIRCLE
  5
7A9F
  8
1
  6
CONTINUOUS
 10
814.48909300000003
 20
1213.6829689625461
 30
0.0
 40
100.0
  0
CIRCLE
  5
7AA0
  8
1
  6
CONTINUOUS
 10
814.48909300000003
 20
1213.6829689625461
 30
0.0
 40
120.0
  0
LINE
  5
7AA1
  8
1
  6
CONTINUOUS
 10
974.48909300000003
 20
992.68296896254651
 30
0.0
 11
974.48909300000003
 21
1234.6829689625461
 31
0.0
  0
LINE
  5
7AA2
  8
1
  6
CONTINUOUS
 10
679.48909300000003
 20
1267.3829689625461
 30
0.0
 11
679.48909300000003
 21
988.6829689625464
 31
0.0
  0
LINE
  5
7AA3
  8
1
  6
CONTINUOUS
 10
949.48909300000003
 20
988.6829689625464
 30
0.0
 11
949.48909300000003
 21
1267.3829689625461
 31
0.0
  0
LINE
  5
7AA4
  8
1
  6
CONTINUOUS
 10
959.48909300000003
 20
1213.6829689625461
 30
0.0
 11
959.48909300000003
 21
1223.6829689625461
 31
0.0
  0
LINE
  5
7AA5
  8
1
  6
CONTINUOUS
 10
921.48909300000014
 20
988.6829689625464
 30
0.0
 11
921.48909300000014
 21
1323.6829689625461
 31
0.0
  0
CIRCLE
  5
7AA6
  8
1
  6
CONTINUOUS
 10
814.48909300000003
 20
1213.6829689625461
 30
0.0
 40
50.0
  0
LINE
  5
7AA7
  8
2
  6
CENTER
 10
814.48909300000003
 20
872.03506496254636
 30
0.0
 11
814.48909300000003
 21
1378.6117739625461
 31
0.0
  0
LINE
  5
7AA8
  8
1
  6
CONTINUOUS
 10
959.48909300000003
 20
1002.6829689625461
 30
0.0
 11
830.48909300000003
 21
1002.6829689625461
 31
0.0
  0
LINE
  5
7AA9
  8
2
  6
CENTER
 10
564.08212999999989
 20
1213.6829689625461
 30
0.0
 11
1005.059061999999
 21
1213.6829689625461
 31
0.0
  0
LINE
  5
7AAA
  8
1
  6
CONTINUOUS
 10
999.48909300000003
 20
891.68296896254651
 30
0.0
 11
999.48909300000003
 21
916.68296896254651
 31
0.0
  0
LINE
  5
7AAB
  8
1
  6
CONTINUOUS
 10
974.48909300000003
 20
1213.6829689625461
 30
0.0
 11
959.48909300000003
 21
1213.6829689625461
 31
0.0
  0
LINE
  5
7AAC
  8
1
  6
CONTINUOUS
 10
974.48909300000003
 20
1012.6829689625461
 30
0.0
 11
959.48909300000003
 21
1027.6829689625461
 31
0.0
  0
LINE
  5
7AAD
  8
1
  6
CONTINUOUS
 10
959.48909300000003
 20
1027.6829689625461
 30
0.0
 11
959.48909300000003
 21
1199.6829689625461
 31
0.0
  0
LINE
  5
7AAE
  8
1
  6
CONTINUOUS
 10
974.48909300000003
 20
1214.6829689625461
 30
0.0
 11
959.48909300000003
 21
1199.6829689625461
 31
0.0
  0
LINE
  5
7AAF
  8
1
  6
CONTINUOUS
 10
974.48909300000003
 20
1013.6829689625461
 30
0.0
 11
959.48909300000003
 21
1013.6829689625461
 31
0.0
  0
LINE
  5
7AB0
  8
1
  6
CONTINUOUS
 10
959.48909300000003
 20
1002.6829689625461
 30
0.0
 11
959.48909300000003
 21
1013.6829689625461
 31
0.0
  0
LINE
  5
7AB1
  8
1
  6
CONTINUOUS
 10
974.48909300000003
 20
938.6829689625464
 30
0.0
 11
974.48909300000003
 21
988.6829689625464
 31
0.0
  0
ARC
  5
7AB2
  8
1
  6
CONTINUOUS
 10
803.48909299999991
 20
1224.6829689625461
 30
0.0
 40
140.0
 50
359.60000000000002
 51
90.599999999999994
  0
LINE
  5
7AB3
  8
1
  6
CONTINUOUS
 10
679.48909300000003
 20
1246.982968962546
 30
0.0
 11
949.48909300000003
 21
1246.982968962546
 31
0.0
  0
LINE
  5
7AB4
  8
1
  6
CONTINUOUS
 10
866.08909299999982
 20
1338.6829689625461
 30
0.0
 11
949.48909300000003
 21
1267.3829689625461
 31
0.0
  0
LINE
  5
7AB5
  8
1
  6
CONTINUOUS
 10
866.08909299999982
 20
1338.6829689625461
 30
0.0
 11
762.88909299999989
 21
1338.6829689625461
 31
0.0
  0
LINE
  5
7AB6
  8
1
  6
CONTINUOUS
 10
762.88909299999989
 20
1338.6829689625461
 30
0.0
 11
679.48909300000003
 21
1267.3829689625461
 31
0.0
  0
LINE
  5
7AB7
  8
1
  6
CONTINUOUS
 10
959.48909300000003
 20
1223.6829689625461
 30
0.0
 11
943.48909299999991
 21
1223.6829689625461
 31
0.0
  0
LINE
  5
7AB9
  8
1
  6
CONTINUOUS
 10
1439.8549132363121
 20
891.68296896254651
 30
0.0
 11
1663.854913236313
 21
891.68296896254651
 31
0.0
  0
LINE
  5
7ABA
  8
1
  6
CONTINUOUS
 10
1439.8549132363121
 20
916.68296896254651
 30
0.0
 11
1663.854913236313
 21
916.68296896254651
 31
0.0
  0
LINE
  5
7ABB
  8
1
  6
CONTINUOUS
 10
1463.8549132363121
 20
1180.3829689625461
 30
0.0
 11
1575.8549132363121
 21
1267.3829689625461
 31
0.0
  0
LINE
  5
7ABC
  8
1
  6
CONTINUOUS
 10
1353.8549132363121
 20
988.6829689625464
 30
0.0
 11
1663.854913236313
 21
988.6829689625464
 31
0.0
  0
LINE
  5
7ABD
  8
1
  6
CONTINUOUS
 10
1439.8549132363121
 20
938.6829689625464
 30
0.0
 11
1663.854913236313
 21
938.6829689625464
 31
0.0
  0
LINE
  5
7ABE
  8
1
  6
CONTINUOUS
 10
1406.3549132363121
 20
1263.6829689625461
 30
0.0
 11
1406.3549132363121
 21
1163.6829689625461
 31
0.0
  0
LINE
  5
7ABF
  8
1
  6
CONTINUOUS
 10
1376.3549132363121
 20
1263.6829689625461
 30
0.0
 11
1376.3549132363121
 21
1163.6829689625461
 31
0.0
  0
LINE
  5
7AC0
  8
1
  6
CONTINUOUS
 10
1428.8549132363121
 20
1323.6829689625461
 30
0.0
 11
1428.8549132363121
 21
988.6829689625464
 31
0.0
  0
LINE
  5
7AC1
  8
1
  6
CONTINUOUS
 10
1353.8549132363121
 20
1323.6829689625461
 30
0.0
 11
1353.8549132363121
 21
988.6829689625464
 31
0.0
  0
LINE
  5
7AC5
  8
1
  6
CONTINUOUS
 10
1439.8549132363121
 20
916.68296896254651
 30
0.0
 11
1439.8549132363121
 21
891.68296896254651
 31
0.0
  0
LINE
  5
7AC6
  8
1
  6
CONTINUOUS
 10
1406.3549132363121
 20
1201.6829689625461
 30
0.0
 11
1491.2549132363119
 21
1201.6829689625461
 31
0.0
  0
LINE
  5
7AC7
  8
1
  6
CONTINUOUS
 10
1406.3549132363121
 20
1077.782968962546
 30
0.0
 11
1463.8549132363121
 21
1077.782968962546
 31
0.0
  0
LINE
  5
7AC8
  8
1
  6
CONTINUOUS
 10
1406.3549132363121
 20
1101.782968962546
 30
0.0
 11
1463.8549132363121
 21
1101.782968962546
 31
0.0
  0
LINE
  5
7AC9
  8
1
  6
CONTINUOUS
 10
1376.3549132363121
 20
1054.782968962546
 30
0.0
 11
1406.3549132363121
 21
1054.782968962546
 31
0.0
  0
LINE
  5
7ACA
  8
1
  6
CONTINUOUS
 10
1376.3549132363121
 20
1124.782968962546
 30
0.0
 11
1406.3549132363121
 21
1124.782968962546
 31
0.0
  0
LINE
  5
7ACB
  8
1
  6
CONTINUOUS
 10
1406.3549132363121
 20
1124.782968962546
 30
0.0
 11
1406.3549132363121
 21
1054.782968962546
 31
0.0
  0
LINE
  5
7ACC
  8
1
  6
CONTINUOUS
 10
1376.3549132363121
 20
1124.782968962546
 30
0.0
 11
1376.3549132363121
 21
1054.782968962546
 31
0.0
  0
LINE
  5
7ACD
  8
1
  6
CONTINUOUS
 10
1376.3549132363121
 20
1163.6829689625461
 30
0.0
 11
1406.3549132363121
 21
1163.6829689625461
 31
0.0
  0
LINE
  5
7ACE
  8
1
  6
CONTINUOUS
 10
1463.8549132363121
 20
1180.3829689625461
 30
0.0
 11
1463.8549132363121
 21
988.6829689625464
 31
0.0
  0
LINE
  5
7ACF
  8
1
  6
CONTINUOUS
 10
1439.8549132363121
 20
988.6829689625464
 30
0.0
 11
1439.8549132363121
 21
938.6829689625464
 31
0.0
  0
LINE
  5
7AD0
  8
1
  6
CONTINUOUS
 10
1406.3549132363121
 20
1225.6829689625461
 30
0.0
 11
1522.154913236312
 21
1225.6829689625461
 31
0.0
  0
LINE
  5
7AD1
  8
1
  6
CONTINUOUS
 10
1376.3549132363121
 20
1263.6829689625461
 30
0.0
 11
1406.3549132363121
 21
1263.6829689625461
 31
0.0
  0
LINE
  5
7AD2
  8
1
  6
CONTINUOUS
 10
1353.8549132363121
 20
1323.6829689625461
 30
0.0
 11
1428.8549132363121
 21
1323.6829689625461
 31
0.0
  0
LINE
  5
7AD3
  8
1
  6
CONTINUOUS
 10
1731.854913236313
 20
1093.6829689625461
 30
0.0
 11
1731.854913236313
 21
1333.6829689625461
 31
0.0
  0
LINE
  5
7AD4
  8
1
  6
CONTINUOUS
 10
1723.854913236313
 20
1352.6829689625461
 30
0.0
 11
1723.854913236313
 21
1013.6829689625461
 31
0.0
  0
LINE
  5
7AD5
  8
1
  6
CONTINUOUS
 10
1583.8549132363121
 20
1013.6829689625461
 30
0.0
 11
1583.8549132363121
 21
1352.6829689625461
 31
0.0
  0
LINE
  5
7AD6
  8
1
  6
CONTINUOUS
 10
1576.0549132363119
 20
988.6829689625464
 30
0.0
 11
1576.0549132363119
 21
1333.6829689625461
 31
0.0
  0
LINE
  5
7AD7
  8
1
  6
CONTINUOUS
 10
1663.854913236313
 20
916.68296896254651
 30
0.0
 11
1663.854913236313
 21
891.68296896254651
 31
0.0
  0
LINE
  5
7AD8
  8
1
  6
CONTINUOUS
 10
1583.8549132363121
 20
1213.6829689625461
 30
0.0
 11
1723.854913236313
 21
1213.6829689625461
 31
0.0
  0
LINE
  5
7AD9
  8
1
  6
CONTINUOUS
 10
1723.854913236313
 20
1013.6829689625461
 30
0.0
 11
1583.8549132363121
 21
1013.6829689625461
 31
0.0
  0
LINE
  5
7ADA
  8
1
  6
CONTINUOUS
 10
1583.8549132363121
 20
1013.6829689625461
 30
0.0
 11
1723.854913236313
 21
1213.6829689625461
 31
0.0
  0
LINE
  5
7ADB
  8
1
  6
CONTINUOUS
 10
1723.854913236313
 20
1013.6829689625461
 30
0.0
 11
1583.8549132363121
 21
1213.6829689625461
 31
0.0
  0
LINE
  5
7ADC
  8
1
  6
CONTINUOUS
 10
1584.0549132363119
 20
1093.6829689625461
 30
0.0
 11
1576.0549132363119
 21
1093.6829689625461
 31
0.0
  0
LINE
  5
7ADD
  8
1
  6
CONTINUOUS
 10
1723.654913236313
 20
1093.6829689625461
 30
0.0
 11
1731.854913236313
 21
1093.6829689625461
 31
0.0
  0
LINE
  5
7ADE
  8
1
  6
CONTINUOUS
 10
1663.854913236313
 20
988.6829689625464
 30
0.0
 11
1663.854913236313
 21
938.6829689625464
 31
0.0
  0
LINE
  5
7ADF
  8
1
  6
CONTINUOUS
 10
1595.854913236313
 20
1364.6829689625461
 30
0.0
 11
1711.854913236313
 21
1364.6829689625461
 31
0.0
  0
LINE
  5
7AE0
  8
1
  6
CONTINUOUS
 10
1584.0549132363119
 20
1333.6829689625461
 30
0.0
 11
1576.0549132363119
 21
1333.6829689625461
 31
0.0
  0
ARC
  5
7AE1
  8
1
  6
CONTINUOUS
 10
1595.854913236313
 20
1352.6829689625461
 30
0.0
 40
12.0
 50
90.0
 51
180.0
  0
LINE
  5
7AE2
  8
1
  6
CONTINUOUS
 10
1723.654913236313
 20
1333.6829689625461
 30
0.0
 11
1731.854913236313
 21
1333.6829689625461
 31
0.0
  0
ARC
  5
7AE3
  8
1
  6
CONTINUOUS
 10
1711.854913236313
 20
1352.6829689625461
 30
0.0
 40
12.0
 50
0.0
 51
90.0
  0
LINE
  5
7AE4
  8
1
  6
CONTINUOUS
 10
974.48909300000003
 20
1989.629196915354
 30
0.0
 11
645.48909300000003
 21
1989.629196915354
 31
0.0
  0
LINE
  5
7AE5
  8
1
  6
CONTINUOUS
 10
974.48909300000003
 20
2129.629196915354
 30
0.0
 11
645.48909300000003
 21
2129.629196915354
 31
0.0
  0
LINE
  5
7AE6
  8
1
  6
CONTINUOUS
 10
921.48909300000014
 20
1834.629196915354
 30
0.0
 11
391.48909300000003
 21
1834.629196915354
 31
0.0
  0
LINE
  5
7AE7
  8
1
  6
CONTINUOUS
 10
921.48909300000014
 20
1759.629196915354
 30
0.0
 11
391.48909300000003
 21
1759.629196915354
 31
0.0
  0
LINE
  5
7AE8
  8
1
  6
CONTINUOUS
 10
802.48909299999991
 20
1845.6291969153531
 30
0.0
 11
526.28909299999998
 21
1845.6291969153531
 31
0.0
  0
LINE
  5
7AE9
  8
1
  6
CONTINUOUS
 10
635.48909300000003
 20
2069.629196915354
 30
0.0
 11
319.48909300000003
 21
2069.629196915354
 31
0.0
  0
LINE
  5
7AEA
  8
1
  6
CONTINUOUS
 10
594.889093
 20
1864.829196915354
 30
0.0
 11
424.88909299999989
 21
1864.829196915354
 31
0.0
  0
LINE
  5
7AEB
  8
1
  6
CONTINUOUS
 10
594.889093
 20
2055.7291969153539
 30
0.0
 11
424.88909299999989
 21
2055.7291969153539
 31
0.0
  0
LINE
  5
7AEC
  8
1
  6
CONTINUOUS
 10
502.28909299999992
 20
1845.6291969153531
 30
0.0
 11
319.48909300000003
 21
1845.6291969153531
 31
0.0
  0
LINE
  5
7AED
  8
1
  6
CONTINUOUS
 10
391.48909300000003
 20
1759.629196915354
 30
0.0
 11
391.48909300000003
 21
1834.629196915354
 31
0.0
  0
LINE
  5
7AEE
  8
1
  6
CONTINUOUS
 10
319.48909300000003
 20
1845.6291969153531
 30
0.0
 11
319.48909300000003
 21
2069.629196915354
 31
0.0
  0
LINE
  5
7AEF
  8
1
  6
CONTINUOUS
 10
424.88909299999989
 20
1864.829196915354
 30
0.0
 11
424.88909299999989
 21
2055.7291969153539
 31
0.0
  0
LINE
  5
7AF0
  8
1
  6
CONTINUOUS
 10
526.28909299999998
 20
1812.1291969153531
 30
0.0
 11
526.28909299999998
 21
1864.829196915354
 31
0.0
  0
LINE
  5
7AF1
  8
1
  6
CONTINUOUS
 10
502.28909299999992
 20
1812.1291969153531
 30
0.0
 11
502.28909299999992
 21
1864.829196915354
 31
0.0
  0
LINE
  5
7AF2
  8
1
  6
CONTINUOUS
 10
479.28909299999992
 20
1782.129196915354
 30
0.0
 11
549.28909299999987
 21
1782.129196915354
 31
0.0
  0
LINE
  5
7AF3
  8
1
  6
CONTINUOUS
 10
479.28909299999992
 20
1812.1291969153531
 30
0.0
 11
549.28909299999987
 21
1812.1291969153531
 31
0.0
  0
LINE
  5
7AF4
  8
1
  6
CONTINUOUS
 10
549.28909299999987
 20
1782.129196915354
 30
0.0
 11
549.28909299999987
 21
1812.1291969153531
 31
0.0
  0
LINE
  5
7AF5
  8
1
  6
CONTINUOUS
 10
479.28909299999992
 20
1782.129196915354
 30
0.0
 11
479.28909299999992
 21
1812.1291969153531
 31
0.0
  0
LINE
  5
7AF6
  8
1
  6
CONTINUOUS
 10
635.48909300000003
 20
2119.629196915354
 30
0.0
 11
635.48909300000003
 21
1999.6291969153531
 31
0.0
  0
ARC
  5
7AF7
  8
1
  6
CONTINUOUS
 10
645.48909300000003
 20
2119.629196915354
 30
0.0
 40
10.0
 50
90.0
 51
180.0
  0
ARC
  5
7AF8
  8
1
  6
CONTINUOUS
 10
645.48909300000003
 20
1999.6291969153531
 30
0.0
 40
10.0
 50
180.0
 51
270.0
  0
LINE
  5
7AF9
  8
1
  6
CONTINUOUS
 10
594.889093
 20
1864.829196915354
 30
0.0
 11
594.889093
 21
2055.7291969153539
 31
0.0
  0
LINE
  5
7AFA
  8
1
  6
CONTINUOUS
 10
974.48909300000003
 20
2150.629196915354
 30
0.0
 11
974.48909300000003
 21
1968.629196915354
 31
0.0
  0
LINE
  5
7AFB
  8
1
  6
CONTINUOUS
 10
934.48909300000003
 20
2137.629196915354
 30
0.0
 11
694.48909300000003
 21
2137.629196915354
 31
0.0
  0
LINE
  5
7AFC
  8
1
  6
CONTINUOUS
 10
934.48909300000003
 20
1981.629196915354
 30
0.0
 11
694.48909300000003
 21
1981.629196915354
 31
0.0
  0
LINE
  5
7AFD
  8
1
  6
CONTINUOUS
 10
999.48909300000003
 20
1845.6291969153531
 30
0.0
 11
826.48909299999991
 21
1845.6291969153531
 31
0.0
  0
LINE
  5
7AFE
  8
1
  6
CONTINUOUS
 10
802.48909299999991
 20
1981.629196915354
 30
0.0
 11
802.48909299999991
 21
1812.1291969153531
 31
0.0
  0
LINE
  5
7AFF
  8
1
  6
CONTINUOUS
 10
826.48909299999991
 20
1981.629196915354
 30
0.0
 11
826.48909299999991
 21
1812.1291969153531
 31
0.0
  0
LINE
  5
7B00
  8
1
  6
CONTINUOUS
 10
764.48909300000003
 20
1812.1291969153531
 30
0.0
 11
864.48909300000003
 21
1812.1291969153531
 31
0.0
  0
LINE
  5
7B01
  8
1
  6
CONTINUOUS
 10
764.48909300000003
 20
1782.129196915354
 30
0.0
 11
864.48909300000003
 21
1782.129196915354
 31
0.0
  0
LINE
  5
7B02
  8
1
  6
CONTINUOUS
 10
764.48909300000003
 20
1782.129196915354
 30
0.0
 11
764.48909300000003
 21
1812.1291969153531
 31
0.0
  0
LINE
  5
7B03
  8
1
  6
CONTINUOUS
 10
864.48909300000003
 20
1782.129196915354
 30
0.0
 11
864.48909300000003
 21
1812.1291969153531
 31
0.0
  0
LINE
  5
7B04
  8
1
  6
CONTINUOUS
 10
694.48909300000003
 20
2129.629196915354
 30
0.0
 11
694.48909300000003
 21
2137.629196915354
 31
0.0
  0
LINE
  5
7B05
  8
1
  6
CONTINUOUS
 10
694.48909300000003
 20
1989.629196915354
 30
0.0
 11
694.48909300000003
 21
1981.629196915354
 31
0.0
  0
LINE
  5
7B06
  8
1
  6
CONTINUOUS
 10
921.48909300000014
 20
1759.629196915354
 30
0.0
 11
921.48909300000014
 21
1834.629196915354
 31
0.0
  0
LINE
  5
7B07
  8
1
  6
CONTINUOUS
 10
999.48909300000003
 20
2069.629196915354
 30
0.0
 11
974.48909300000003
 21
2069.629196915354
 31
0.0
  0
LINE
  5
7B08
  8
1
  6
CONTINUOUS
 10
934.48909300000003
 20
2129.629196915354
 30
0.0
 11
934.48909300000003
 21
2137.629196915354
 31
0.0
  0
LINE
  5
7B09
  8
1
  6
CONTINUOUS
 10
974.48909300000003
 20
2130.629196915354
 30
0.0
 11
959.48909300000003
 21
2115.629196915354
 31
0.0
  0
LINE
  5
7B0A
  8
1
  6
CONTINUOUS
 10
959.48909300000003
 20
2115.629196915354
 30
0.0
 11
959.48909300000003
 21
2003.629196915354
 31
0.0
  0
LINE
  5
7B0B
  8
1
  6
CONTINUOUS
 10
974.48909300000003
 20
1988.6291969153531
 30
0.0
 11
959.48909300000003
 21
2003.629196915354
 31
0.0
  0
LINE
  5
7B0C
  8
1
  6
CONTINUOUS
 10
934.48909300000003
 20
1989.629196915354
 30
0.0
 11
934.48909300000003
 21
1981.629196915354
 31
0.0
  0
LINE
  5
7B0D
  8
1
  6
CONTINUOUS
 10
999.48909300000003
 20
1845.6291969153531
 30
0.0
 11
999.48909300000003
 21
2069.629196915354
 31
0.0
  0
LINE
  5
7B0E
  8
4
  6
CONTINUOUS
 10
1850.0
 20
500.0
 30
0.0
 11
1850.0
 21
300.0
 31
0.0
  0
LINE
  5
7B0F
  8
4
  6
CONTINUOUS
 10
1150.0
 20
500.0
 30
0.0
 11
1150.0
 21
300.0
 31
0.0
  0
LINE
  5
7B10
  8
4
  6
CONTINUOUS
 10
650.0
 20
500.0
 30
0.0
 11
650.0
 21
300.0
 31
0.0
  0
LINE
  5
7B13
  8
4
  6
CONTINUOUS
 10
650.0
 20
300.0
 30
0.0
 11
1850.0
 21
300.0
 31
0.0
  0
LINE
  5
7B14
  8
4
  6
CONTINUOUS
 10
650.0
 20
400.0
 30
0.0
 11
1850.0
 21
400.0
 31
0.0
  0
TEXT
  5
7B15
  8
4
  6
CONTINUOUS
 10
688.50208099999998
 20
431.543026
 30
0.0
 40
50.0
  1
機器名称
  0
TEXT
  5
7B16
  8
4
  6
CONTINUOUS
 10
686.258106
 20
321.64515699999993
 30
0.0
 40
50.0
  1
機器型番
  0
TEXT
  5
7B17
  8
4
  6
CONTINUOUS
 10
1177.678744999999
 20
422.57176900000002
 30
0.0
 40
45.0
  1
ミツヤニューマルチファン
  0
TEXT
  5
7B18
  8
4
  6
CONTINUOUS
 10
1186.6544960000001
 20
317.159584
 30
0.0
 40
50.0
  1
NM#1 1/4-1
  0
TEXT
  5
7B1A
  8
4
  6
CONTINUOUS
 10
742.06175300000007
 20
2383.4288409999999
 30
0.0
 40
54.0
  1
床置防振ベット
  0
TEXT
  5
7B1B
  8
4
  6
CONTINUOUS
 10
316.16759300000001
 20
2533.8809759999999
 30
0.0
 40
72.0
  1
ベルト駆動式片吸込片持多翼ファン
  0
LINE
  5
7B1C
  8
4
  6
CONTINUOUS
 10
250.0
 20
2469.408754
 30
0.0
 11
1850.0
 21
2469.408754
 31
0.0
  0
LINE
  5
7B1D
  8
4
  6
CONTINUOUS
 10
250.0
 20
2669.408754
 30
0.0
 11
1850.0
 21
2669.408754
 31
0.0
  0
LINE
  5
7B1E
  8
4
  6
CONTINUOUS
 10
650.0
 20
500.0
 30
0.0
 11
1850.0
 21
500.0
 31
0.0
  0
LINE
  5
7B1F
  8
4
  6
CONTINUOUS
 10
250.0
 20
2669.408754
 30
0.0
 11
250.0
 21
2469.408754
 31
0.0
  0
TEXT
  5
7B20
  8
4
  6
CONTINUOUS
 10
306.20292099999989
 20
2382.3194779999999
 30
0.0
 40
54.0
  1
左回転右横向
  0
TEXT
  5
7B21
  8
4
  6
CONTINUOUS
 10
1468.9695589999999
 20
2706.0610809999998
 30
0.0
 40
56.0
  1
No.
  0
TEXT
  5
7B22
  8
4
  6
CONTINUOUS
 10
1311.296063
 20
2383.4288409999999
 30
0.0
 40
54.0
  1
縮尺：1/10
  0
LINE
  5
7B23
  8
4
  6
CONTINUOUS
 10
1850.0
 20
2669.408754
 30
0.0
 11
1850.0
 21
2469.408754
 31
0.0
  0
LINE
  5
7B25
  8
4
  6
CONTINUOUS
 10
1440.617422
 20
2681.2635829999999
 30
0.0
 11
1440.617422
 21
2786.6522620000001
 31
0.0
  0
LINE
  5
7B26
  8
4
  6
CONTINUOUS
 10
1440.617422
 20
2786.6522620000001
 30
0.0
 11
1850.0
 21
2786.6522620000001
 31
0.0
  0
LINE
  5
7B27
  8
4
  6
CONTINUOUS
 10
1850.0
 20
2786.6522620000001
 30
0.0
 11
1850.0
 21
2681.2635829999999
 31
0.0
  0
LINE
  5
7B28
  8
4
  6
CONTINUOUS
 10
1850.0
 20
2681.2635829999999
 30
0.0
 11
1440.617422
 21
2681.2635829999999
 31
0.0
  0
DIMENSION
  5
7B40
  8
3
  6
CONTINUOUS
  2
*D1
 10
814.48909300000003
 20
806.0461239625464
 30
0.0
 11
579.55334800000003
 21
806.0461239625464
 31
0.0
 70
   128
 13
319.48909300000003
 23
891.68296896254651
 33
0.0
 14
814.48909300000003
 24
891.68296896254651
 34
0.0
1001
ACAD
1000
DSTYLE
1002
{
1070
   287
1070
     3
1070
   287
1070
     3
1070
    40
1040
10.0
1070
   143
1040
0.039
1070
   172
1070
     1
1070
   271
1070
     0
1070
   279
1070
     0
1070
   288
1070
     1
1002
}
  0
DIMENSION
  5
7B4C
  8
3
  6
CONTINUOUS
  2
*D2
 10
999.48909300000003
 20
806.0461239625464
 30
0.0
 11
906.98909299999991
 21
831.0461239625464
 31
0.0
 70
     0
 13
814.48909300000003
 23
891.68296896254651
 33
0.0
 14
999.48909300000003
 24
891.68296896254651
 34
0.0
1001
ACAD
1000
DSTYLE
1002
{
1070
   287
1070
     4
1070
   287
1070
     4
1070
    40
1040
10.0
1070
    75
1070
     1
1070
   143
1040
0.039
1070
   172
1070
     1
1070
   271
1070
     0
1070
   279
1070
     1
1070
   288
1070
     1
1002
}
  0
DIMENSION
  5
7B59
  8
3
  6
CONTINUOUS
  2
*D3
 10
814.48909300000003
 20
1392.3869579625459
 30
0.0
 11
727.04704800000002
 21
1392.3869579625459
 31
0.0
 70
   128
 13
635.48909300000003
 23
1213.6829689625461
 33
0.0
 14
814.48909300000003
 24
1364.250156962546
 34
0.0
1001
ACAD
1000
DSTYLE
1002
{
1070
   287
1070
     3
1070
   287
1070
     3
1070
    40
1040
10.0
1070
   143
1040
0.039
1070
   172
1070
     1
1070
   271
1070
     0
1070
   279
1070
     0
1070
   288
1070
     1
1002
}
  0
DIMENSION
  5
7B65
  8
3
  6
CONTINUOUS
  2
*D4
 10
974.48909300000003
 20
1392.3869579625459
 30
0.0
 11
894.48909299999991
 21
1417.3869579625459
 31
0.0
 70
     0
 13
814.48909300000003
 23
1364.250156962546
 33
0.0
 14
974.48909300000003
 24
1234.6829689625461
 34
0.0
1001
ACAD
1000
DSTYLE
1002
{
1070
   287
1070
     4
1070
   287
1070
     4
1070
    40
1040
10.0
1070
    75
1070
     1
1070
   143
1040
0.039
1070
   172
1070
     1
1070
   271
1070
     0
1070
   279
1070
     1
1070
   288
1070
     1
1002
}
  0
DIMENSION
  5
7B72
  8
3
  6
CONTINUOUS
  2
*D5
 10
1052.35292
 20
1013.6829689625461
 30
0.0
 11
1052.3529199999989
 21
1119.8559699625459
 31
0.0
 70
   128
 13
974.48909300000003
 23
1213.6829689625461
 33
0.0
 14
974.48909300000003
 24
1013.6829689625461
 34
0.0
 50
90.0
1001
ACAD
1000
DSTYLE
1002
{
1070
   287
1070
     3
1070
   287
1070
     3
1070
    40
1040
10.0
1070
   143
1040
0.039
1070
   172
1070
     1
1070
   271
1070
     0
1070
   279
1070
     0
1070
   288
1070
     1
1002
}
  0
DIMENSION
  5
7B7F
  8
3
  6
CONTINUOUS
  2
*D6
 10
1174.612796034623
 20
1213.6829689625461
 30
0.0
 11
1174.612796034623
 21
1284.9235629625459
 31
0.0
 70
   128
 13
814.48909300000003
 23
1364.250156962546
 33
0.0
 14
974.48909300000003
 24
1213.6829689625461
 34
0.0
 50
90.0
1001
ACAD
1000
DSTYLE
1002
{
1070
   287
1070
     3
1070
   287
1070
     3
1070
    40
1040
10.0
1070
   143
1040
0.039
1070
   172
1070
     1
1070
   271
1070
     0
1070
   279
1070
     0
1070
   288
1070
     1
1002
}
  0
DIMENSION
  5
7B8B
  8
3
  6
CONTINUOUS
  2
*D7
 10
1174.612796034623
 20
938.6829689625464
 30
0.0
 11
1149.612796034623
 21
1076.1829689625461
 31
0.0
 70
     0
 13
974.48909300000003
 23
1213.6829689625461
 33
0.0
 14
974.48909300000003
 24
938.6829689625464
 34
0.0
 50
90.0
1001
ACAD
1000
DSTYLE
1002
{
1070
   287
1070
     4
1070
   287
1070
     4
1070
    40
1040
10.0
1070
    75
1070
     1
1070
   143
1040
0.039
1070
   172
1070
     1
1070
   271
1070
     0
1070
   279
1070
     1
1070
   288
1070
     1
1002
}
  0
DIMENSION
  5
7B9B
  8
3
  6
CONTINUOUS
  2
*D8
 10
1176.495593034623
 20
891.68296896254651
 30
0.0
 11
1176.495593034623
 21
817.39725467683229
 31
0.0
 70
   128
 13
974.48909300000003
 23
938.6829689625464
 33
0.0
 14
999.48909300000003
 24
891.68296896254651
 34
0.0
 50
90.0
1001
ACAD
1000
DSTYLE
1002
{
1070
   287
1070
     3
1070
   287
1070
     3
1070
    40
1040
10.0
1070
   143
1040
0.039
1070
   172
1070
     1
1070
   271
1070
     0
1070
   279
1070
     0
1070
   288
1070
     1
1002
}
  0
DIMENSION
  5
7BC2
  8
3
  6
CONTINUOUS
  2
*D9
 10
1230.538800305513
 20
891.68296896254651
 30
0.0
 11
1230.538800305513
 21
1119.4029979625459
 31
0.0
 70
   128
 13
814.48909300000003
 23
1364.250156962546
 33
0.0
 14
999.48909300000003
 24
891.68296896254651
 34
0.0
 50
90.0
1001
ACAD
1000
DSTYLE
1002
{
1070
   287
1070
     3
1070
   287
1070
     3
1070
    40
1040
10.0
1070
   143
1040
0.039
1070
   172
1070
     1
1070
   271
1070
     0
1070
   279
1070
     0
1070
   288
1070
     1
1002
}
  0
LINE
  5
7BC3
  8
2
  6
CENTER
 10
1299.635264507202
 20
1213.6829689625461
 30
0.0
 11
1741.747701236312
 21
1213.6829689625461
 31
0.0
  0
DIMENSION
  5
7BD0
  8
3
  6
CONTINUOUS
  2
*D10
 10
999.48909300000003
 20
1646.9044649153529
 30
0.0
 11
648.45884999999998
 21
1646.9044649153529
 31
0.0
 70
   128
 13
319.48909300000003
 23
1845.6291969153531
 33
0.0
 14
999.48909300000003
 24
1845.6291969153531
 34
0.0
1001
ACAD
1000
DSTYLE
1002
{
1070
   287
1070
     3
1070
   287
1070
     3
1070
    40
1040
10.0
1070
   143
1040
0.039
1070
   172
1070
     1
1070
   271
1070
     0
1070
   279
1070
     0
1070
   288
1070
     1
1002
}
  0
LINE
  5
7BDE
  8
2
  6
CENTER
 10
601.59877599999993
 20
2059.6291969153531
 30
0.0
 11
996.77590299999986
 21
2059.6291969153531
 31
0.0
  0
LINE
  5
7BE0
  8
2
  6
CENTER
 10
814.48909300000003
 20
1737.9547479153539
 30
0.0
 11
814.48909300000003
 21
2163.2995209153542
 31
0.0
  0
LINE
  5
7BE1
  8
2
  6
CENTER
 10
1653.854913236313
 20
1407.861296962546
 30
0.0
 11
1653.854913236313
 21
854.41688496254653
 31
0.0
  0
DIMENSION
  5
7BEE
  8
3
  6
CONTINUOUS
  2
*D11
 10
1723.854913236313
 20
1403.644207962546
 30
0.0
 11
1649.569199236312
 21
1403.644207962546
 31
0.0
 70
   128
 13
1583.8549132363121
 23
1352.6829689625461
 33
0.0
 14
1723.854913236313
 24
1352.6829689625461
 34
0.0
1001
ACAD
1000
DSTYLE
1002
{
1070
   287
1070
     3
1070
   287
1070
     3
1070
    40
1040
10.0
1070
   143
1040
0.039
1070
   172
1070
     1
1070
   271
1070
     0
1070
   279
1070
     0
1070
   288
1070
     1
1002
}
  0
DIMENSION
  5
7BFB
  8
3
  6
CONTINUOUS
  2
*D12
 10
1653.854913236313
 20
1456.309841962546
 30
0.0
 11
1509.1833822363119
 21
1456.309841962546
 31
0.0
 70
   128
  1
MAX\P300
 13
1353.8549132363121
 23
1323.6829689625461
 33
0.0
 14
1653.854913236313
 24
1448.853887962546
 34
0.0
1001
ACAD
1000
DSTYLE
1002
{
1070
   287
1070
     3
1070
   287
1070
     3
1070
    40
1040
10.0
1070
   143
1040
0.039
1070
   172
1070
     1
1070
   271
1070
     0
1070
   279
1070
     0
1070
   288
1070
     1
1002
}
  0
DIMENSION
  5
7C09
  8
3
  6
CONTINUOUS
  2
*D13
 10
1731.854913236313
 20
1456.309841962546
 30
0.0
 11
1693.6972892363131
 21
1456.309841962546
 31
0.0
 70
   128
 13
1653.854913236313
 23
1448.853887962546
 33
0.0
 14
1731.854913236313
 24
1333.6829689625461
 34
0.0
1001
ACAD
1000
DSTYLE
1002
{
1070
   287
1070
     4
1070
   287
1070
     4
1070
    40
1040
10.0
1070
    75
1070
     1
1070
   143
1040
0.039
1070
   172
1070
     1
1070
   271
1070
     0
1070
   279
1070
     1
1070
   288
1070
     1
1002
}
  0
DIMENSION
  5
7C2C
  8
3
  6
CONTINUOUS
  2
*D14
 10
1653.854913236313
 20
829.77921896254645
 30
0.0
 11
1556.2532582363131
 21
829.77921896254645
 31
0.0
 70
   128
 13
1439.8549132363121
 23
891.68296896254651
 33
0.0
 14
1653.854913236313
 24
891.68296896254651
 34
0.0
1001
ACAD
1000
DSTYLE
1002
{
1070
   287
1070
     3
1070
   287
1070
     3
1070
    40
1040
10.0
1070
   143
1040
0.039
1070
   172
1070
     1
1070
   271
1070
     0
1070
   279
1070
     0
1070
   288
1070
     1
1002
}
  0
DIMENSION
  5
7C3C
  8
3
  6
CONTINUOUS
  2
*D15
 10
1663.854913236313
 20
829.77921896254645
 30
0.0
 11
1706.8768592363119
 21
829.77921896254645
 31
0.0
 70
   128
 13
1653.854913236313
 23
891.68296896254651
 33
0.0
 14
1663.854913236313
 24
891.68296896254651
 34
0.0
1001
ACAD
1000
DSTYLE
1002
{
1070
   287
1070
     4
1070
   287
1070
     4
1070
    40
1040
10.0
1070
    75
1070
     1
1070
   143
1040
0.039
1070
   172
1070
     1
1070
   271
1070
     0
1070
   279
1070
     1
1070
   288
1070
     1
1002
}
  0
LINE
  5
7C58
  8
3
  6
CONTINUOUS
 10
1731.854913236313
 20
1313.6829689625461
 30
0.0
 11
1742.0146262363121
 21
1313.6829689625461
 31
0.0
  0
LINE
  5
7C5A
  8
3
  6
CONTINUOUS
 10
1731.854913236313
 20
1113.6829689625461
 30
0.0
 11
1734.335049236312
 21
1113.6829689625461
 31
0.0
  0
DIMENSION
  5
7C67
  8
3
  6
CONTINUOUS
  2
*D16
 10
1802.1713142363119
 20
1113.6829689625461
 30
0.0
 11
1802.1713142363119
 21
1227.1115403911169
 31
0.0
 70
   128
 13
1731.854913236313
 23
1313.6829689625461
 33
0.0
 14
1731.854913236313
 24
1113.6829689625461
 34
0.0
 50
90.0
1001
ACAD
1000
DSTYLE
1002
{
1070
   287
1070
     3
1070
   287
1070
     3
1070
     3
1000
φ<>
1070
    40
1040
10.0
1070
   143
1040
0.039
1070
   172
1070
     1
1070
   271
1070
     0
1070
   279
1070
     0
1070
   288
1070
     1
1002
}
  0
DIMENSION
  5
7CA5
  8
3
  6
CONTINUOUS
  2
*D17
 10
1118.4944522708879
 20
1002.6829689625461
 30
0.0
 11
1118.4944522708879
 21
1114.3016219625461
 31
0.0
 70
   128
 13
974.48909300000003
 23
1213.6829689625461
 33
0.0
 14
959.48909300000003
 24
1002.6829689625461
 34
0.0
 50
90.0
1001
ACAD
1000
DSTYLE
1002
{
1070
   287
1070
     3
1070
   287
1070
     3
1070
    40
1040
10.0
1070
   143
1040
0.039
1070
   172
1070
     1
1070
   271
1070
     0
1070
   279
1070
     0
1070
   288
1070
     1
1002
}
  0
DIMENSION
  5
7D4A
  8
3
  2
*D18
 10
256.44354934526592
 20
1845.6291969153531
 30
0.0
 11
256.44354934526558
 21
1947.393294285898
 31
0.0
 70
   128
 13
319.48909300000003
 23
2069.629196915354
 33
0.0
 14
319.48909300000003
 24
1845.6291969153531
 34
0.0
 50
90.0
1001
ACAD
1000
DSTYLE
1002
{
1070
   287
1070
     3
1070
   287
1070
     3
1070
    40
1040
10.0
1070
   143
1040
0.039
1070
   172
1070
     1
1070
   271
1070
     0
1070
   279
1070
     0
1070
   288
1070
     1
1002
}
  0
DIMENSION
  5
7D85
  8
3
  2
*D19
 10
319.48909300000008
 20
1456.1639328807789
 30
0.0
 11
669.20108858352614
 21
1456.1639328807789
 31
0.0
 70
   128
 13
974.48909300000003
 23
1234.6829689625461
 33
0.0
 14
319.48909300000003
 24
916.68296896254651
 34
0.0
1001
ACAD
1000
DSTYLE
1002
{
1070
   287
1070
     3
1070
   287
1070
     3
1070
    40
1040
10.0
1070
   143
1040
0.039
1070
   172
1070
     1
1070
   271
1070
     0
1070
   279
1070
     0
1070
   288
1070
     1
1002
}
  0
ENDSEC
  0
EOF
