  0
SECTION
  2
HEADER
  9
$ACADVER
  1
AC1009
  9
$INSBASE
 10
0.0
 20
0.0
 30
0.0
  9
$EXTMIN
 10
250.0
 20
300.0
 30
0.0
  9
$EXTMAX
 10
1850.0
 20
2786.6522620000001
 30
0.0
  9
$LIMMIN
 10
0.0
 20
0.0
  9
$LIMMAX
 10
297.0
 20
210.0
  9
$ORTHOMODE
 70
     0
  9
$REGENMODE
 70
     1
  9
$FILLMODE
 70
     0
  9
$QTEXTMODE
 70
     0
  9
$MIRRTEXT
 70
     1
  9
$DRAGMODE
 70
     2
  9
$LTSCALE
 40
100.0
  9
$OSMODE
 70
    37
  9
$ATTMODE
 70
     1
  9
$TEXTSIZE
 40
180.0
  9
$TRACEWID
 40
0.05
  9
$TEXTSTYLE
  7
STANDARD
  9
$CLAYER
  8
3
  9
$CELTYPE
  6
BYLAYER
  9
$CECOLOR
 62
   256
  9
$DIMSCALE
 40
10.0
  9
$DIMASZ
 40
2.0
  9
$DIMEXO
 40
0.5
  9
$DIMDLI
 40
10.0
  9
$DIMRND
 40
0.0
  9
$DIMDLE
 40
0.0
  9
$DIMEXE
 40
1.0
  9
$DIMTP
 40
1.0
  9
$DIMTM
 40
1.0
  9
$DIMTXT
 40
3.0
  9
$DIMCEN
 40
0.0
  9
$DIMTSZ
 40
0.0
  9
$DIMTOL
 70
     0
  9
$DIMLIM
 70
     0
  9
$DIMTIH
 70
     0
  9
$DIMTOH
 70
     0
  9
$DIMSE1
 70
     0
  9
$DIMSE2
 70
     0
  9
$DIMTAD
 70
     1
  9
$DIMZIN
 70
     8
  9
$DIMBLK
  1

  9
$DIMASO
 70
     1
  9
$DIMSHO
 70
     1
  9
$DIMPOST
  1

  9
$DIMAPOST
  1

  9
$DIMALT
 70
     0
  9
$DIMALTD
 70
     2
  9
$DIMALTF
 40
0.039
  9
$DIMLFAC
 40
1.0
  9
$DIMTOFL
 70
     1
  9
$DIMTVP
 40
0.0
  9
$DIMTIX
 70
     0
  9
$DIMSOXD
 70
     0
  9
$DIMSAH
 70
     1
  9
$DIMBLK1
  1
OPEN
  9
$DIMBLK2
  1
OPEN
  9
$DIMSTYLE
  2
IGA
  9
$DIMCLRD
 70
     0
  9
$DIMCLRE
 70
     0
  9
$DIMCLRT
 70
     0
  9
$DIMTFAC
 40
10.0
  9
$DIMGAP
 40
1.0
  9
$LUNITS
 70
     2
  9
$LUPREC
 70
     3
  9
$SKETCHINC
 40
0.1
  9
$FILLETRAD
 40
50.0
  9
$AUNITS
 70
     0
  9
$AUPREC
 70
     0
  9
$MENU
  1
acad
  9
$ELEVATION
 40
0.0
  9
$PELEVATION
 40
0.0
  9
$THICKNESS
 40
0.0
  9
$LIMCHECK
 70
     0
  9
$BLIPMODE
 70
     0
  9
$CHAMFERA
 40
0.5
  9
$CHAMFERB
 40
0.5
  9
$SKPOLY
 70
     0
  9
$TDCREATE
 40
2450760.6129226852
  9
$TDUPDATE
 40
2454953.8618776621
  9
$TDINDWG
 40
0.0088971528
  9
$TDUSRTIMER
 40
0.0088971528
  9
$USRTIMER
 70
     1
  9
$ANGBASE
 50
0.0
  9
$ANGDIR
 70
     0
  9
$PDMODE
 70
     0
  9
$PDSIZE
 40
0.0
  9
$PLINEWID
 40
0.0
  9
$COORDS
 70
     1
  9
$SPLFRAME
 70
     0
  9
$SPLINETYPE
 70
     6
  9
$SPLINESEGS
 70
     8
  9
$ATTDIA
 70
     0
  9
$ATTREQ
 70
     1
  9
$HANDLING
 70
 10241
  9
$HANDSEED
  5
7E83
  9
$SURFTAB1
 70
     6
  9
$SURFTAB2
 70
     6
  9
$SURFTYPE
 70
     6
  9
$SURFU
 70
     6
  9
$SURFV
 70
     6
  9
$UCSNAME
  2

  9
$UCSORG
 10
0.0
 20
0.0
 30
0.0
  9
$UCSXDIR
 10
1.0
 20
0.0
 30
0.0
  9
$UCSYDIR
 10
0.0
 20
1.0
 30
0.0
  9
$PUCSNAME
  2

  9
$PUCSORG
 10
0.0
 20
0.0
 30
0.0
  9
$PUCSXDIR
 10
1.0
 20
0.0
 30
0.0
  9
$PUCSYDIR
 10
0.0
 20
1.0
 30
0.0
  9
$USERI1
 70
     0
  9
$USERI2
 70
     0
  9
$USERI3
 70
     0
  9
$USERI4
 70
     0
  9
$USERI5
 70
     0
  9
$USERR1
 40
0.0
  9
$USERR2
 40
0.0
  9
$USERR3
 40
0.0
  9
$USERR4
 40
0.0
  9
$USERR5
 40
0.0
  9
$WORLDVIEW
 70
     1
  9
$SHADEDGE
 70
     3
  9
$SHADEDIF
 70
    70
  9
$TILEMODE
 70
     1
  9
$MAXACTVP
 70
    16
  9
$PLIMCHECK
 70
     0
  9
$PEXTMIN
 10
1.0000000000000000E+020
 20
1.0000000000000000E+020
 30
1.0000000000000000E+020
  9
$PEXTMAX
 10
-1.0000000000000000E+020
 20
-1.0000000000000000E+020
 30
-1.0000000000000000E+020
  9
$PLIMMIN
 10
0.0
 20
0.0
  9
$PLIMMAX
 10
12.0
 20
9.0
  9
$UNITMODE
 70
     0
  9
$VISRETAIN
 70
     0
  9
$PLINEGEN
 70
     0
  9
$PSLTSCALE
 70
     1
  0
ENDSEC
  0
SECTION
  2
TABLES
  0
TABLE
  2
VPORT
 70
     2
  0
VPORT
  2
*ACTIVE
 70
     0
 10
0.0
 20
0.0
 11
1.0
 21
1.0
 12
2571.138091399524
 22
1747.0366932771381
 13
0.0
 23
0.0
 14
10.0
 24
10.0
 15
10.0
 25
10.0
 16
0.0
 26
0.0
 36
1.0
 17
0.0
 27
0.0
 37
0.0
 40
3384.7202297544959
 41
1.5051150895140659
 42
50.0
 43
0.0
 44
0.0
 50
0.0
 51
0.0
 71
     0
 72
   100
 73
     1
 74
     0
 75
     0
 76
     1
 77
     0
 78
     0
  0
ENDTAB
  0
TABLE
  2
LTYPE
 70
     2
  0
LTYPE
  2
CONTINUOUS
 70
     0
  3
Solid line
 72
    65
 73
     0
 40
0.0
  0
LTYPE
  2
CENTER
 70
     0
  3
____ _ ____ _ ____ _ ____ _ ____ _ ____ _ ____ 
 72
    65
 73
     4
 40
2.0
 49
1.25
 49
-0.25
 49
0.25
 49
-0.25
  0
ENDTAB
  0
TABLE
  2
LAYER
 70
     6
  0
LAYER
  2
0
 70
     0
 62
     7
  6
CONTINUOUS
  0
LAYER
  2
3
 70
     0
 62
     2
  6
CONTINUOUS
  0
LAYER
  2
2
 70
     0
 62
     3
  6
CENTER
  0
LAYER
  2
1
 70
     0
 62
     4
  6
CONTINUOUS
  0
LAYER
  2
4
 70
     0
 62
     7
  6
CONTINUOUS
  0
LAYER
  2
DEFPOINTS
 70
     0
 62
     7
  6
CONTINUOUS
  0
ENDTAB
  0
TABLE
  2
STYLE
 70
     1
  0
STYLE
  2
STANDARD
 70
     0
 40
0.0
 41
1.0
 50
0.0
 71
     0
 42
180.0
  3
simplex.shx
  4
extfont.shx
  0
ENDTAB
  0
TABLE
  2
VIEW
 70
     0
  0
ENDTAB
  0
TABLE
  2
UCS
 70
     0
  0
ENDTAB
  0
TABLE
  2
APPID
 70
     1
  0
APPID
  2
ACAD
 70
     0
  0
ENDTAB
  0
TABLE
  2
DIMSTYLE
 70
     1
  0
DIMSTYLE
  2
IGA
 70
     0
  3

  4

  5

  6
OPEN
  7
OPEN
 40
2.0
 41
2.0
 42
0.5
 43
10.0
 44
1.0
 45
0.0
 46
0.0
 47
1.0
 48
1.0
140
3.0
141
0.0
142
0.0
143
0.03937
144
1.0
145
0.0
146
10.0
147
1.0
 71
     0
 72
     0
 73
     0
 74
     0
 75
     0
 76
     0
 77
     1
 78
     8
170
     0
171
     2
172
     0
173
     1
174
     0
175
     0
176
     0
177
     0
178
     0
  0
ENDTAB
  0
ENDSEC
  0
SECTION
  2
BLOCKS
  0
BLOCK
  8
0
  2
$MODEL_SPACE
 70
     0
 10
0.0
 20
0.0
 30
0.0
  3
$MODEL_SPACE
  1

  0
ENDBLK
  5
1B
  8
0
  0
BLOCK
 67
     1
  8
0
  2
$PAPER_SPACE
 70
     0
 10
0.0
 20
0.0
 30
0.0
  3
$PAPER_SPACE
  1

  0
ENDBLK
  5
18
 67
     1
  8
0
  0
BLOCK
  8
0
  2
_OPEN
 70
     0
 10
0.0
 20
0.0
 30
0.0
  3
_OPEN
  1

  0
LINE
  5
7B0E
  8
0
  6
BYBLOCK
 62
     0
 10
-1.0
 20
0.166667
 30
0.0
 11
0.0
 21
0.0
 31
0.0
  0
LINE
  5
7B0F
  8
0
  6
BYBLOCK
 62
     0
 10
0.0
 20
0.0
 30
0.0
 11
-1.0
 21
-0.166667
 31
0.0
  0
LINE
  5
7B10
  8
0
  6
BYBLOCK
 62
     0
 10
0.0
 20
0.0
 30
0.0
 11
-1.0
 21
0.0
 31
0.0
  0
ENDBLK
  5
7B11
  8
0
  0
BLOCK
  8
0
  2
*D1
 70
     1
 10
0.0
 20
0.0
 30
0.0
  3
*D1
  1

  0
LINE
  5
7DCD
  8
3
  6
CONTINUOUS
 62
     0
 10
364.67543199999989
 20
822.25389400000006
 30
0.0
 11
364.67543199999989
 21
728.94305399999985
 31
0.0
  0
LINE
  5
7DCE
  8
3
  6
CONTINUOUS
 62
     0
 10
549.67543199999989
 20
786.79739299999994
 30
0.0
 11
549.67543199999989
 21
728.94305399999985
 31
0.0
  0
LINE
  5
7DCF
  8
3
  6
CONTINUOUS
 62
     0
 10
384.675432
 20
738.94305399999985
 30
0.0
 11
529.67543199999989
 21
738.94305399999985
 31
0.0
  0
INSERT
  5
7DD0
  8
3
  6
CONTINUOUS
 62
     0
  2
_OPEN
 10
364.67543199999989
 20
738.94305399999985
 30
0.0
 41
20.0
 42
20.0
 43
20.0
 50
180.0
  0
INSERT
  5
7DD1
  8
3
  6
CONTINUOUS
 62
     0
  2
_OPEN
 10
549.67543199999989
 20
738.94305399999985
 30
0.0
 41
20.0
 42
20.0
 43
20.0
  0
TEXT
  8
3
  40
30
  5
7E70
  62
0
  72
0
  71
0
 10
392.027
 20
710.843
 30
0.000000
  1
185
  0
POINT
  5
7DD3
  8
DEFPOINTS
  6
CONTINUOUS
 62
     0
 10
364.67543199999989
 20
827.25389399999995
 30
0.0
  0
POINT
  5
7DD4
  8
DEFPOINTS
  6
CONTINUOUS
 62
     0
 10
549.67543199999989
 20
791.79739299999994
 30
0.0
  0
POINT
  5
7DD5
  8
DEFPOINTS
  6
CONTINUOUS
 62
     0
 10
549.67543199999989
 20
738.94305399999985
 30
0.0
  0
ENDBLK
  5
7B1E
  8
0
  0
BLOCK
  8
0
  2
*D2
 70
     1
 10
0.0
 20
0.0
 30
0.0
  3
*D2
  1

  0
LINE
  5
7DD6
  8
3
  6
CONTINUOUS
 62
     0
 10
1044.675432
 20
822.25389400000006
 30
0.0
 11
1044.675432
 21
728.94305399999985
 31
0.0
  0
LINE
  5
7DD7
  8
3
  6
CONTINUOUS
 62
     0
 10
569.675432
 20
738.94305399999985
 30
0.0
 11
1024.675432
 21
738.94305399999985
 31
0.0
  0
INSERT
  5
7DD8
  8
3
  6
CONTINUOUS
 62
     0
  2
_OPEN
 10
549.67543199999989
 20
738.94305399999985
 30
0.0
 41
20.0
 42
20.0
 43
20.0
 50
180.0
  0
INSERT
  5
7DD9
  8
3
  6
CONTINUOUS
 62
     0
  2
_OPEN
 10
1044.675432
 20
738.94305399999985
 30
0.0
 41
20.0
 42
20.0
 43
20.0
  0
TEXT
  8
3
  40
30
  5
7E71
  62
0
  72
0
  71
0
 10
737.175
 20
710.843
 30
0.000000
  1
495
  0
POINT
  5
7DDB
  8
DEFPOINTS
  6
CONTINUOUS
 62
     0
 10
549.67543199999989
 20
791.79739299999994
 30
0.0
  0
POINT
  5
7DDC
  8
DEFPOINTS
  6
CONTINUOUS
 62
     0
 10
1044.675432
 20
827.25389399999995
 30
0.0
  0
POINT
  5
7DDD
  8
DEFPOINTS
  6
CONTINUOUS
 62
     0
 10
1044.675432
 20
738.94305399999985
 30
0.0
  0
ENDBLK
  5
7B2A
  8
0
  0
BLOCK
  8
0
  2
*D3
 70
     1
 10
0.0
 20
0.0
 30
0.0
  3
*D3
  1

  0
LINE
  5
7DDE
  8
3
  6
CONTINUOUS
 62
     0
 10
775.67543199999989
 20
1309.2538939999999
 30
0.0
 11
1135.902482
 21
1309.2538939999999
 31
0.0
  0
LINE
  5
7DDF
  8
3
  6
CONTINUOUS
 62
     0
 10
765.01791300000002
 20
1149.253893999999
 30
0.0
 11
1135.902482
 21
1149.253893999999
 31
0.0
  0
LINE
  5
7DE0
  8
3
  6
CONTINUOUS
 62
     0
 10
1125.902482
 20
1289.2538939999999
 30
0.0
 11
1125.902482
 21
1169.2538939999999
 31
0.0
  0
INSERT
  5
7DE1
  8
3
  6
CONTINUOUS
 62
     0
  2
_OPEN
 10
1125.902482
 20
1309.2538939999999
 30
0.0
 41
20.0
 42
20.0
 43
20.0
 50
90.0
  0
INSERT
  5
7DE2
  8
3
  6
CONTINUOUS
 62
     0
  2
_OPEN
 10
1125.902482
 20
1149.253893999999
 30
0.0
 41
20.0
 42
20.0
 43
20.0
 50
270.0
  0
TEXT
  8
3
  40
30
  5
7E72
  62
0
  72
0
  71
0
 10
1040.90
 20
1179.68
 30
0.000000
  1
160
  0
POINT
  5
7DE4
  8
DEFPOINTS
  6
CONTINUOUS
 62
     0
 10
770.67543199999989
 20
1309.2538939999999
 30
0.0
  0
POINT
  5
7DE5
  8
DEFPOINTS
  6
CONTINUOUS
 62
     0
 10
760.01791300000002
 20
1149.253893999999
 30
0.0
  0
POINT
  5
7DE6
  8
DEFPOINTS
  6
CONTINUOUS
 62
     0
 10
1125.902482
 20
1149.253893999999
 30
0.0
  0
ENDBLK
  5
7B37
  8
0
  0
BLOCK
  8
0
  2
*D4
 70
     1
 10
0.0
 20
0.0
 30
0.0
  3
*D4
  1

  0
LINE
  5
7DE7
  8
3
  6
CONTINUOUS
 62
     0
 10
1024.675432
 20
874.25389399999995
 30
0.0
 11
1135.902482
 21
874.25389399999995
 31
0.0
  0
LINE
  5
7DE8
  8
3
  6
CONTINUOUS
 62
     0
 10
1125.902482
 20
1129.2538939999999
 30
0.0
 11
1125.902482
 21
894.25389399999995
 31
0.0
  0
INSERT
  5
7DE9
  8
3
  6
CONTINUOUS
 62
     0
  2
_OPEN
 10
1125.902482
 20
1149.253893999999
 30
0.0
 41
20.0
 42
20.0
 43
20.0
 50
90.0
  0
INSERT
  5
7DEA
  8
3
  6
CONTINUOUS
 62
     0
  2
_OPEN
 10
1125.902482
 20
874.25389399999995
 30
0.0
 41
20.0
 42
20.0
 43
20.0
 50
270.0
  0
TEXT
  8
3
  40
30
  5
7E73
  62
0
  72
0
  71
0
 10
1040.90
 20
958.654
 30
0.000000
  1
275
  0
POINT
  5
7DEC
  8
DEFPOINTS
  6
CONTINUOUS
 62
     0
 10
760.01791300000002
 20
1149.253893999999
 30
0.0
  0
POINT
  5
7DED
  8
DEFPOINTS
  6
CONTINUOUS
 62
     0
 10
1019.675432
 20
874.25389399999995
 30
0.0
  0
POINT
  5
7DEE
  8
DEFPOINTS
  6
CONTINUOUS
 62
     0
 10
1125.902482
 20
874.25389399999995
 30
0.0
  0
ENDBLK
  5
7B43
  8
0
  0
BLOCK
  8
0
  2
*D5
 70
     1
 10
0.0
 20
0.0
 30
0.0
  3
*D5
  1

  0
LINE
  5
7DEF
  8
3
  6
CONTINUOUS
 62
     0
 10
1024.675432
 20
874.25389399999995
 30
0.0
 11
1135.902482
 21
874.25389399999995
 31
0.0
  0
LINE
  5
7DF0
  8
3
  6
CONTINUOUS
 62
     0
 10
1049.675432
 20
827.25389399999995
 30
0.0
 11
1135.902482
 21
827.25389399999995
 31
0.0
  0
LINE
  5
7DF1
  8
3
  6
CONTINUOUS
 62
     0
 10
1125.902482
 20
894.25389399999995
 30
0.0
 11
1125.902482
 21
914.25389399999995
 31
0.0
  0
LINE
  5
7DF2
  8
3
  6
CONTINUOUS
 62
     0
 10
1125.902482
 20
807.25389400000006
 30
0.0
 11
1125.902482
 21
718.6824654285715
 31
0.0
  0
LINE
  5
7DF3
  8
3
  6
CONTINUOUS
 62
     0
 10
1125.902482
 20
874.25389399999995
 30
0.0
 11
1125.902482
 21
827.25389399999995
 31
0.0
  0
INSERT
  5
7DF4
  8
3
  6
CONTINUOUS
 62
     0
  2
_OPEN
 10
1125.902482
 20
874.25389399999995
 30
0.0
 41
20.0
 42
20.0
 43
20.0
 50
270.0
  0
INSERT
  5
7DF5
  8
3
  6
CONTINUOUS
 62
     0
  2
_OPEN
 10
1125.902482
 20
827.25389399999995
 30
0.0
 41
20.0
 42
20.0
 43
20.0
 50
90.0
  0
TEXT
  8
3
  40
30
  5
7E74
  62
0
  72
0
  71
0
 10
1040.90
 20
699.868
 30
0.000000
  1
47
  0
POINT
  5
7DF7
  8
DEFPOINTS
  6
CONTINUOUS
 62
     0
 10
1019.675432
 20
874.25389399999995
 30
0.0
  0
POINT
  5
7DF8
  8
DEFPOINTS
  6
CONTINUOUS
 62
     0
 10
1044.675432
 20
827.25389399999995
 30
0.0
  0
POINT
  5
7DF9
  8
DEFPOINTS
  6
CONTINUOUS
 62
     0
 10
1125.902482
 20
827.25389399999995
 30
0.0
  0
ENDBLK
  5
7C9F
  8
0
  0
BLOCK
  8
0
  2
*D6
 70
     1
 10
0.0
 20
0.0
 30
0.0
  3
*D6
  1

  0
LINE
  5
7DFA
  8
3
  6
CONTINUOUS
 62
     0
 10
775.67543199999989
 20
1309.2538939999999
 30
0.0
 11
1208.0547710000001
 21
1309.2538939999999
 31
0.0
  0
LINE
  5
7DFB
  8
3
  6
CONTINUOUS
 62
     0
 10
1049.675432
 20
827.25389399999995
 30
0.0
 11
1208.0547710000001
 21
827.25389399999995
 31
0.0
  0
LINE
  5
7DFC
  8
3
  6
CONTINUOUS
 62
     0
 10
1198.0547710000001
 20
1289.2538939999999
 30
0.0
 11
1198.0547710000001
 21
847.25389400000006
 31
0.0
  0
INSERT
  5
7DFD
  8
3
  6
CONTINUOUS
 62
     0
  2
_OPEN
 10
1198.0547710000001
 20
1309.2538939999999
 30
0.0
 41
20.0
 42
20.0
 43
20.0
 50
90.0
  0
INSERT
  5
7DFE
  8
3
  6
CONTINUOUS
 62
     0
  2
_OPEN
 10
1198.0547710000001
 20
827.25389399999995
 30
0.0
 41
20.0
 42
20.0
 43
20.0
 50
270.0
  0
TEXT
  8
3
  40
30
  5
7E75
  62
0
  72
0
  71
0
 10
1113.05
 20
1015.07
 30
0.000000
  1
482
  0
POINT
  5
7E00
  8
DEFPOINTS
  6
CONTINUOUS
 62
     0
 10
770.67543199999989
 20
1309.2538939999999
 30
0.0
  0
POINT
  5
7E01
  8
DEFPOINTS
  6
CONTINUOUS
 62
     0
 10
1044.675432
 20
827.25389399999995
 30
0.0
  0
POINT
  5
7E02
  8
DEFPOINTS
  6
CONTINUOUS
 62
     0
 10
1198.0547710000001
 20
827.25389399999995
 30
0.0
  0
ENDBLK
  5
7B7A
  8
0
  0
BLOCK
  8
0
  2
*D7
 70
     1
 10
0.0
 20
0.0
 30
0.0
  3
*D7
  1

  0
LINE
  5
7E03
  8
3
  6
CONTINUOUS
 62
     0
 10
549.67543199999989
 20
1314.2538939999999
 30
0.0
 11
549.67543199999989
 21
1365.4870510000001
 31
0.0
  0
LINE
  5
7E04
  8
3
  6
CONTINUOUS
 62
     0
 10
749.67543199999989
 20
1314.2538939999999
 30
0.0
 11
749.67543199999989
 21
1365.4870510000001
 31
0.0
  0
LINE
  5
7E05
  8
3
  6
CONTINUOUS
 62
     0
 10
569.675432
 20
1355.4870510000001
 30
0.0
 11
729.67543199999989
 21
1355.4870510000001
 31
0.0
  0
INSERT
  5
7E06
  8
3
  6
CONTINUOUS
 62
     0
  2
_OPEN
 10
549.67543199999989
 20
1355.4870510000001
 30
0.0
 41
20.0
 42
20.0
 43
20.0
 50
180.0
  0
INSERT
  5
7E07
  8
3
  6
CONTINUOUS
 62
     0
  2
_OPEN
 10
749.67543199999989
 20
1355.4870510000001
 30
0.0
 41
20.0
 42
20.0
 43
20.0
  0
TEXT
  8
3
  40
30
  5
7E76
  62
0
  72
0
  71
0
 10
583.980
 20
1327.39
 30
0.000000
  1
200
  0
POINT
  5
7E09
  8
DEFPOINTS
  6
CONTINUOUS
 62
     0
 10
549.67543199999989
 20
1309.2538939999999
 30
0.0
  0
POINT
  5
7E0A
  8
DEFPOINTS
  6
CONTINUOUS
 62
     0
 10
749.67543199999989
 20
1309.2538939999999
 30
0.0
  0
POINT
  5
7E0B
  8
DEFPOINTS
  6
CONTINUOUS
 62
     0
 10
749.67543199999989
 20
1355.4870510000001
 30
0.0
  0
ENDBLK
  5
7B87
  8
0
  0
BLOCK
  8
0
  2
*D8
 70
     1
 10
0.0
 20
0.0
 30
0.0
  3
*D8
  1

  0
LINE
  5
7E0C
  8
3
  6
CONTINUOUS
 62
     0
 10
760.675432
 20
1299.2538939999999
 30
0.0
 11
760.675432
 21
1426.7062659999999
 31
0.0
  0
LINE
  5
7E0D
  8
3
  6
CONTINUOUS
 62
     0
 10
549.67543199999989
 20
1313.2538939999999
 30
0.0
 11
549.67543199999989
 21
1426.7062659999999
 31
0.0
  0
LINE
  5
7E0E
  8
3
  6
CONTINUOUS
 62
     0
 10
740.675432
 20
1416.7062659999999
 30
0.0
 11
569.675432
 21
1416.7062659999999
 31
0.0
  0
INSERT
  5
7E0F
  8
3
  6
CONTINUOUS
 62
     0
  2
_OPEN
 10
760.675432
 20
1416.7062659999999
 30
0.0
 41
20.0
 42
20.0
 43
20.0
  0
INSERT
  5
7E10
  8
3
  6
CONTINUOUS
 62
     0
  2
_OPEN
 10
549.67543199999989
 20
1416.7062659999999
 30
0.0
 41
20.0
 42
20.0
 43
20.0
 50
180.0
  0
TEXT
  8
3
  40
30
  5
7E77
  62
0
  72
0
  71
0
 10
571.727
 20
1388.61
 30
0.000000
  1
211
  0
POINT
  5
7E12
  8
DEFPOINTS
  6
CONTINUOUS
 62
     0
 10
760.675432
 20
1294.2538939999999
 30
0.0
  0
POINT
  5
7E13
  8
DEFPOINTS
  6
CONTINUOUS
 62
     0
 10
549.67543199999989
 20
1308.253893999999
 30
0.0
  0
POINT
  5
7E14
  8
DEFPOINTS
  6
CONTINUOUS
 62
     0
 10
549.67543199999989
 20
1416.7062659999999
 30
0.0
  0
ENDBLK
  5
7B94
  8
0
  0
BLOCK
  8
0
  2
*D9
 70
     1
 10
0.0
 20
0.0
 30
0.0
  3
*D9
  1

  0
LINE
  5
7E15
  8
3
  6
CONTINUOUS
 62
     0
 10
399.1082439999999
 20
1154.2538939999999
 30
0.0
 11
399.1082439999999
 21
1426.7062659999999
 31
0.0
  0
LINE
  5
7E16
  8
3
  6
CONTINUOUS
 62
     0
 10
529.67543199999989
 20
1416.7062659999999
 30
0.0
 11
419.10824400000001
 21
1416.7062659999999
 31
0.0
  0
INSERT
  5
7E17
  8
3
  6
CONTINUOUS
 62
     0
  2
_OPEN
 10
549.67543199999989
 20
1416.7062659999999
 30
0.0
 41
20.0
 42
20.0
 43
20.0
  0
INSERT
  5
7E18
  8
3
  6
CONTINUOUS
 62
     0
  2
_OPEN
 10
399.1082439999999
 20
1416.7062659999999
 30
0.0
 41
20.0
 42
20.0
 43
20.0
 50
180.0
  0
TEXT
  8
3
  40
30
  5
7E78
  62
0
  72
0
  71
0
 10
414.392
 20
1388.61
 30
0.000000
  1
151
  0
POINT
  5
7E1A
  8
DEFPOINTS
  6
CONTINUOUS
 62
     0
 10
549.67543199999989
 20
1308.253893999999
 30
0.0
  0
POINT
  5
7E1B
  8
DEFPOINTS
  6
CONTINUOUS
 62
     0
 10
399.1082439999999
 20
1149.253893999999
 30
0.0
  0
POINT
  5
7E1C
  8
DEFPOINTS
  6
CONTINUOUS
 62
     0
 10
399.1082439999999
 20
1416.7062659999999
 30
0.0
  0
ENDBLK
  5
7BA0
  8
0
  0
BLOCK
  8
0
  2
*D10
 70
     1
 10
0.0
 20
0.0
 30
0.0
  3
*D10
  1

  0
LINE
  5
7E1D
  8
3
  6
CONTINUOUS
 62
     0
 10
364.67543199999989
 20
1818.527557801797
 30
0.0
 11
364.67543199999989
 21
1626.1563198017971
 31
0.0
  0
LINE
  5
7E1E
  8
3
  6
CONTINUOUS
 62
     0
 10
1044.675432
 20
1818.527557801797
 30
0.0
 11
1044.675432
 21
1626.1563198017971
 31
0.0
  0
LINE
  5
7E1F
  8
3
  6
CONTINUOUS
 62
     0
 10
384.675432
 20
1636.1563198017971
 30
0.0
 11
1024.675432
 21
1636.1563198017971
 31
0.0
  0
INSERT
  5
7E20
  8
3
  6
CONTINUOUS
 62
     0
  2
_OPEN
 10
364.67543199999989
 20
1636.1563198017971
 30
0.0
 41
20.0
 42
20.0
 43
20.0
 50
180.0
  0
INSERT
  5
7E21
  8
3
  6
CONTINUOUS
 62
     0
  2
_OPEN
 10
1044.675432
 20
1636.1563198017971
 30
0.0
 41
20.0
 42
20.0
 43
20.0
  0
TEXT
  8
3
  40
30
  5
7E79
  62
0
  72
0
  71
0
 10
647.964
 20
1608.06
 30
0.000000
  1
680
  0
POINT
  5
7E23
  8
DEFPOINTS
  6
CONTINUOUS
 62
     0
 10
364.67543199999989
 20
1823.527557801797
 30
0.0
  0
POINT
  5
7E24
  8
DEFPOINTS
  6
CONTINUOUS
 62
     0
 10
1044.675432
 20
1823.527557801797
 30
0.0
  0
POINT
  5
7E25
  8
DEFPOINTS
  6
CONTINUOUS
 62
     0
 10
1044.675432
 20
1636.1563198017971
 30
0.0
  0
ENDBLK
  5
7BB2
  8
0
  0
BLOCK
  8
0
  2
*D11
 70
     1
 10
0.0
 20
0.0
 30
0.0
  3
*D11
  1

  0
LINE
  5
7E26
  8
3
  6
CONTINUOUS
 62
     0
 10
1049.675432
 20
2047.527557801797
 30
0.0
 11
1161.7683930000001
 21
2047.527557801797
 31
0.0
  0
LINE
  5
7E27
  8
3
  6
CONTINUOUS
 62
     0
 10
1049.675432
 20
1823.527557801797
 30
0.0
 11
1161.7683930000001
 21
1823.527557801797
 31
0.0
  0
LINE
  5
7E28
  8
3
  6
CONTINUOUS
 62
     0
 10
1151.7683930000001
 20
2027.527557801797
 30
0.0
 11
1151.7683930000001
 21
1843.527557801797
 31
0.0
  0
INSERT
  5
7E29
  8
3
  6
CONTINUOUS
 62
     0
  2
_OPEN
 10
1151.7683930000001
 20
2047.527557801797
 30
0.0
 41
20.0
 42
20.0
 43
20.0
 50
90.0
  0
INSERT
  5
7E2A
  8
3
  6
CONTINUOUS
 62
     0
  2
_OPEN
 10
1151.7683930000001
 20
1823.527557801797
 30
0.0
 41
20.0
 42
20.0
 43
20.0
 50
270.0
  0
TEXT
  8
3
  40
30
  5
7E7A
  62
0
  72
0
  71
0
 10
1066.77
 20
1874.19
 30
0.000000
  1
224
  0
POINT
  5
7E2C
  8
DEFPOINTS
  6
CONTINUOUS
 62
     0
 10
1044.675432
 20
2047.527557801797
 30
0.0
  0
POINT
  5
7E2D
  8
DEFPOINTS
  6
CONTINUOUS
 62
     0
 10
1044.675432
 20
1823.527557801797
 30
0.0
  0
POINT
  5
7E2E
  8
DEFPOINTS
  6
CONTINUOUS
 62
     0
 10
1151.7683930000001
 20
1823.527557801797
 30
0.0
  0
ENDBLK
  5
7BBF
  8
0
  0
BLOCK
  8
0
  2
*D12
 70
     1
 10
0.0
 20
0.0
 30
0.0
  3
*D12
  1

  0
LINE
  5
7E2F
  8
3
  6
CONTINUOUS
 62
     0
 10
1599.2614032363131
 20
1313.2538939999999
 30
0.0
 11
1599.2614032363131
 21
1366.573144
 31
0.0
  0
LINE
  5
7E30
  8
3
  6
CONTINUOUS
 62
     0
 10
1739.2614032363131
 20
1313.2538939999999
 30
0.0
 11
1739.2614032363131
 21
1366.573144
 31
0.0
  0
LINE
  5
7E31
  8
3
  6
CONTINUOUS
 62
     0
 10
1579.2614032363131
 20
1356.573144
 30
0.0
 11
1559.2614032363131
 21
1356.573144
 31
0.0
  0
LINE
  5
7E32
  8
3
  6
CONTINUOUS
 62
     0
 10
1759.2614032363131
 20
1356.573144
 30
0.0
 11
1779.2614032363131
 21
1356.573144
 31
0.0
  0
LINE
  5
7E33
  8
3
  6
CONTINUOUS
 62
     0
 10
1599.2614032363131
 20
1356.573144
 30
0.0
 11
1739.2614032363131
 21
1356.573144
 31
0.0
  0
INSERT
  5
7E34
  8
3
  6
CONTINUOUS
 62
     0
  2
_OPEN
 10
1599.2614032363131
 20
1356.573144
 30
0.0
 41
20.0
 42
20.0
 43
20.0
  0
INSERT
  5
7E35
  8
3
  6
CONTINUOUS
 62
     0
  2
_OPEN
 10
1739.2614032363131
 20
1356.573144
 30
0.0
 41
20.0
 42
20.0
 43
20.0
 50
180.0
  0
TEXT
  8
3
  40
30
  5
7E7B
  62
0
  72
0
  71
0
 10
1604.98
 20
1328.47
 30
0.000000
  1
140
  0
POINT
  5
7E37
  8
DEFPOINTS
  6
CONTINUOUS
 62
     0
 10
1599.2614032363131
 20
1308.253893999999
 30
0.0
  0
POINT
  5
7E38
  8
DEFPOINTS
  6
CONTINUOUS
 62
     0
 10
1739.2614032363131
 20
1308.253893999999
 30
0.0
  0
POINT
  5
7E39
  8
DEFPOINTS
  6
CONTINUOUS
 62
     0
 10
1739.2614032363131
 20
1356.573144
 30
0.0
  0
ENDBLK
  5
7BCF
  8
0
  0
BLOCK
  8
0
  2
*D13
 70
     1
 10
0.0
 20
0.0
 30
0.0
  3
*D13
  1

  0
LINE
  5
7E3A
  8
3
  6
CONTINUOUS
 62
     0
 10
1369.2614032363131
 20
1264.2538939999999
 30
0.0
 11
1369.2614032363131
 21
1440.036198
 31
0.0
  0
LINE
  5
7E3B
  8
3
  6
CONTINUOUS
 62
     0
 10
1669.261403236314
 20
1412.1378219999999
 30
0.0
 11
1669.261403236314
 21
1440.036198
 31
0.0
  0
LINE
  5
7E3C
  8
3
  6
CONTINUOUS
 62
     0
 10
1389.2614032363131
 20
1430.0361979999991
 30
0.0
 11
1649.2614032363131
 21
1430.0361979999991
 31
0.0
  0
INSERT
  5
7E3D
  8
3
  6
CONTINUOUS
 62
     0
  2
_OPEN
 10
1369.2614032363131
 20
1430.0361979999991
 30
0.0
 41
20.0
 42
20.0
 43
20.0
 50
180.0
  0
INSERT
  5
7E3E
  8
3
  6
CONTINUOUS
 62
     0
  2
_OPEN
 10
1669.261403236314
 20
1430.0361979999991
 30
0.0
 41
20.0
 42
20.0
 43
20.0
  0
TEXT
  8
3
  40
30
  5
7E7C
  62
0
  72
0
  71
0
 10
1466.42
 20
1426.94
 30
0.000000
  1
MAX
  0
TEXT
  8
3
  40
30
  5
7E7D
  62
0
  72
0
  71
0
 10
1466.42
 20
1387.94
 30
0.000000
  1
300
  0
POINT
  5
7E40
  8
DEFPOINTS
  6
CONTINUOUS
 62
     0
 10
1369.2614032363131
 20
1259.253893999999
 30
0.0
  0
POINT
  5
7E41
  8
DEFPOINTS
  6
CONTINUOUS
 62
     0
 10
1669.261403236314
 20
1407.1378219999999
 30
0.0
  0
POINT
  5
7E42
  8
DEFPOINTS
  6
CONTINUOUS
 62
     0
 10
1669.261403236314
 20
1430.0361979999991
 30
0.0
  0
ENDBLK
  5
7CB7
  8
0
  0
BLOCK
  8
0
  2
*D14
 70
     1
 10
0.0
 20
0.0
 30
0.0
  3
*D14
  1

  0
LINE
  5
7E43
  8
3
  6
CONTINUOUS
 62
     0
 10
1747.2614032363131
 20
1274.2538939999999
 30
0.0
 11
1747.2614032363131
 21
1440.036198
 31
0.0
  0
LINE
  5
7E44
  8
3
  6
CONTINUOUS
 62
     0
 10
1689.2614032363131
 20
1430.0361979999991
 30
0.0
 11
1727.2614032363131
 21
1430.0361979999991
 31
0.0
  0
TEXT
  8
3
  40
30
  5
7E7E
  62
0
  72
0
  71
0
 10
1648.84
 20
1401.94
 30
0.000000
  1
78
  0
INSERT
  5
7E46
  8
3
  6
CONTINUOUS
 62
     0
  2
_OPEN
 10
1669.261403236314
 20
1430.0361979999991
 30
0.0
 41
20.0
 42
20.0
 43
20.0
 50
180.0
  0
INSERT
  5
7E47
  8
3
  6
CONTINUOUS
 62
     0
  2
_OPEN
 10
1747.2614032363131
 20
1430.0361979999991
 30
0.0
 41
20.0
 42
20.0
 43
20.0
  0
POINT
  5
7E48
  8
DEFPOINTS
  6
CONTINUOUS
 62
     0
 10
1669.261403236314
 20
1407.1378219999999
 30
0.0
  0
POINT
  5
7E49
  8
DEFPOINTS
  6
CONTINUOUS
 62
     0
 10
1747.2614032363131
 20
1269.2538939999999
 30
0.0
  0
POINT
  5
7E4A
  8
DEFPOINTS
  6
CONTINUOUS
 62
     0
 10
1747.2614032363131
 20
1430.0361979999991
 30
0.0
  0
ENDBLK
  5
7C78
  8
0
  0
BLOCK
  8
0
  2
*D15
 70
     1
 10
0.0
 20
0.0
 30
0.0
  3
*D15
  1

  0
LINE
  5
7E4B
  8
3
  6
CONTINUOUS
 62
     0
 10
1455.2614032363131
 20
822.25389400000006
 30
0.0
 11
1455.2614032363131
 21
750.16497500000003
 31
0.0
  0
LINE
  5
7E4C
  8
3
  6
CONTINUOUS
 62
     0
 10
1669.261403236314
 20
785.63551900000004
 30
0.0
 11
1669.261403236314
 21
750.16497500000003
 31
0.0
  0
LINE
  5
7E4D
  8
3
  6
CONTINUOUS
 62
     0
 10
1475.2614032363131
 20
760.16497499999991
 30
0.0
 11
1649.2614032363131
 21
760.16497499999991
 31
0.0
  0
INSERT
  5
7E4E
  8
3
  6
CONTINUOUS
 62
     0
  2
_OPEN
 10
1455.2614032363131
 20
760.16497499999991
 30
0.0
 41
20.0
 42
20.0
 43
20.0
 50
180.0
  0
INSERT
  5
7E4F
  8
3
  6
CONTINUOUS
 62
     0
  2
_OPEN
 10
1669.261403236314
 20
760.16497499999991
 30
0.0
 41
20.0
 42
20.0
 43
20.0
  0
TEXT
  8
3
  40
30
  5
7E7F
  62
0
  72
0
  71
0
 10
1507.26
 20
732.065
 30
0.000000
  1
214
  0
POINT
  5
7E51
  8
DEFPOINTS
  6
CONTINUOUS
 62
     0
 10
1455.2614032363131
 20
827.25389399999995
 30
0.0
  0
POINT
  5
7E52
  8
DEFPOINTS
  6
CONTINUOUS
 62
     0
 10
1669.261403236314
 20
790.63551900000004
 30
0.0
  0
POINT
  5
7E53
  8
DEFPOINTS
  6
CONTINUOUS
 62
     0
 10
1669.261403236314
 20
760.16497499999991
 30
0.0
  0
ENDBLK
  5
7C0D
  8
0
  0
BLOCK
  8
0
  2
*D16
 70
     1
 10
0.0
 20
0.0
 30
0.0
  3
*D16
  1

  0
LINE
  5
7E54
  8
3
  6
CONTINUOUS
 62
     0
 10
1679.2614032363131
 20
822.25389400000006
 30
0.0
 11
1679.2614032363131
 21
750.16497500000003
 31
0.0
  0
LINE
  5
7E55
  8
3
  6
CONTINUOUS
 62
     0
 10
1649.2614032363131
 20
760.16497499999991
 30
0.0
 11
1629.2614032363131
 21
760.16497499999991
 31
0.0
  0
LINE
  5
7E56
  8
3
  6
CONTINUOUS
 62
     0
 10
1699.261403236314
 20
760.16497499999991
 30
0.0
 11
1719.261403236314
 21
760.16497499999991
 31
0.0
  0
TEXT
  8
3
  40
30
  5
7E80
  62
0
  72
0
  71
0
 10
1648.84
 20
729.344
 30
0.000000
  1
10
  0
LINE
  5
7E58
  8
3
  6
CONTINUOUS
 62
     0
 10
1669.261403236314
 20
760.16497499999991
 30
0.0
 11
1679.2614032363131
 21
760.16497499999991
 31
0.0
  0
INSERT
  5
7E59
  8
3
  6
CONTINUOUS
 62
     0
  2
_OPEN
 10
1669.261403236314
 20
760.16497499999991
 30
0.0
 41
20.0
 42
20.0
 43
20.0
  0
INSERT
  5
7E5A
  8
3
  6
CONTINUOUS
 62
     0
  2
_OPEN
 10
1679.2614032363131
 20
760.16497499999991
 30
0.0
 41
20.0
 42
20.0
 43
20.0
 50
180.0
  0
POINT
  5
7E5B
  8
DEFPOINTS
  6
CONTINUOUS
 62
     0
 10
1669.261403236314
 20
790.63551900000004
 30
0.0
  0
POINT
  5
7E5C
  8
DEFPOINTS
  6
CONTINUOUS
 62
     0
 10
1679.2614032363131
 20
827.25389399999995
 30
0.0
  0
POINT
  5
7E5D
  8
DEFPOINTS
  6
CONTINUOUS
 62
     0
 10
1679.2614032363131
 20
760.16497499999991
 30
0.0
  0
ENDBLK
  5
7C38
  8
0
  0
BLOCK
  8
0
  2
*D17
 70
     1
 10
0.0
 20
0.0
 30
0.0
  3
*D17
  1

  0
LINE
  5
7E5E
  8
3
  6
CONTINUOUS
 62
     0
 10
1752.2614032363131
 20
1249.253893999999
 30
0.0
 11
1837.575212236314
 21
1249.253893999999
 31
0.0
  0
LINE
  5
7E5F
  8
3
  6
CONTINUOUS
 62
     0
 10
1752.2614032363131
 20
1049.2538939999999
 30
0.0
 11
1837.575212236314
 21
1049.2538939999999
 31
0.0
  0
LINE
  5
7E60
  8
3
  6
CONTINUOUS
 62
     0
 10
1827.575212236314
 20
1229.2538939999999
 30
0.0
 11
1827.575212236314
 21
1069.2538939999999
 31
0.0
  0
INSERT
  5
7E61
  8
3
  6
CONTINUOUS
 62
     0
  2
_OPEN
 10
1827.575212236314
 20
1249.253893999999
 30
0.0
 41
20.0
 42
20.0
 43
20.0
 50
90.0
  0
INSERT
  5
7E62
  8
3
  6
CONTINUOUS
 62
     0
  2
_OPEN
 10
1827.575212236314
 20
1049.2538939999999
 30
0.0
 41
20.0
 42
20.0
 43
20.0
 50
270.0
  0
TEXT
  8
3
  40
30
  5
7E81
  62
0
  72
0
  71
0
 10
1742.58
 20
1109.58
 30
0.000000
  1
φ200
  0
POINT
  5
7E64
  8
DEFPOINTS
  6
CONTINUOUS
 62
     0
 10
1747.2614032363131
 20
1249.253893999999
 30
0.0
  0
POINT
  5
7E65
  8
DEFPOINTS
  6
CONTINUOUS
 62
     0
 10
1747.2614032363131
 20
1049.2538939999999
 30
0.0
  0
POINT
  5
7E66
  8
DEFPOINTS
  6
CONTINUOUS
 62
     0
 10
1827.575212236314
 20
1049.2538939999999
 30
0.0
  0
ENDBLK
  5
7CDC
  8
0
  0
BLOCK
  8
0
  2
*D18
 70
     1
 10
0.0
 20
0.0
 30
0.0
  3
*D18
  1

  0
LINE
  5
7E67
  8
3
 62
     0
 10
399.1082439999999
 20
1159.253893999999
 30
0.0
 11
399.1082439999999
 21
1483.160126236553
 31
0.0
  0
LINE
  5
7E68
  8
3
 62
     0
 10
1044.675432
 20
857.25389399999995
 30
0.0
 11
1044.675432
 21
1483.160126236553
 31
0.0
  0
LINE
  5
7E69
  8
3
 62
     0
 10
419.10824400000001
 20
1473.160126236553
 30
0.0
 11
1024.675432
 21
1473.160126236553
 31
0.0
  0
INSERT
  5
7E6A
  8
3
 62
     0
  2
_OPEN
 10
399.1082439999999
 20
1473.160126236553
 30
0.0
 41
20.0
 42
20.0
 43
20.0
 50
180.0
  0
INSERT
  5
7E6B
  8
3
 62
     0
  2
_OPEN
 10
1044.675432
 20
1473.160126236553
 30
0.0
 41
20.0
 42
20.0
 43
20.0
  0
TEXT
  8
3
  40
30
  5
7E82
  62
0
  72
0
  71
0
 10
674.006
 20
1445.06
 30
0.000000
  1
646
  0
POINT
  5
7E6D
  8
DEFPOINTS
 62
     0
 10
399.1082439999999
 20
1154.2538939999999
 30
0.0
  0
POINT
  5
7E6E
  8
DEFPOINTS
 62
     0
 10
1044.675432
 20
852.25389399999995
 30
0.0
  0
POINT
  5
7E6F
  8
DEFPOINTS
 62
     0
 10
1044.675432
 20
1473.160126236553
 30
0.0
  0
ENDBLK
  5
7CAB
  8
0
  0
ENDSEC
  0
SECTION
  2
ENTITIES
  0
CIRCLE
  5
7A86
  8
1
  6
CONTINUOUS
 10
549.67543199999989
 20
1149.253893999999
 30
0.0
 40
100.0
  0
CIRCLE
  5
7A87
  8
1
  6
CONTINUOUS
 10
549.67543199999989
 20
1149.253893999999
 30
0.0
 40
120.0
  0
LINE
  5
7A88
  8
1
  6
CONTINUOUS
 10
537.67543199999989
 20
1790.027557801797
 30
0.0
 11
537.67543199999989
 21
1959.727557801797
 31
0.0
  0
LINE
  5
7A89
  8
1
  6
CONTINUOUS
 10
561.675432
 20
1790.027557801797
 30
0.0
 11
561.675432
 21
1959.727557801797
 31
0.0
  0
LINE
  5
7A8A
  8
1
  6
CONTINUOUS
 10
861.87543200000005
 20
1823.527557801797
 30
0.0
 11
1044.675432
 21
1823.527557801797
 31
0.0
  0
LINE
  5
7A8B
  8
1
  6
CONTINUOUS
 10
561.675432
 20
1823.527557801797
 30
0.0
 11
837.87543200000005
 21
1823.527557801797
 31
0.0
  0
LINE
  5
7A8C
  8
1
  6
CONTINUOUS
 10
442.675432
 20
924.25389399999995
 30
0.0
 11
442.675432
 21
1259.253893999999
 31
0.0
  0
LINE
  5
7A8D
  8
1
  6
CONTINUOUS
 10
442.675432
 20
1737.527557801797
 30
0.0
 11
442.675432
 21
1812.527557801797
 31
0.0
  0
LINE
  5
7A8E
  8
1
  6
CONTINUOUS
 10
442.675432
 20
1737.527557801797
 30
0.0
 11
972.67543199999989
 21
1737.527557801797
 31
0.0
  0
LINE
  5
7A8F
  8
1
  6
CONTINUOUS
 10
599.67543199999989
 20
1760.027557801797
 30
0.0
 11
599.67543199999989
 21
1790.027557801797
 31
0.0
  0
LINE
  5
7A90
  8
1
  6
CONTINUOUS
 10
499.675432
 20
1760.027557801797
 30
0.0
 11
499.675432
 21
1790.027557801797
 31
0.0
  0
LINE
  5
7A91
  8
1
  6
CONTINUOUS
 10
599.67543199999989
 20
1760.027557801797
 30
0.0
 11
499.675432
 21
1760.027557801797
 31
0.0
  0
LINE
  5
7A92
  8
1
  6
CONTINUOUS
 10
599.67543199999989
 20
1790.027557801797
 30
0.0
 11
499.675432
 21
1790.027557801797
 31
0.0
  0
LINE
  5
7A93
  8
1
  6
CONTINUOUS
 10
861.87543200000005
 20
1790.027557801797
 30
0.0
 11
861.87543200000005
 21
1842.727557801797
 31
0.0
  0
LINE
  5
7A94
  8
1
  6
CONTINUOUS
 10
837.87543200000005
 20
1790.027557801797
 30
0.0
 11
837.87543200000005
 21
1842.727557801797
 31
0.0
  0
LINE
  5
7A95
  8
1
  6
CONTINUOUS
 10
364.67543199999989
 20
2047.527557801797
 30
0.0
 11
398.675432
 21
2047.527557801797
 31
0.0
  0
LINE
  5
7A96
  8
1
  6
CONTINUOUS
 10
364.67543199999989
 20
1823.527557801797
 30
0.0
 11
537.67543199999989
 21
1823.527557801797
 31
0.0
  0
LINE
  5
7A97
  8
1
  6
CONTINUOUS
 10
972.67543199999989
 20
1737.527557801797
 30
0.0
 11
972.67543199999989
 21
1812.527557801797
 31
0.0
  0
LINE
  5
7A98
  8
1
  6
CONTINUOUS
 10
442.675432
 20
1812.527557801797
 30
0.0
 11
972.67543199999989
 21
1812.527557801797
 31
0.0
  0
LINE
  5
7A99
  8
1
  6
CONTINUOUS
 10
884.87543200000005
 20
1760.027557801797
 30
0.0
 11
884.87543200000005
 21
1790.027557801797
 31
0.0
  0
LINE
  5
7A9A
  8
1
  6
CONTINUOUS
 10
814.87543200000005
 20
1760.027557801797
 30
0.0
 11
814.87543200000005
 21
1790.027557801797
 31
0.0
  0
LINE
  5
7A9B
  8
1
  6
CONTINUOUS
 10
884.87543200000005
 20
1790.027557801797
 30
0.0
 11
814.87543200000005
 21
1790.027557801797
 31
0.0
  0
LINE
  5
7A9C
  8
1
  6
CONTINUOUS
 10
884.87543200000005
 20
1760.027557801797
 30
0.0
 11
814.87543200000005
 21
1760.027557801797
 31
0.0
  0
LINE
  5
7A9D
  8
1
  6
CONTINUOUS
 10
769.175432
 20
2033.6275578017969
 30
0.0
 11
939.175432
 21
2033.6275578017969
 31
0.0
  0
LINE
  5
7A9E
  8
1
  6
CONTINUOUS
 10
769.175432
 20
1842.727557801797
 30
0.0
 11
939.175432
 21
1842.727557801797
 31
0.0
  0
LINE
  5
7A9F
  8
1
  6
CONTINUOUS
 10
939.175432
 20
1842.727557801797
 30
0.0
 11
939.175432
 21
2033.6275578017969
 31
0.0
  0
LINE
  5
7AA0
  8
1
  6
CONTINUOUS
 10
769.175432
 20
1842.727557801797
 30
0.0
 11
769.175432
 21
2033.6275578017969
 31
0.0
  0
LINE
  5
7AA1
  8
1
  6
CONTINUOUS
 10
389.67543199999989
 20
874.25389399999995
 30
0.0
 11
389.67543199999989
 21
924.25389399999995
 31
0.0
  0
LINE
  5
7AA2
  8
1
  6
CONTINUOUS
 10
1019.675432
 20
924.25389399999995
 30
0.0
 11
389.67543199999989
 21
924.25389399999995
 31
0.0
  0
LINE
  5
7AA3
  8
1
  6
CONTINUOUS
 10
1019.675432
 20
874.25389399999995
 30
0.0
 11
389.67543199999989
 21
874.25389399999995
 31
0.0
  0
LINE
  5
7AA4
  8
1
  6
CONTINUOUS
 10
1019.675432
 20
874.25389399999995
 30
0.0
 11
1019.675432
 21
924.25389399999995
 31
0.0
  0
LINE
  5
7AA5
  8
1
  6
CONTINUOUS
 10
1012.375432
 20
944.95389399999999
 30
0.0
 11
1012.375432
 21
924.25389399999995
 31
0.0
  0
LINE
  5
7AA6
  8
1
  6
CONTINUOUS
 10
761.37543200000005
 20
944.95389399999999
 30
0.0
 11
1012.375432
 21
944.95389399999999
 31
0.0
  0
LINE
  5
7AA7
  8
1
  6
CONTINUOUS
 10
761.37543200000005
 20
924.25389399999995
 30
0.0
 11
761.37543200000005
 21
944.95389399999999
 31
0.0
  0
LINE
  5
7AA8
  8
1
  6
CONTINUOUS
 10
972.67543199999989
 20
1259.253893999999
 30
0.0
 11
442.675432
 21
1259.253893999999
 31
0.0
  0
LINE
  5
7AA9
  8
1
  6
CONTINUOUS
 10
972.67543199999989
 20
924.25389399999995
 30
0.0
 11
972.67543199999989
 21
1259.253893999999
 31
0.0
  0
CIRCLE
  5
7AAA
  8
1
  6
CONTINUOUS
 10
849.87543199999993
 20
1025.3538939999989
 30
0.0
 40
35.0
  0
ARC
  5
7AAB
  8
1
  6
CONTINUOUS
 10
854.175432
 20
1024.953894
 30
0.0
 40
85.0
 50
324.69999999999987
 51
215.30000000000001
  0
LINE
  5
7AAC
  8
1
  6
CONTINUOUS
 10
931.67543199999989
 20
952.95389399999999
 30
0.0
 11
923.57543199999986
 21
975.75389399999995
 31
0.0
  0
LINE
  5
7AAD
  8
1
  6
CONTINUOUS
 10
776.675432
 20
944.95389399999999
 30
0.0
 11
776.675432
 21
952.95389399999999
 31
0.0
  0
LINE
  5
7AAE
  8
1
  6
CONTINUOUS
 10
776.675432
 20
952.95389399999999
 30
0.0
 11
784.87543200000005
 21
975.75389399999995
 31
0.0
  0
LINE
  5
7AAF
  8
1
  6
CONTINUOUS
 10
931.67543199999989
 20
944.95389399999999
 30
0.0
 11
931.67543199999989
 21
952.95389399999999
 31
0.0
  0
LINE
  5
7AB0
  8
2
  6
CONTINUOUS
 10
849.87543199999993
 20
990.35389399999997
 30
0.0
 11
849.87543199999993
 21
1060.3538939999989
 31
0.0
  0
LINE
  5
7AB1
  8
2
  6
CONTINUOUS
 10
884.87543200000005
 20
1025.3538939999989
 30
0.0
 11
814.87543200000005
 21
1025.3538939999989
 31
0.0
  0
LINE
  5
7AB2
  8
1
  6
CONTINUOUS
 10
549.67543199999989
 20
1294.2538939999999
 30
0.0
 11
539.675432
 21
1294.2538939999999
 31
0.0
  0
LINE
  5
7AB3
  8
1
  6
CONTINUOUS
 10
760.675432
 20
1294.2538939999999
 30
0.0
 11
749.67543199999989
 21
1294.2538939999999
 31
0.0
  0
LINE
  5
7AB4
  8
1
  6
CONTINUOUS
 10
749.67543199999989
 20
1309.2538939999999
 30
0.0
 11
749.67543199999989
 21
1294.2538939999999
 31
0.0
  0
LINE
  5
7AB5
  8
1
  6
CONTINUOUS
 10
414.675432
 20
924.25389399999995
 30
0.0
 11
414.675432
 21
1202.953894
 31
0.0
  0
LINE
  5
7AB6
  8
1
  6
CONTINUOUS
 10
498.07543199999998
 20
1274.2538939999999
 30
0.0
 11
601.27543199999991
 21
1274.2538939999999
 31
0.0
  0
LINE
  5
7AB7
  8
1
  6
CONTINUOUS
 10
684.675432
 20
1202.953894
 30
0.0
 11
684.675432
 21
924.25389399999995
 31
0.0
  0
LINE
  5
7AB8
  8
1
  6
CONTINUOUS
 10
498.07543199999998
 20
1274.2538939999999
 30
0.0
 11
414.675432
 21
1202.953894
 31
0.0
  0
LINE
  5
7AB9
  8
1
  6
CONTINUOUS
 10
601.27543199999991
 20
1274.2538939999999
 30
0.0
 11
684.675432
 21
1202.953894
 31
0.0
  0
LINE
  5
7ABA
  8
1
  6
CONTINUOUS
 10
684.675432
 20
1115.953894
 30
0.0
 11
414.675432
 21
1115.953894
 31
0.0
  0
ARC
  5
7ABB
  8
1
  6
CONTINUOUS
 10
563.675432
 20
1135.2538939999999
 30
0.0
 40
165.0
 50
179.40000000000001
 51
270.30000000000001
  0
LINE
  5
7ABC
  8
1
  6
CONTINUOUS
 10
548.675432
 20
1309.2538939999999
 30
0.0
 11
563.675432
 21
1294.2538939999999
 31
0.0
  0
LINE
  5
7ABD
  8
1
  6
CONTINUOUS
 10
735.675432
 20
1294.2538939999999
 30
0.0
 11
563.675432
 21
1294.2538939999999
 31
0.0
  0
LINE
  5
7ABE
  8
1
  6
CONTINUOUS
 10
750.67543199999989
 20
1309.2538939999999
 30
0.0
 11
735.675432
 21
1294.2538939999999
 31
0.0
  0
ARC
  5
7ABF
  8
1
  6
CONTINUOUS
 10
538.675432
 20
1138.253893999999
 30
0.0
 40
140.0
 50
89.599999999999994
 51
180.59999999999991
  0
ARC
  5
7AC0
  8
1
  6
CONTINUOUS
 10
565.675432
 20
1165.253893999999
 30
0.0
 40
195.0
 50
269.69999999999999
 51
0.0
  0
LINE
  5
7AC1
  8
1
  6
CONTINUOUS
 10
760.675432
 20
1294.2538939999999
 30
0.0
 11
760.675432
 21
1165.253893999999
 31
0.0
  0
LINE
  5
7AC2
  8
1
  6
CONTINUOUS
 10
549.67543199999989
 20
1309.2538939999999
 30
0.0
 11
549.67543199999989
 21
1294.2538939999999
 31
0.0
  0
LINE
  5
7AC3
  8
1
  6
CONTINUOUS
 10
770.67543199999989
 20
1309.2538939999999
 30
0.0
 11
528.675432
 21
1309.2538939999999
 31
0.0
  0
LINE
  5
7AC4
  8
1
  6
CONTINUOUS
 10
539.675432
 20
1294.2538939999999
 30
0.0
 11
539.675432
 21
1278.2538939999999
 31
0.0
  0
LINE
  5
7AC5
  8
1
  6
CONTINUOUS
 10
669.675432
 20
2107.327557801797
 30
0.0
 11
669.675432
 21
2115.327557801797
 31
0.0
  0
LINE
  5
7AC6
  8
1
  6
CONTINUOUS
 10
398.675432
 20
1979.527557801797
 30
0.0
 11
398.675432
 21
2095.5275578017968
 31
0.0
  0
LINE
  5
7AC7
  8
1
  6
CONTINUOUS
 10
669.675432
 20
2115.327557801797
 30
0.0
 11
429.675432
 21
2115.327557801797
 31
0.0
  0
LINE
  5
7AC8
  8
1
  6
CONTINUOUS
 10
429.675432
 20
2107.327557801797
 30
0.0
 11
429.675432
 21
2115.327557801797
 31
0.0
  0
LINE
  5
7AC9
  8
1
  6
CONTINUOUS
 10
429.675432
 20
1967.7275578017959
 30
0.0
 11
429.675432
 21
1959.727557801797
 31
0.0
  0
LINE
  5
7ACA
  8
1
  6
CONTINUOUS
 10
669.675432
 20
1959.727557801797
 30
0.0
 11
429.675432
 21
1959.727557801797
 31
0.0
  0
LINE
  5
7ACB
  8
1
  6
CONTINUOUS
 10
669.675432
 20
1967.7275578017959
 30
0.0
 11
669.675432
 21
1959.727557801797
 31
0.0
  0
LINE
  5
7ACC
  8
1
  6
CONTINUOUS
 10
549.67543199999989
 20
1967.527557801797
 30
0.0
 11
549.67543199999989
 21
2107.5275578017968
 31
0.0
  0
LINE
  5
7ACD
  8
1
  6
CONTINUOUS
 10
410.675432
 20
2107.5275578017968
 30
0.0
 11
749.67543199999989
 21
2107.5275578017968
 31
0.0
  0
LINE
  5
7ACE
  8
1
  6
CONTINUOUS
 10
749.67543199999989
 20
2107.5275578017968
 30
0.0
 11
749.67543199999989
 21
1967.527557801797
 31
0.0
  0
LINE
  5
7ACF
  8
1
  6
CONTINUOUS
 10
749.67543199999989
 20
1967.527557801797
 30
0.0
 11
410.675432
 21
1967.527557801797
 31
0.0
  0
ARC
  5
7AD0
  8
1
  6
CONTINUOUS
 10
410.675432
 20
1979.527557801797
 30
0.0
 40
12.0
 50
180.0
 51
270.0
  0
ARC
  5
7AD1
  8
1
  6
CONTINUOUS
 10
410.675432
 20
2095.5275578017968
 30
0.0
 40
12.0
 50
90.0
 51
180.0
  0
LINE
  5
7AD2
  8
1
  6
CONTINUOUS
 10
749.67543199999989
 20
1967.527557801797
 30
0.0
 11
549.67543199999989
 21
2107.5275578017968
 31
0.0
  0
LINE
  5
7AD3
  8
1
  6
CONTINUOUS
 10
749.67543199999989
 20
2107.5275578017968
 30
0.0
 11
549.67543199999989
 21
1967.527557801797
 31
0.0
  0
LINE
  5
7AD4
  8
1
  6
CONTINUOUS
 10
1044.675432
 20
1823.527557801797
 30
0.0
 11
1044.675432
 21
2047.527557801797
 31
0.0
  0
LINE
  5
7AD5
  8
1
  6
CONTINUOUS
 10
364.67543199999989
 20
1823.527557801797
 30
0.0
 11
364.67543199999989
 21
2047.527557801797
 31
0.0
  0
LINE
  5
7AD6
  8
1
  6
CONTINUOUS
 10
1044.675432
 20
827.25389399999995
 30
0.0
 11
364.67543199999989
 21
827.25389399999995
 31
0.0
  0
LINE
  5
7AD7
  8
1
  6
CONTINUOUS
 10
1044.675432
 20
852.25389399999995
 30
0.0
 11
364.67543199999989
 21
852.25389399999995
 31
0.0
  0
LINE
  5
7AD8
  8
1
  6
CONTINUOUS
 10
1044.675432
 20
827.25389399999995
 30
0.0
 11
1044.675432
 21
852.25389399999995
 31
0.0
  0
LINE
  5
7AD9
  8
1
  6
CONTINUOUS
 10
364.67543199999989
 20
827.25389399999995
 30
0.0
 11
364.67543199999989
 21
852.25389399999995
 31
0.0
  0
LINE
  5
7ADA
  8
1
  6
CONTINUOUS
 10
749.67543199999989
 20
2047.527557801797
 30
0.0
 11
1044.675432
 21
2047.527557801797
 31
0.0
  0
LINE
  5
7ADB
  8
2
 10
1766.348622236314
 20
1149.253893999999
 30
0.0
 11
1333.1047912363131
 21
1149.253893999999
 31
0.0
  0
LINE
  5
7ADC
  8
2
 10
549.67543199999989
 20
791.79739299999994
 30
0.0
 11
549.67543199999989
 21
1335.07689
 31
0.0
  0
CIRCLE
  5
7ADD
  8
1
  6
CONTINUOUS
 10
549.67543199999989
 20
1149.253893999999
 30
0.0
 40
50.0
  0
LINE
  5
7ADE
  8
1
  6
CONTINUOUS
 10
570.87543200000005
 20
1194.5538939999999
 30
0.0
 11
864.67543199999989
 21
1057.053893999999
 31
0.0
  0
LINE
  5
7ADF
  8
1
  6
CONTINUOUS
 10
532.77543200000002
 20
1102.2538939999999
 30
0.0
 11
837.97543199999996
 21
992.45389399999988
 31
0.0
  0
LINE
  5
7AE4
  8
1
  6
CONTINUOUS
 10
1739.2614032363131
 20
1029.2538939999999
 30
0.0
 11
1747.2614032363131
 21
1029.2538939999999
 31
0.0
  0
LINE
  5
7AE5
  8
1
  6
CONTINUOUS
 10
1747.2614032363131
 20
1269.2538939999999
 30
0.0
 11
1747.2614032363131
 21
1029.2538939999999
 31
0.0
  0
LINE
  5
7AE6
  8
1
  6
CONTINUOUS
 10
1739.2614032363131
 20
1269.2538939999999
 30
0.0
 11
1747.2614032363131
 21
1269.2538939999999
 31
0.0
  0
LINE
  5
7AE7
  8
1
  6
CONTINUOUS
 10
1740.2614032363131
 20
1309.2538939999999
 30
0.0
 11
1725.2614032363131
 21
1294.2538939999999
 31
0.0
  0
LINE
  5
7AE8
  8
1
  6
CONTINUOUS
 10
1613.2614032363131
 20
1294.2538939999999
 30
0.0
 11
1725.2614032363131
 21
1294.2538939999999
 31
0.0
  0
LINE
  5
7AE9
  8
1
  6
CONTINUOUS
 10
1598.2614032363131
 20
1309.2538939999999
 30
0.0
 11
1613.2614032363131
 21
1294.2538939999999
 31
0.0
  0
ARC
  5
7AEA
  8
1
  6
CONTINUOUS
 10
1729.2614032363131
 20
980.25389399999995
 30
0.0
 40
10.0
 50
270.0
 51
0.0
  0
ARC
  5
7AEB
  8
1
  6
CONTINUOUS
 10
1609.2614032363131
 20
980.25389399999995
 30
0.0
 40
10.0
 50
180.0
 51
270.0
  0
LINE
  5
7AEC
  8
1
  6
CONTINUOUS
 10
1599.2614032363131
 20
1309.2538939999999
 30
0.0
 11
1599.2614032363131
 21
980.25389399999995
 31
0.0
  0
LINE
  5
7AED
  8
1
  6
CONTINUOUS
 10
1739.2614032363131
 20
1309.2538939999999
 30
0.0
 11
1739.2614032363131
 21
980.25389399999995
 31
0.0
  0
LINE
  5
7AEE
  8
1
  6
CONTINUOUS
 10
1609.2614032363131
 20
970.25389399999995
 30
0.0
 11
1729.2614032363131
 21
970.25389399999995
 31
0.0
  0
LINE
  5
7AEF
  8
1
  6
CONTINUOUS
 10
1578.261403236314
 20
1309.2538939999999
 30
0.0
 11
1760.2614032363131
 21
1309.2538939999999
 31
0.0
  0
LINE
  5
7AF0
  8
1
  6
CONTINUOUS
 10
1599.2614032363131
 20
1269.2538939999999
 30
0.0
 11
1591.2614032363131
 21
1269.2538939999999
 31
0.0
  0
LINE
  5
7AF1
  8
1
  6
CONTINUOUS
 10
1599.2614032363131
 20
1029.2538939999999
 30
0.0
 11
1591.2614032363131
 21
1029.2538939999999
 31
0.0
  0
LINE
  5
7AF2
  8
1
  6
CONTINUOUS
 10
1455.2614032363131
 20
852.25389399999995
 30
0.0
 11
1679.2614032363131
 21
852.25389399999995
 31
0.0
  0
LINE
  5
7AF3
  8
1
  6
CONTINUOUS
 10
1455.2614032363131
 20
852.25389399999995
 30
0.0
 11
1455.2614032363131
 21
827.25389399999995
 31
0.0
  0
LINE
  5
7AF4
  8
1
  6
CONTINUOUS
 10
1679.2614032363131
 20
852.25389399999995
 30
0.0
 11
1679.2614032363131
 21
827.25389399999995
 31
0.0
  0
LINE
  5
7AF5
  8
1
  6
CONTINUOUS
 10
1455.2614032363131
 20
827.25389399999995
 30
0.0
 11
1679.2614032363131
 21
827.25389399999995
 31
0.0
  0
LINE
  5
7AF6
  8
1
  6
CONTINUOUS
 10
1591.2614032363131
 20
1269.2538939999999
 30
0.0
 11
1591.2614032363131
 21
924.25389399999995
 31
0.0
  0
LINE
  5
7AF7
  8
1
  6
CONTINUOUS
 10
1421.7614032363131
 20
1137.2538939999999
 30
0.0
 11
1506.6614032363129
 21
1137.2538939999999
 31
0.0
  0
LINE
  5
7AF8
  8
1
  6
CONTINUOUS
 10
1421.7614032363131
 20
1161.2538939999999
 30
0.0
 11
1537.561403236313
 21
1161.2538939999999
 31
0.0
  0
LINE
  5
7AF9
  8
1
  6
CONTINUOUS
 10
1421.7614032363131
 20
1013.3538939999989
 30
0.0
 11
1479.2614032363131
 21
1013.3538939999989
 31
0.0
  0
LINE
  5
7AFA
  8
1
  6
CONTINUOUS
 10
1421.7614032363131
 20
1037.3538939999989
 30
0.0
 11
1479.2614032363131
 21
1037.3538939999989
 31
0.0
  0
LINE
  5
7AFB
  8
1
  6
CONTINUOUS
 10
1391.7614032363131
 20
990.35389399999997
 30
0.0
 11
1421.7614032363131
 21
990.35389399999997
 31
0.0
  0
LINE
  5
7AFC
  8
1
  6
CONTINUOUS
 10
1391.7614032363131
 20
1060.3538939999989
 30
0.0
 11
1421.7614032363131
 21
1060.3538939999989
 31
0.0
  0
LINE
  5
7AFD
  8
1
  6
CONTINUOUS
 10
1421.7614032363131
 20
1060.3538939999989
 30
0.0
 11
1421.7614032363131
 21
990.35389399999997
 31
0.0
  0
LINE
  5
7AFE
  8
1
  6
CONTINUOUS
 10
1391.7614032363131
 20
1060.3538939999989
 30
0.0
 11
1391.7614032363131
 21
990.35389399999997
 31
0.0
  0
LINE
  5
7AFF
  8
1
  6
CONTINUOUS
 10
1421.7614032363131
 20
1199.253893999999
 30
0.0
 11
1421.7614032363131
 21
1099.2538939999999
 31
0.0
  0
LINE
  5
7B00
  8
1
  6
CONTINUOUS
 10
1391.7614032363131
 20
1199.253893999999
 30
0.0
 11
1391.7614032363131
 21
1099.2538939999999
 31
0.0
  0
LINE
  5
7B01
  8
1
  6
CONTINUOUS
 10
1444.2614032363131
 20
1259.253893999999
 30
0.0
 11
1444.2614032363131
 21
924.25389399999995
 31
0.0
  0
LINE
  5
7B02
  8
1
  6
CONTINUOUS
 10
1391.7614032363131
 20
1099.2538939999999
 30
0.0
 11
1421.7614032363131
 21
1099.2538939999999
 31
0.0
  0
LINE
  5
7B03
  8
1
  6
CONTINUOUS
 10
1391.7614032363131
 20
1199.253893999999
 30
0.0
 11
1421.7614032363131
 21
1199.253893999999
 31
0.0
  0
LINE
  5
7B04
  8
1
  6
CONTINUOUS
 10
1369.2614032363131
 20
1259.253893999999
 30
0.0
 11
1444.2614032363131
 21
1259.253893999999
 31
0.0
  0
LINE
  5
7B05
  8
1
  6
CONTINUOUS
 10
1479.2614032363131
 20
1115.953894
 30
0.0
 11
1591.2614032363131
 21
1202.953894
 31
0.0
  0
LINE
  5
7B06
  8
1
  6
CONTINUOUS
 10
1479.2614032363131
 20
1115.953894
 30
0.0
 11
1479.2614032363131
 21
924.25389399999995
 31
0.0
  0
LINE
  5
7B07
  8
1
  6
CONTINUOUS
 10
1369.2614032363131
 20
1259.253893999999
 30
0.0
 11
1369.2614032363131
 21
924.25389399999995
 31
0.0
  0
LINE
  5
7B08
  8
1
  6
CONTINUOUS
 10
1455.2614032363131
 20
924.25389399999995
 30
0.0
 11
1455.2614032363131
 21
874.25389399999995
 31
0.0
  0
LINE
  5
7B09
  8
1
  6
CONTINUOUS
 10
1369.2614032363131
 20
924.25389399999995
 30
0.0
 11
1679.2614032363131
 21
924.25389399999995
 31
0.0
  0
LINE
  5
7B0A
  8
1
  6
CONTINUOUS
 10
1455.2614032363131
 20
874.25389399999995
 30
0.0
 11
1679.2614032363131
 21
874.25389399999995
 31
0.0
  0
LINE
  5
7B0B
  8
1
  6
CONTINUOUS
 10
1679.2614032363131
 20
924.25389399999995
 30
0.0
 11
1679.2614032363131
 21
874.25389399999995
 31
0.0
  0
DIMENSION
  5
7B1F
  8
3
  6
CONTINUOUS
  2
*D1
 10
549.67543199999989
 20
738.94305399999985
 30
0.0
 11
452.02731799999998
 21
738.94305399999985
 31
0.0
 70
   128
 13
364.67543199999989
 23
827.25389399999995
 33
0.0
 14
549.67543199999989
 24
791.79739299999994
 34
0.0
1001
ACAD
1000
DSTYLE
1002
{
1070
   287
1070
     3
1070
   287
1070
     3
1070
    40
1040
10.0
1070
   143
1040
0.039
1070
   172
1070
     1
1070
   271
1070
     0
1070
   279
1070
     0
1070
   288
1070
     1
1002
}
  0
DIMENSION
  5
7B2B
  8
3
  6
CONTINUOUS
  2
*D2
 10
1044.675432
 20
738.94305399999985
 30
0.0
 11
797.175432
 21
763.94305399999985
 31
0.0
 70
     0
 13
549.67543199999989
 23
791.79739299999994
 33
0.0
 14
1044.675432
 24
827.25389399999995
 34
0.0
1001
ACAD
1000
DSTYLE
1002
{
1070
   287
1070
     4
1070
   287
1070
     4
1070
    40
1040
10.0
1070
    75
1070
     1
1070
   143
1040
0.039
1070
   172
1070
     1
1070
   271
1070
     0
1070
   279
1070
     1
1070
   288
1070
     1
1002
}
  0
DIMENSION
  5
7B38
  8
3
  6
CONTINUOUS
  2
*D3
 10
1125.902482
 20
1149.253893999999
 30
0.0
 11
1125.902482
 21
1232.778045
 31
0.0
 70
   128
 13
770.67543199999989
 23
1309.2538939999999
 33
0.0
 14
760.01791300000002
 24
1149.253893999999
 34
0.0
 50
90.0
1001
ACAD
1000
DSTYLE
1002
{
1070
   287
1070
     3
1070
   287
1070
     3
1070
    40
1040
10.0
1070
   143
1040
0.039
1070
   172
1070
     1
1070
   271
1070
     0
1070
   279
1070
     0
1070
   288
1070
     1
1002
}
  0
DIMENSION
  5
7B44
  8
3
  6
CONTINUOUS
  2
*D4
 10
1125.902482
 20
874.25389399999995
 30
0.0
 11
1100.9024819999991
 21
1011.7538939999999
 31
0.0
 70
     0
 13
760.01791300000002
 23
1149.253893999999
 33
0.0
 14
1019.675432
 24
874.25389399999995
 34
0.0
 50
90.0
1001
ACAD
1000
DSTYLE
1002
{
1070
   287
1070
     4
1070
   287
1070
     4
1070
    40
1040
10.0
1070
    75
1070
     1
1070
   143
1040
0.039
1070
   172
1070
     1
1070
   271
1070
     0
1070
   279
1070
     1
1070
   288
1070
     1
1002
}
  0
DIMENSION
  5
7B54
  8
3
  6
CONTINUOUS
  2
*D5
 10
1125.902482
 20
827.25389399999995
 30
0.0
 11
1125.902482
 21
752.96817971428584
 31
0.0
 70
   128
 13
1019.675432
 23
874.25389399999995
 33
0.0
 14
1044.675432
 24
827.25389399999995
 34
0.0
 50
90.0
1001
ACAD
1000
DSTYLE
1002
{
1070
   287
1070
     3
1070
   287
1070
     3
1070
    40
1040
10.0
1070
   143
1040
0.039
1070
   172
1070
     1
1070
   271
1070
     0
1070
   279
1070
     0
1070
   288
1070
     1
1002
}
  0
DIMENSION
  5
7B7B
  8
3
  6
CONTINUOUS
  2
*D6
 10
1198.0547710000001
 20
827.25389399999995
 30
0.0
 11
1198.0547710000001
 21
1068.1663789999991
 31
0.0
 70
   128
 13
770.67543199999989
 23
1309.2538939999999
 33
0.0
 14
1044.675432
 24
827.25389399999995
 34
0.0
 50
90.0
1001
ACAD
1000
DSTYLE
1002
{
1070
   287
1070
     3
1070
   287
1070
     3
1070
    40
1040
10.0
1070
   143
1040
0.039
1070
   172
1070
     1
1070
   271
1070
     0
1070
   279
1070
     0
1070
   288
1070
     1
1002
}
  0
DIMENSION
  5
7B88
  8
3
  6
CONTINUOUS
  2
*D7
 10
749.67543199999989
 20
1355.4870510000001
 30
0.0
 11
643.97963600000003
 21
1355.4870510000001
 31
0.0
 70
   128
 13
549.67543199999989
 23
1309.2538939999999
 33
0.0
 14
749.67543199999989
 24
1309.2538939999999
 34
0.0
1001
ACAD
1000
DSTYLE
1002
{
1070
   287
1070
     3
1070
   287
1070
     3
1070
    40
1040
10.0
1070
   143
1040
0.039
1070
   172
1070
     1
1070
   271
1070
     0
1070
   279
1070
     0
1070
   288
1070
     1
1002
}
  0
DIMENSION
  5
7B95
  8
3
  6
CONTINUOUS
  2
*D8
 10
549.67543199999989
 20
1416.7062659999999
 30
0.0
 11
631.72736299999985
 21
1416.7062659999999
 31
0.0
 70
   128
 13
760.675432
 23
1294.2538939999999
 33
0.0
 14
549.67543199999989
 24
1308.253893999999
 34
0.0
1001
ACAD
1000
DSTYLE
1002
{
1070
   287
1070
     3
1070
   287
1070
     3
1070
    40
1040
10.0
1070
   143
1040
0.039
1070
   172
1070
     1
1070
   271
1070
     0
1070
   279
1070
     0
1070
   288
1070
     1
1002
}
  0
DIMENSION
  5
7BA1
  8
3
  6
CONTINUOUS
  2
*D9
 10
399.1082439999999
 20
1416.7062659999999
 30
0.0
 11
474.39183800000001
 21
1441.706265999999
 31
0.0
 70
     0
 13
549.67543199999989
 23
1308.253893999999
 33
0.0
 14
399.1082439999999
 24
1149.253893999999
 34
0.0
1001
ACAD
1000
DSTYLE
1002
{
1070
   287
1070
     4
1070
   287
1070
     4
1070
    40
1040
10.0
1070
    75
1070
     1
1070
   143
1040
0.039
1070
   172
1070
     1
1070
   271
1070
     0
1070
   279
1070
     1
1070
   288
1070
     1
1002
}
  0
LINE
  5
7BA4
  8
2
 10
549.67543199999989
 20
1709.6193728017961
 30
0.0
 11
549.67543199999989
 21
2136.793442801797
 31
0.0
  0
LINE
  5
7BA5
  8
2
 10
291.82541499999991
 20
2047.527557801797
 30
0.0
 11
795.09104300000001
 21
2047.527557801797
 31
0.0
  0
DIMENSION
  5
7BB3
  8
3
  6
CONTINUOUS
  2
*D10
 10
1044.675432
 20
1636.1563198017971
 30
0.0
 11
707.96374200000002
 21
1636.1563198017971
 31
0.0
 70
   128
 13
364.67543199999989
 23
1823.527557801797
 33
0.0
 14
1044.675432
 24
1823.527557801797
 34
0.0
1001
ACAD
1000
DSTYLE
1002
{
1070
   287
1070
     3
1070
   287
1070
     3
1070
    40
1040
10.0
1070
   143
1040
0.039
1070
   172
1070
     1
1070
   271
1070
     0
1070
   279
1070
     0
1070
   288
1070
     1
1002
}
  0
DIMENSION
  5
7BC0
  8
3
  6
CONTINUOUS
  2
*D11
 10
1151.7683930000001
 20
1823.527557801797
 30
0.0
 11
1151.7683930000001
 21
1927.287687801796
 31
0.0
 70
   128
 13
1044.675432
 23
2047.527557801797
 33
0.0
 14
1044.675432
 24
1823.527557801797
 34
0.0
 50
90.0
1001
ACAD
1000
DSTYLE
1002
{
1070
   287
1070
     3
1070
   287
1070
     3
1070
    40
1040
10.0
1070
   143
1040
0.039
1070
   172
1070
     1
1070
   271
1070
     0
1070
   279
1070
     0
1070
   288
1070
     1
1002
}
  0
LINE
  5
7BC1
  8
2
 10
1669.261403236314
 20
1362.2171189999999
 30
0.0
 11
1669.261403236314
 21
790.63551900000004
 31
0.0
  0
LINE
  5
7BC3
  8
2
 10
823.26306899999997
 20
1149.253893999999
 30
0.0
 11
379.87768799999992
 21
1149.253893999999
 31
0.0
  0
DIMENSION
  5
7BD0
  8
3
  6
CONTINUOUS
  2
*D12
 10
1739.2614032363131
 20
1356.573144
 30
0.0
 11
1664.975688236314
 21
1356.573144
 31
0.0
 70
   128
 13
1599.2614032363131
 23
1308.253893999999
 33
0.0
 14
1739.2614032363131
 24
1308.253893999999
 34
0.0
1001
ACAD
1000
DSTYLE
1002
{
1070
   287
1070
     3
1070
   287
1070
     3
1070
    40
1040
10.0
1070
   143
1040
0.039
1070
   172
1070
     1
1070
   271
1070
     0
1070
   279
1070
     0
1070
   288
1070
     1
1002
}
  0
DIMENSION
  5
7BDD
  8
3
  6
CONTINUOUS
  2
*D13
 10
1669.261403236314
 20
1430.0361979999991
 30
0.0
 11
1526.418473236313
 21
1430.0361979999991
 31
0.0
 70
   128
  1
MAX\P300
 13
1369.2614032363131
 23
1259.253893999999
 33
0.0
 14
1669.261403236314
 24
1407.1378219999999
 34
0.0
1001
ACAD
1000
DSTYLE
1002
{
1070
   287
1070
     3
1070
   287
1070
     3
1070
    40
1040
10.0
1070
   143
1040
0.039
1070
   172
1070
     1
1070
   271
1070
     0
1070
   279
1070
     0
1070
   288
1070
     1
1002
}
  0
DIMENSION
  5
7BEB
  8
3
  6
CONTINUOUS
  2
*D14
 10
1747.2614032363131
 20
1430.0361979999991
 30
0.0
 11
1708.8412452363141
 21
1430.0361979999991
 31
0.0
 70
   128
 13
1669.261403236314
 23
1407.1378219999999
 33
0.0
 14
1747.2614032363131
 24
1269.2538939999999
 34
0.0
1001
ACAD
1000
DSTYLE
1002
{
1070
   287
1070
     4
1070
   287
1070
     4
1070
    40
1040
10.0
1070
    75
1070
     1
1070
   143
1040
0.039
1070
   172
1070
     1
1070
   271
1070
     0
1070
   279
1070
     1
1070
   288
1070
     1
1002
}
  0
DIMENSION
  5
7C0E
  8
3
  6
CONTINUOUS
  2
*D15
 10
1669.261403236314
 20
760.16497499999991
 30
0.0
 11
1567.259396236313
 21
760.16497499999991
 31
0.0
 70
   128
 13
1455.2614032363131
 23
827.25389399999995
 33
0.0
 14
1669.261403236314
 24
790.63551900000004
 34
0.0
1001
ACAD
1000
DSTYLE
1002
{
1070
   287
1070
     3
1070
   287
1070
     3
1070
    40
1040
10.0
1070
   143
1040
0.039
1070
   172
1070
     1
1070
   271
1070
     0
1070
   279
1070
     0
1070
   288
1070
     1
1002
}
  0
DIMENSION
  5
7C1E
  8
3
  6
CONTINUOUS
  2
*D16
 10
1679.2614032363131
 20
760.16497499999991
 30
0.0
 11
1708.8412452363141
 21
757.44412199999988
 31
0.0
 70
   128
 13
1669.261403236314
 23
790.63551900000004
 33
0.0
 14
1679.2614032363131
 24
827.25389399999995
 34
0.0
1001
ACAD
1000
DSTYLE
1002
{
1070
   287
1070
     4
1070
   287
1070
     4
1070
    40
1040
10.0
1070
    75
1070
     1
1070
   143
1040
0.039
1070
   172
1070
     1
1070
   271
1070
     0
1070
   279
1070
     1
1070
   288
1070
     1
1002
}
  0
DIMENSION
  5
7C49
  8
3
  6
CONTINUOUS
  2
*D17
 10
1827.575212236314
 20
1049.2538939999999
 30
0.0
 11
1827.5752122363131
 21
1162.682465428571
 31
0.0
 70
   128
 13
1747.2614032363131
 23
1249.253893999999
 33
0.0
 14
1747.2614032363131
 24
1049.2538939999999
 34
0.0
 50
90.0
1001
ACAD
1000
DSTYLE
1002
{
1070
   287
1070
     3
1070
   287
1070
     3
1070
     3
1000
φ<>
1070
    40
1040
10.0
1070
   143
1040
0.039
1070
   172
1070
     1
1070
   271
1070
     0
1070
   279
1070
     0
1070
   288
1070
     1
1002
}
  0
LINE
  5
7C4A
  8
4
  6
CONTINUOUS
 10
1850.0
 20
500.0
 30
0.0
 11
1850.0
 21
300.0
 31
0.0
  0
LINE
  5
7C4B
  8
4
  6
CONTINUOUS
 10
1150.0
 20
500.0
 30
0.0
 11
1150.0
 21
300.0
 31
0.0
  0
LINE
  5
7C4C
  8
4
  6
CONTINUOUS
 10
650.0
 20
500.0
 30
0.0
 11
650.0
 21
300.0
 31
0.0
  0
LINE
  5
7C4F
  8
4
  6
CONTINUOUS
 10
650.0
 20
300.0
 30
0.0
 11
1850.0
 21
300.0
 31
0.0
  0
LINE
  5
7C50
  8
4
  6
CONTINUOUS
 10
650.0
 20
400.0
 30
0.0
 11
1850.0
 21
400.0
 31
0.0
  0
TEXT
  5
7C51
  8
4
  6
CONTINUOUS
 10
688.50208099999998
 20
431.543026
 30
0.0
 40
50.0
  1
機器名称
  0
TEXT
  5
7C52
  8
4
  6
CONTINUOUS
 10
686.258106
 20
321.64515699999993
 30
0.0
 40
50.0
  1
機器型番
  0
TEXT
  5
7C53
  8
4
  6
CONTINUOUS
 10
1178.059626999999
 20
424.28242299999999
 30
0.0
 40
42.350000000000001
  1
ミツヤニューマルチファン
  0
TEXT
  5
7C54
  8
4
  6
CONTINUOUS
 10
1186.6544960000001
 20
317.159584
 30
0.0
 40
50.0
  1
NM#1 1/4-1
  0
TEXT
  5
7C56
  8
4
  6
CONTINUOUS
 10
714.45974999999987
 20
2383.4288409999999
 30
0.0
 40
54.0
  1
床置防振ベット
  0
TEXT
  5
7C57
  8
4
  6
CONTINUOUS
 10
316.16759300000001
 20
2533.8809759999999
 30
0.0
 40
72.0
  1
ベルト駆動式片吸込片持多翼ファン
  0
LINE
  5
7C58
  8
4
  6
CONTINUOUS
 10
250.0
 20
2469.408754
 30
0.0
 11
1850.0
 21
2469.408754
 31
0.0
  0
LINE
  5
7C59
  8
4
  6
CONTINUOUS
 10
250.0
 20
2669.408754
 30
0.0
 11
1850.0
 21
2669.408754
 31
0.0
  0
LINE
  5
7C5A
  8
4
  6
CONTINUOUS
 10
650.0
 20
500.0
 30
0.0
 11
1850.0
 21
500.0
 31
0.0
  0
LINE
  5
7C5B
  8
4
  6
CONTINUOUS
 10
250.0
 20
2669.408754
 30
0.0
 11
250.0
 21
2469.408754
 31
0.0
  0
TEXT
  5
7C5C
  8
4
  6
CONTINUOUS
 10
278.60091799999998
 20
2382.3194779999999
 30
0.0
 40
54.0
  1
左回転上向
  0
TEXT
  5
7C5D
  8
4
  6
CONTINUOUS
 10
1468.9695589999999
 20
2706.0610809999998
 30
0.0
 40
56.0
  1
No.
  0
TEXT
  5
7C5E
  8
4
  6
CONTINUOUS
 10
1311.296063
 20
2383.4288409999999
 30
0.0
 40
54.0
  1
縮尺：1/10
  0
LINE
  5
7C5F
  8
4
  6
CONTINUOUS
 10
1850.0
 20
2669.408754
 30
0.0
 11
1850.0
 21
2469.408754
 31
0.0
  0
LINE
  5
7C61
  8
4
  6
CONTINUOUS
 10
1440.617422
 20
2681.2635829999999
 30
0.0
 11
1440.617422
 21
2786.6522620000001
 31
0.0
  0
LINE
  5
7C62
  8
4
  6
CONTINUOUS
 10
1440.617422
 20
2786.6522620000001
 30
0.0
 11
1850.0
 21
2786.6522620000001
 31
0.0
  0
LINE
  5
7C63
  8
4
  6
CONTINUOUS
 10
1850.0
 20
2786.6522620000001
 30
0.0
 11
1850.0
 21
2681.2635829999999
 31
0.0
  0
LINE
  5
7C64
  8
4
  6
CONTINUOUS
 10
1850.0
 20
2681.2635829999999
 30
0.0
 11
1440.617422
 21
2681.2635829999999
 31
0.0
  0
DIMENSION
  5
7CAC
  8
3
  2
*D18
 10
1044.675432
 20
1473.160126236553
 30
0.0
 11
734.00613892504771
 21
1473.160126236553
 31
0.0
 70
   128
 13
399.1082439999999
 23
1154.2538939999999
 33
0.0
 14
1044.675432
 24
852.25389399999995
 34
0.0
1001
ACAD
1000
DSTYLE
1002
{
1070
   287
1070
     3
1070
   287
1070
     3
1070
    40
1040
10.0
1070
   143
1040
0.039
1070
   172
1070
     1
1070
   271
1070
     0
1070
   279
1070
     0
1070
   288
1070
     1
1002
}
  0
ENDSEC
  0
EOF
