  0
SECTION
  2
HEADER
  9
$ACADVER
  1
AC1009
  9
$INSBASE
 10
0.0
 20
0.0
 30
0.0
  9
$EXTMIN
 10
250.0
 20
300.0
 30
0.0
  9
$EXTMAX
 10
1850.0
 20
2786.6522620000001
 30
0.0
  9
$LIMMIN
 10
0.0
 20
0.0
  9
$LIMMAX
 10
297.0
 20
210.0
  9
$ORTHOMODE
 70
     0
  9
$REGENMODE
 70
     1
  9
$FILLMODE
 70
     0
  9
$QTEXTMODE
 70
     0
  9
$MIRRTEXT
 70
     1
  9
$DRAGMODE
 70
     2
  9
$LTSCALE
 40
100.0
  9
$OSMODE
 70
    37
  9
$ATTMODE
 70
     1
  9
$TEXTSIZE
 40
180.0
  9
$TRACEWID
 40
0.05
  9
$TEXTSTYLE
  7
STANDARD
  9
$CLAYER
  8
3
  9
$CELTYPE
  6
BYLAYER
  9
$CECOLOR
 62
   256
  9
$DIMSCALE
 40
10.0
  9
$DIMASZ
 40
2.0
  9
$DIMEXO
 40
0.5
  9
$DIMDLI
 40
10.0
  9
$DIMRND
 40
0.0
  9
$DIMDLE
 40
0.0
  9
$DIMEXE
 40
1.0
  9
$DIMTP
 40
1.0
  9
$DIMTM
 40
1.0
  9
$DIMTXT
 40
3.0
  9
$DIMCEN
 40
0.0
  9
$DIMTSZ
 40
0.0
  9
$DIMTOL
 70
     0
  9
$DIMLIM
 70
     0
  9
$DIMTIH
 70
     0
  9
$DIMTOH
 70
     0
  9
$DIMSE1
 70
     0
  9
$DIMSE2
 70
     0
  9
$DIMTAD
 70
     1
  9
$DIMZIN
 70
     8
  9
$DIMBLK
  1

  9
$DIMASO
 70
     1
  9
$DIMSHO
 70
     1
  9
$DIMPOST
  1

  9
$DIMAPOST
  1

  9
$DIMALT
 70
     0
  9
$DIMALTD
 70
     2
  9
$DIMALTF
 40
0.039
  9
$DIMLFAC
 40
1.0
  9
$DIMTOFL
 70
     1
  9
$DIMTVP
 40
0.0
  9
$DIMTIX
 70
     0
  9
$DIMSOXD
 70
     0
  9
$DIMSAH
 70
     1
  9
$DIMBLK1
  1
OPEN
  9
$DIMBLK2
  1
OPEN
  9
$DIMSTYLE
  2
IGA
  9
$DIMCLRD
 70
     0
  9
$DIMCLRE
 70
     0
  9
$DIMCLRT
 70
     0
  9
$DIMTFAC
 40
10.0
  9
$DIMGAP
 40
1.0
  9
$LUNITS
 70
     2
  9
$LUPREC
 70
     3
  9
$SKETCHINC
 40
0.1
  9
$FILLETRAD
 40
50.0
  9
$AUNITS
 70
     0
  9
$AUPREC
 70
     0
  9
$MENU
  1
acad
  9
$ELEVATION
 40
0.0
  9
$PELEVATION
 40
0.0
  9
$THICKNESS
 40
0.0
  9
$LIMCHECK
 70
     0
  9
$BLIPMODE
 70
     0
  9
$CHAMFERA
 40
0.5
  9
$CHAMFERB
 40
0.5
  9
$SKPOLY
 70
     0
  9
$TDCREATE
 40
2450737.5776972221
  9
$TDUPDATE
 40
2454953.8618167699
  9
$TDINDWG
 40
0.0047935417
  9
$TDUSRTIMER
 40
0.0047935417
  9
$USRTIMER
 70
     1
  9
$ANGBASE
 50
0.0
  9
$ANGDIR
 70
     0
  9
$PDMODE
 70
     0
  9
$PDSIZE
 40
0.0
  9
$PLINEWID
 40
0.0
  9
$COORDS
 70
     1
  9
$SPLFRAME
 70
     0
  9
$SPLINETYPE
 70
     6
  9
$SPLINESEGS
 70
     8
  9
$ATTDIA
 70
     0
  9
$ATTREQ
 70
     1
  9
$HANDLING
 70
 10241
  9
$HANDSEED
  5
7E93
  9
$SURFTAB1
 70
     6
  9
$SURFTAB2
 70
     6
  9
$SURFTYPE
 70
     6
  9
$SURFU
 70
     6
  9
$SURFV
 70
     6
  9
$UCSNAME
  2

  9
$UCSORG
 10
0.0
 20
0.0
 30
0.0
  9
$UCSXDIR
 10
1.0
 20
0.0
 30
0.0
  9
$UCSYDIR
 10
0.0
 20
1.0
 30
0.0
  9
$PUCSNAME
  2

  9
$PUCSORG
 10
0.0
 20
0.0
 30
0.0
  9
$PUCSXDIR
 10
1.0
 20
0.0
 30
0.0
  9
$PUCSYDIR
 10
0.0
 20
1.0
 30
0.0
  9
$USERI1
 70
     0
  9
$USERI2
 70
     0
  9
$USERI3
 70
     0
  9
$USERI4
 70
     0
  9
$USERI5
 70
     0
  9
$USERR1
 40
0.0
  9
$USERR2
 40
0.0
  9
$USERR3
 40
0.0
  9
$USERR4
 40
0.0
  9
$USERR5
 40
0.0
  9
$WORLDVIEW
 70
     1
  9
$SHADEDGE
 70
     3
  9
$SHADEDIF
 70
    70
  9
$TILEMODE
 70
     1
  9
$MAXACTVP
 70
    16
  9
$PLIMCHECK
 70
     0
  9
$PEXTMIN
 10
1.0000000000000000E+020
 20
1.0000000000000000E+020
 30
1.0000000000000000E+020
  9
$PEXTMAX
 10
-1.0000000000000000E+020
 20
-1.0000000000000000E+020
 30
-1.0000000000000000E+020
  9
$PLIMMIN
 10
0.0
 20
0.0
  9
$PLIMMAX
 10
12.0
 20
9.0
  9
$UNITMODE
 70
     0
  9
$VISRETAIN
 70
     0
  9
$PLINEGEN
 70
     0
  9
$PSLTSCALE
 70
     1
  0
ENDSEC
  0
SECTION
  2
TABLES
  0
TABLE
  2
VPORT
 70
     2
  0
VPORT
  2
*ACTIVE
 70
     0
 10
0.0
 20
0.0
 11
1.0
 21
1.0
 12
2575.1748525263711
 22
1795.477834045791
 13
0.0
 23
0.0
 14
10.0
 24
10.0
 15
10.0
 25
10.0
 16
0.0
 26
0.0
 36
1.0
 17
0.0
 27
0.0
 37
0.0
 40
3384.7202297544959
 41
1.5051150895140659
 42
50.0
 43
0.0
 44
0.0
 50
0.0
 51
0.0
 71
     0
 72
   100
 73
     1
 74
     0
 75
     0
 76
     0
 77
     0
 78
     0
  0
ENDTAB
  0
TABLE
  2
LTYPE
 70
     2
  0
LTYPE
  2
CONTINUOUS
 70
     0
  3
Solid line
 72
    65
 73
     0
 40
0.0
  0
LTYPE
  2
CENTER
 70
     0
  3
____ _ ____ _ ____ _ ____ _ ____ _ ____ _ ____ 
 72
    65
 73
     4
 40
2.0
 49
1.25
 49
-0.25
 49
0.25
 49
-0.25
  0
ENDTAB
  0
TABLE
  2
LAYER
 70
     6
  0
LAYER
  2
0
 70
     0
 62
     7
  6
CONTINUOUS
  0
LAYER
  2
3
 70
     0
 62
     2
  6
CONTINUOUS
  0
LAYER
  2
2
 70
     0
 62
     3
  6
CENTER
  0
LAYER
  2
1
 70
     0
 62
     4
  6
CONTINUOUS
  0
LAYER
  2
4
 70
     0
 62
     7
  6
CONTINUOUS
  0
LAYER
  2
DEFPOINTS
 70
     0
 62
     7
  6
CONTINUOUS
  0
ENDTAB
  0
TABLE
  2
STYLE
 70
     1
  0
STYLE
  2
STANDARD
 70
     0
 40
0.0
 41
1.0
 50
0.0
 71
     0
 42
180.0
  3
simplex.shx
  4
extfont.shx
  0
ENDTAB
  0
TABLE
  2
VIEW
 70
     0
  0
ENDTAB
  0
TABLE
  2
UCS
 70
     0
  0
ENDTAB
  0
TABLE
  2
APPID
 70
     1
  0
APPID
  2
ACAD
 70
     0
  0
ENDTAB
  0
TABLE
  2
DIMSTYLE
 70
     1
  0
DIMSTYLE
  2
IGA
 70
     0
  3

  4

  5

  6
OPEN
  7
OPEN
 40
2.0
 41
2.0
 42
0.5
 43
10.0
 44
1.0
 45
0.0
 46
0.0
 47
1.0
 48
1.0
140
3.0
141
0.0
142
0.0
143
0.03937
144
1.0
145
0.0
146
10.0
147
1.0
 71
     0
 72
     0
 73
     0
 74
     0
 75
     0
 76
     0
 77
     1
 78
     8
170
     0
171
     2
172
     0
173
     1
174
     0
175
     0
176
     0
177
     0
178
     0
  0
ENDTAB
  0
ENDSEC
  0
SECTION
  2
BLOCKS
  0
BLOCK
  8
0
  2
$MODEL_SPACE
 70
     0
 10
0.0
 20
0.0
 30
0.0
  3
$MODEL_SPACE
  1

  0
ENDBLK
  5
1B
  8
0
  0
BLOCK
 67
     1
  8
0
  2
$PAPER_SPACE
 70
     0
 10
0.0
 20
0.0
 30
0.0
  3
$PAPER_SPACE
  1

  0
ENDBLK
  5
18
 67
     1
  8
0
  0
BLOCK
  8
0
  2
_OPEN
 70
     0
 10
0.0
 20
0.0
 30
0.0
  3
_OPEN
  1

  0
LINE
  5
7B31
  8
0
  6
BYBLOCK
 62
     0
 10
-1.0
 20
0.166667
 30
0.0
 11
0.0
 21
0.0
 31
0.0
  0
LINE
  5
7B32
  8
0
  6
BYBLOCK
 62
     0
 10
0.0
 20
0.0
 30
0.0
 11
-1.0
 21
-0.166667
 31
0.0
  0
LINE
  5
7B33
  8
0
  6
BYBLOCK
 62
     0
 10
0.0
 20
0.0
 30
0.0
 11
-1.0
 21
0.0
 31
0.0
  0
ENDBLK
  5
7B34
  8
0
  0
BLOCK
  8
0
  2
*D1
 70
     1
 10
0.0
 20
0.0
 30
0.0
  3
*D1
  1

  0
LINE
  5
7DDF
  8
3
  6
CONTINUOUS
 62
     0
 10
528.03599199999985
 20
770.41170028923875
 30
0.0
 11
528.03599199999985
 21
685.20579728923872
 31
0.0
  0
LINE
  5
7DE0
  8
3
  6
CONTINUOUS
 62
     0
 10
713.03599199999996
 20
770.41170028923875
 30
0.0
 11
713.03599199999996
 21
685.20579728923872
 31
0.0
  0
LINE
  5
7DE1
  8
3
  6
CONTINUOUS
 62
     0
 10
548.03599199999985
 20
695.20579728923872
 30
0.0
 11
693.03599199999985
 21
695.20579728923872
 31
0.0
  0
INSERT
  5
7DE2
  8
3
  6
CONTINUOUS
 62
     0
  2
_OPEN
 10
528.03599199999985
 20
695.20579728923872
 30
0.0
 41
20.0
 42
20.0
 43
20.0
 50
180.0
  0
INSERT
  5
7DE3
  8
3
  6
CONTINUOUS
 62
     0
  2
_OPEN
 10
713.03599199999996
 20
695.20579728923872
 30
0.0
 41
20.0
 42
20.0
 43
20.0
  0
TEXT
  8
3
  40
30
  5
7E80
  62
0
  72
0
  71
0
 10
563.194
 20
667.106
 30
0.000000
  1
185
  0
POINT
  5
7DE5
  8
DEFPOINTS
  6
CONTINUOUS
 62
     0
 10
528.03599199999985
 20
775.41170028923875
 30
0.0
  0
POINT
  5
7DE6
  8
DEFPOINTS
  6
CONTINUOUS
 62
     0
 10
713.03599199999996
 20
775.41170028923875
 30
0.0
  0
POINT
  5
7DE7
  8
DEFPOINTS
  6
CONTINUOUS
 62
     0
 10
713.03599199999996
 20
695.20579728923872
 30
0.0
  0
ENDBLK
  5
7B41
  8
0
  0
BLOCK
  8
0
  2
*D2
 70
     1
 10
0.0
 20
0.0
 30
0.0
  3
*D2
  1

  0
LINE
  5
7DE8
  8
3
  6
CONTINUOUS
 62
     0
 10
1208.0359920000001
 20
770.41170028923875
 30
0.0
 11
1208.0359920000001
 21
685.20579728923872
 31
0.0
  0
LINE
  5
7DE9
  8
3
  6
CONTINUOUS
 62
     0
 10
733.03599199999985
 20
695.20579728923872
 30
0.0
 11
1188.0359920000001
 21
695.20579728923872
 31
0.0
  0
INSERT
  5
7DEA
  8
3
  6
CONTINUOUS
 62
     0
  2
_OPEN
 10
713.03599199999996
 20
695.20579728923872
 30
0.0
 41
20.0
 42
20.0
 43
20.0
 50
180.0
  0
INSERT
  5
7DEB
  8
3
  6
CONTINUOUS
 62
     0
  2
_OPEN
 10
1208.0359920000001
 20
695.20579728923872
 30
0.0
 41
20.0
 42
20.0
 43
20.0
  0
TEXT
  8
3
  40
30
  5
7E81
  62
0
  72
0
  71
0
 10
900.536
 20
667.106
 30
0.000000
  1
495
  0
POINT
  5
7DED
  8
DEFPOINTS
  6
CONTINUOUS
 62
     0
 10
713.03599199999996
 20
775.41170028923875
 30
0.0
  0
POINT
  5
7DEE
  8
DEFPOINTS
  6
CONTINUOUS
 62
     0
 10
1208.0359920000001
 20
775.41170028923875
 30
0.0
  0
POINT
  5
7DEF
  8
DEFPOINTS
  6
CONTINUOUS
 62
     0
 10
1208.0359920000001
 20
695.20579728923872
 30
0.0
  0
ENDBLK
  5
7B4D
  8
0
  0
BLOCK
  8
0
  2
*D3
 70
     1
 10
0.0
 20
0.0
 30
0.0
  3
*D3
  1

  0
LINE
  5
7DF0
  8
3
  6
CONTINUOUS
 62
     0
 10
548.03599199999985
 20
1297.4117002892381
 30
0.0
 11
498.34180000000021
 21
1297.411700289239
 31
0.0
  0
LINE
  5
7DF1
  8
3
  6
CONTINUOUS
 62
     0
 10
548.03599199999985
 20
1097.4117002892381
 30
0.0
 11
498.34180000000009
 21
1097.4117002892381
 31
0.0
  0
LINE
  5
7DF2
  8
3
  6
CONTINUOUS
 62
     0
 10
508.34180000000009
 20
1277.411700289239
 30
0.0
 11
508.34180000000009
 21
1117.4117002892381
 31
0.0
  0
INSERT
  5
7DF3
  8
3
  6
CONTINUOUS
 62
     0
  2
_OPEN
 10
508.34180000000009
 20
1297.411700289239
 30
0.0
 41
20.0
 42
20.0
 43
20.0
 50
90.0
  0
INSERT
  5
7DF4
  8
3
  6
CONTINUOUS
 62
     0
  2
_OPEN
 10
508.34180000000009
 20
1097.4117002892381
 30
0.0
 41
20.0
 42
20.0
 43
20.0
 50
270.0
  0
TEXT
  8
3
  40
30
  5
7E82
  62
0
  72
0
  71
0
 10
423.342
 20
1149.49
 30
0.000000
  1
200
  0
POINT
  5
7DF6
  8
DEFPOINTS
  6
CONTINUOUS
 62
     0
 10
553.03599199999985
 20
1297.4117002892381
 30
0.0
  0
POINT
  5
7DF7
  8
DEFPOINTS
  6
CONTINUOUS
 62
     0
 10
553.03599199999985
 20
1097.4117002892381
 30
0.0
  0
POINT
  5
7DF8
  8
DEFPOINTS
  6
CONTINUOUS
 62
     0
 10
508.34180000000009
 20
1097.4117002892381
 30
0.0
  0
ENDBLK
  5
7B5A
  8
0
  0
BLOCK
  8
0
  2
*D4
 70
     1
 10
0.0
 20
0.0
 30
0.0
  3
*D4
  1

  0
LINE
  5
7DF9
  8
3
  6
CONTINUOUS
 62
     0
 10
563.03599199999996
 20
1308.4117002892381
 30
0.0
 11
446.28618000000029
 21
1308.411700289239
 31
0.0
  0
LINE
  5
7DFA
  8
3
  6
CONTINUOUS
 62
     0
 10
548.03599199999985
 20
1097.4117002892381
 30
0.0
 11
446.28618000000017
 21
1097.4117002892381
 31
0.0
  0
LINE
  5
7DFB
  8
3
  6
CONTINUOUS
 62
     0
 10
456.28618000000017
 20
1288.411700289239
 30
0.0
 11
456.28618000000017
 21
1117.4117002892381
 31
0.0
  0
INSERT
  5
7DFC
  8
3
  6
CONTINUOUS
 62
     0
  2
_OPEN
 10
456.28618000000017
 20
1308.411700289239
 30
0.0
 41
20.0
 42
20.0
 43
20.0
 50
90.0
  0
INSERT
  5
7DFD
  8
3
  6
CONTINUOUS
 62
     0
  2
_OPEN
 10
456.28618000000017
 20
1097.4117002892381
 30
0.0
 41
20.0
 42
20.0
 43
20.0
 50
270.0
  0
TEXT
  8
3
  40
30
  5
7E83
  62
0
  72
0
  71
0
 10
371.286
 20
1149.13
 30
0.000000
  1
211
  0
POINT
  5
7DFF
  8
DEFPOINTS
  6
CONTINUOUS
 62
     0
 10
568.03599199999985
 20
1308.4117002892381
 30
0.0
  0
POINT
  5
7E00
  8
DEFPOINTS
  6
CONTINUOUS
 62
     0
 10
553.03599199999985
 20
1097.4117002892381
 30
0.0
  0
POINT
  5
7E01
  8
DEFPOINTS
  6
CONTINUOUS
 62
     0
 10
456.28618000000017
 20
1097.4117002892381
 30
0.0
  0
ENDBLK
  5
7B67
  8
0
  0
BLOCK
  8
0
  2
*D5
 70
     1
 10
0.0
 20
0.0
 30
0.0
  3
*D5
  1

  0
LINE
  5
7E02
  8
3
  6
CONTINUOUS
 62
     0
 10
548.03599199999985
 20
822.41170028923875
 30
0.0
 11
446.28618
 21
822.41170028923875
 31
0.0
  0
LINE
  5
7E03
  8
3
  6
CONTINUOUS
 62
     0
 10
456.28618000000012
 20
1077.411700289239
 30
0.0
 11
456.28618
 21
842.41170028923875
 31
0.0
  0
INSERT
  5
7E04
  8
3
  6
CONTINUOUS
 62
     0
  2
_OPEN
 10
456.28618000000012
 20
1097.4117002892381
 30
0.0
 41
20.0
 42
20.0
 43
20.0
 50
90.0
  0
INSERT
  5
7E05
  8
3
  6
CONTINUOUS
 62
     0
  2
_OPEN
 10
456.28618
 20
822.41170028923875
 30
0.0
 41
20.0
 42
20.0
 43
20.0
 50
270.0
  0
TEXT
  8
3
  40
30
  5
7E84
  62
0
  72
0
  71
0
 10
371.286
 20
906.812
 30
0.000000
  1
275
  0
POINT
  5
7E07
  8
DEFPOINTS
  6
CONTINUOUS
 62
     0
 10
553.03599199999985
 20
1097.4117002892381
 30
0.0
  0
POINT
  5
7E08
  8
DEFPOINTS
  6
CONTINUOUS
 62
     0
 10
553.03599199999985
 20
822.41170028923875
 30
0.0
  0
POINT
  5
7E09
  8
DEFPOINTS
  6
CONTINUOUS
 62
     0
 10
456.28618
 20
822.41170028923875
 30
0.0
  0
ENDBLK
  5
7B73
  8
0
  0
BLOCK
  8
0
  2
*D6
 70
     1
 10
0.0
 20
0.0
 30
0.0
  3
*D6
  1

  0
LINE
  5
7E0A
  8
3
  6
CONTINUOUS
 62
     0
 10
548.03599199999985
 20
822.41170028923875
 30
0.0
 11
446.28616800000009
 21
822.41170028923875
 31
0.0
  0
LINE
  5
7E0B
  8
3
  6
CONTINUOUS
 62
     0
 10
523.03599199999985
 20
775.41170028923875
 30
0.0
 11
446.28616800000009
 21
775.41170028923875
 31
0.0
  0
LINE
  5
7E0C
  8
3
  6
CONTINUOUS
 62
     0
 10
456.28616800000009
 20
842.41170028923875
 30
0.0
 11
456.28616800000009
 21
862.41170028923875
 31
0.0
  0
LINE
  5
7E0D
  8
3
  6
CONTINUOUS
 62
     0
 10
456.28616800000009
 20
755.41170028923875
 30
0.0
 11
456.28616800000009
 21
666.8402717178102
 31
0.0
  0
LINE
  5
7E0E
  8
3
  6
CONTINUOUS
 62
     0
 10
456.28616800000009
 20
822.41170028923875
 30
0.0
 11
456.28616800000009
 21
775.41170028923875
 31
0.0
  0
INSERT
  5
7E0F
  8
3
  6
CONTINUOUS
 62
     0
  2
_OPEN
 10
456.28616800000009
 20
822.41170028923875
 30
0.0
 41
20.0
 42
20.0
 43
20.0
 50
270.0
  0
INSERT
  5
7E10
  8
3
  6
CONTINUOUS
 62
     0
  2
_OPEN
 10
456.28616800000009
 20
775.41170028923875
 30
0.0
 41
20.0
 42
20.0
 43
20.0
 50
90.0
  0
TEXT
  8
3
  40
30
  5
7E85
  62
0
  72
0
  71
0
 10
371.286
 20
648.026
 30
0.000000
  1
47
  0
POINT
  5
7E12
  8
DEFPOINTS
  6
CONTINUOUS
 62
     0
 10
553.03599199999985
 20
822.41170028923875
 30
0.0
  0
POINT
  5
7E13
  8
DEFPOINTS
  6
CONTINUOUS
 62
     0
 10
528.03599199999985
 20
775.41170028923875
 30
0.0
  0
POINT
  5
7E14
  8
DEFPOINTS
  6
CONTINUOUS
 62
     0
 10
456.28616800000009
 20
775.41170028923875
 30
0.0
  0
ENDBLK
  5
7CD4
  8
0
  0
BLOCK
  8
0
  2
*D7
 70
     1
 10
0.0
 20
0.0
 30
0.0
  3
*D7
  1

  0
LINE
  5
7E15
  8
3
  6
CONTINUOUS
 62
     0
 10
548.03599199999985
 20
1318.4117002892381
 30
0.0
 11
385.12991300000022
 21
1318.411700289239
 31
0.0
  0
LINE
  5
7E16
  8
3
  6
CONTINUOUS
 62
     0
 10
523.03599199999985
 20
775.41170028923875
 30
0.0
 11
385.1299130000001
 21
775.41170028923875
 31
0.0
  0
LINE
  5
7E17
  8
3
  6
CONTINUOUS
 62
     0
 10
395.12991300000022
 20
1298.411700289239
 30
0.0
 11
395.1299130000001
 21
795.41170028923875
 31
0.0
  0
INSERT
  5
7E18
  8
3
  6
CONTINUOUS
 62
     0
  2
_OPEN
 10
395.12991300000022
 20
1318.411700289239
 30
0.0
 41
20.0
 42
20.0
 43
20.0
 50
90.0
  0
INSERT
  5
7E19
  8
3
  6
CONTINUOUS
 62
     0
  2
_OPEN
 10
395.1299130000001
 20
775.41170028923875
 30
0.0
 41
20.0
 42
20.0
 43
20.0
 50
270.0
  0
TEXT
  8
3
  40
30
  5
7E86
  62
0
  72
0
  71
0
 10
310.130
 20
1009.05
 30
0.000000
  1
543
  0
POINT
  5
7E1B
  8
DEFPOINTS
  6
CONTINUOUS
 62
     0
 10
553.03599199999985
 20
1318.4117002892381
 30
0.0
  0
POINT
  5
7E1C
  8
DEFPOINTS
  6
CONTINUOUS
 62
     0
 10
528.03599199999985
 20
775.41170028923875
 30
0.0
  0
POINT
  5
7E1D
  8
DEFPOINTS
  6
CONTINUOUS
 62
     0
 10
395.1299130000001
 20
775.41170028923875
 30
0.0
  0
ENDBLK
  5
7BAA
  8
0
  0
BLOCK
  8
0
  2
*D8
 70
     1
 10
0.0
 20
0.0
 30
0.0
  3
*D8
  1

  0
LINE
  5
7E1E
  8
3
  6
CONTINUOUS
 62
     0
 10
553.03599199999985
 20
1323.4117002892381
 30
0.0
 11
553.03599199999985
 21
1369.1869512892381
 31
0.0
  0
LINE
  5
7E1F
  8
3
  6
CONTINUOUS
 62
     0
 10
713.03599199999996
 20
1312.754181289238
 30
0.0
 11
713.03599199999996
 21
1369.1869512892381
 31
0.0
  0
LINE
  5
7E20
  8
3
  6
CONTINUOUS
 62
     0
 10
573.03599199999985
 20
1359.1869512892381
 30
0.0
 11
693.03599199999985
 21
1359.1869512892381
 31
0.0
  0
INSERT
  5
7E21
  8
3
  6
CONTINUOUS
 62
     0
  2
_OPEN
 10
553.03599199999985
 20
1359.1869512892381
 30
0.0
 41
20.0
 42
20.0
 43
20.0
 50
180.0
  0
INSERT
  5
7E22
  8
3
  6
CONTINUOUS
 62
     0
  2
_OPEN
 10
713.03599199999996
 20
1359.1869512892381
 30
0.0
 41
20.0
 42
20.0
 43
20.0
  0
TEXT
  8
3
  40
30
  5
7E87
  62
0
  72
0
  71
0
 10
575.387
 20
1331.09
 30
0.000000
  1
160
  0
POINT
  5
7E24
  8
DEFPOINTS
  6
CONTINUOUS
 62
     0
 10
553.03599199999985
 20
1318.4117002892381
 30
0.0
  0
POINT
  5
7E25
  8
DEFPOINTS
  6
CONTINUOUS
 62
     0
 10
713.03599199999996
 20
1307.754181289238
 30
0.0
  0
POINT
  5
7E26
  8
DEFPOINTS
  6
CONTINUOUS
 62
     0
 10
713.03599199999996
 20
1359.1869512892381
 30
0.0
  0
ENDBLK
  5
7BB7
  8
0
  0
BLOCK
  8
0
  2
*D9
 70
     1
 10
0.0
 20
0.0
 30
0.0
  3
*D9
  1

  0
LINE
  5
7E27
  8
3
  6
CONTINUOUS
 62
     0
 10
892.03599199999985
 20
1102.4117002892381
 30
0.0
 11
892.03599199999985
 21
1369.1869512892381
 31
0.0
  0
LINE
  5
7E28
  8
3
  6
CONTINUOUS
 62
     0
 10
733.03599199999985
 20
1359.1869512892381
 30
0.0
 11
872.03599199999985
 21
1359.1869512892381
 31
0.0
  0
INSERT
  5
7E29
  8
3
  6
CONTINUOUS
 62
     0
  2
_OPEN
 10
713.03599199999996
 20
1359.1869512892381
 30
0.0
 41
20.0
 42
20.0
 43
20.0
 50
180.0
  0
INSERT
  5
7E2A
  8
3
  6
CONTINUOUS
 62
     0
  2
_OPEN
 10
892.03599199999985
 20
1359.1869512892381
 30
0.0
 41
20.0
 42
20.0
 43
20.0
  0
TEXT
  8
3
  40
30
  5
7E88
  62
0
  72
0
  71
0
 10
742.536
 20
1331.09
 30
0.000000
  1
179
  0
POINT
  5
7E2C
  8
DEFPOINTS
  6
CONTINUOUS
 62
     0
 10
713.03599199999996
 20
1307.754181289238
 30
0.0
  0
POINT
  5
7E2D
  8
DEFPOINTS
  6
CONTINUOUS
 62
     0
 10
892.03599199999985
 20
1097.4117002892381
 30
0.0
  0
POINT
  5
7E2E
  8
DEFPOINTS
  6
CONTINUOUS
 62
     0
 10
892.03599199999985
 20
1359.1869512892381
 30
0.0
  0
ENDBLK
  5
7CF0
  8
0
  0
BLOCK
  8
0
  2
*D10
 70
     1
 10
0.0
 20
0.0
 30
0.0
  3
*D10
  1

  0
LINE
  5
7E2F
  8
3
  6
CONTINUOUS
 62
     0
 10
528.03599199999985
 20
1864.880282729488
 30
0.0
 11
528.03599199999985
 21
1692.377850729488
 31
0.0
  0
LINE
  5
7E30
  8
3
  6
CONTINUOUS
 62
     0
 10
1208.0359920000001
 20
1864.880282729488
 30
0.0
 11
1208.0359920000001
 21
1692.377850729488
 31
0.0
  0
LINE
  5
7E31
  8
3
  6
CONTINUOUS
 62
     0
 10
548.03599199999985
 20
1702.377850729488
 30
0.0
 11
1188.0359920000001
 21
1702.377850729488
 31
0.0
  0
INSERT
  5
7E32
  8
3
  6
CONTINUOUS
 62
     0
  2
_OPEN
 10
528.03599199999985
 20
1702.377850729488
 30
0.0
 41
20.0
 42
20.0
 43
20.0
 50
180.0
  0
INSERT
  5
7E33
  8
3
  6
CONTINUOUS
 62
     0
  2
_OPEN
 10
1208.0359920000001
 20
1702.377850729488
 30
0.0
 41
20.0
 42
20.0
 43
20.0
  0
TEXT
  8
3
  40
30
  5
7E89
  62
0
  72
0
  71
0
 10
814.915
 20
1674.28
 30
0.000000
  1
680
  0
POINT
  5
7E35
  8
DEFPOINTS
  6
CONTINUOUS
 62
     0
 10
528.03599199999985
 20
1869.880282729488
 30
0.0
  0
POINT
  5
7E36
  8
DEFPOINTS
  6
CONTINUOUS
 62
     0
 10
1208.0359920000001
 20
1869.880282729488
 30
0.0
  0
POINT
  5
7E37
  8
DEFPOINTS
  6
CONTINUOUS
 62
     0
 10
1208.0359920000001
 20
1702.377850729488
 30
0.0
  0
ENDBLK
  5
7BE0
  8
0
  0
BLOCK
  8
0
  2
*D11
 70
     1
 10
0.0
 20
0.0
 30
0.0
  3
*D11
  1

  0
LINE
  5
7E38
  8
3
  6
CONTINUOUS
 62
     0
 10
1213.0359920000001
 20
2093.880282729488
 30
0.0
 11
1313.0091480000001
 21
2093.880282729488
 31
0.0
  0
LINE
  5
7E39
  8
3
  6
CONTINUOUS
 62
     0
 10
1213.0359920000001
 20
1869.880282729488
 30
0.0
 11
1313.0091480000001
 21
1869.880282729488
 31
0.0
  0
LINE
  5
7E3A
  8
3
  6
CONTINUOUS
 62
     0
 10
1303.0091480000001
 20
2073.880282729488
 30
0.0
 11
1303.0091480000001
 21
1889.880282729488
 31
0.0
  0
INSERT
  5
7E3B
  8
3
  6
CONTINUOUS
 62
     0
  2
_OPEN
 10
1303.0091480000001
 20
2093.880282729488
 30
0.0
 41
20.0
 42
20.0
 43
20.0
 50
90.0
  0
INSERT
  5
7E3C
  8
3
  6
CONTINUOUS
 62
     0
  2
_OPEN
 10
1303.0091480000001
 20
1869.880282729488
 30
0.0
 41
20.0
 42
20.0
 43
20.0
 50
270.0
  0
TEXT
  8
3
  40
30
  5
7E8A
  62
0
  72
0
  71
0
 10
1218.01
 20
1934.39
 30
0.000000
  1
224
  0
POINT
  5
7E3E
  8
DEFPOINTS
  6
CONTINUOUS
 62
     0
 10
1208.0359920000001
 20
2093.880282729488
 30
0.0
  0
POINT
  5
7E3F
  8
DEFPOINTS
  6
CONTINUOUS
 62
     0
 10
1208.0359920000001
 20
1869.880282729488
 30
0.0
  0
POINT
  5
7E40
  8
DEFPOINTS
  6
CONTINUOUS
 62
     0
 10
1303.0091480000001
 20
1869.880282729488
 30
0.0
  0
ENDBLK
  5
7BED
  8
0
  0
BLOCK
  8
0
  2
*D12
 70
     1
 10
0.0
 20
0.0
 30
0.0
  3
*D12
  1

  0
LINE
  5
7E41
  8
3
  6
CONTINUOUS
 62
     0
 10
1563.0282736253839
 20
1302.4117002892381
 30
0.0
 11
1563.0282736253839
 21
1359.713766289238
 31
0.0
  0
LINE
  5
7E42
  8
3
  6
CONTINUOUS
 62
     0
 10
1703.0282736253839
 20
1302.4117002892381
 30
0.0
 11
1703.0282736253839
 21
1359.713766289238
 31
0.0
  0
LINE
  5
7E43
  8
3
  6
CONTINUOUS
 62
     0
 10
1583.0282736253839
 20
1349.713766289238
 30
0.0
 11
1683.0282736253839
 21
1349.713766289238
 31
0.0
  0
INSERT
  5
7E44
  8
3
  6
CONTINUOUS
 62
     0
  2
_OPEN
 10
1563.0282736253839
 20
1349.713766289238
 30
0.0
 41
20.0
 42
20.0
 43
20.0
 50
180.0
  0
INSERT
  5
7E45
  8
3
  6
CONTINUOUS
 62
     0
  2
_OPEN
 10
1703.0282736253839
 20
1349.713766289238
 30
0.0
 41
20.0
 42
20.0
 43
20.0
  0
TEXT
  8
3
  40
30
  5
7E8B
  62
0
  72
0
  71
0
 10
1568.74
 20
1321.61
 30
0.000000
  1
140
  0
POINT
  5
7E47
  8
DEFPOINTS
  6
CONTINUOUS
 62
     0
 10
1563.0282736253839
 20
1297.4117002892381
 30
0.0
  0
POINT
  5
7E48
  8
DEFPOINTS
  6
CONTINUOUS
 62
     0
 10
1703.0282736253839
 20
1297.4117002892381
 30
0.0
  0
POINT
  5
7E49
  8
DEFPOINTS
  6
CONTINUOUS
 62
     0
 10
1703.0282736253839
 20
1349.713766289238
 30
0.0
  0
ENDBLK
  5
7BFA
  8
0
  0
BLOCK
  8
0
  2
*D13
 70
     1
 10
0.0
 20
0.0
 30
0.0
  3
*D13
  1

  0
LINE
  5
7E4A
  8
3
  6
CONTINUOUS
 62
     0
 10
1333.0282736253851
 20
1212.4117002892381
 30
0.0
 11
1333.0282736253851
 21
1429.536865289238
 31
0.0
  0
LINE
  5
7E4B
  8
3
  6
CONTINUOUS
 62
     0
 10
1633.0282736253839
 20
1405.5185232892379
 30
0.0
 11
1633.0282736253839
 21
1429.536865289238
 31
0.0
  0
LINE
  5
7E4C
  8
3
  6
CONTINUOUS
 62
     0
 10
1353.0282736253839
 20
1419.536865289238
 30
0.0
 11
1613.0282736253839
 21
1419.536865289238
 31
0.0
  0
INSERT
  5
7E4D
  8
3
  6
CONTINUOUS
 62
     0
  2
_OPEN
 10
1333.0282736253851
 20
1419.536865289238
 30
0.0
 41
20.0
 42
20.0
 43
20.0
 50
180.0
  0
INSERT
  5
7E4E
  8
3
  6
CONTINUOUS
 62
     0
  2
_OPEN
 10
1633.0282736253839
 20
1419.536865289238
 30
0.0
 41
20.0
 42
20.0
 43
20.0
  0
TEXT
  8
3
  40
30
  5
7E8C
  62
0
  72
0
  71
0
 10
1420.46
 20
1416.44
 30
0.000000
  1
MAX
  0
TEXT
  8
3
  40
30
  5
7E8D
  62
0
  72
0
  71
0
 10
1420.46
 20
1377.44
 30
0.000000
  1
300
  0
POINT
  5
7E50
  8
DEFPOINTS
  6
CONTINUOUS
 62
     0
 10
1333.0282736253851
 20
1207.4117002892381
 30
0.0
  0
POINT
  5
7E51
  8
DEFPOINTS
  6
CONTINUOUS
 62
     0
 10
1633.0282736253839
 20
1400.5185232892379
 30
0.0
  0
POINT
  5
7E52
  8
DEFPOINTS
  6
CONTINUOUS
 62
     0
 10
1633.0282736253839
 20
1419.536865289238
 30
0.0
  0
ENDBLK
  5
7CC7
  8
0
  0
BLOCK
  8
0
  2
*D14
 70
     1
 10
0.0
 20
0.0
 30
0.0
  3
*D14
  1

  0
LINE
  5
7E53
  8
3
  6
CONTINUOUS
 62
     0
 10
1711.0282736253839
 20
1222.4117002892381
 30
0.0
 11
1711.0282736253839
 21
1429.536865289238
 31
0.0
  0
LINE
  5
7E54
  8
3
  6
CONTINUOUS
 62
     0
 10
1653.0282736253839
 20
1419.536865289238
 30
0.0
 11
1691.0282736253839
 21
1419.536865289238
 31
0.0
  0
TEXT
  8
3
  40
30
  5
7E8E
  62
0
  72
0
  71
0
 10
1609.76
 20
1391.44
 30
0.000000
  1
78
  0
INSERT
  5
7E56
  8
3
  6
CONTINUOUS
 62
     0
  2
_OPEN
 10
1633.0282736253839
 20
1419.536865289238
 30
0.0
 41
20.0
 42
20.0
 43
20.0
 50
180.0
  0
INSERT
  5
7E57
  8
3
  6
CONTINUOUS
 62
     0
  2
_OPEN
 10
1711.0282736253839
 20
1419.536865289238
 30
0.0
 41
20.0
 42
20.0
 43
20.0
  0
POINT
  5
7E58
  8
DEFPOINTS
  6
CONTINUOUS
 62
     0
 10
1633.0282736253839
 20
1400.5185232892379
 30
0.0
  0
POINT
  5
7E59
  8
DEFPOINTS
  6
CONTINUOUS
 62
     0
 10
1711.0282736253839
 20
1217.4117002892381
 30
0.0
  0
POINT
  5
7E5A
  8
DEFPOINTS
  6
CONTINUOUS
 62
     0
 10
1711.0282736253839
 20
1419.536865289238
 30
0.0
  0
ENDBLK
  5
7CA2
  8
0
  0
BLOCK
  8
0
  2
*D15
 70
     1
 10
0.0
 20
0.0
 30
0.0
  3
*D15
  1

  0
LINE
  5
7E5B
  8
3
  6
CONTINUOUS
 62
     0
 10
1419.0282736253839
 20
770.41170028923875
 30
0.0
 11
1419.0282736253839
 21
695.6100602892385
 31
0.0
  0
LINE
  5
7E5C
  8
3
  6
CONTINUOUS
 62
     0
 10
1633.0282736253839
 20
770.41170028923875
 30
0.0
 11
1633.0282736253839
 21
695.6100602892385
 31
0.0
  0
LINE
  5
7E5D
  8
3
  6
CONTINUOUS
 62
     0
 10
1439.0282736253839
 20
705.61006028923862
 30
0.0
 11
1613.0282736253839
 21
705.61006028923862
 31
0.0
  0
INSERT
  5
7E5E
  8
3
  6
CONTINUOUS
 62
     0
  2
_OPEN
 10
1419.0282736253839
 20
705.61006028923862
 30
0.0
 41
20.0
 42
20.0
 43
20.0
 50
180.0
  0
INSERT
  5
7E5F
  8
3
  6
CONTINUOUS
 62
     0
  2
_OPEN
 10
1633.0282736253839
 20
705.61006028923862
 30
0.0
 41
20.0
 42
20.0
 43
20.0
  0
TEXT
  8
3
  40
30
  5
7E8F
  62
0
  72
0
  71
0
 10
1472.88
 20
677.510
 30
0.000000
  1
214
  0
POINT
  5
7E61
  8
DEFPOINTS
  6
CONTINUOUS
 62
     0
 10
1419.0282736253839
 20
775.41170028923875
 30
0.0
  0
POINT
  5
7E62
  8
DEFPOINTS
  6
CONTINUOUS
 62
     0
 10
1633.0282736253839
 20
775.41170028923875
 30
0.0
  0
POINT
  5
7E63
  8
DEFPOINTS
  6
CONTINUOUS
 62
     0
 10
1633.0282736253839
 20
705.61006028923862
 30
0.0
  0
ENDBLK
  5
7C38
  8
0
  0
BLOCK
  8
0
  2
*D16
 70
     1
 10
0.0
 20
0.0
 30
0.0
  3
*D16
  1

  0
LINE
  5
7E64
  8
3
  6
CONTINUOUS
 62
     0
 10
1643.0282736253839
 20
770.41170028923875
 30
0.0
 11
1643.0282736253839
 21
695.6100602892385
 31
0.0
  0
LINE
  5
7E65
  8
3
  6
CONTINUOUS
 62
     0
 10
1613.0282736253839
 20
705.61006028923862
 30
0.0
 11
1593.0282736253839
 21
705.61006028923862
 31
0.0
  0
LINE
  5
7E66
  8
3
  6
CONTINUOUS
 62
     0
 10
1663.0282736253839
 20
705.61006028923862
 30
0.0
 11
1683.0282736253839
 21
705.61006028923862
 31
0.0
  0
TEXT
  8
3
  40
30
  5
7E90
  62
0
  72
0
  71
0
 10
1624.32
 20
677.223
 30
0.000000
  1
10
  0
LINE
  5
7E68
  8
3
  6
CONTINUOUS
 62
     0
 10
1633.0282736253839
 20
705.61006028923862
 30
0.0
 11
1643.0282736253839
 21
705.61006028923862
 31
0.0
  0
INSERT
  5
7E69
  8
3
  6
CONTINUOUS
 62
     0
  2
_OPEN
 10
1633.0282736253839
 20
705.61006028923862
 30
0.0
 41
20.0
 42
20.0
 43
20.0
  0
INSERT
  5
7E6A
  8
3
  6
CONTINUOUS
 62
     0
  2
_OPEN
 10
1643.0282736253839
 20
705.61006028923862
 30
0.0
 41
20.0
 42
20.0
 43
20.0
 50
180.0
  0
POINT
  5
7E6B
  8
DEFPOINTS
  6
CONTINUOUS
 62
     0
 10
1633.0282736253839
 20
775.41170028923875
 30
0.0
  0
POINT
  5
7E6C
  8
DEFPOINTS
  6
CONTINUOUS
 62
     0
 10
1643.0282736253839
 20
775.41170028923875
 30
0.0
  0
POINT
  5
7E6D
  8
DEFPOINTS
  6
CONTINUOUS
 62
     0
 10
1643.0282736253839
 20
705.61006028923862
 30
0.0
  0
ENDBLK
  5
7C63
  8
0
  0
BLOCK
  8
0
  2
*D17
 70
     1
 10
0.0
 20
0.0
 30
0.0
  3
*D17
  1

  0
LINE
  5
7E6E
  8
3
  6
CONTINUOUS
 62
     0
 10
1716.0282736253839
 20
1197.4117002892381
 30
0.0
 11
1782.6710216253839
 21
1197.4117002892381
 31
0.0
  0
LINE
  5
7E6F
  8
3
  6
CONTINUOUS
 62
     0
 10
1716.0282736253839
 20
997.41170028923875
 30
0.0
 11
1782.6710216253839
 21
997.41170028923875
 31
0.0
  0
LINE
  5
7E70
  8
3
  6
CONTINUOUS
 62
     0
 10
1772.6710216253839
 20
1177.4117002892381
 30
0.0
 11
1772.6710216253839
 21
1017.411700289238
 31
0.0
  0
INSERT
  5
7E71
  8
3
  6
CONTINUOUS
 62
     0
  2
_OPEN
 10
1772.6710216253839
 20
1197.4117002892381
 30
0.0
 41
20.0
 42
20.0
 43
20.0
 50
90.0
  0
INSERT
  5
7E72
  8
3
  6
CONTINUOUS
 62
     0
  2
_OPEN
 10
1772.6710216253839
 20
997.41170028923875
 30
0.0
 41
20.0
 42
20.0
 43
20.0
 50
270.0
  0
TEXT
  8
3
  40
30
  5
7E91
  62
0
  72
0
  71
0
 10
1687.67
 20
1030.88
 30
0.000000
  1
φ200
  0
POINT
  5
7E74
  8
DEFPOINTS
  6
CONTINUOUS
 62
     0
 10
1711.0282736253839
 20
1197.4117002892381
 30
0.0
  0
POINT
  5
7E75
  8
DEFPOINTS
  6
CONTINUOUS
 62
     0
 10
1711.0282736253839
 20
997.41170028923875
 30
0.0
  0
POINT
  5
7E76
  8
DEFPOINTS
  6
CONTINUOUS
 62
     0
 10
1772.6710216253839
 20
997.41170028923875
 30
0.0
  0
ENDBLK
  5
7CBC
  8
0
  0
BLOCK
  8
0
  2
*D18
 70
     1
 10
0.0
 20
0.0
 30
0.0
  3
*D18
  1

  0
LINE
  5
7E77
  8
3
 62
     0
 10
553.03599199999985
 20
1323.4117002892381
 30
0.0
 11
553.03599199999985
 21
1432.619332510566
 31
0.0
  0
LINE
  5
7E78
  8
3
 62
     0
 10
1208.0359920000001
 20
805.41170028923875
 30
0.0
 11
1208.0359920000001
 21
1432.619332510566
 31
0.0
  0
LINE
  5
7E79
  8
3
 62
     0
 10
573.03599199999985
 20
1422.619332510566
 30
0.0
 11
1188.0359920000001
 21
1422.619332510566
 31
0.0
  0
INSERT
  5
7E7A
  8
3
 62
     0
  2
_OPEN
 10
553.03599199999985
 20
1422.619332510566
 30
0.0
 41
20.0
 42
20.0
 43
20.0
 50
180.0
  0
INSERT
  5
7E7B
  8
3
 62
     0
  2
_OPEN
 10
1208.0359920000001
 20
1422.619332510566
 30
0.0
 41
20.0
 42
20.0
 43
20.0
  0
TEXT
  8
3
  40
30
  5
7E92
  62
0
  72
0
  71
0
 10
825.512
 20
1394.52
 30
0.000000
  1
655
  0
POINT
  5
7E7D
  8
DEFPOINTS
 62
     0
 10
553.03599199999985
 20
1318.4117002892381
 30
0.0
  0
POINT
  5
7E7E
  8
DEFPOINTS
 62
     0
 10
1208.0359920000001
 20
800.41170028923875
 30
0.0
  0
POINT
  5
7E7F
  8
DEFPOINTS
 62
     0
 10
1208.0359920000001
 20
1422.619332510566
 30
0.0
  0
ENDBLK
  5
7CE0
  8
0
  0
ENDSEC
  0
SECTION
  2
ENTITIES
  0
LINE
  5
7A87
  8
1
  6
CONTINUOUS
 10
1136.0359920000001
 20
1207.4117002892381
 30
0.0
 11
606.03599199999985
 21
1207.4117002892381
 31
0.0
  0
ARC
  5
7A88
  8
1
  6
CONTINUOUS
 10
697.03599199999985
 20
1113.4117002892381
 30
0.0
 40
195.0
 50
359.69999999999999
 51
90.0
  0
ARC
  5
7A89
  8
1
  6
CONTINUOUS
 10
727.03599199999985
 20
1111.4117002892381
 30
0.0
 40
165.0
 50
269.39999999999992
 51
0.3
  0
LINE
  5
7A8A
  8
1
  6
CONTINUOUS
 10
848.03599199999985
 20
1064.1117002892379
 30
0.0
 11
578.03599199999985
 21
1064.1117002892379
 31
0.0
  0
LINE
  5
7A8B
  8
1
  6
CONTINUOUS
 10
764.63599199999999
 20
1222.4117002892381
 30
0.0
 11
848.03599199999985
 21
1151.111700289239
 31
0.0
  0
LINE
  5
7A8C
  8
1
  6
CONTINUOUS
 10
1183.0359920000001
 20
822.41170028923875
 30
0.0
 11
553.03599199999985
 21
822.41170028923875
 31
0.0
  0
LINE
  5
7A8D
  8
1
  6
CONTINUOUS
 10
1183.0359920000001
 20
872.41170028923875
 30
0.0
 11
553.03599199999985
 21
872.41170028923875
 31
0.0
  0
LINE
  5
7A8E
  8
1
  6
CONTINUOUS
 10
1208.0359920000001
 20
800.41170028923875
 30
0.0
 11
528.03599199999985
 21
800.41170028923875
 31
0.0
  0
LINE
  5
7A8F
  8
1
  6
CONTINUOUS
 10
1208.0359920000001
 20
775.41170028923875
 30
0.0
 11
528.03599199999985
 21
775.41170028923875
 31
0.0
  0
LINE
  5
7A90
  8
1
  6
CONTINUOUS
 10
696.13599199999987
 20
1050.4117002892381
 30
0.0
 11
1001.335992
 21
940.61170028923857
 31
0.0
  0
LINE
  5
7A91
  8
1
  6
CONTINUOUS
 10
734.2359919999999
 20
1142.711700289238
 30
0.0
 11
1028.0359920000001
 21
1005.211700289238
 31
0.0
  0
CIRCLE
  5
7A92
  8
1
  6
CONTINUOUS
 10
713.03599199999996
 20
1097.4117002892381
 30
0.0
 40
100.0
  0
LINE
  5
7A93
  8
1
  6
CONTINUOUS
 10
606.03599199999985
 20
872.41170028923875
 30
0.0
 11
606.03599199999985
 21
1207.4117002892381
 31
0.0
  0
CIRCLE
  5
7A94
  8
1
  6
CONTINUOUS
 10
713.03599199999996
 20
1097.4117002892381
 30
0.0
 40
120.0
  0
LINE
  5
7A95
  8
1
  6
CONTINUOUS
 10
553.03599199999985
 20
1318.4117002892381
 30
0.0
 11
553.03599199999985
 21
1076.4117002892381
 31
0.0
  0
LINE
  5
7A96
  8
1
  6
CONTINUOUS
 10
553.03599199999985
 20
1096.4117002892381
 30
0.0
 11
568.03599199999985
 21
1111.4117002892381
 31
0.0
  0
LINE
  5
7A97
  8
1
  6
CONTINUOUS
 10
578.03599199999985
 20
872.41170028923875
 30
0.0
 11
578.03599199999985
 21
1151.111700289239
 31
0.0
  0
CIRCLE
  5
7A98
  8
1
  6
CONTINUOUS
 10
713.03599199999996
 20
1097.4117002892381
 30
0.0
 40
50.0
  0
LINE
  5
7A99
  8
2
  6
CENTER
 10
713.03599199999996
 20
745.28012428923864
 30
0.0
 11
713.03599199999996
 21
1334.305282289238
 31
0.0
  0
ARC
  5
7A9A
  8
1
  6
CONTINUOUS
 10
724.03599199999985
 20
1086.4117002892381
 30
0.0
 40
140.0
 50
179.59999999999999
 51
270.60000000000002
  0
LINE
  5
7A9B
  8
1
  6
CONTINUOUS
 10
528.03599199999985
 20
775.41170028923875
 30
0.0
 11
528.03599199999985
 21
800.41170028923875
 31
0.0
  0
LINE
  5
7A9C
  8
1
  6
CONTINUOUS
 10
553.03599199999985
 20
822.41170028923875
 30
0.0
 11
553.03599199999985
 21
872.41170028923875
 31
0.0
  0
LINE
  5
7A9D
  8
1
  6
CONTINUOUS
 10
568.03599199999985
 20
1087.4117002892381
 30
0.0
 11
584.03599199999996
 21
1087.4117002892381
 31
0.0
  0
LINE
  5
7A9E
  8
1
  6
CONTINUOUS
 10
553.03599199999985
 20
1097.4117002892381
 30
0.0
 11
568.03599199999985
 21
1097.4117002892381
 31
0.0
  0
LINE
  5
7A9F
  8
1
  6
CONTINUOUS
 10
568.03599199999985
 20
1097.4117002892381
 30
0.0
 11
568.03599199999985
 21
1087.4117002892381
 31
0.0
  0
LINE
  5
7AA0
  8
2
  6
CENTER
 10
1718.723401625384
 20
1097.4117002892381
 30
0.0
 11
1310.6843146253841
 21
1097.4117002892381
 31
0.0
  0
LINE
  5
7AA1
  8
1
  6
CONTINUOUS
 10
568.03599199999985
 20
1308.4117002892381
 30
0.0
 11
697.03599199999985
 21
1308.4117002892381
 31
0.0
  0
LINE
  5
7AA2
  8
1
  6
CONTINUOUS
 10
661.43599199999994
 20
1222.4117002892381
 30
0.0
 11
578.03599199999985
 21
1151.111700289239
 31
0.0
  0
LINE
  5
7AA3
  8
1
  6
CONTINUOUS
 10
553.03599199999985
 20
1298.4117002892381
 30
0.0
 11
568.03599199999985
 21
1283.4117002892381
 31
0.0
  0
LINE
  5
7AA4
  8
1
  6
CONTINUOUS
 10
568.03599199999985
 20
1283.4117002892381
 30
0.0
 11
568.03599199999985
 21
1111.4117002892381
 31
0.0
  0
LINE
  5
7AA5
  8
1
  6
CONTINUOUS
 10
553.03599199999985
 20
1297.4117002892381
 30
0.0
 11
568.03599199999985
 21
1297.4117002892381
 31
0.0
  0
LINE
  5
7AA6
  8
1
  6
CONTINUOUS
 10
568.03599199999985
 20
1308.4117002892381
 30
0.0
 11
568.03599199999985
 21
1297.4117002892381
 31
0.0
  0
LINE
  5
7AA7
  8
1
  6
CONTINUOUS
 10
661.43599199999994
 20
1222.4117002892381
 30
0.0
 11
764.63599199999999
 21
1222.4117002892381
 31
0.0
  0
LINE
  5
7AA8
  8
1
  6
CONTINUOUS
 10
1136.0359920000001
 20
872.41170028923875
 30
0.0
 11
1136.0359920000001
 21
1207.4117002892381
 31
0.0
  0
LINE
  5
7AA9
  8
1
  6
CONTINUOUS
 10
848.03599199999985
 20
1151.111700289239
 30
0.0
 11
848.03599199999985
 21
872.41170028923875
 31
0.0
  0
LINE
  5
7AAA
  8
2
  6
CENTER
 10
1048.235991999999
 20
973.51170028923866
 30
0.0
 11
978.23599200000012
 21
973.51170028923866
 31
0.0
  0
ARC
  5
7AAB
  8
1
  6
CONTINUOUS
 10
1017.535992
 20
973.11170028923868
 30
0.0
 40
85.0
 50
324.69999999999987
 51
215.30000000000001
  0
CIRCLE
  5
7AAC
  8
1
  6
CONTINUOUS
 10
1013.235992
 20
973.51170028923866
 30
0.0
 40
35.0
  0
LINE
  5
7AAD
  8
1
  6
CONTINUOUS
 10
924.73599200000001
 20
893.11170028923868
 30
0.0
 11
1175.735991999999
 21
893.11170028923868
 31
0.0
  0
LINE
  5
7AAE
  8
1
  6
CONTINUOUS
 10
924.73599200000001
 20
872.41170028923875
 30
0.0
 11
924.73599200000001
 21
893.11170028923868
 31
0.0
  0
LINE
  5
7AAF
  8
2
  6
CENTER
 10
1013.235992
 20
938.51170028923855
 30
0.0
 11
1013.235992
 21
1008.511700289238
 31
0.0
  0
LINE
  5
7AB0
  8
1
  6
CONTINUOUS
 10
940.03599199999985
 20
901.11170028923868
 30
0.0
 11
948.23599200000001
 21
923.91170028923875
 31
0.0
  0
LINE
  5
7AB1
  8
1
  6
CONTINUOUS
 10
940.03599199999985
 20
893.11170028923868
 30
0.0
 11
940.03599199999985
 21
901.11170028923868
 31
0.0
  0
LINE
  5
7AB2
  8
1
  6
CONTINUOUS
 10
1208.0359920000001
 20
775.41170028923875
 30
0.0
 11
1208.0359920000001
 21
800.41170028923875
 31
0.0
  0
LINE
  5
7AB3
  8
1
  6
CONTINUOUS
 10
1095.0359920000001
 20
893.11170028923868
 30
0.0
 11
1095.0359920000001
 21
901.11170028923868
 31
0.0
  0
LINE
  5
7AB4
  8
1
  6
CONTINUOUS
 10
1095.0359920000001
 20
901.11170028923868
 30
0.0
 11
1086.935991999999
 21
923.91170028923875
 31
0.0
  0
LINE
  5
7AB5
  8
1
  6
CONTINUOUS
 10
1175.735991999999
 20
893.11170028923868
 30
0.0
 11
1175.735991999999
 21
872.41170028923875
 31
0.0
  0
LINE
  5
7AB6
  8
1
  6
CONTINUOUS
 10
1183.0359920000001
 20
822.41170028923875
 30
0.0
 11
1183.0359920000001
 21
872.41170028923875
 31
0.0
  0
LINE
  5
7AB7
  8
1
  6
CONTINUOUS
 10
725.03599199999996
 20
1869.880282729488
 30
0.0
 11
1001.235992
 21
1869.880282729488
 31
0.0
  0
LINE
  5
7AB8
  8
1
  6
CONTINUOUS
 10
606.03599199999985
 20
1858.880282729488
 30
0.0
 11
1136.0359920000001
 21
1858.880282729488
 31
0.0
  0
LINE
  5
7AB9
  8
1
  6
CONTINUOUS
 10
606.03599199999985
 20
1783.880282729488
 30
0.0
 11
1136.0359920000001
 21
1783.880282729488
 31
0.0
  0
LINE
  5
7ABA
  8
1
  6
CONTINUOUS
 10
553.03599199999985
 20
2013.880282729488
 30
0.0
 11
882.03599199999985
 21
2013.880282729488
 31
0.0
  0
LINE
  5
7ABB
  8
1
  6
CONTINUOUS
 10
553.03599199999985
 20
2153.880282729488
 30
0.0
 11
882.03599199999985
 21
2153.880282729488
 31
0.0
  0
LINE
  5
7ABC
  8
1
  6
CONTINUOUS
 10
553.03599199999985
 20
2174.880282729488
 30
0.0
 11
553.03599199999985
 21
1992.880282729488
 31
0.0
  0
LINE
  5
7ABD
  8
1
  6
CONTINUOUS
 10
528.03599199999985
 20
1869.880282729488
 30
0.0
 11
701.03599199999985
 21
1869.880282729488
 31
0.0
  0
LINE
  5
7ABE
  8
1
  6
CONTINUOUS
 10
593.03599199999985
 20
2161.880282729488
 30
0.0
 11
833.03599199999985
 21
2161.880282729488
 31
0.0
  0
LINE
  5
7ABF
  8
1
  6
CONTINUOUS
 10
593.03599199999985
 20
2005.880282729488
 30
0.0
 11
833.03599199999985
 21
2005.880282729488
 31
0.0
  0
LINE
  5
7AC0
  8
1
  6
CONTINUOUS
 10
606.03599199999985
 20
1783.880282729488
 30
0.0
 11
606.03599199999985
 21
1858.880282729488
 31
0.0
  0
LINE
  5
7AC1
  8
1
  6
CONTINUOUS
 10
528.03599199999985
 20
2093.880282729488
 30
0.0
 11
553.03599199999985
 21
2093.880282729488
 31
0.0
  0
LINE
  5
7AC2
  8
1
  6
CONTINUOUS
 10
528.03599199999985
 20
1869.880282729488
 30
0.0
 11
528.03599199999985
 21
2093.880282729488
 31
0.0
  0
LINE
  5
7AC3
  8
1
  6
CONTINUOUS
 10
593.03599199999985
 20
2153.880282729488
 30
0.0
 11
593.03599199999985
 21
2161.880282729488
 31
0.0
  0
LINE
  5
7AC4
  8
1
  6
CONTINUOUS
 10
553.03599199999985
 20
2154.880282729488
 30
0.0
 11
568.03599199999985
 21
2139.880282729488
 31
0.0
  0
LINE
  5
7AC5
  8
1
  6
CONTINUOUS
 10
568.03599199999985
 20
2139.880282729488
 30
0.0
 11
568.03599199999985
 21
2027.880282729488
 31
0.0
  0
LINE
  5
7AC6
  8
1
  6
CONTINUOUS
 10
553.03599199999985
 20
2012.880282729488
 30
0.0
 11
568.03599199999985
 21
2027.880282729488
 31
0.0
  0
LINE
  5
7AC7
  8
1
  6
CONTINUOUS
 10
593.03599199999985
 20
2013.880282729488
 30
0.0
 11
593.03599199999985
 21
2005.880282729488
 31
0.0
  0
LINE
  5
7AC8
  8
1
  6
CONTINUOUS
 10
701.03599199999985
 20
2005.880282729488
 30
0.0
 11
701.03599199999985
 21
1836.380282729488
 31
0.0
  0
LINE
  5
7AC9
  8
1
  6
CONTINUOUS
 10
725.03599199999996
 20
2005.880282729488
 30
0.0
 11
725.03599199999996
 21
1836.380282729488
 31
0.0
  0
LINE
  5
7ACA
  8
1
  6
CONTINUOUS
 10
763.03599199999996
 20
1836.380282729488
 30
0.0
 11
663.03599199999996
 21
1836.380282729488
 31
0.0
  0
LINE
  5
7ACB
  8
1
  6
CONTINUOUS
 10
763.03599199999996
 20
1806.380282729488
 30
0.0
 11
663.03599199999996
 21
1806.380282729488
 31
0.0
  0
LINE
  5
7ACC
  8
1
  6
CONTINUOUS
 10
663.03599199999996
 20
1806.380282729488
 30
0.0
 11
663.03599199999996
 21
1836.380282729488
 31
0.0
  0
LINE
  5
7ACD
  8
1
  6
CONTINUOUS
 10
763.03599199999996
 20
1806.380282729488
 30
0.0
 11
763.03599199999996
 21
1836.380282729488
 31
0.0
  0
LINE
  5
7ACE
  8
1
  6
CONTINUOUS
 10
833.03599199999985
 20
2153.880282729488
 30
0.0
 11
833.03599199999985
 21
2161.880282729488
 31
0.0
  0
LINE
  5
7ACF
  8
1
  6
CONTINUOUS
 10
833.03599199999985
 20
2013.880282729488
 30
0.0
 11
833.03599199999985
 21
2005.880282729488
 31
0.0
  0
LINE
  5
7AD0
  8
1
  6
CONTINUOUS
 10
1025.2359919999999
 20
1869.880282729488
 30
0.0
 11
1208.0359920000001
 21
1869.880282729488
 31
0.0
  0
LINE
  5
7AD1
  8
1
  6
CONTINUOUS
 10
932.53599199999996
 20
1889.0802827294881
 30
0.0
 11
1102.5359920000001
 21
1889.0802827294881
 31
0.0
  0
LINE
  5
7AD2
  8
1
  6
CONTINUOUS
 10
932.53599199999996
 20
2079.980282729488
 30
0.0
 11
1102.5359920000001
 21
2079.980282729488
 31
0.0
  0
LINE
  5
7AD3
  8
1
  6
CONTINUOUS
 10
1048.235991999999
 20
1806.380282729488
 30
0.0
 11
978.23599200000012
 21
1806.380282729488
 31
0.0
  0
LINE
  5
7AD4
  8
1
  6
CONTINUOUS
 10
1048.235991999999
 20
1836.380282729488
 30
0.0
 11
978.23599200000012
 21
1836.380282729488
 31
0.0
  0
LINE
  5
7AD5
  8
1
  6
CONTINUOUS
 10
892.03599199999985
 20
2093.880282729488
 30
0.0
 11
1208.0359920000001
 21
2093.880282729488
 31
0.0
  0
LINE
  5
7AD6
  8
1
  6
CONTINUOUS
 10
1001.235992
 20
1836.380282729488
 30
0.0
 11
1001.235992
 21
1889.0802827294881
 31
0.0
  0
LINE
  5
7AD7
  8
1
  6
CONTINUOUS
 10
1025.2359919999999
 20
1836.380282729488
 30
0.0
 11
1025.2359919999999
 21
1889.0802827294881
 31
0.0
  0
LINE
  5
7AD8
  8
1
  6
CONTINUOUS
 10
978.23599200000012
 20
1806.380282729488
 30
0.0
 11
978.23599200000012
 21
1836.380282729488
 31
0.0
  0
LINE
  5
7AD9
  8
1
  6
CONTINUOUS
 10
932.53599199999996
 20
1889.0802827294881
 30
0.0
 11
932.53599199999996
 21
2079.980282729488
 31
0.0
  0
LINE
  5
7ADA
  8
1
  6
CONTINUOUS
 10
892.03599199999985
 20
2143.880282729488
 30
0.0
 11
892.03599199999985
 21
2023.880282729488
 31
0.0
  0
ARC
  5
7ADB
  8
1
  6
CONTINUOUS
 10
882.03599199999985
 20
2143.880282729488
 30
0.0
 40
10.0
 50
0.0
 51
90.0
  0
ARC
  5
7ADC
  8
1
  6
CONTINUOUS
 10
882.03599199999985
 20
2023.880282729488
 30
0.0
 40
10.0
 50
270.0
 51
0.0
  0
LINE
  5
7ADD
  8
1
  6
CONTINUOUS
 10
1048.235991999999
 20
1806.380282729488
 30
0.0
 11
1048.235991999999
 21
1836.380282729488
 31
0.0
  0
LINE
  5
7ADE
  8
1
  6
CONTINUOUS
 10
1136.0359920000001
 20
1783.880282729488
 30
0.0
 11
1136.0359920000001
 21
1858.880282729488
 31
0.0
  0
LINE
  5
7ADF
  8
1
  6
CONTINUOUS
 10
1102.5359920000001
 20
1889.0802827294881
 30
0.0
 11
1102.5359920000001
 21
2079.980282729488
 31
0.0
  0
LINE
  5
7AE0
  8
1
  6
CONTINUOUS
 10
1208.0359920000001
 20
1869.880282729488
 30
0.0
 11
1208.0359920000001
 21
2093.880282729488
 31
0.0
  0
LINE
  5
7AE4
  8
1
  6
CONTINUOUS
 10
1333.0282736253851
 20
872.41170028923875
 30
0.0
 11
1643.0282736253839
 21
872.41170028923875
 31
0.0
  0
LINE
  5
7AE5
  8
1
  6
CONTINUOUS
 10
1333.0282736253851
 20
1207.4117002892381
 30
0.0
 11
1408.0282736253851
 21
1207.4117002892381
 31
0.0
  0
LINE
  5
7AE6
  8
1
  6
CONTINUOUS
 10
1333.0282736253851
 20
1207.4117002892381
 30
0.0
 11
1333.0282736253851
 21
872.41170028923875
 31
0.0
  0
LINE
  5
7AE8
  8
1
  6
CONTINUOUS
 10
1703.0282736253839
 20
1297.4117002892381
 30
0.0
 11
1563.0282736253839
 21
1097.4117002892381
 31
0.0
  0
LINE
  5
7AE9
  8
1
  6
CONTINUOUS
 10
1563.0282736253839
 20
1297.4117002892381
 30
0.0
 11
1703.0282736253839
 21
1097.4117002892381
 31
0.0
  0
LINE
  5
7AEA
  8
1
  6
CONTINUOUS
 10
1563.0282736253839
 20
1297.4117002892381
 30
0.0
 11
1563.0282736253839
 21
958.41170028923875
 31
0.0
  0
LINE
  5
7AEB
  8
1
  6
CONTINUOUS
 10
1703.0282736253839
 20
958.41170028923875
 30
0.0
 11
1703.0282736253839
 21
1297.4117002892381
 31
0.0
  0
LINE
  5
7AEC
  8
1
  6
CONTINUOUS
 10
1711.0282736253839
 20
1217.4117002892381
 30
0.0
 11
1711.0282736253839
 21
977.41170028923875
 31
0.0
  0
LINE
  5
7AED
  8
1
  6
CONTINUOUS
 10
1555.0282736253839
 20
1217.4117002892381
 30
0.0
 11
1555.0282736253839
 21
872.41170028923875
 31
0.0
  0
LINE
  5
7AEE
  8
1
  6
CONTINUOUS
 10
1443.0282736253839
 20
1064.1117002892379
 30
0.0
 11
1555.0282736253839
 21
1151.111700289239
 31
0.0
  0
LINE
  5
7AEF
  8
1
  6
CONTINUOUS
 10
1408.0282736253851
 20
1207.4117002892381
 30
0.0
 11
1408.0282736253851
 21
872.41170028923875
 31
0.0
  0
LINE
  5
7AF0
  8
1
  6
CONTINUOUS
 10
1355.5282736253851
 20
1147.4117002892381
 30
0.0
 11
1355.5282736253851
 21
1047.4117002892381
 31
0.0
  0
LINE
  5
7AF1
  8
1
  6
CONTINUOUS
 10
1385.5282736253839
 20
1147.4117002892381
 30
0.0
 11
1385.5282736253839
 21
1047.4117002892381
 31
0.0
  0
LINE
  5
7AF2
  8
1
  6
CONTINUOUS
 10
1419.0282736253839
 20
775.41170028923875
 30
0.0
 11
1643.0282736253839
 21
775.41170028923875
 31
0.0
  0
LINE
  5
7AF3
  8
1
  6
CONTINUOUS
 10
1419.0282736253839
 20
800.41170028923875
 30
0.0
 11
1643.0282736253839
 21
800.41170028923875
 31
0.0
  0
LINE
  5
7AF4
  8
1
  6
CONTINUOUS
 10
1419.0282736253839
 20
822.41170028923875
 30
0.0
 11
1643.0282736253839
 21
822.41170028923875
 31
0.0
  0
LINE
  5
7AF5
  8
1
  6
CONTINUOUS
 10
1419.0282736253839
 20
800.41170028923875
 30
0.0
 11
1419.0282736253839
 21
775.41170028923875
 31
0.0
  0
LINE
  5
7AF6
  8
1
  6
CONTINUOUS
 10
1385.5282736253839
 20
1085.4117002892381
 30
0.0
 11
1470.428273625384
 21
1085.4117002892381
 31
0.0
  0
LINE
  5
7AF7
  8
1
  6
CONTINUOUS
 10
1419.0282736253839
 20
872.41170028923875
 30
0.0
 11
1419.0282736253839
 21
822.41170028923875
 31
0.0
  0
LINE
  5
7AF8
  8
1
  6
CONTINUOUS
 10
1443.0282736253839
 20
1064.1117002892379
 30
0.0
 11
1443.0282736253839
 21
872.41170028923875
 31
0.0
  0
LINE
  5
7AF9
  8
1
  6
CONTINUOUS
 10
1355.5282736253851
 20
1047.4117002892381
 30
0.0
 11
1385.5282736253839
 21
1047.4117002892381
 31
0.0
  0
LINE
  5
7AFA
  8
1
  6
CONTINUOUS
 10
1355.5282736253851
 20
1008.511700289238
 30
0.0
 11
1355.5282736253851
 21
938.51170028923855
 31
0.0
  0
LINE
  5
7AFB
  8
1
  6
CONTINUOUS
 10
1385.5282736253839
 20
1008.511700289238
 30
0.0
 11
1385.5282736253839
 21
938.51170028923855
 31
0.0
  0
LINE
  5
7AFC
  8
1
  6
CONTINUOUS
 10
1355.5282736253851
 20
1008.511700289238
 30
0.0
 11
1385.5282736253839
 21
1008.511700289238
 31
0.0
  0
LINE
  5
7AFD
  8
1
  6
CONTINUOUS
 10
1355.5282736253851
 20
938.51170028923855
 30
0.0
 11
1385.5282736253839
 21
938.51170028923855
 31
0.0
  0
LINE
  5
7AFE
  8
1
  6
CONTINUOUS
 10
1385.5282736253839
 20
985.51170028923855
 30
0.0
 11
1443.0282736253839
 21
985.51170028923855
 31
0.0
  0
LINE
  5
7AFF
  8
1
  6
CONTINUOUS
 10
1385.5282736253839
 20
961.51170028923855
 30
0.0
 11
1443.0282736253839
 21
961.51170028923855
 31
0.0
  0
LINE
  5
7B00
  8
1
  6
CONTINUOUS
 10
1643.0282736253839
 20
800.41170028923875
 30
0.0
 11
1643.0282736253839
 21
775.41170028923875
 31
0.0
  0
LINE
  5
7B01
  8
1
  6
CONTINUOUS
 10
1563.0282736253839
 20
1097.4117002892381
 30
0.0
 11
1703.0282736253839
 21
1097.4117002892381
 31
0.0
  0
LINE
  5
7B02
  8
1
  6
CONTINUOUS
 10
1575.0282736253839
 20
946.41170028923875
 30
0.0
 11
1691.0282736253839
 21
946.41170028923875
 31
0.0
  0
ARC
  5
7B03
  8
1
  6
CONTINUOUS
 10
1575.0282736253839
 20
958.41170028923875
 30
0.0
 40
12.0
 50
180.0
 51
270.0
  0
LINE
  5
7B04
  8
1
  6
CONTINUOUS
 10
1563.228273625384
 20
977.41170028923875
 30
0.0
 11
1555.0282736253839
 21
977.41170028923875
 31
0.0
  0
LINE
  5
7B05
  8
1
  6
CONTINUOUS
 10
1643.0282736253839
 20
872.41170028923875
 30
0.0
 11
1643.0282736253839
 21
822.41170028923875
 31
0.0
  0
ARC
  5
7B06
  8
1
  6
CONTINUOUS
 10
1691.0282736253839
 20
958.41170028923875
 30
0.0
 40
12.0
 50
270.0
 51
0.0
  0
LINE
  5
7B07
  8
1
  6
CONTINUOUS
 10
1702.8282736253841
 20
977.41170028923875
 30
0.0
 11
1711.0282736253839
 21
977.41170028923875
 31
0.0
  0
ARC
  5
7B08
  8
1
  6
CONTINUOUS
 10
1691.0282736253839
 20
958.41170028923875
 30
0.0
 40
12.0
 50
270.0
 51
0.0
  0
LINE
  5
7B09
  8
1
  6
CONTINUOUS
 10
1385.5282736253839
 20
1109.4117002892381
 30
0.0
 11
1501.3282736253841
 21
1109.4117002892381
 31
0.0
  0
LINE
  5
7B0A
  8
1
  6
CONTINUOUS
 10
1355.5282736253851
 20
1147.4117002892381
 30
0.0
 11
1385.5282736253839
 21
1147.4117002892381
 31
0.0
  0
LINE
  5
7B0B
  8
1
  6
CONTINUOUS
 10
1703.0282736253839
 20
1297.4117002892381
 30
0.0
 11
1563.0282736253839
 21
1297.4117002892381
 31
0.0
  0
LINE
  5
7B0C
  8
1
  6
CONTINUOUS
 10
1563.228273625384
 20
1217.4117002892381
 30
0.0
 11
1555.0282736253839
 21
1217.4117002892381
 31
0.0
  0
LINE
  5
7B0D
  8
1
  6
CONTINUOUS
 10
1702.8282736253841
 20
1217.4117002892381
 30
0.0
 11
1711.0282736253839
 21
1217.4117002892381
 31
0.0
  0
LINE
  5
7B0E
  8
4
  6
CONTINUOUS
 10
1850.0
 20
500.0
 30
0.0
 11
1850.0
 21
300.0
 31
0.0
  0
LINE
  5
7B0F
  8
4
  6
CONTINUOUS
 10
1150.0
 20
500.0
 30
0.0
 11
1150.0
 21
300.0
 31
0.0
  0
LINE
  5
7B10
  8
4
  6
CONTINUOUS
 10
650.0
 20
500.0
 30
0.0
 11
650.0
 21
300.0
 31
0.0
  0
LINE
  5
7B13
  8
4
  6
CONTINUOUS
 10
650.0
 20
300.0
 30
0.0
 11
1850.0
 21
300.0
 31
0.0
  0
LINE
  5
7B14
  8
4
  6
CONTINUOUS
 10
650.0
 20
400.0
 30
0.0
 11
1850.0
 21
400.0
 31
0.0
  0
TEXT
  5
7B15
  8
4
  6
CONTINUOUS
 10
688.50208099999998
 20
431.543026
 30
0.0
 40
50.0
  1
機器名称
  0
TEXT
  5
7B16
  8
4
  6
CONTINUOUS
 10
686.258106
 20
321.64515699999993
 30
0.0
 40
50.0
  1
機器型番
  0
TEXT
  5
7B17
  8
4
  6
CONTINUOUS
 10
1177.678744999999
 20
422.57176900000002
 30
0.0
 40
45.0
  1
ミツヤニューマルチファン
  0
TEXT
  5
7B18
  8
4
  6
CONTINUOUS
 10
1186.6544960000001
 20
317.159584
 30
0.0
 40
50.0
  1
NM#1 1/4-1
  0
TEXT
  5
7B1A
  8
4
  6
CONTINUOUS
 10
762.40224899999987
 20
2383.4288409999999
 30
0.0
 40
54.0
  1
床置防振ベット
  0
TEXT
  5
7B1B
  8
4
  6
CONTINUOUS
 10
316.16759300000001
 20
2533.8809759999999
 30
0.0
 40
72.0
  1
ベルト駆動式片吸込片持多翼ファン
  0
LINE
  5
7B1C
  8
4
  6
CONTINUOUS
 10
250.0
 20
2469.408754
 30
0.0
 11
1850.0
 21
2469.408754
 31
0.0
  0
LINE
  5
7B1D
  8
4
  6
CONTINUOUS
 10
250.0
 20
2669.408754
 30
0.0
 11
1850.0
 21
2669.408754
 31
0.0
  0
LINE
  5
7B1E
  8
4
  6
CONTINUOUS
 10
650.0
 20
500.0
 30
0.0
 11
1850.0
 21
500.0
 31
0.0
  0
LINE
  5
7B1F
  8
4
  6
CONTINUOUS
 10
250.0
 20
2669.408754
 30
0.0
 11
250.0
 21
2469.408754
 31
0.0
  0
TEXT
  5
7B20
  8
4
  6
CONTINUOUS
 10
326.54341599999998
 20
2382.3194779999999
 30
0.0
 40
54.0
  1
左回転左横向
  0
TEXT
  5
7B21
  8
4
  6
CONTINUOUS
 10
1468.9695589999999
 20
2706.0610809999998
 30
0.0
 40
56.0
  1
No.
  0
TEXT
  5
7B22
  8
4
  6
CONTINUOUS
 10
1311.296063
 20
2383.4288409999999
 30
0.0
 40
54.0
  1
縮尺：1/10
  0
LINE
  5
7B23
  8
4
  6
CONTINUOUS
 10
1850.0
 20
2669.408754
 30
0.0
 11
1850.0
 21
2469.408754
 31
0.0
  0
LINE
  5
7B25
  8
4
  6
CONTINUOUS
 10
1440.617422
 20
2681.2635829999999
 30
0.0
 11
1440.617422
 21
2786.6522620000001
 31
0.0
  0
LINE
  5
7B26
  8
4
  6
CONTINUOUS
 10
1440.617422
 20
2786.6522620000001
 30
0.0
 11
1850.0
 21
2786.6522620000001
 31
0.0
  0
LINE
  5
7B27
  8
4
  6
CONTINUOUS
 10
1850.0
 20
2786.6522620000001
 30
0.0
 11
1850.0
 21
2681.2635829999999
 31
0.0
  0
LINE
  5
7B28
  8
4
  6
CONTINUOUS
 10
1850.0
 20
2681.2635829999999
 30
0.0
 11
1440.617422
 21
2681.2635829999999
 31
0.0
  0
LINE
  5
7B2D
  8
2
  6
CENTER
 10
933.78578800000014
 20
2083.880282729488
 30
0.0
 11
503.12088199999999
 21
2083.880282729488
 31
0.0
  0
LINE
  5
7B2E
  8
2
  6
CENTER
 10
1633.0282736253839
 20
1352.9360472892381
 30
0.0
 11
1633.0282736253839
 21
736.91391828923872
 31
0.0
  0
DIMENSION
  5
7B42
  8
3
  6
CONTINUOUS
  2
*D1
 10
713.03599199999996
 20
695.20579728923872
 30
0.0
 11
623.19355399999995
 21
695.20579728923872
 31
0.0
 70
   128
 13
528.03599199999985
 23
775.41170028923875
 33
0.0
 14
713.03599199999996
 24
775.41170028923875
 34
0.0
1001
ACAD
1000
DSTYLE
1002
{
1070
   287
1070
     3
1070
   287
1070
     3
1070
    40
1040
10.0
1070
   143
1040
0.039
1070
   172
1070
     1
1070
   271
1070
     0
1070
   279
1070
     0
1070
   288
1070
     1
1002
}
  0
DIMENSION
  5
7B4E
  8
3
  6
CONTINUOUS
  2
*D2
 10
1208.0359920000001
 20
695.20579728923872
 30
0.0
 11
960.53599200000008
 21
720.20579728923872
 31
0.0
 70
     0
 13
713.03599199999996
 23
775.41170028923875
 33
0.0
 14
1208.0359920000001
 24
775.41170028923875
 34
0.0
1001
ACAD
1000
DSTYLE
1002
{
1070
   287
1070
     4
1070
   287
1070
     4
1070
    40
1040
10.0
1070
    75
1070
     1
1070
   143
1040
0.039
1070
   172
1070
     1
1070
   271
1070
     0
1070
   279
1070
     1
1070
   288
1070
     1
1002
}
  0
DIMENSION
  5
7B5B
  8
3
  6
CONTINUOUS
  2
*D3
 10
508.34180000000009
 20
1097.4117002892381
 30
0.0
 11
508.34179999999992
 21
1202.5923072892381
 31
0.0
 70
   128
 13
553.03599199999985
 23
1297.4117002892381
 33
0.0
 14
553.03599199999985
 24
1097.4117002892381
 34
0.0
 50
90.0
1001
ACAD
1000
DSTYLE
1002
{
1070
   287
1070
     3
1070
   287
1070
     3
1070
    40
1040
10.0
1070
   143
1040
0.039
1070
   172
1070
     1
1070
   271
1070
     0
1070
   279
1070
     0
1070
   288
1070
     1
1002
}
  0
DIMENSION
  5
7B68
  8
3
  6
CONTINUOUS
  2
*D4
 10
456.28618000000017
 20
1097.4117002892381
 30
0.0
 11
456.28618
 21
1202.228644289238
 31
0.0
 70
   128
 13
568.03599199999985
 23
1308.4117002892381
 33
0.0
 14
553.03599199999985
 24
1097.4117002892381
 34
0.0
 50
90.0
1001
ACAD
1000
DSTYLE
1002
{
1070
   287
1070
     3
1070
   287
1070
     3
1070
    40
1040
10.0
1070
   143
1040
0.039
1070
   172
1070
     1
1070
   271
1070
     0
1070
   279
1070
     0
1070
   288
1070
     1
1002
}
  0
DIMENSION
  5
7B74
  8
3
  6
CONTINUOUS
  2
*D5
 10
456.28618
 20
822.41170028923875
 30
0.0
 11
431.28617999999989
 21
959.91170028923898
 31
0.0
 70
     0
 13
553.03599199999985
 23
1097.4117002892381
 33
0.0
 14
553.03599199999985
 24
822.41170028923875
 34
0.0
 50
90.0
1001
ACAD
1000
DSTYLE
1002
{
1070
   287
1070
     4
1070
   287
1070
     4
1070
    40
1040
10.0
1070
    75
1070
     1
1070
   143
1040
0.039
1070
   172
1070
     1
1070
   271
1070
     0
1070
   279
1070
     1
1070
   288
1070
     1
1002
}
  0
DIMENSION
  5
7B84
  8
3
  6
CONTINUOUS
  2
*D6
 10
456.28616800000009
 20
775.41170028923875
 30
0.0
 11
456.28616799999998
 21
701.12598600352453
 31
0.0
 70
   128
 13
553.03599199999985
 23
822.41170028923875
 33
0.0
 14
528.03599199999985
 24
775.41170028923875
 34
0.0
 50
90.0
1001
ACAD
1000
DSTYLE
1002
{
1070
   287
1070
     3
1070
   287
1070
     3
1070
    40
1040
10.0
1070
   143
1040
0.039
1070
   172
1070
     1
1070
   271
1070
     0
1070
   279
1070
     0
1070
   288
1070
     1
1002
}
  0
DIMENSION
  5
7BAB
  8
3
  6
CONTINUOUS
  2
*D7
 10
395.1299130000001
 20
775.41170028923875
 30
0.0
 11
395.12991299999987
 21
1062.1514532892379
 31
0.0
 70
   128
 13
553.03599199999985
 23
1318.4117002892381
 33
0.0
 14
528.03599199999985
 24
775.41170028923875
 34
0.0
 50
90.0
1001
ACAD
1000
DSTYLE
1002
{
1070
   287
1070
     3
1070
   287
1070
     3
1070
    40
1040
10.0
1070
   143
1040
0.039
1070
   172
1070
     1
1070
   271
1070
     0
1070
   279
1070
     0
1070
   288
1070
     1
1002
}
  0
DIMENSION
  5
7BB8
  8
3
  6
CONTINUOUS
  2
*D8
 10
713.03599199999996
 20
1359.1869512892381
 30
0.0
 11
635.38663899999995
 21
1359.1869512892381
 31
0.0
 70
   128
 13
553.03599199999985
 23
1318.4117002892381
 33
0.0
 14
713.03599199999996
 24
1307.754181289238
 34
0.0
1001
ACAD
1000
DSTYLE
1002
{
1070
   287
1070
     3
1070
   287
1070
     3
1070
    40
1040
10.0
1070
   143
1040
0.039
1070
   172
1070
     1
1070
   271
1070
     0
1070
   279
1070
     0
1070
   288
1070
     1
1002
}
  0
DIMENSION
  5
7BC4
  8
3
  6
CONTINUOUS
  2
*D9
 10
892.03599199999985
 20
1359.1869512892381
 30
0.0
 11
802.53599199999985
 21
1384.1869512892381
 31
0.0
 70
     0
 13
713.03599199999996
 23
1307.754181289238
 33
0.0
 14
892.03599199999985
 24
1097.4117002892381
 34
0.0
1001
ACAD
1000
DSTYLE
1002
{
1070
   287
1070
     4
1070
   287
1070
     4
1070
    40
1040
10.0
1070
    75
1070
     1
1070
   143
1040
0.039
1070
   172
1070
     1
1070
   271
1070
     0
1070
   279
1070
     1
1070
   288
1070
     1
1002
}
  0
LINE
  5
7BD3
  8
2
  6
CENTER
 10
1163.2234039999989
 20
1097.4117002892381
 30
0.0
 11
532.7766079999999
 21
1097.4117002892381
 31
0.0
  0
LINE
  5
7BD4
  8
2
  6
CENTER
 10
713.03599199999996
 20
1747.7772427294881
 30
0.0
 11
713.03599199999996
 21
2215.3255107294881
 31
0.0
  0
DIMENSION
  5
7BE1
  8
3
  6
CONTINUOUS
  2
*D10
 10
1208.0359920000001
 20
1702.377850729488
 30
0.0
 11
874.91533300000003
 21
1702.377850729488
 31
0.0
 70
   128
 13
528.03599199999985
 23
1869.880282729488
 33
0.0
 14
1208.0359920000001
 24
1869.880282729488
 34
0.0
1001
ACAD
1000
DSTYLE
1002
{
1070
   287
1070
     3
1070
   287
1070
     3
1070
    40
1040
10.0
1070
   143
1040
0.039
1070
   172
1070
     1
1070
   271
1070
     0
1070
   279
1070
     0
1070
   288
1070
     1
1002
}
  0
DIMENSION
  5
7BEE
  8
3
  6
CONTINUOUS
  2
*D11
 10
1303.0091480000001
 20
1869.880282729488
 30
0.0
 11
1303.0091480000001
 21
1987.488832729488
 31
0.0
 70
   128
 13
1208.0359920000001
 23
2093.880282729488
 33
0.0
 14
1208.0359920000001
 24
1869.880282729488
 34
0.0
 50
90.0
1001
ACAD
1000
DSTYLE
1002
{
1070
   287
1070
     3
1070
   287
1070
     3
1070
    40
1040
10.0
1070
   143
1040
0.039
1070
   172
1070
     1
1070
   271
1070
     0
1070
   279
1070
     0
1070
   288
1070
     1
1002
}
  0
DIMENSION
  5
7BFB
  8
3
  6
CONTINUOUS
  2
*D12
 10
1703.0282736253839
 20
1349.713766289238
 30
0.0
 11
1628.742559625385
 21
1349.713766289238
 31
0.0
 70
   128
 13
1563.0282736253839
 23
1297.4117002892381
 33
0.0
 14
1703.0282736253839
 24
1297.4117002892381
 34
0.0
1001
ACAD
1000
DSTYLE
1002
{
1070
   287
1070
     3
1070
   287
1070
     3
1070
    40
1040
10.0
1070
   143
1040
0.039
1070
   172
1070
     1
1070
   271
1070
     0
1070
   279
1070
     0
1070
   288
1070
     1
1002
}
  0
DIMENSION
  5
7C08
  8
3
  6
CONTINUOUS
  2
*D13
 10
1633.0282736253839
 20
1419.536865289238
 30
0.0
 11
1480.4644666253851
 21
1419.536865289238
 31
0.0
 70
   128
  1
MAX\P300
 13
1333.0282736253851
 23
1207.4117002892381
 33
0.0
 14
1633.0282736253839
 24
1400.5185232892379
 34
0.0
1001
ACAD
1000
DSTYLE
1002
{
1070
   287
1070
     3
1070
   287
1070
     3
1070
    40
1040
10.0
1070
   143
1040
0.039
1070
   172
1070
     1
1070
   271
1070
     0
1070
   279
1070
     0
1070
   288
1070
     1
1002
}
  0
DIMENSION
  5
7C16
  8
3
  6
CONTINUOUS
  2
*D14
 10
1711.0282736253839
 20
1419.536865289238
 30
0.0
 11
1669.7576576253839
 21
1419.536865289238
 31
0.0
 70
   128
 13
1633.0282736253839
 23
1400.5185232892379
 33
0.0
 14
1711.0282736253839
 24
1217.4117002892381
 34
0.0
1001
ACAD
1000
DSTYLE
1002
{
1070
   287
1070
     4
1070
   287
1070
     4
1070
    40
1040
10.0
1070
    75
1070
     1
1070
   143
1040
0.039
1070
   172
1070
     1
1070
   271
1070
     0
1070
   279
1070
     1
1070
   288
1070
     1
1002
}
  0
DIMENSION
  5
7C39
  8
3
  6
CONTINUOUS
  2
*D15
 10
1633.0282736253839
 20
705.61006028923862
 30
0.0
 11
1532.884114625384
 21
705.61006028923862
 31
0.0
 70
   128
 13
1419.0282736253839
 23
775.41170028923875
 33
0.0
 14
1633.0282736253839
 24
775.41170028923875
 34
0.0
1001
ACAD
1000
DSTYLE
1002
{
1070
   287
1070
     3
1070
   287
1070
     3
1070
    40
1040
10.0
1070
   143
1040
0.039
1070
   172
1070
     1
1070
   271
1070
     0
1070
   279
1070
     0
1070
   288
1070
     1
1002
}
  0
DIMENSION
  5
7C49
  8
3
  6
CONTINUOUS
  2
*D16
 10
1643.0282736253839
 20
705.61006028923862
 30
0.0
 11
1684.318667625384
 21
705.32273028923873
 31
0.0
 70
   128
 13
1633.0282736253839
 23
775.41170028923875
 33
0.0
 14
1643.0282736253839
 24
775.41170028923875
 34
0.0
1001
ACAD
1000
DSTYLE
1002
{
1070
   287
1070
     4
1070
   287
1070
     4
1070
    40
1040
10.0
1070
    75
1070
     1
1070
   143
1040
0.039
1070
   172
1070
     1
1070
   271
1070
     0
1070
   279
1070
     1
1070
   288
1070
     1
1002
}
  0
LINE
  5
7C65
  8
3
  6
CONTINUOUS
 10
1711.0282736253839
 20
1197.4117002892381
 30
0.0
 11
1719.8353406253841
 21
1197.4117002892381
 31
0.0
  0
LINE
  5
7C67
  8
3
  6
CONTINUOUS
 10
1711.0282736253839
 20
997.41170028923875
 30
0.0
 11
1722.5682276253849
 21
997.41170028923875
 31
0.0
  0
DIMENSION
  5
7C74
  8
3
  6
CONTINUOUS
  2
*D17
 10
1772.6710216253839
 20
997.41170028923875
 30
0.0
 11
1772.6710216253839
 21
1083.983128860667
 31
0.0
 70
   128
 13
1711.0282736253839
 23
1197.4117002892381
 33
0.0
 14
1711.0282736253839
 24
997.41170028923875
 34
0.0
 50
90.0
1001
ACAD
1000
DSTYLE
1002
{
1070
   287
1070
     3
1070
   287
1070
     3
1070
     3
1000
φ<>
1070
    40
1040
10.0
1070
   143
1040
0.039
1070
   172
1070
     1
1070
   271
1070
     0
1070
   279
1070
     0
1070
   288
1070
     1
1002
}
  0
DIMENSION
  5
7CE1
  8
3
  2
*D18
 10
1208.0359920000001
 20
1422.619332510566
 30
0.0
 11
885.51205812802073
 21
1422.619332510566
 31
0.0
 70
   128
 13
553.03599199999985
 23
1318.4117002892381
 33
0.0
 14
1208.0359920000001
 24
800.41170028923875
 34
0.0
1001
ACAD
1000
DSTYLE
1002
{
1070
   287
1070
     3
1070
   287
1070
     3
1070
    40
1040
10.0
1070
   143
1040
0.039
1070
   172
1070
     1
1070
   271
1070
     0
1070
   279
1070
     0
1070
   288
1070
     1
1002
}
  0
ENDSEC
  0
EOF
