  0
SECTION
  2
HEADER
  9
$ACADVER
  1
AC1009
  9
$INSBASE
 10
0.0
 20
0.0
 30
0.0
  9
$EXTMIN
 10
250.0
 20
300.0
 30
0.0
  9
$EXTMAX
 10
1850.0
 20
2786.6522620000001
 30
0.0
  9
$LIMMIN
 10
0.0
 20
0.0
  9
$LIMMAX
 10
297.0
 20
210.0
  9
$ORTHOMODE
 70
     0
  9
$REGENMODE
 70
     1
  9
$FILLMODE
 70
     0
  9
$QTEXTMODE
 70
     0
  9
$MIRRTEXT
 70
     1
  9
$DRAGMODE
 70
     2
  9
$LTSCALE
 40
100.0
  9
$OSMODE
 70
    37
  9
$ATTMODE
 70
     1
  9
$TEXTSIZE
 40
180.0
  9
$TRACEWID
 40
0.05
  9
$TEXTSTYLE
  7
STANDARD
  9
$CLAYER
  8
3
  9
$CELTYPE
  6
BYLAYER
  9
$CECOLOR
 62
   256
  9
$DIMSCALE
 40
10.0
  9
$DIMASZ
 40
2.0
  9
$DIMEXO
 40
0.5
  9
$DIMDLI
 40
10.0
  9
$DIMRND
 40
0.0
  9
$DIMDLE
 40
0.0
  9
$DIMEXE
 40
1.0
  9
$DIMTP
 40
1.0
  9
$DIMTM
 40
1.0
  9
$DIMTXT
 40
3.0
  9
$DIMCEN
 40
0.0
  9
$DIMTSZ
 40
0.0
  9
$DIMTOL
 70
     0
  9
$DIMLIM
 70
     0
  9
$DIMTIH
 70
     0
  9
$DIMTOH
 70
     0
  9
$DIMSE1
 70
     0
  9
$DIMSE2
 70
     0
  9
$DIMTAD
 70
     1
  9
$DIMZIN
 70
     8
  9
$DIMBLK
  1

  9
$DIMASO
 70
     1
  9
$DIMSHO
 70
     1
  9
$DIMPOST
  1

  9
$DIMAPOST
  1

  9
$DIMALT
 70
     0
  9
$DIMALTD
 70
     2
  9
$DIMALTF
 40
0.039
  9
$DIMLFAC
 40
1.0
  9
$DIMTOFL
 70
     1
  9
$DIMTVP
 40
0.0
  9
$DIMTIX
 70
     0
  9
$DIMSOXD
 70
     0
  9
$DIMSAH
 70
     1
  9
$DIMBLK1
  1
OPEN
  9
$DIMBLK2
  1
OPEN
  9
$DIMSTYLE
  2
IGA
  9
$DIMCLRD
 70
     0
  9
$DIMCLRE
 70
     0
  9
$DIMCLRT
 70
     0
  9
$DIMTFAC
 40
10.0
  9
$DIMGAP
 40
1.0
  9
$LUNITS
 70
     2
  9
$LUPREC
 70
     3
  9
$SKETCHINC
 40
0.1
  9
$FILLETRAD
 40
50.0
  9
$AUNITS
 70
     0
  9
$AUPREC
 70
     0
  9
$MENU
  1
acad
  9
$ELEVATION
 40
0.0
  9
$PELEVATION
 40
0.0
  9
$THICKNESS
 40
0.0
  9
$LIMCHECK
 70
     0
  9
$BLIPMODE
 70
     0
  9
$CHAMFERA
 40
0.5
  9
$CHAMFERB
 40
0.5
  9
$SKPOLY
 70
     0
  9
$TDCREATE
 40
2450737.4756172448
  9
$TDUPDATE
 40
2454953.8617562382
  9
$TDINDWG
 40
0.0041083449
  9
$TDUSRTIMER
 40
0.0041083449
  9
$USRTIMER
 70
     1
  9
$ANGBASE
 50
0.0
  9
$ANGDIR
 70
     0
  9
$PDMODE
 70
     0
  9
$PDSIZE
 40
0.0
  9
$PLINEWID
 40
0.0
  9
$COORDS
 70
     1
  9
$SPLFRAME
 70
     0
  9
$SPLINETYPE
 70
     6
  9
$SPLINESEGS
 70
     8
  9
$ATTDIA
 70
     0
  9
$ATTREQ
 70
     1
  9
$HANDLING
 70
 10241
  9
$HANDSEED
  5
7ECC
  9
$SURFTAB1
 70
     6
  9
$SURFTAB2
 70
     6
  9
$SURFTYPE
 70
     6
  9
$SURFU
 70
     6
  9
$SURFV
 70
     6
  9
$UCSNAME
  2

  9
$UCSORG
 10
0.0
 20
0.0
 30
0.0
  9
$UCSXDIR
 10
1.0
 20
0.0
 30
0.0
  9
$UCSYDIR
 10
0.0
 20
1.0
 30
0.0
  9
$PUCSNAME
  2

  9
$PUCSORG
 10
0.0
 20
0.0
 30
0.0
  9
$PUCSXDIR
 10
1.0
 20
0.0
 30
0.0
  9
$PUCSYDIR
 10
0.0
 20
1.0
 30
0.0
  9
$USERI1
 70
     0
  9
$USERI2
 70
     0
  9
$USERI3
 70
     0
  9
$USERI4
 70
     0
  9
$USERI5
 70
     0
  9
$USERR1
 40
0.0
  9
$USERR2
 40
0.0
  9
$USERR3
 40
0.0
  9
$USERR4
 40
0.0
  9
$USERR5
 40
0.0
  9
$WORLDVIEW
 70
     1
  9
$SHADEDGE
 70
     3
  9
$SHADEDIF
 70
    70
  9
$TILEMODE
 70
     1
  9
$MAXACTVP
 70
    16
  9
$PLIMCHECK
 70
     0
  9
$PEXTMIN
 10
1.0000000000000000E+020
 20
1.0000000000000000E+020
 30
1.0000000000000000E+020
  9
$PEXTMAX
 10
-1.0000000000000000E+020
 20
-1.0000000000000000E+020
 30
-1.0000000000000000E+020
  9
$PLIMMIN
 10
0.0
 20
0.0
  9
$PLIMMAX
 10
12.0
 20
9.0
  9
$UNITMODE
 70
     0
  9
$VISRETAIN
 70
     0
  9
$PLINEGEN
 70
     0
  9
$PSLTSCALE
 70
     1
  0
ENDSEC
  0
SECTION
  2
TABLES
  0
TABLE
  2
VPORT
 70
     2
  0
VPORT
  2
*ACTIVE
 70
     0
 10
0.0
 20
0.0
 11
1.0
 21
1.0
 12
2563.0645637509078
 22
1767.220507279764
 13
0.0
 23
0.0
 14
10.0
 24
10.0
 15
10.0
 25
10.0
 16
0.0
 26
0.0
 36
1.0
 17
0.0
 27
0.0
 37
0.0
 40
3384.7202369232791
 41
1.5051150895140659
 42
50.0
 43
0.0
 44
0.0
 50
0.0
 51
0.0
 71
     0
 72
   100
 73
     1
 74
     0
 75
     0
 76
     0
 77
     0
 78
     0
  0
ENDTAB
  0
TABLE
  2
LTYPE
 70
     2
  0
LTYPE
  2
CONTINUOUS
 70
     0
  3
Solid line
 72
    65
 73
     0
 40
0.0
  0
LTYPE
  2
CENTER
 70
     0
  3
____ _ ____ _ ____ _ ____ _ ____ _ ____ _ ____ 
 72
    65
 73
     4
 40
2.0
 49
1.25
 49
-0.25
 49
0.25
 49
-0.25
  0
ENDTAB
  0
TABLE
  2
LAYER
 70
     6
  0
LAYER
  2
0
 70
     0
 62
     7
  6
CONTINUOUS
  0
LAYER
  2
3
 70
     0
 62
     2
  6
CONTINUOUS
  0
LAYER
  2
2
 70
     0
 62
     3
  6
CENTER
  0
LAYER
  2
1
 70
     0
 62
     4
  6
CONTINUOUS
  0
LAYER
  2
4
 70
     0
 62
     7
  6
CONTINUOUS
  0
LAYER
  2
DEFPOINTS
 70
     0
 62
     7
  6
CONTINUOUS
  0
ENDTAB
  0
TABLE
  2
STYLE
 70
     1
  0
STYLE
  2
STANDARD
 70
     0
 40
0.0
 41
1.0
 50
0.0
 71
     0
 42
180.0
  3
simplex.shx
  4
extfont.shx
  0
ENDTAB
  0
TABLE
  2
VIEW
 70
     0
  0
ENDTAB
  0
TABLE
  2
UCS
 70
     0
  0
ENDTAB
  0
TABLE
  2
APPID
 70
     1
  0
APPID
  2
ACAD
 70
     0
  0
ENDTAB
  0
TABLE
  2
DIMSTYLE
 70
     1
  0
DIMSTYLE
  2
IGA
 70
     0
  3

  4

  5

  6
OPEN
  7
OPEN
 40
2.0
 41
2.0
 42
0.5
 43
10.0
 44
1.0
 45
0.0
 46
0.0
 47
1.0
 48
1.0
140
3.0
141
0.0
142
0.0
143
0.03937
144
1.0
145
0.0
146
10.0
147
1.0
 71
     0
 72
     0
 73
     0
 74
     0
 75
     0
 76
     0
 77
     1
 78
     8
170
     0
171
     2
172
     0
173
     1
174
     0
175
     0
176
     0
177
     0
178
     0
  0
ENDTAB
  0
ENDSEC
  0
SECTION
  2
BLOCKS
  0
BLOCK
  8
0
  2
$MODEL_SPACE
 70
     0
 10
0.0
 20
0.0
 30
0.0
  3
$MODEL_SPACE
  1

  0
ENDBLK
  5
1B
  8
0
  0
BLOCK
 67
     1
  8
0
  2
$PAPER_SPACE
 70
     0
 10
0.0
 20
0.0
 30
0.0
  3
$PAPER_SPACE
  1

  0
ENDBLK
  5
18
 67
     1
  8
0
  0
BLOCK
  8
0
  2
_OPEN
 70
     0
 10
0.0
 20
0.0
 30
0.0
  3
_OPEN
  1

  0
LINE
  5
7AF5
  8
0
  6
BYBLOCK
 62
     0
 10
-1.0
 20
0.166667
 30
0.0
 11
0.0
 21
0.0
 31
0.0
  0
LINE
  5
7AF6
  8
0
  6
BYBLOCK
 62
     0
 10
0.0
 20
0.0
 30
0.0
 11
-1.0
 21
-0.166667
 31
0.0
  0
LINE
  5
7AF7
  8
0
  6
BYBLOCK
 62
     0
 10
0.0
 20
0.0
 30
0.0
 11
-1.0
 21
0.0
 31
0.0
  0
ENDBLK
  5
7AF8
  8
0
  0
BLOCK
  8
0
  2
*D1
 70
     1
 10
0.0
 20
0.0
 30
0.0
  3
*D1
  1

  0
LINE
  5
7E18
  8
3
  6
CONTINUOUS
 62
     0
 10
569.35659199999998
 20
1783.8477694177291
 30
0.0
 11
569.35659199999998
 21
1612.6339594177291
 31
0.0
  0
LINE
  5
7E19
  8
3
  6
CONTINUOUS
 62
     0
 10
1199.3565920000001
 20
1783.8477694177291
 30
0.0
 11
1199.3565920000001
 21
1612.6339594177291
 31
0.0
  0
LINE
  5
7E1A
  8
3
  6
CONTINUOUS
 62
     0
 10
589.35659199999986
 20
1622.6339594177291
 30
0.0
 11
1179.3565920000001
 21
1622.6339594177291
 31
0.0
  0
INSERT
  5
7E1B
  8
3
  6
CONTINUOUS
 62
     0
  2
_OPEN
 10
569.35659199999998
 20
1622.6339594177291
 30
0.0
 41
20.0
 42
20.0
 43
20.0
 50
180.0
  0
INSERT
  5
7E1C
  8
3
  6
CONTINUOUS
 62
     0
  2
_OPEN
 10
1199.3565920000001
 20
1622.6339594177291
 30
0.0
 41
20.0
 42
20.0
 43
20.0
  0
TEXT
  8
3
  40
30
  5
7EB9
  62
0
  72
0
  71
0
 10
830.349
 20
1594.53
 30
0.000000
  1
630
  0
POINT
  5
7E1E
  8
DEFPOINTS
  6
CONTINUOUS
 62
     0
 10
569.35659199999998
 20
1788.8477694177291
 30
0.0
  0
POINT
  5
7E1F
  8
DEFPOINTS
  6
CONTINUOUS
 62
     0
 10
1199.3565920000001
 20
1788.8477694177291
 30
0.0
  0
POINT
  5
7E20
  8
DEFPOINTS
  6
CONTINUOUS
 62
     0
 10
1199.3565920000001
 20
1622.6339594177291
 30
0.0
  0
ENDBLK
  5
7B05
  8
0
  0
BLOCK
  8
0
  2
*D2
 70
     1
 10
0.0
 20
0.0
 30
0.0
  3
*D2
  1

  0
LINE
  5
7E21
  8
3
  6
CONTINUOUS
 62
     0
 10
1204.3565920000001
 20
2012.8477694177291
 30
0.0
 11
1311.6647559999999
 21
2012.8477694177291
 31
0.0
  0
LINE
  5
7E22
  8
3
  6
CONTINUOUS
 62
     0
 10
1204.3565920000001
 20
1788.8477694177291
 30
0.0
 11
1311.6647559999999
 21
1788.8477694177291
 31
0.0
  0
LINE
  5
7E23
  8
3
  6
CONTINUOUS
 62
     0
 10
1301.6647559999999
 20
1992.8477694177291
 30
0.0
 11
1301.6647559999999
 21
1808.8477694177291
 31
0.0
  0
INSERT
  5
7E24
  8
3
  6
CONTINUOUS
 62
     0
  2
_OPEN
 10
1301.6647559999999
 20
2012.8477694177291
 30
0.0
 41
20.0
 42
20.0
 43
20.0
 50
90.0
  0
INSERT
  5
7E25
  8
3
  6
CONTINUOUS
 62
     0
  2
_OPEN
 10
1301.6647559999999
 20
1788.8477694177291
 30
0.0
 41
20.0
 42
20.0
 43
20.0
 50
270.0
  0
TEXT
  8
3
  40
30
  5
7EBA
  62
0
  72
0
  71
0
 10
1216.66
 20
1841.39
 30
0.000000
  1
224
  0
POINT
  5
7E27
  8
DEFPOINTS
  6
CONTINUOUS
 62
     0
 10
1199.3565920000001
 20
2012.8477694177291
 30
0.0
  0
POINT
  5
7E28
  8
DEFPOINTS
  6
CONTINUOUS
 62
     0
 10
1199.3565920000001
 20
1788.8477694177291
 30
0.0
  0
POINT
  5
7E29
  8
DEFPOINTS
  6
CONTINUOUS
 62
     0
 10
1301.6647559999999
 20
1788.8477694177291
 30
0.0
  0
ENDBLK
  5
7B12
  8
0
  0
BLOCK
  8
0
  2
*D3
 70
     1
 10
0.0
 20
0.0
 30
0.0
  3
*D3
  1

  0
LINE
  5
7E2A
  8
3
  6
CONTINUOUS
 62
     0
 10
569.35659199999998
 20
804.0381059812737
 30
0.0
 11
569.35659199999998
 21
719.81870298127365
 31
0.0
  0
LINE
  5
7E2B
  8
3
  6
CONTINUOUS
 62
     0
 10
729.35659199999986
 20
804.0381059812737
 30
0.0
 11
729.35659199999986
 21
719.81870298127365
 31
0.0
  0
LINE
  5
7E2C
  8
3
  6
CONTINUOUS
 62
     0
 10
589.35659199999986
 20
729.81870298127365
 30
0.0
 11
709.35659199999986
 21
729.81870298127365
 31
0.0
  0
INSERT
  5
7E2D
  8
3
  6
CONTINUOUS
 62
     0
  2
_OPEN
 10
569.35659199999998
 20
729.81870298127365
 30
0.0
 41
20.0
 42
20.0
 43
20.0
 50
180.0
  0
INSERT
  5
7E2E
  8
3
  6
CONTINUOUS
 62
     0
  2
_OPEN
 10
729.35659199999986
 20
729.81870298127365
 30
0.0
 41
20.0
 42
20.0
 43
20.0
  0
TEXT
  8
3
  40
30
  5
7EBB
  62
0
  72
0
  71
0
 10
589.578
 20
701.719
 30
0.000000
  1
160
  0
POINT
  5
7E30
  8
DEFPOINTS
  6
CONTINUOUS
 62
     0
 10
569.35659199999998
 20
809.03810598127359
 30
0.0
  0
POINT
  5
7E31
  8
DEFPOINTS
  6
CONTINUOUS
 62
     0
 10
729.35659199999986
 20
809.03810598127359
 30
0.0
  0
POINT
  5
7E32
  8
DEFPOINTS
  6
CONTINUOUS
 62
     0
 10
729.35659199999986
 20
729.81870298127365
 30
0.0
  0
ENDBLK
  5
7B1F
  8
0
  0
BLOCK
  8
0
  2
*D4
 70
     1
 10
0.0
 20
0.0
 30
0.0
  3
*D4
  1

  0
LINE
  5
7E33
  8
3
  6
CONTINUOUS
 62
     0
 10
1199.3565920000001
 20
804.0381059812737
 30
0.0
 11
1199.3565920000001
 21
719.81870298127365
 31
0.0
  0
LINE
  5
7E34
  8
3
  6
CONTINUOUS
 62
     0
 10
749.35659199999986
 20
729.81870298127365
 30
0.0
 11
1179.3565920000001
 21
729.81870298127365
 31
0.0
  0
INSERT
  5
7E35
  8
3
  6
CONTINUOUS
 62
     0
  2
_OPEN
 10
729.35659199999986
 20
729.81870298127365
 30
0.0
 41
20.0
 42
20.0
 43
20.0
 50
180.0
  0
INSERT
  5
7E36
  8
3
  6
CONTINUOUS
 62
     0
  2
_OPEN
 10
1199.3565920000001
 20
729.81870298127365
 30
0.0
 41
20.0
 42
20.0
 43
20.0
  0
TEXT
  8
3
  40
30
  5
7EBC
  62
0
  72
0
  71
0
 10
904.357
 20
701.719
 30
0.000000
  1
470
  0
POINT
  5
7E38
  8
DEFPOINTS
  6
CONTINUOUS
 62
     0
 10
729.35659199999986
 20
809.03810598127359
 30
0.0
  0
POINT
  5
7E39
  8
DEFPOINTS
  6
CONTINUOUS
 62
     0
 10
1199.3565920000001
 20
809.03810598127359
 30
0.0
  0
POINT
  5
7E3A
  8
DEFPOINTS
  6
CONTINUOUS
 62
     0
 10
1199.3565920000001
 20
729.81870298127365
 30
0.0
  0
ENDBLK
  5
7B2B
  8
0
  0
BLOCK
  8
0
  2
*D5
 70
     1
 10
0.0
 20
0.0
 30
0.0
  3
*D5
  1

  0
LINE
  5
7E3B
  8
3
  6
CONTINUOUS
 62
     0
 10
569.35659199999998
 20
1110.038105981273
 30
0.0
 11
569.35659199999998
 21
1283.516689981273
 31
0.0
  0
LINE
  5
7E3C
  8
3
  6
CONTINUOUS
 62
     0
 10
729.35659199999986
 20
1239.605293981273
 30
0.0
 11
729.35659199999986
 21
1283.516689981273
 31
0.0
  0
LINE
  5
7E3D
  8
3
  6
CONTINUOUS
 62
     0
 10
589.35659199999986
 20
1273.516689981273
 30
0.0
 11
709.35659199999986
 21
1273.516689981273
 31
0.0
  0
INSERT
  5
7E3E
  8
3
  6
CONTINUOUS
 62
     0
  2
_OPEN
 10
569.35659199999998
 20
1273.516689981273
 30
0.0
 41
20.0
 42
20.0
 43
20.0
 50
180.0
  0
INSERT
  5
7E3F
  8
3
  6
CONTINUOUS
 62
     0
  2
_OPEN
 10
729.35659199999986
 20
1273.516689981273
 30
0.0
 41
20.0
 42
20.0
 43
20.0
  0
TEXT
  8
3
  40
30
  5
7EBD
  62
0
  72
0
  71
0
 10
592.086
 20
1245.42
 30
0.000000
  1
160
  0
POINT
  5
7E41
  8
DEFPOINTS
  6
CONTINUOUS
 62
     0
 10
569.35659199999998
 20
1105.038105981273
 30
0.0
  0
POINT
  5
7E42
  8
DEFPOINTS
  6
CONTINUOUS
 62
     0
 10
729.35659199999986
 20
1234.605293981273
 30
0.0
  0
POINT
  5
7E43
  8
DEFPOINTS
  6
CONTINUOUS
 62
     0
 10
729.35659199999986
 20
1273.516689981273
 30
0.0
  0
ENDBLK
  5
7B38
  8
0
  0
BLOCK
  8
0
  2
*D6
 70
     1
 10
0.0
 20
0.0
 30
0.0
  3
*D6
  1

  0
LINE
  5
7E44
  8
3
  6
CONTINUOUS
 62
     0
 10
908.35659199999986
 20
1089.038105981273
 30
0.0
 11
908.35659199999986
 21
1283.516689981273
 31
0.0
  0
LINE
  5
7E45
  8
3
  6
CONTINUOUS
 62
     0
 10
749.35659199999986
 20
1273.516689981273
 30
0.0
 11
888.35659199999998
 21
1273.516689981273
 31
0.0
  0
INSERT
  5
7E46
  8
3
  6
CONTINUOUS
 62
     0
  2
_OPEN
 10
729.35659199999986
 20
1273.516689981273
 30
0.0
 41
20.0
 42
20.0
 43
20.0
 50
180.0
  0
INSERT
  5
7E47
  8
3
  6
CONTINUOUS
 62
     0
  2
_OPEN
 10
908.35659199999986
 20
1273.516689981273
 30
0.0
 41
20.0
 42
20.0
 43
20.0
  0
TEXT
  8
3
  40
30
  5
7EBE
  62
0
  72
0
  71
0
 10
758.857
 20
1245.42
 30
0.000000
  1
179
  0
POINT
  5
7E49
  8
DEFPOINTS
  6
CONTINUOUS
 62
     0
 10
729.35659199999986
 20
1234.605293981273
 30
0.0
  0
POINT
  5
7E4A
  8
DEFPOINTS
  6
CONTINUOUS
 62
     0
 10
908.35659199999986
 20
1084.038105981273
 30
0.0
  0
POINT
  5
7E4B
  8
DEFPOINTS
  6
CONTINUOUS
 62
     0
 10
908.35659199999986
 20
1273.516689981273
 30
0.0
  0
ENDBLK
  5
7D29
  8
0
  0
BLOCK
  8
0
  2
*D7
 70
     1
 10
0.0
 20
0.0
 30
0.0
  3
*D7
  1

  0
LINE
  5
7E4C
  8
3
  6
CONTINUOUS
 62
     0
 10
724.35659199999986
 20
1234.605293981273
 30
0.0
 11
375.89449600000017
 21
1234.6052939812739
 31
0.0
  0
LINE
  5
7E4D
  8
3
  6
CONTINUOUS
 62
     0
 10
564.35659199999986
 20
1084.038105981273
 30
0.0
 11
375.89449600000012
 21
1084.0381059812739
 31
0.0
  0
LINE
  5
7E4E
  8
3
  6
CONTINUOUS
 62
     0
 10
385.89449600000017
 20
1254.605293981273
 30
0.0
 11
385.89449600000017
 21
1274.6052939812739
 31
0.0
  0
LINE
  5
7E4F
  8
3
  6
CONTINUOUS
 62
     0
 10
385.89449600000012
 20
1064.0381059812739
 30
0.0
 11
385.89449600000012
 21
1044.0381059812739
 31
0.0
  0
LINE
  5
7E50
  8
3
  6
CONTINUOUS
 62
     0
 10
385.89449600000017
 20
1234.6052939812739
 30
0.0
 11
385.89449600000012
 21
1084.0381059812739
 31
0.0
  0
INSERT
  5
7E51
  8
3
  6
CONTINUOUS
 62
     0
  2
_OPEN
 10
385.89449600000017
 20
1234.6052939812739
 30
0.0
 41
20.0
 42
20.0
 43
20.0
 50
270.0
  0
INSERT
  5
7E52
  8
3
  6
CONTINUOUS
 62
     0
  2
_OPEN
 10
385.89449600000012
 20
1084.0381059812739
 30
0.0
 41
20.0
 42
20.0
 43
20.0
 50
90.0
  0
TEXT
  8
3
  40
30
  5
7EBF
  62
0
  72
0
  71
0
 10
300.894
 20
1122.22
 30
0.000000
  1
151
  0
POINT
  5
7E54
  8
DEFPOINTS
  6
CONTINUOUS
 62
     0
 10
729.35659199999986
 20
1234.605293981273
 30
0.0
  0
POINT
  5
7E55
  8
DEFPOINTS
  6
CONTINUOUS
 62
     0
 10
569.35659199999998
 20
1084.038105981273
 30
0.0
  0
POINT
  5
7E56
  8
DEFPOINTS
  6
CONTINUOUS
 62
     0
 10
385.89449600000012
 20
1084.0381059812739
 30
0.0
  0
ENDBLK
  5
7CB6
  8
0
  0
BLOCK
  8
0
  2
*D8
 70
     1
 10
0.0
 20
0.0
 30
0.0
  3
*D8
  1

  0
LINE
  5
7E57
  8
3
  6
CONTINUOUS
 62
     0
 10
1582.5629052017371
 20
1228.038105981273
 30
0.0
 11
1582.5629052017371
 21
1285.382505981273
 31
0.0
  0
LINE
  5
7E58
  8
3
  6
CONTINUOUS
 62
     0
 10
1722.5629052017371
 20
1228.038105981273
 30
0.0
 11
1722.5629052017371
 21
1285.382505981273
 31
0.0
  0
LINE
  5
7E59
  8
3
  6
CONTINUOUS
 62
     0
 10
1602.562905201738
 20
1275.382505981273
 30
0.0
 11
1702.5629052017371
 21
1275.382505981273
 31
0.0
  0
INSERT
  5
7E5A
  8
3
  6
CONTINUOUS
 62
     0
  2
_OPEN
 10
1582.5629052017371
 20
1275.382505981273
 30
0.0
 41
20.0
 42
20.0
 43
20.0
 50
180.0
  0
INSERT
  5
7E5B
  8
3
  6
CONTINUOUS
 62
     0
  2
_OPEN
 10
1722.5629052017371
 20
1275.382505981273
 30
0.0
 41
20.0
 42
20.0
 43
20.0
  0
TEXT
  8
3
  40
30
  5
7EC0
  62
0
  72
0
  71
0
 10
1588.28
 20
1247.28
 30
0.000000
  1
140
  0
POINT
  5
7E5D
  8
DEFPOINTS
  6
CONTINUOUS
 62
     0
 10
1582.5629052017371
 20
1223.038105981273
 30
0.0
  0
POINT
  5
7E5E
  8
DEFPOINTS
  6
CONTINUOUS
 62
     0
 10
1722.5629052017371
 20
1223.038105981273
 30
0.0
  0
POINT
  5
7E5F
  8
DEFPOINTS
  6
CONTINUOUS
 62
     0
 10
1722.5629052017371
 20
1275.382505981273
 30
0.0
  0
ENDBLK
  5
7BC7
  8
0
  0
BLOCK
  8
0
  2
*D9
 70
     1
 10
0.0
 20
0.0
 30
0.0
  3
*D9
  1

  0
LINE
  5
7E60
  8
3
  6
CONTINUOUS
 62
     0
 10
1438.562905201738
 20
804.0381059812737
 30
0.0
 11
1438.562905201738
 21
736.67168398127365
 31
0.0
  0
LINE
  5
7E61
  8
3
  6
CONTINUOUS
 62
     0
 10
1652.562905201738
 20
804.0381059812737
 30
0.0
 11
1652.562905201738
 21
736.67168398127365
 31
0.0
  0
LINE
  5
7E62
  8
3
  6
CONTINUOUS
 62
     0
 10
1458.562905201738
 20
746.67168398127365
 30
0.0
 11
1632.562905201738
 21
746.67168398127365
 31
0.0
  0
INSERT
  5
7E63
  8
3
  6
CONTINUOUS
 62
     0
  2
_OPEN
 10
1438.562905201738
 20
746.67168398127365
 30
0.0
 41
20.0
 42
20.0
 43
20.0
 50
180.0
  0
INSERT
  5
7E64
  8
3
  6
CONTINUOUS
 62
     0
  2
_OPEN
 10
1652.562905201738
 20
746.67168398127365
 30
0.0
 41
20.0
 42
20.0
 43
20.0
  0
TEXT
  8
3
  40
30
  5
7EC1
  62
0
  72
0
  71
0
 10
1485.97
 20
718.572
 30
0.000000
  1
214
  0
POINT
  5
7E66
  8
DEFPOINTS
  6
CONTINUOUS
 62
     0
 10
1438.562905201738
 20
809.03810598127359
 30
0.0
  0
POINT
  5
7E67
  8
DEFPOINTS
  6
CONTINUOUS
 62
     0
 10
1652.562905201738
 20
809.03810598127359
 30
0.0
  0
POINT
  5
7E68
  8
DEFPOINTS
  6
CONTINUOUS
 62
     0
 10
1652.562905201738
 20
746.67168398127365
 30
0.0
  0
ENDBLK
  5
7BD4
  8
0
  0
BLOCK
  8
0
  2
*D10
 70
     1
 10
0.0
 20
0.0
 30
0.0
  3
*D10
  1

  0
LINE
  5
7E69
  8
3
  6
CONTINUOUS
 62
     0
 10
1662.562905201738
 20
804.0381059812737
 30
0.0
 11
1662.562905201738
 21
736.67168398127365
 31
0.0
  0
LINE
  5
7E6A
  8
3
  6
CONTINUOUS
 62
     0
 10
1632.562905201738
 20
746.67168398127365
 30
0.0
 11
1612.562905201738
 21
746.67168398127365
 31
0.0
  0
LINE
  5
7E6B
  8
3
  6
CONTINUOUS
 62
     0
 10
1682.562905201738
 20
746.67168398127365
 30
0.0
 11
1702.5629052017371
 21
746.67168398127365
 31
0.0
  0
TEXT
  8
3
  40
30
  5
7EC2
  62
0
  72
0
  71
0
 10
1641.23
 20
718.572
 30
0.000000
  1
10
  0
LINE
  5
7E6D
  8
3
  6
CONTINUOUS
 62
     0
 10
1652.562905201738
 20
746.67168398127365
 30
0.0
 11
1662.562905201738
 21
746.67168398127365
 31
0.0
  0
INSERT
  5
7E6E
  8
3
  6
CONTINUOUS
 62
     0
  2
_OPEN
 10
1652.562905201738
 20
746.67168398127365
 30
0.0
 41
20.0
 42
20.0
 43
20.0
  0
INSERT
  5
7E6F
  8
3
  6
CONTINUOUS
 62
     0
  2
_OPEN
 10
1662.562905201738
 20
746.67168398127365
 30
0.0
 41
20.0
 42
20.0
 43
20.0
 50
180.0
  0
POINT
  5
7E70
  8
DEFPOINTS
  6
CONTINUOUS
 62
     0
 10
1652.562905201738
 20
809.03810598127359
 30
0.0
  0
POINT
  5
7E71
  8
DEFPOINTS
  6
CONTINUOUS
 62
     0
 10
1662.562905201738
 20
809.03810598127359
 30
0.0
  0
POINT
  5
7E72
  8
DEFPOINTS
  6
CONTINUOUS
 62
     0
 10
1662.562905201738
 20
746.67168398127365
 30
0.0
  0
ENDBLK
  5
7C30
  8
0
  0
BLOCK
  8
0
  2
*D11
 70
     1
 10
0.0
 20
0.0
 30
0.0
  3
*D11
  1

  0
LINE
  5
7E73
  8
3
  6
CONTINUOUS
 62
     0
 10
1352.562905201738
 20
1199.038105981273
 30
0.0
 11
1352.562905201738
 21
1333.066716981273
 31
0.0
  0
LINE
  5
7E74
  8
3
  6
CONTINUOUS
 62
     0
 10
1652.562905201738
 20
1324.690254981273
 30
0.0
 11
1652.562905201738
 21
1333.066716981273
 31
0.0
  0
LINE
  5
7E75
  8
3
  6
CONTINUOUS
 62
     0
 10
1372.562905201738
 20
1323.066716981273
 30
0.0
 11
1632.562905201738
 21
1323.066716981273
 31
0.0
  0
INSERT
  5
7E76
  8
3
  6
CONTINUOUS
 62
     0
  2
_OPEN
 10
1352.562905201738
 20
1323.066716981273
 30
0.0
 41
20.0
 42
20.0
 43
20.0
 50
180.0
  0
INSERT
  5
7E77
  8
3
  6
CONTINUOUS
 62
     0
  2
_OPEN
 10
1652.562905201738
 20
1323.066716981273
 30
0.0
 41
20.0
 42
20.0
 43
20.0
  0
TEXT
  8
3
  40
30
  5
7EC3
  62
0
  72
0
  71
0
 10
1439.96
 20
1319.97
 30
0.000000
  1
MAX
  0
TEXT
  8
3
  40
30
  5
7EC4
  62
0
  72
0
  71
0
 10
1439.96
 20
1280.97
 30
0.000000
  1
300
  0
POINT
  5
7E79
  8
DEFPOINTS
  6
CONTINUOUS
 62
     0
 10
1352.562905201738
 20
1194.038105981273
 30
0.0
  0
POINT
  5
7E7A
  8
DEFPOINTS
  6
CONTINUOUS
 62
     0
 10
1652.562905201738
 20
1319.690254981273
 30
0.0
  0
POINT
  5
7E7B
  8
DEFPOINTS
  6
CONTINUOUS
 62
     0
 10
1652.562905201738
 20
1323.066716981273
 30
0.0
  0
ENDBLK
  5
7D02
  8
0
  0
BLOCK
  8
0
  2
*D12
 70
     1
 10
0.0
 20
0.0
 30
0.0
  3
*D12
  1

  0
LINE
  5
7E7C
  8
3
  6
CONTINUOUS
 62
     0
 10
1730.562905201738
 20
1209.038105981273
 30
0.0
 11
1730.562905201738
 21
1333.066716981273
 31
0.0
  0
LINE
  5
7E7D
  8
3
  6
CONTINUOUS
 62
     0
 10
1672.5629052017371
 20
1323.066716981273
 30
0.0
 11
1710.562905201738
 21
1323.066716981273
 31
0.0
  0
TEXT
  8
3
  40
30
  5
7EC5
  62
0
  72
0
  71
0
 10
1629.73
 20
1294.97
 30
0.000000
  1
78
  0
INSERT
  5
7E7F
  8
3
  6
CONTINUOUS
 62
     0
  2
_OPEN
 10
1652.562905201738
 20
1323.066716981273
 30
0.0
 41
20.0
 42
20.0
 43
20.0
 50
180.0
  0
INSERT
  5
7E80
  8
3
  6
CONTINUOUS
 62
     0
  2
_OPEN
 10
1730.562905201738
 20
1323.066716981273
 30
0.0
 41
20.0
 42
20.0
 43
20.0
  0
POINT
  5
7E81
  8
DEFPOINTS
  6
CONTINUOUS
 62
     0
 10
1652.562905201738
 20
1319.690254981273
 30
0.0
  0
POINT
  5
7E82
  8
DEFPOINTS
  6
CONTINUOUS
 62
     0
 10
1730.562905201738
 20
1204.038105981273
 30
0.0
  0
POINT
  5
7E83
  8
DEFPOINTS
  6
CONTINUOUS
 62
     0
 10
1730.562905201738
 20
1323.066716981273
 30
0.0
  0
ENDBLK
  5
7CE7
  8
0
  0
BLOCK
  8
0
  2
*D13
 70
     1
 10
0.0
 20
0.0
 30
0.0
  3
*D13
  1

  0
LINE
  5
7E84
  8
3
  6
CONTINUOUS
 62
     0
 10
1735.562905201738
 20
1184.087228981273
 30
0.0
 11
1807.966695201738
 21
1184.087228981273
 31
0.0
  0
LINE
  5
7E85
  8
3
  6
CONTINUOUS
 62
     0
 10
1735.562905201738
 20
984.0872289812736
 30
0.0
 11
1807.966695201738
 21
984.0872289812736
 31
0.0
  0
LINE
  5
7E86
  8
3
  6
CONTINUOUS
 62
     0
 10
1797.966695201738
 20
1164.087228981273
 30
0.0
 11
1797.966695201738
 21
1004.087228981273
 31
0.0
  0
INSERT
  5
7E87
  8
3
  6
CONTINUOUS
 62
     0
  2
_OPEN
 10
1797.966695201738
 20
1184.087228981273
 30
0.0
 41
20.0
 42
20.0
 43
20.0
 50
90.0
  0
INSERT
  5
7E88
  8
3
  6
CONTINUOUS
 62
     0
  2
_OPEN
 10
1797.966695201738
 20
984.0872289812736
 30
0.0
 41
20.0
 42
20.0
 43
20.0
 50
270.0
  0
TEXT
  8
3
  40
30
  5
7EC6
  62
0
  72
0
  71
0
 10
1712.97
 20
1044.42
 30
0.000000
  1
φ200
  0
POINT
  5
7E8A
  8
DEFPOINTS
  6
CONTINUOUS
 62
     0
 10
1730.562905201738
 20
1184.087228981273
 30
0.0
  0
POINT
  5
7E8B
  8
DEFPOINTS
  6
CONTINUOUS
 62
     0
 10
1730.562905201738
 20
984.0872289812736
 30
0.0
  0
POINT
  5
7E8C
  8
DEFPOINTS
  6
CONTINUOUS
 62
     0
 10
1797.966695201738
 20
984.0872289812736
 30
0.0
  0
ENDBLK
  5
7D0D
  8
0
  0
BLOCK
  8
0
  2
*D14
 70
     1
 10
0.0
 20
0.0
 30
0.0
  3
*D14
  1

  0
LINE
  5
7E8D
  8
3
  6
CONTINUOUS
 62
     0
 10
564.35659199999986
 20
809.03810598127359
 30
0.0
 11
375.894496
 21
809.03810598127359
 31
0.0
  0
LINE
  5
7E8E
  8
3
  6
CONTINUOUS
 62
     0
 10
385.894496
 20
1064.0381059812739
 30
0.0
 11
385.894496
 21
829.0381059812737
 31
0.0
  0
INSERT
  5
7E8F
  8
3
  6
CONTINUOUS
 62
     0
  2
_OPEN
 10
385.894496
 20
1084.0381059812739
 30
0.0
 41
20.0
 42
20.0
 43
20.0
 50
90.0
  0
INSERT
  5
7E90
  8
3
  6
CONTINUOUS
 62
     0
  2
_OPEN
 10
385.894496
 20
809.03810598127359
 30
0.0
 41
20.0
 42
20.0
 43
20.0
 50
270.0
  0
TEXT
  8
3
  40
30
  5
7EC7
  62
0
  72
0
  71
0
 10
300.894
 20
893.438
 30
0.000000
  1
275
  0
POINT
  5
7E92
  8
DEFPOINTS
  6
CONTINUOUS
 62
     0
 10
569.35659199999998
 20
1084.038105981273
 30
0.0
  0
POINT
  5
7E93
  8
DEFPOINTS
  6
CONTINUOUS
 62
     0
 10
569.35659199999998
 20
809.03810598127359
 30
0.0
  0
POINT
  5
7E94
  8
DEFPOINTS
  6
CONTINUOUS
 62
     0
 10
385.894496
 20
809.03810598127359
 30
0.0
  0
ENDBLK
  5
7CC0
  8
0
  0
BLOCK
  8
0
  2
*D15
 70
     1
 10
0.0
 20
0.0
 30
0.0
  3
*D15
  1

  0
LINE
  5
7E95
  8
3
  6
CONTINUOUS
 62
     0
 10
542.72261500000002
 20
1084.038105981273
 30
0.0
 11
517.00902499999995
 21
1084.038105981273
 31
0.0
  0
LINE
  5
7E96
  8
3
  6
CONTINUOUS
 62
     0
 10
564.35659199999986
 20
884.03810598127359
 30
0.0
 11
517.00902499999995
 21
884.03810598127359
 31
0.0
  0
LINE
  5
7E97
  8
3
  6
CONTINUOUS
 62
     0
 10
527.00902499999995
 20
1064.038105981273
 30
0.0
 11
527.00902499999995
 21
904.0381059812737
 31
0.0
  0
INSERT
  5
7E98
  8
3
  6
CONTINUOUS
 62
     0
  2
_OPEN
 10
527.00902499999995
 20
1084.038105981273
 30
0.0
 41
20.0
 42
20.0
 43
20.0
 50
90.0
  0
INSERT
  5
7E99
  8
3
  6
CONTINUOUS
 62
     0
  2
_OPEN
 10
527.00902499999995
 20
884.03810598127359
 30
0.0
 41
20.0
 42
20.0
 43
20.0
 50
270.0
  0
TEXT
  8
3
  40
30
  5
7EC8
  62
0
  72
0
  71
0
 10
442.009
 20
939.714
 30
0.000000
  1
200
  0
POINT
  5
7E9B
  8
DEFPOINTS
  6
CONTINUOUS
 62
     0
 10
547.72261499999991
 20
1084.038105981273
 30
0.0
  0
POINT
  5
7E9C
  8
DEFPOINTS
  6
CONTINUOUS
 62
     0
 10
569.35659199999998
 20
884.03810598127359
 30
0.0
  0
POINT
  5
7E9D
  8
DEFPOINTS
  6
CONTINUOUS
 62
     0
 10
527.00902499999995
 20
884.03810598127359
 30
0.0
  0
ENDBLK
  5
7C8B
  8
0
  0
BLOCK
  8
0
  2
*D16
 70
     1
 10
0.0
 20
0.0
 30
0.0
  3
*D16
  1

  0
LINE
  5
7E9E
  8
3
  6
CONTINUOUS
 62
     0
 10
724.35659199999986
 20
1234.605293981273
 30
0.0
 11
303.6432010000002
 21
1234.6052939812739
 31
0.0
  0
LINE
  5
7E9F
  8
3
  6
CONTINUOUS
 62
     0
 10
564.35659199999986
 20
809.03810598127359
 30
0.0
 11
303.64320099999998
 21
809.03810598127359
 31
0.0
  0
LINE
  5
7EA0
  8
3
  6
CONTINUOUS
 62
     0
 10
313.6432010000002
 20
1214.605293981273
 30
0.0
 11
313.64320099999998
 21
829.0381059812737
 31
0.0
  0
INSERT
  5
7EA1
  8
3
  6
CONTINUOUS
 62
     0
  2
_OPEN
 10
313.6432010000002
 20
1234.6052939812739
 30
0.0
 41
20.0
 42
20.0
 43
20.0
 50
90.0
  0
INSERT
  5
7EA2
  8
3
  6
CONTINUOUS
 62
     0
  2
_OPEN
 10
313.64320099999998
 20
809.03810598127359
 30
0.0
 41
20.0
 42
20.0
 43
20.0
 50
270.0
  0
TEXT
  8
3
  40
30
  5
7EC9
  62
0
  72
0
  71
0
 10
228.643
 20
992.134
 30
0.000000
  1
426
  0
POINT
  5
7EA4
  8
DEFPOINTS
  6
CONTINUOUS
 62
     0
 10
729.35659199999986
 20
1234.605293981273
 30
0.0
  0
POINT
  5
7EA5
  8
DEFPOINTS
  6
CONTINUOUS
 62
     0
 10
569.35659199999998
 20
809.03810598127359
 30
0.0
  0
POINT
  5
7EA6
  8
DEFPOINTS
  6
CONTINUOUS
 62
     0
 10
313.64320099999998
 20
809.03810598127359
 30
0.0
  0
ENDBLK
  5
7CAB
  8
0
  0
BLOCK
  8
0
  2
*D17
 70
     1
 10
0.0
 20
0.0
 30
0.0
  3
*D17
  1

  0
LINE
  5
7EA7
  8
3
  6
CONTINUOUS
 62
     0
 10
564.35659199999986
 20
1084.038105981273
 30
0.0
 11
450.10383800000011
 21
1084.0381059812739
 31
0.0
  0
LINE
  5
7EA8
  8
3
  6
CONTINUOUS
 62
     0
 10
579.35659199999986
 20
873.0381059812737
 30
0.0
 11
450.10383800000011
 21
873.0381059812737
 31
0.0
  0
LINE
  5
7EA9
  8
3
  6
CONTINUOUS
 62
     0
 10
460.10383800000022
 20
1064.0381059812739
 30
0.0
 11
460.10383800000011
 21
893.03810598127359
 31
0.0
  0
INSERT
  5
7EAA
  8
3
  6
CONTINUOUS
 62
     0
  2
_OPEN
 10
460.10383800000022
 20
1084.0381059812739
 30
0.0
 41
20.0
 42
20.0
 43
20.0
 50
90.0
  0
INSERT
  5
7EAB
  8
3
  6
CONTINUOUS
 62
     0
  2
_OPEN
 10
460.10383800000011
 20
873.0381059812737
 30
0.0
 41
20.0
 42
20.0
 43
20.0
 50
270.0
  0
TEXT
  8
3
  40
30
  5
7ECA
  62
0
  72
0
  71
0
 10
375.104
 20
928.762
 30
0.000000
  1
211
  0
POINT
  5
7EAD
  8
DEFPOINTS
  6
CONTINUOUS
 62
     0
 10
569.35659199999998
 20
1084.038105981273
 30
0.0
  0
POINT
  5
7EAE
  8
DEFPOINTS
  6
CONTINUOUS
 62
     0
 10
584.35659199999986
 20
873.0381059812737
 30
0.0
  0
POINT
  5
7EAF
  8
DEFPOINTS
  6
CONTINUOUS
 62
     0
 10
460.10383800000011
 20
873.0381059812737
 30
0.0
  0
ENDBLK
  5
7CCC
  8
0
  0
BLOCK
  8
0
  2
*D18
 70
     1
 10
0.0
 20
0.0
 30
0.0
  3
*D18
  1

  0
LINE
  5
7EB0
  8
3
 62
     0
 10
569.35659199999998
 20
1110.038105981273
 30
0.0
 11
569.35659199999998
 21
1351.432046883361
 31
0.0
  0
LINE
  5
7EB1
  8
3
 62
     0
 10
1199.3565920000001
 20
864.0381059812737
 30
0.0
 11
1199.3565920000001
 21
1351.432046883361
 31
0.0
  0
LINE
  5
7EB2
  8
3
 62
     0
 10
589.35659199999986
 20
1341.432046883361
 30
0.0
 11
1179.3565920000001
 21
1341.432046883361
 31
0.0
  0
INSERT
  5
7EB3
  8
3
 62
     0
  2
_OPEN
 10
569.35659199999998
 20
1341.432046883361
 30
0.0
 41
20.0
 42
20.0
 43
20.0
 50
180.0
  0
INSERT
  5
7EB4
  8
3
 62
     0
  2
_OPEN
 10
1199.3565920000001
 20
1341.432046883361
 30
0.0
 41
20.0
 42
20.0
 43
20.0
  0
TEXT
  8
3
  40
30
  5
7ECB
  62
0
  72
0
  71
0
 10
811.070
 20
1313.33
 30
0.000000
  1
630
  0
POINT
  5
7EB6
  8
DEFPOINTS
 62
     0
 10
569.35659199999998
 20
1105.038105981273
 30
0.0
  0
POINT
  5
7EB7
  8
DEFPOINTS
 62
     0
 10
1199.3565920000001
 20
859.03810598127359
 30
0.0
  0
POINT
  5
7EB8
  8
DEFPOINTS
 62
     0
 10
1199.3565920000001
 20
1341.432046883361
 30
0.0
  0
ENDBLK
  5
7D19
  8
0
  0
ENDSEC
  0
SECTION
  2
ENTITIES
  0
CIRCLE
  5
7A79
  8
1
  6
CONTINUOUS
 10
729.35659199999986
 20
1084.038105981273
 30
0.0
 40
120.0
  0
CIRCLE
  5
7A7A
  8
1
  6
CONTINUOUS
 10
729.35659199999986
 20
1084.038105981273
 30
0.0
 40
100.0
  0
LINE
  5
7A7B
  8
1
  6
CONTINUOUS
 10
584.35659199999986
 20
1094.038105981273
 30
0.0
 11
600.35659199999986
 21
1094.038105981273
 31
0.0
  0
LINE
  5
7A7C
  8
1
  6
CONTINUOUS
 10
569.35659199999998
 20
863.0381059812737
 30
0.0
 11
569.35659199999998
 21
1105.038105981273
 31
0.0
  0
LINE
  5
7A7D
  8
1
  6
CONTINUOUS
 10
569.35659199999998
 20
1084.038105981273
 30
0.0
 11
584.35659199999986
 21
1084.038105981273
 31
0.0
  0
LINE
  5
7A7E
  8
1
  6
CONTINUOUS
 10
584.35659199999986
 20
873.0381059812737
 30
0.0
 11
713.35659199999986
 21
873.0381059812737
 31
0.0
  0
ARC
  5
7A7F
  8
1
  6
CONTINUOUS
 10
713.35659199999986
 20
1068.038105981273
 30
0.0
 40
195.0
 50
270.0
 51
0.3
  0
ARC
  5
7A80
  8
1
  6
CONTINUOUS
 10
740.35659199999998
 20
1095.038105981273
 30
0.0
 40
140.0
 50
89.400000000000006
 51
180.39999999999989
  0
LINE
  5
7A81
  8
1
  6
CONTINUOUS
 10
569.35659199999998
 20
883.0381059812737
 30
0.0
 11
584.35659199999986
 21
898.0381059812737
 31
0.0
  0
LINE
  5
7A82
  8
1
  6
CONTINUOUS
 10
584.35659199999986
 20
898.0381059812737
 30
0.0
 11
584.35659199999986
 21
1070.038105981273
 31
0.0
  0
LINE
  5
7A83
  8
1
  6
CONTINUOUS
 10
569.35659199999998
 20
1085.038105981273
 30
0.0
 11
584.35659199999986
 21
1070.038105981273
 31
0.0
  0
ARC
  5
7A84
  8
1
  6
CONTINUOUS
 10
743.35659199999986
 20
1070.038105981273
 30
0.0
 40
165.0
 50
359.69999999999999
 51
90.599999999999994
  0
LINE
  5
7A85
  8
1
  6
CONTINUOUS
 10
849.35659199999986
 20
2072.8477694177291
 30
0.0
 11
849.35659199999986
 21
2080.8477694177291
 31
0.0
  0
LINE
  5
7A86
  8
1
  6
CONTINUOUS
 10
609.35659199999986
 20
2080.8477694177291
 30
0.0
 11
849.35659199999986
 21
2080.8477694177291
 31
0.0
  0
LINE
  5
7A87
  8
1
  6
CONTINUOUS
 10
609.35659199999986
 20
2072.8477694177291
 30
0.0
 11
609.35659199999986
 21
2080.8477694177291
 31
0.0
  0
LINE
  5
7A88
  8
1
  6
CONTINUOUS
 10
569.35659199999998
 20
2093.8477694177291
 30
0.0
 11
569.35659199999998
 21
1911.8477694177291
 31
0.0
  0
LINE
  5
7A89
  8
1
  6
CONTINUOUS
 10
908.35659199999986
 20
2062.8477694177291
 30
0.0
 11
908.35659199999986
 21
1942.8477694177291
 31
0.0
  0
LINE
  5
7A8A
  8
1
  6
CONTINUOUS
 10
569.35659199999998
 20
1932.8477694177291
 30
0.0
 11
898.35659199999998
 21
1932.8477694177291
 31
0.0
  0
LINE
  5
7A8B
  8
1
  6
CONTINUOUS
 10
569.35659199999998
 20
2072.8477694177291
 30
0.0
 11
898.35659199999998
 21
2072.8477694177291
 31
0.0
  0
ARC
  5
7A8C
  8
1
  6
CONTINUOUS
 10
898.35659199999998
 20
2062.8477694177291
 30
0.0
 40
10.0
 50
0.0
 51
90.0
  0
ARC
  5
7A8D
  8
1
  6
CONTINUOUS
 10
898.35659199999998
 20
1942.8477694177291
 30
0.0
 40
10.0
 50
270.0
 51
0.0
  0
LINE
  5
7A8E
  8
1
  6
CONTINUOUS
 10
569.35659199999998
 20
2073.8477694177291
 30
0.0
 11
584.35659199999986
 21
2058.8477694177291
 31
0.0
  0
LINE
  5
7A8F
  8
1
  6
CONTINUOUS
 10
584.35659199999986
 20
2058.8477694177291
 30
0.0
 11
584.35659199999986
 21
1946.8477694177291
 31
0.0
  0
LINE
  5
7A90
  8
1
  6
CONTINUOUS
 10
569.35659199999998
 20
1931.8477694177291
 30
0.0
 11
584.35659199999986
 21
1946.8477694177291
 31
0.0
  0
LINE
  5
7A91
  8
1
  6
CONTINUOUS
 10
864.35659199999998
 20
1117.338105981273
 30
0.0
 11
594.35659199999998
 21
1117.338105981273
 31
0.0
  0
LINE
  5
7A92
  8
1
  6
CONTINUOUS
 10
780.95659199999989
 20
1209.038105981273
 30
0.0
 11
864.35659199999998
 21
1137.7381059812731
 31
0.0
  0
LINE
  5
7A93
  8
1
  6
CONTINUOUS
 10
677.75659199999996
 20
1209.038105981273
 30
0.0
 11
594.35659199999998
 21
1137.7381059812731
 31
0.0
  0
LINE
  5
7A94
  8
1
  6
CONTINUOUS
 10
864.35659199999998
 20
1137.7381059812731
 30
0.0
 11
864.35659199999998
 21
859.03810598127359
 31
0.0
  0
LINE
  5
7A95
  8
1
  6
CONTINUOUS
 10
677.75659199999996
 20
1209.038105981273
 30
0.0
 11
780.95659199999989
 21
1209.038105981273
 31
0.0
  0
LINE
  5
7A96
  8
1
  6
CONTINUOUS
 10
594.35659199999998
 20
859.03810598127359
 30
0.0
 11
594.35659199999998
 21
1137.7381059812731
 31
0.0
  0
LINE
  5
7A97
  8
1
  6
CONTINUOUS
 10
609.35659199999986
 20
1932.8477694177291
 30
0.0
 11
609.35659199999986
 21
1924.8477694177291
 31
0.0
  0
LINE
  5
7A98
  8
1
  6
CONTINUOUS
 10
609.35659199999986
 20
1924.8477694177291
 30
0.0
 11
849.35659199999986
 21
1924.8477694177291
 31
0.0
  0
LINE
  5
7A99
  8
1
  6
CONTINUOUS
 10
849.35659199999986
 20
1932.8477694177291
 30
0.0
 11
849.35659199999986
 21
1924.8477694177291
 31
0.0
  0
LINE
  5
7A9A
  8
1
  6
CONTINUOUS
 10
569.35659199999998
 20
884.03810598127359
 30
0.0
 11
584.35659199999986
 21
884.03810598127359
 31
0.0
  0
LINE
  5
7A9B
  8
1
  6
CONTINUOUS
 10
584.35659199999986
 20
873.0381059812737
 30
0.0
 11
584.35659199999986
 21
884.03810598127359
 31
0.0
  0
LINE
  5
7A9C
  8
1
  6
CONTINUOUS
 10
584.35659199999986
 20
1084.038105981273
 30
0.0
 11
584.35659199999986
 21
1094.038105981273
 31
0.0
  0
LINE
  5
7A9D
  8
2
  6
CENTER
 10
1064.556591999999
 20
960.13810598127372
 30
0.0
 11
994.55659199999991
 21
960.13810598127372
 31
0.0
  0
LINE
  5
7A9E
  8
2
  6
CENTER
 10
1029.5565919999999
 20
925.13810598127384
 30
0.0
 11
1029.5565919999999
 21
995.13810598127372
 31
0.0
  0
LINE
  5
7A9F
  8
1
  6
CONTINUOUS
 10
1111.3565920000001
 20
879.73810598127352
 30
0.0
 11
1111.3565920000001
 21
887.73810598127352
 31
0.0
  0
LINE
  5
7AA0
  8
1
  6
CONTINUOUS
 10
956.35659199999998
 20
887.73810598127352
 30
0.0
 11
964.55659200000014
 21
910.5381059812737
 31
0.0
  0
LINE
  5
7AA1
  8
1
  6
CONTINUOUS
 10
956.35659199999998
 20
879.73810598127352
 30
0.0
 11
956.35659199999998
 21
887.73810598127352
 31
0.0
  0
LINE
  5
7AA2
  8
1
  6
CONTINUOUS
 10
1111.3565920000001
 20
887.73810598127352
 30
0.0
 11
1103.256591999999
 21
910.5381059812737
 31
0.0
  0
ARC
  5
7AA3
  8
1
  6
CONTINUOUS
 10
1033.8565920000001
 20
959.73810598127363
 30
0.0
 40
85.0
 50
324.69999999999987
 51
215.30000000000001
  0
CIRCLE
  5
7AA4
  8
1
  6
CONTINUOUS
 10
1029.5565919999999
 20
960.13810598127372
 30
0.0
 40
35.0
  0
LINE
  5
7AA5
  8
1
  6
CONTINUOUS
 10
1152.3565920000001
 20
859.03810598127359
 30
0.0
 11
1152.3565920000001
 21
1194.038105981273
 31
0.0
  0
LINE
  5
7AA6
  8
1
  6
CONTINUOUS
 10
1152.3565920000001
 20
1194.038105981273
 30
0.0
 11
622.35659199999986
 21
1194.038105981273
 31
0.0
  0
LINE
  5
7AA7
  8
1
  6
CONTINUOUS
 10
941.05659199999991
 20
859.03810598127359
 30
0.0
 11
941.05659199999991
 21
879.73810598127352
 31
0.0
  0
LINE
  5
7AA8
  8
1
  6
CONTINUOUS
 10
941.05659199999991
 20
879.73810598127352
 30
0.0
 11
1192.056591999999
 21
879.73810598127352
 31
0.0
  0
LINE
  5
7AA9
  8
1
  6
CONTINUOUS
 10
1192.056591999999
 20
879.73810598127352
 30
0.0
 11
1192.056591999999
 21
859.03810598127359
 31
0.0
  0
LINE
  5
7AAA
  8
1
  6
CONTINUOUS
 10
1199.3565920000001
 20
809.03810598127359
 30
0.0
 11
1199.3565920000001
 21
859.03810598127359
 31
0.0
  0
LINE
  5
7AAB
  8
1
  6
CONTINUOUS
 10
1199.3565920000001
 20
809.03810598127359
 30
0.0
 11
569.35659199999998
 21
809.03810598127359
 31
0.0
  0
LINE
  5
7AAC
  8
1
  6
CONTINUOUS
 10
1199.3565920000001
 20
859.03810598127359
 30
0.0
 11
569.35659199999998
 21
859.03810598127359
 31
0.0
  0
LINE
  5
7AAD
  8
1
  6
CONTINUOUS
 10
569.35659199999998
 20
809.03810598127359
 30
0.0
 11
569.35659199999998
 21
859.03810598127359
 31
0.0
  0
LINE
  5
7AAE
  8
1
  6
CONTINUOUS
 10
948.85659199999986
 20
1808.0477694177289
 30
0.0
 11
948.85659199999986
 21
1998.947769417729
 31
0.0
  0
LINE
  5
7AAF
  8
1
  6
CONTINUOUS
 10
1118.856591999999
 20
1808.0477694177289
 30
0.0
 11
1118.856591999999
 21
1998.947769417729
 31
0.0
  0
LINE
  5
7AB0
  8
1
  6
CONTINUOUS
 10
948.85659199999986
 20
1808.0477694177289
 30
0.0
 11
1118.856591999999
 21
1808.0477694177289
 31
0.0
  0
LINE
  5
7AB1
  8
1
  6
CONTINUOUS
 10
948.85659199999986
 20
1998.947769417729
 30
0.0
 11
1118.856591999999
 21
1998.947769417729
 31
0.0
  0
LINE
  5
7AB2
  8
1
  6
CONTINUOUS
 10
1064.556591999999
 20
1725.3477694177291
 30
0.0
 11
994.55659199999991
 21
1725.3477694177291
 31
0.0
  0
LINE
  5
7AB3
  8
1
  6
CONTINUOUS
 10
1064.556591999999
 20
1755.3477694177291
 30
0.0
 11
994.55659199999991
 21
1755.3477694177291
 31
0.0
  0
LINE
  5
7AB4
  8
1
  6
CONTINUOUS
 10
994.55659199999991
 20
1725.3477694177291
 30
0.0
 11
994.55659199999991
 21
1755.3477694177291
 31
0.0
  0
LINE
  5
7AB5
  8
1
  6
CONTINUOUS
 10
1064.556591999999
 20
1725.3477694177291
 30
0.0
 11
1064.556591999999
 21
1755.3477694177291
 31
0.0
  0
LINE
  5
7AB6
  8
1
  6
CONTINUOUS
 10
622.35659199999986
 20
1777.8477694177291
 30
0.0
 11
1152.3565920000001
 21
1777.8477694177291
 31
0.0
  0
LINE
  5
7AB7
  8
1
  6
CONTINUOUS
 10
1152.3565920000001
 20
1702.8477694177291
 30
0.0
 11
1152.3565920000001
 21
1777.8477694177291
 31
0.0
  0
LINE
  5
7AB8
  8
1
  6
CONTINUOUS
 10
569.35659199999998
 20
1788.8477694177291
 30
0.0
 11
717.35659199999986
 21
1788.8477694177291
 31
0.0
  0
LINE
  5
7AB9
  8
1
  6
CONTINUOUS
 10
908.35659199999986
 20
2012.8477694177291
 30
0.0
 11
1199.3565920000001
 21
2012.8477694177291
 31
0.0
  0
LINE
  5
7ABA
  8
1
  6
CONTINUOUS
 10
1199.3565920000001
 20
1788.8477694177291
 30
0.0
 11
1199.3565920000001
 21
2012.8477694177291
 31
0.0
  0
LINE
  5
7ABB
  8
1
  6
CONTINUOUS
 10
1017.556592
 20
1755.3477694177291
 30
0.0
 11
1017.556592
 21
1808.0477694177289
 31
0.0
  0
LINE
  5
7ABC
  8
1
  6
CONTINUOUS
 10
1041.556591999999
 20
1755.3477694177291
 30
0.0
 11
1041.556591999999
 21
1808.0477694177289
 31
0.0
  0
LINE
  5
7ABD
  8
1
  6
CONTINUOUS
 10
779.35659199999986
 20
1755.3477694177291
 30
0.0
 11
679.35659199999986
 21
1755.3477694177291
 31
0.0
  0
LINE
  5
7ABE
  8
1
  6
CONTINUOUS
 10
779.35659199999986
 20
1725.3477694177291
 30
0.0
 11
679.35659199999986
 21
1725.3477694177291
 31
0.0
  0
LINE
  5
7ABF
  8
1
  6
CONTINUOUS
 10
679.35659199999986
 20
1725.3477694177291
 30
0.0
 11
679.35659199999986
 21
1755.3477694177291
 31
0.0
  0
LINE
  5
7AC0
  8
1
  6
CONTINUOUS
 10
779.35659199999986
 20
1725.3477694177291
 30
0.0
 11
779.35659199999986
 21
1755.3477694177291
 31
0.0
  0
LINE
  5
7AC1
  8
1
  6
CONTINUOUS
 10
622.35659199999986
 20
1702.8477694177291
 30
0.0
 11
1152.3565920000001
 21
1702.8477694177291
 31
0.0
  0
LINE
  5
7AC2
  8
1
  6
CONTINUOUS
 10
622.35659199999986
 20
1702.8477694177291
 30
0.0
 11
622.35659199999986
 21
1777.8477694177291
 31
0.0
  0
LINE
  5
7AC3
  8
1
  6
CONTINUOUS
 10
569.35659199999998
 20
1788.8477694177291
 30
0.0
 11
569.35659199999998
 21
1932.8477694177291
 31
0.0
  0
LINE
  5
7AC4
  8
1
  6
CONTINUOUS
 10
622.35659199999986
 20
859.03810598127359
 30
0.0
 11
622.35659199999986
 21
1194.038105981273
 31
0.0
  0
LINE
  5
7AC5
  8
1
  6
CONTINUOUS
 10
741.35659199999986
 20
1788.8477694177291
 30
0.0
 11
1017.556592
 21
1788.8477694177291
 31
0.0
  0
LINE
  5
7AC6
  8
1
  6
CONTINUOUS
 10
1041.556591999999
 20
1788.8477694177291
 30
0.0
 11
1199.3565920000001
 21
1788.8477694177291
 31
0.0
  0
LINE
  5
7AC7
  8
1
  6
CONTINUOUS
 10
741.35659199999986
 20
1924.8477694177291
 30
0.0
 11
741.35659199999986
 21
1755.3477694177291
 31
0.0
  0
LINE
  5
7AC8
  8
1
  6
CONTINUOUS
 10
717.35659199999986
 20
1924.8477694177291
 30
0.0
 11
717.35659199999986
 21
1755.3477694177291
 31
0.0
  0
LINE
  5
7AC9
  8
1
  6
CONTINUOUS
 10
712.456592
 20
1037.038105981273
 30
0.0
 11
1017.656592
 21
927.23810598127375
 31
0.0
  0
LINE
  5
7ACA
  8
1
  6
CONTINUOUS
 10
750.55659200000002
 20
1129.338105981273
 30
0.0
 11
1044.3565920000001
 21
991.83810598127366
 31
0.0
  0
CIRCLE
  5
7ACB
  8
1
  6
CONTINUOUS
 10
729.35659199999986
 20
1084.038105981273
 30
0.0
 40
50.0
  0
LINE
  5
7ACC
  8
2
  6
CENTER
 10
729.35659199999986
 20
780.85679298127366
 30
0.0
 11
729.35659199999986
 21
1277.449554981273
 31
0.0
  0
LINE
  5
7ACE
  8
1
  6
CONTINUOUS
 10
1662.562905201738
 20
859.03810598127359
 30
0.0
 11
1662.562905201738
 21
809.03810598127359
 31
0.0
  0
LINE
  5
7ACF
  8
1
  6
CONTINUOUS
 10
1438.562905201738
 20
809.03810598127359
 30
0.0
 11
1662.562905201738
 21
809.03810598127359
 31
0.0
  0
LINE
  5
7AD0
  8
1
  6
CONTINUOUS
 10
1352.562905201738
 20
859.03810598127359
 30
0.0
 11
1662.562905201738
 21
859.03810598127359
 31
0.0
  0
LINE
  5
7AD1
  8
1
  6
CONTINUOUS
 10
1438.562905201738
 20
859.03810598127359
 30
0.0
 11
1438.562905201738
 21
809.03810598127359
 31
0.0
  0
LINE
  5
7AD2
  8
1
  6
CONTINUOUS
 10
1352.562905201738
 20
1194.038105981273
 30
0.0
 11
1352.562905201738
 21
859.03810598127359
 31
0.0
  0
LINE
  5
7AD3
  8
1
  6
CONTINUOUS
 10
1462.562905201738
 20
1050.7381059812731
 30
0.0
 11
1462.562905201738
 21
859.03810598127359
 31
0.0
  0
LINE
  5
7AD4
  8
1
  6
CONTINUOUS
 10
1462.562905201738
 20
1050.7381059812731
 30
0.0
 11
1574.5629052017371
 21
1137.7381059812731
 31
0.0
  0
LINE
  5
7AD5
  8
1
  6
CONTINUOUS
 10
1352.562905201738
 20
1194.038105981273
 30
0.0
 11
1427.562905201738
 21
1194.038105981273
 31
0.0
  0
LINE
  5
7AD6
  8
1
  6
CONTINUOUS
 10
1375.062905201738
 20
1134.038105981273
 30
0.0
 11
1405.062905201738
 21
1134.038105981273
 31
0.0
  0
LINE
  5
7AD7
  8
1
  6
CONTINUOUS
 10
1375.062905201738
 20
1034.038105981273
 30
0.0
 11
1405.062905201738
 21
1034.038105981273
 31
0.0
  0
LINE
  5
7AD8
  8
1
  6
CONTINUOUS
 10
1427.562905201738
 20
1194.038105981273
 30
0.0
 11
1427.562905201738
 21
859.03810598127359
 31
0.0
  0
LINE
  5
7AD9
  8
1
  6
CONTINUOUS
 10
1375.062905201738
 20
1134.038105981273
 30
0.0
 11
1375.062905201738
 21
1034.038105981273
 31
0.0
  0
LINE
  5
7ADA
  8
1
  6
CONTINUOUS
 10
1405.062905201738
 20
1134.038105981273
 30
0.0
 11
1405.062905201738
 21
1034.038105981273
 31
0.0
  0
LINE
  5
7ADB
  8
1
  6
CONTINUOUS
 10
1375.062905201738
 20
995.13810598127372
 30
0.0
 11
1375.062905201738
 21
925.13810598127384
 31
0.0
  0
LINE
  5
7ADC
  8
1
  6
CONTINUOUS
 10
1405.062905201738
 20
995.13810598127372
 30
0.0
 11
1405.062905201738
 21
925.13810598127384
 31
0.0
  0
LINE
  5
7ADD
  8
1
  6
CONTINUOUS
 10
1375.062905201738
 20
995.13810598127372
 30
0.0
 11
1405.062905201738
 21
995.13810598127372
 31
0.0
  0
LINE
  5
7ADE
  8
1
  6
CONTINUOUS
 10
1375.062905201738
 20
925.13810598127384
 30
0.0
 11
1405.062905201738
 21
925.13810598127384
 31
0.0
  0
LINE
  5
7ADF
  8
1
  6
CONTINUOUS
 10
1405.062905201738
 20
972.13810598127372
 30
0.0
 11
1462.562905201738
 21
972.13810598127372
 31
0.0
  0
LINE
  5
7AE0
  8
1
  6
CONTINUOUS
 10
1405.062905201738
 20
948.13810598127361
 30
0.0
 11
1462.562905201738
 21
948.13810598127361
 31
0.0
  0
LINE
  5
7AE1
  8
1
  6
CONTINUOUS
 10
1405.062905201738
 20
1096.038105981273
 30
0.0
 11
1520.862905201737
 21
1096.038105981273
 31
0.0
  0
LINE
  5
7AE2
  8
1
  6
CONTINUOUS
 10
1405.062905201738
 20
1072.038105981273
 30
0.0
 11
1489.9629052017381
 21
1072.038105981273
 31
0.0
  0
LINE
  5
7AE3
  8
1
  6
CONTINUOUS
 10
1722.5629052017371
 20
884.03810598127359
 30
0.0
 11
1582.5629052017371
 21
1084.038105981273
 31
0.0
  0
LINE
  5
7AE4
  8
1
  6
CONTINUOUS
 10
1582.5629052017371
 20
884.03810598127359
 30
0.0
 11
1722.5629052017371
 21
1084.038105981273
 31
0.0
  0
ARC
  5
7AE5
  8
1
  6
CONTINUOUS
 10
1710.562905201738
 20
1223.038105981273
 30
0.0
 40
12.0
 50
0.0
 51
90.0
  0
ARC
  5
7AE6
  8
1
  6
CONTINUOUS
 10
1594.562905201738
 20
1223.038105981273
 30
0.0
 40
12.0
 50
90.0
 51
180.0
  0
LINE
  5
7AE7
  8
1
  6
CONTINUOUS
 10
1582.5629052017371
 20
884.03810598127359
 30
0.0
 11
1582.5629052017371
 21
1223.038105981273
 31
0.0
  0
LINE
  5
7AE8
  8
1
  6
CONTINUOUS
 10
1722.5629052017371
 20
884.03810598127359
 30
0.0
 11
1582.5629052017371
 21
884.03810598127359
 31
0.0
  0
LINE
  5
7AE9
  8
1
  6
CONTINUOUS
 10
1722.5629052017371
 20
1223.038105981273
 30
0.0
 11
1722.5629052017371
 21
884.03810598127359
 31
0.0
  0
LINE
  5
7AEA
  8
1
  6
CONTINUOUS
 10
1582.5629052017371
 20
1084.038105981273
 30
0.0
 11
1722.5629052017371
 21
1084.038105981273
 31
0.0
  0
LINE
  5
7AEB
  8
1
  6
CONTINUOUS
 10
1582.762905201738
 20
964.0381059812737
 30
0.0
 11
1574.762905201738
 21
964.0381059812737
 31
0.0
  0
LINE
  5
7AEC
  8
1
  6
CONTINUOUS
 10
1574.762905201738
 20
859.03810598127359
 30
0.0
 11
1574.762905201738
 21
1204.038105981273
 31
0.0
  0
LINE
  5
7AED
  8
1
  6
CONTINUOUS
 10
1582.762905201738
 20
1204.038105981273
 30
0.0
 11
1574.762905201738
 21
1204.038105981273
 31
0.0
  0
LINE
  5
7AEE
  8
1
  6
CONTINUOUS
 10
1722.362905201737
 20
1204.038105981273
 30
0.0
 11
1730.562905201738
 21
1204.038105981273
 31
0.0
  0
LINE
  5
7AF0
  8
1
  6
CONTINUOUS
 10
1594.562905201738
 20
1235.038105981273
 30
0.0
 11
1710.562905201738
 21
1235.038105981273
 31
0.0
  0
LINE
  5
7AF1
  8
1
  6
CONTINUOUS
 10
1722.362905201737
 20
964.0381059812737
 30
0.0
 11
1730.562905201738
 21
964.0381059812737
 31
0.0
  0
LINE
  5
7AF2
  8
2
  6
CENTER
 10
942.21491700000001
 20
2002.8477694177291
 30
0.0
 11
544.86844000000008
 21
2002.8477694177291
 31
0.0
  0
DIMENSION
  5
7B06
  8
3
  6
CONTINUOUS
  2
*D1
 10
1199.3565920000001
 20
1622.6339594177291
 30
0.0
 11
890.3487869999999
 21
1622.6339594177291
 31
0.0
 70
   128
 13
569.35659199999998
 23
1788.8477694177291
 33
0.0
 14
1199.3565920000001
 24
1788.8477694177291
 34
0.0
1001
ACAD
1000
DSTYLE
1002
{
1070
   287
1070
     3
1070
   287
1070
     3
1070
    40
1040
10.0
1070
   143
1040
0.039
1070
   172
1070
     1
1070
   271
1070
     0
1070
   279
1070
     0
1070
   288
1070
     1
1002
}
  0
DIMENSION
  5
7B13
  8
3
  6
CONTINUOUS
  2
*D2
 10
1301.6647559999999
 20
1788.8477694177291
 30
0.0
 11
1301.6647559999999
 21
1894.4922454177299
 31
0.0
 70
   128
 13
1199.3565920000001
 23
2012.8477694177291
 33
0.0
 14
1199.3565920000001
 24
1788.8477694177291
 34
0.0
 50
90.0
1001
ACAD
1000
DSTYLE
1002
{
1070
   287
1070
     3
1070
   287
1070
     3
1070
    40
1040
10.0
1070
   143
1040
0.039
1070
   172
1070
     1
1070
   271
1070
     0
1070
   279
1070
     0
1070
   288
1070
     1
1002
}
  0
DIMENSION
  5
7B20
  8
3
  6
CONTINUOUS
  2
*D3
 10
729.35659199999986
 20
729.81870298127365
 30
0.0
 11
649.57844099999988
 21
729.81870298127365
 31
0.0
 70
   128
 13
569.35659199999998
 23
809.03810598127359
 33
0.0
 14
729.35659199999986
 24
809.03810598127359
 34
0.0
1001
ACAD
1000
DSTYLE
1002
{
1070
   287
1070
     3
1070
   287
1070
     3
1070
    40
1040
10.0
1070
   143
1040
0.039
1070
   172
1070
     1
1070
   271
1070
     0
1070
   279
1070
     0
1070
   288
1070
     1
1002
}
  0
DIMENSION
  5
7B2C
  8
3
  6
CONTINUOUS
  2
*D4
 10
1199.3565920000001
 20
729.81870298127365
 30
0.0
 11
964.35659199999998
 21
754.81870298127365
 31
0.0
 70
     0
 13
729.35659199999986
 23
809.03810598127359
 33
0.0
 14
1199.3565920000001
 24
809.03810598127359
 34
0.0
1001
ACAD
1000
DSTYLE
1002
{
1070
   287
1070
     4
1070
   287
1070
     4
1070
    40
1040
10.0
1070
    75
1070
     1
1070
   143
1040
0.039
1070
   172
1070
     1
1070
   271
1070
     0
1070
   279
1070
     1
1070
   288
1070
     1
1002
}
  0
DIMENSION
  5
7B39
  8
3
  6
CONTINUOUS
  2
*D5
 10
729.35659199999986
 20
1273.516689981273
 30
0.0
 11
652.08646699999986
 21
1273.516689981273
 31
0.0
 70
   128
 13
569.35659199999998
 23
1105.038105981273
 33
0.0
 14
729.35659199999986
 24
1234.605293981273
 34
0.0
1001
ACAD
1000
DSTYLE
1002
{
1070
   287
1070
     3
1070
   287
1070
     3
1070
    40
1040
10.0
1070
   143
1040
0.039
1070
   172
1070
     1
1070
   271
1070
     0
1070
   279
1070
     0
1070
   288
1070
     1
1002
}
  0
DIMENSION
  5
7B45
  8
3
  6
CONTINUOUS
  2
*D6
 10
908.35659199999986
 20
1273.516689981273
 30
0.0
 11
818.85659199999998
 21
1298.516689981273
 31
0.0
 70
     0
 13
729.35659199999986
 23
1234.605293981273
 33
0.0
 14
908.35659199999986
 24
1084.038105981273
 34
0.0
1001
ACAD
1000
DSTYLE
1002
{
1070
   287
1070
     4
1070
   287
1070
     4
1070
    40
1040
10.0
1070
    75
1070
     1
1070
   143
1040
0.039
1070
   172
1070
     1
1070
   271
1070
     0
1070
   279
1070
     1
1070
   288
1070
     1
1002
}
  0
LINE
  5
7B9F
  8
2
  6
CENTER
 10
729.35659199999986
 20
1647.4060154177289
 30
0.0
 11
729.35659199999986
 21
2124.8765224177291
 31
0.0
  0
LINE
  5
7BA1
  8
2
  6
CENTER
 10
1652.562905201738
 20
1319.690254981273
 30
0.0
 11
1652.562905201738
 21
1316.4856909812729
 31
0.0
  0
DIMENSION
  5
7BAE
  8
3
  6
CONTINUOUS
  2
*D7
 10
385.89449600000012
 20
1084.0381059812739
 30
0.0
 11
385.894496
 21
1175.3195799812729
 31
0.0
 70
   128
 13
729.35659199999986
 23
1234.605293981273
 33
0.0
 14
569.35659199999998
 24
1084.038105981273
 34
0.0
 50
90.0
1001
ACAD
1000
DSTYLE
1002
{
1070
   287
1070
     3
1070
   287
1070
     3
1070
    40
1040
10.0
1070
   143
1040
0.039
1070
   172
1070
     1
1070
   271
1070
     0
1070
   279
1070
     0
1070
   288
1070
     1
1002
}
  0
DIMENSION
  5
7BC8
  8
3
  6
CONTINUOUS
  2
*D8
 10
1722.5629052017371
 20
1275.382505981273
 30
0.0
 11
1648.2771912017381
 21
1275.382505981273
 31
0.0
 70
   128
 13
1582.5629052017371
 23
1223.038105981273
 33
0.0
 14
1722.5629052017371
 24
1223.038105981273
 34
0.0
1001
ACAD
1000
DSTYLE
1002
{
1070
   287
1070
     3
1070
   287
1070
     3
1070
    40
1040
10.0
1070
   143
1040
0.039
1070
   172
1070
     1
1070
   271
1070
     0
1070
   279
1070
     0
1070
   288
1070
     1
1002
}
  0
DIMENSION
  5
7BD5
  8
3
  6
CONTINUOUS
  2
*D9
 10
1652.562905201738
 20
746.67168398127365
 30
0.0
 11
1545.9674052017381
 21
746.67168398127365
 31
0.0
 70
   128
 13
1438.562905201738
 23
809.03810598127359
 33
0.0
 14
1652.562905201738
 24
809.03810598127359
 34
0.0
1001
ACAD
1000
DSTYLE
1002
{
1070
   287
1070
     3
1070
   287
1070
     3
1070
    40
1040
10.0
1070
   143
1040
0.039
1070
   172
1070
     1
1070
   271
1070
     0
1070
   279
1070
     0
1070
   288
1070
     1
1002
}
  0
DIMENSION
  5
7BE5
  8
3
  6
CONTINUOUS
  2
*D10
 10
1662.562905201738
 20
746.67168398127365
 30
0.0
 11
1701.232015201738
 21
746.67168398127365
 31
0.0
 70
   128
 13
1652.562905201738
 23
809.03810598127359
 33
0.0
 14
1662.562905201738
 24
809.03810598127359
 34
0.0
1001
ACAD
1000
DSTYLE
1002
{
1070
   287
1070
     4
1070
   287
1070
     4
1070
    40
1040
10.0
1070
    75
1070
     1
1070
   143
1040
0.039
1070
   172
1070
     1
1070
   271
1070
     0
1070
   279
1070
     1
1070
   288
1070
     1
1002
}
  0
DIMENSION
  5
7BF2
  8
3
  6
CONTINUOUS
  2
*D11
 10
1652.562905201738
 20
1323.066716981273
 30
0.0
 11
1499.9630672017381
 21
1323.066716981273
 31
0.0
 70
   128
  1
MAX\P300
 13
1352.562905201738
 23
1194.038105981273
 33
0.0
 14
1652.562905201738
 24
1319.690254981273
 34
0.0
1001
ACAD
1000
DSTYLE
1002
{
1070
   287
1070
     3
1070
   287
1070
     3
1070
    40
1040
10.0
1070
   143
1040
0.039
1070
   172
1070
     1
1070
   271
1070
     0
1070
   279
1070
     0
1070
   288
1070
     1
1002
}
  0
DIMENSION
  5
7C00
  8
3
  6
CONTINUOUS
  2
*D12
 10
1730.562905201738
 20
1323.066716981273
 30
0.0
 11
1689.730936201737
 21
1323.066716981273
 31
0.0
 70
   128
 13
1652.562905201738
 23
1319.690254981273
 33
0.0
 14
1730.562905201738
 24
1204.038105981273
 34
0.0
1001
ACAD
1000
DSTYLE
1002
{
1070
   287
1070
     4
1070
   287
1070
     4
1070
    40
1040
10.0
1070
    75
1070
     1
1070
   143
1040
0.039
1070
   172
1070
     1
1070
   271
1070
     0
1070
   279
1070
     1
1070
   288
1070
     1
1002
}
  0
LINE
  5
7C32
  8
3
  6
CONTINUOUS
 10
1730.562905201738
 20
1184.087228981273
 30
0.0
 11
1742.1137352017381
 21
1184.087228981273
 31
0.0
  0
LINE
  5
7C34
  8
3
  6
CONTINUOUS
 10
1730.562905201738
 20
984.0872289812736
 30
0.0
 11
1743.832289201737
 21
984.0872289812736
 31
0.0
  0
DIMENSION
  5
7C42
  8
3
  6
CONTINUOUS
  2
*D13
 10
1797.966695201738
 20
984.0872289812736
 30
0.0
 11
1797.9666952017369
 21
1097.515800409845
 31
0.0
 70
   128
 13
1730.562905201738
 23
1184.087228981273
 33
0.0
 14
1730.562905201738
 24
984.0872289812736
 34
0.0
 50
90.0
1001
ACAD
1000
DSTYLE
1002
{
1070
   287
1070
     3
1070
   287
1070
     3
1070
     3
1000
φ<>
1070
    40
1040
10.0
1070
   143
1040
0.039
1070
   172
1070
     1
1070
   271
1070
     0
1070
   279
1070
     0
1070
   288
1070
     1
1002
}
  0
LINE
  5
7C43
  8
4
  6
CONTINUOUS
 10
1850.0
 20
500.0
 30
0.0
 11
1850.0
 21
300.0
 31
0.0
  0
LINE
  5
7C44
  8
4
  6
CONTINUOUS
 10
1150.0
 20
500.0
 30
0.0
 11
1150.0
 21
300.0
 31
0.0
  0
LINE
  5
7C45
  8
4
  6
CONTINUOUS
 10
650.0
 20
500.0
 30
0.0
 11
650.0
 21
300.0
 31
0.0
  0
LINE
  5
7C48
  8
4
  6
CONTINUOUS
 10
650.0
 20
300.0
 30
0.0
 11
1850.0
 21
300.0
 31
0.0
  0
LINE
  5
7C49
  8
4
  6
CONTINUOUS
 10
650.0
 20
400.0
 30
0.0
 11
1850.0
 21
400.0
 31
0.0
  0
TEXT
  5
7C4A
  8
4
  6
CONTINUOUS
 10
688.50208099999998
 20
431.543026
 30
0.0
 40
50.0
  1
機器名称
  0
TEXT
  5
7C4B
  8
4
  6
CONTINUOUS
 10
686.258106
 20
321.64515699999993
 30
0.0
 40
50.0
  1
機器型番
  0
TEXT
  5
7C4C
  8
4
  6
CONTINUOUS
 10
1177.678744999999
 20
422.57176900000002
 30
0.0
 40
45.0
  1
ミツヤニューマルチファン
  0
TEXT
  5
7C4D
  8
4
  6
CONTINUOUS
 10
1186.6544960000001
 20
317.159584
 30
0.0
 40
50.0
  1
NM#1 1/4-1
  0
TEXT
  5
7C4F
  8
4
  6
CONTINUOUS
 10
904.78576499999997
 20
2383.4288409999999
 30
0.0
 40
54.0
  1
床置ベット
  0
TEXT
  5
7C50
  8
4
  6
CONTINUOUS
 10
316.16759300000001
 20
2533.8809759999999
 30
0.0
 40
72.0
  1
ベルト駆動式片吸込片持多翼ファン
  0
LINE
  5
7C51
  8
4
  6
CONTINUOUS
 10
250.0
 20
2469.408754
 30
0.0
 11
1850.0
 21
2469.408754
 31
0.0
  0
LINE
  5
7C52
  8
4
  6
CONTINUOUS
 10
250.0
 20
2669.408754
 30
0.0
 11
1850.0
 21
2669.408754
 31
0.0
  0
LINE
  5
7C53
  8
4
  6
CONTINUOUS
 10
650.0
 20
500.0
 30
0.0
 11
1850.0
 21
500.0
 31
0.0
  0
LINE
  5
7C54
  8
4
  6
CONTINUOUS
 10
250.0
 20
2669.408754
 30
0.0
 11
250.0
 21
2469.408754
 31
0.0
  0
TEXT
  5
7C55
  8
4
  6
CONTINUOUS
 10
468.92693300000002
 20
2382.3194779999999
 30
0.0
 40
54.0
  1
右回転左横向
  0
TEXT
  5
7C56
  8
4
  6
CONTINUOUS
 10
1468.9695589999999
 20
2706.0610809999998
 30
0.0
 40
56.0
  1
No.
  0
TEXT
  5
7C57
  8
4
  6
CONTINUOUS
 10
1311.296063
 20
2383.4288409999999
 30
0.0
 40
54.0
  1
縮尺：1/10
  0
LINE
  5
7C58
  8
4
  6
CONTINUOUS
 10
1850.0
 20
2669.408754
 30
0.0
 11
1850.0
 21
2469.408754
 31
0.0
  0
LINE
  5
7C5A
  8
4
  6
CONTINUOUS
 10
1440.617422
 20
2681.2635829999999
 30
0.0
 11
1440.617422
 21
2786.6522620000001
 31
0.0
  0
LINE
  5
7C5B
  8
4
  6
CONTINUOUS
 10
1440.617422
 20
2786.6522620000001
 30
0.0
 11
1850.0
 21
2786.6522620000001
 31
0.0
  0
LINE
  5
7C5C
  8
4
  6
CONTINUOUS
 10
1850.0
 20
2786.6522620000001
 30
0.0
 11
1850.0
 21
2681.2635829999999
 31
0.0
  0
LINE
  5
7C5D
  8
4
  6
CONTINUOUS
 10
1850.0
 20
2681.2635829999999
 30
0.0
 11
1440.617422
 21
2681.2635829999999
 31
0.0
  0
LINE
  5
7C67
  8
2
  6
CENTER
 10
547.72261499999991
 20
1084.038105981273
 30
0.0
 11
955.93025299999977
 21
1084.038105981273
 31
0.0
  0
DIMENSION
  5
7C75
  8
3
  6
CONTINUOUS
  2
*D14
 10
385.894496
 20
809.03810598127359
 30
0.0
 11
360.89449599999978
 21
946.53810598127404
 31
0.0
 70
     0
 13
569.35659199999998
 23
1084.038105981273
 33
0.0
 14
569.35659199999998
 24
809.03810598127359
 34
0.0
 50
90.0
1001
ACAD
1000
DSTYLE
1002
{
1070
   287
1070
     4
1070
   287
1070
     4
1070
    40
1040
10.0
1070
    75
1070
     1
1070
   143
1040
0.039
1070
   172
1070
     1
1070
   271
1070
     0
1070
   279
1070
     1
1070
   288
1070
     1
1002
}
  0
DIMENSION
  5
7C8C
  8
3
  6
CONTINUOUS
  2
*D15
 10
527.00902499999995
 20
884.03810598127359
 30
0.0
 11
527.00902499999995
 21
992.8143119812737
 31
0.0
 70
   128
 13
547.72261499999991
 23
1084.038105981273
 33
0.0
 14
569.35659199999998
 24
884.03810598127359
 34
0.0
 50
90.0
1001
ACAD
1000
DSTYLE
1002
{
1070
   287
1070
     3
1070
   287
1070
     3
1070
    40
1040
10.0
1070
   143
1040
0.039
1070
   172
1070
     1
1070
   271
1070
     0
1070
   279
1070
     0
1070
   288
1070
     1
1002
}
  0
LINE
  5
7C8D
  8
1
  6
CONTINUOUS
 10
1730.562905201738
 20
1204.038105981273
 30
0.0
 11
1730.562905201738
 21
964.0381059812737
 31
0.0
  0
LINE
  5
7C8E
  8
2
  6
CENTER
 10
1741.096068201738
 20
1084.038105981273
 30
0.0
 11
1316.200172201738
 21
1084.038105981273
 31
0.0
  0
DIMENSION
  5
7C9B
  8
3
  6
CONTINUOUS
  2
*D16
 10
313.64320099999998
 20
809.03810598127359
 30
0.0
 11
313.64320099999998
 21
1045.2342469812729
 31
0.0
 70
   128
 13
729.35659199999986
 23
1234.605293981273
 33
0.0
 14
569.35659199999998
 24
809.03810598127359
 34
0.0
 50
90.0
1001
ACAD
1000
DSTYLE
1002
{
1070
   287
1070
     3
1070
   287
1070
     3
1070
    40
1040
10.0
1070
   143
1040
0.039
1070
   172
1070
     1
1070
   271
1070
     0
1070
   279
1070
     0
1070
   288
1070
     1
1002
}
  0
DIMENSION
  5
7CCD
  8
3
  6
CONTINUOUS
  2
*D17
 10
460.10383800000011
 20
873.0381059812737
 30
0.0
 11
460.103838
 21
981.8622699812737
 31
0.0
 70
   128
 13
569.35659199999998
 23
1084.038105981273
 33
0.0
 14
584.35659199999986
 24
873.0381059812737
 34
0.0
 50
90.0
1001
ACAD
1000
DSTYLE
1002
{
1070
   287
1070
     3
1070
   287
1070
     3
1070
    40
1040
10.0
1070
   143
1040
0.039
1070
   172
1070
     1
1070
   271
1070
     0
1070
   279
1070
     0
1070
   288
1070
     1
1002
}
  0
LINE
  5
7CE8
  8
2
  6
CENTER
 10
1652.562905201738
 20
1279.4514109812731
 30
0.0
 11
1652.562905201738
 21
805.50841479242899
 31
0.0
  0
DIMENSION
  5
7D1A
  8
3
  2
*D18
 10
1199.3565920000001
 20
1341.432046883361
 30
0.0
 11
871.06996254550165
 21
1341.432046883361
 31
0.0
 70
   128
 13
569.35659199999998
 23
1105.038105981273
 33
0.0
 14
1199.3565920000001
 24
859.03810598127359
 34
0.0
1001
ACAD
1000
DSTYLE
1002
{
1070
   287
1070
     3
1070
   287
1070
     3
1070
    40
1040
10.0
1070
   143
1040
0.039
1070
   172
1070
     1
1070
   271
1070
     0
1070
   279
1070
     0
1070
   288
1070
     1
1002
}
  0
ENDSEC
  0
EOF
