  0
SECTION
  2
HEADER
  9
$ACADVER
  1
AC1009
  9
$INSBASE
 10
0.0
 20
0.0
 30
0.0
  9
$EXTMIN
 10
248.35811942425411
 20
300.0
 30
0.0
  9
$EXTMAX
 10
1850.0
 20
2786.6522620000001
 30
0.0
  9
$LIMMIN
 10
0.0
 20
0.0
  9
$LIMMAX
 10
297.0
 20
210.0
  9
$ORTHOMODE
 70
     0
  9
$REGENMODE
 70
     1
  9
$FILLMODE
 70
     0
  9
$QTEXTMODE
 70
     0
  9
$MIRRTEXT
 70
     1
  9
$DRAGMODE
 70
     2
  9
$LTSCALE
 40
100.0
  9
$OSMODE
 70
    37
  9
$ATTMODE
 70
     1
  9
$TEXTSIZE
 40
180.0
  9
$TRACEWID
 40
0.05
  9
$TEXTSTYLE
  7
STANDARD
  9
$CLAYER
  8
3
  9
$CELTYPE
  6
BYLAYER
  9
$CECOLOR
 62
   256
  9
$DIMSCALE
 40
10.0
  9
$DIMASZ
 40
2.0
  9
$DIMEXO
 40
0.5
  9
$DIMDLI
 40
10.0
  9
$DIMRND
 40
0.0
  9
$DIMDLE
 40
0.0
  9
$DIMEXE
 40
1.0
  9
$DIMTP
 40
1.0
  9
$DIMTM
 40
1.0
  9
$DIMTXT
 40
3.0
  9
$DIMCEN
 40
0.0
  9
$DIMTSZ
 40
0.0
  9
$DIMTOL
 70
     0
  9
$DIMLIM
 70
     0
  9
$DIMTIH
 70
     0
  9
$DIMTOH
 70
     0
  9
$DIMSE1
 70
     0
  9
$DIMSE2
 70
     0
  9
$DIMTAD
 70
     1
  9
$DIMZIN
 70
     8
  9
$DIMBLK
  1

  9
$DIMASO
 70
     1
  9
$DIMSHO
 70
     1
  9
$DIMPOST
  1

  9
$DIMAPOST
  1

  9
$DIMALT
 70
     0
  9
$DIMALTD
 70
     2
  9
$DIMALTF
 40
0.039
  9
$DIMLFAC
 40
1.0
  9
$DIMTOFL
 70
     1
  9
$DIMTVP
 40
0.0
  9
$DIMTIX
 70
     0
  9
$DIMSOXD
 70
     0
  9
$DIMSAH
 70
     1
  9
$DIMBLK1
  1
OPEN
  9
$DIMBLK2
  1
OPEN
  9
$DIMSTYLE
  2
IGA
  9
$DIMCLRD
 70
     0
  9
$DIMCLRE
 70
     0
  9
$DIMCLRT
 70
     0
  9
$DIMTFAC
 40
10.0
  9
$DIMGAP
 40
1.0
  9
$LUNITS
 70
     2
  9
$LUPREC
 70
     3
  9
$SKETCHINC
 40
0.1
  9
$FILLETRAD
 40
50.0
  9
$AUNITS
 70
     0
  9
$AUPREC
 70
     0
  9
$MENU
  1
acad
  9
$ELEVATION
 40
0.0
  9
$PELEVATION
 40
0.0
  9
$THICKNESS
 40
0.0
  9
$LIMCHECK
 70
     0
  9
$BLIPMODE
 70
     0
  9
$CHAMFERA
 40
0.5
  9
$CHAMFERB
 40
0.5
  9
$SKPOLY
 70
     0
  9
$TDCREATE
 40
2450737.4461494209
  9
$TDUPDATE
 40
2454953.86169662
  9
$TDINDWG
 40
0.0132482292
  9
$TDUSRTIMER
 40
0.0132482292
  9
$USRTIMER
 70
     1
  9
$ANGBASE
 50
0.0
  9
$ANGDIR
 70
     0
  9
$PDMODE
 70
     0
  9
$PDSIZE
 40
0.0
  9
$PLINEWID
 40
0.0
  9
$COORDS
 70
     1
  9
$SPLFRAME
 70
     0
  9
$SPLINETYPE
 70
     6
  9
$SPLINESEGS
 70
     8
  9
$ATTDIA
 70
     0
  9
$ATTREQ
 70
     1
  9
$HANDLING
 70
 10241
  9
$HANDSEED
  5
7E86
  9
$SURFTAB1
 70
     6
  9
$SURFTAB2
 70
     6
  9
$SURFTYPE
 70
     6
  9
$SURFU
 70
     6
  9
$SURFV
 70
     6
  9
$UCSNAME
  2

  9
$UCSORG
 10
0.0
 20
0.0
 30
0.0
  9
$UCSXDIR
 10
1.0
 20
0.0
 30
0.0
  9
$UCSYDIR
 10
0.0
 20
1.0
 30
0.0
  9
$PUCSNAME
  2

  9
$PUCSORG
 10
0.0
 20
0.0
 30
0.0
  9
$PUCSXDIR
 10
1.0
 20
0.0
 30
0.0
  9
$PUCSYDIR
 10
0.0
 20
1.0
 30
0.0
  9
$USERI1
 70
     0
  9
$USERI2
 70
     0
  9
$USERI3
 70
     0
  9
$USERI4
 70
     0
  9
$USERI5
 70
     0
  9
$USERR1
 40
0.0
  9
$USERR2
 40
0.0
  9
$USERR3
 40
0.0
  9
$USERR4
 40
0.0
  9
$USERR5
 40
0.0
  9
$WORLDVIEW
 70
     1
  9
$SHADEDGE
 70
     3
  9
$SHADEDIF
 70
    70
  9
$TILEMODE
 70
     1
  9
$MAXACTVP
 70
    16
  9
$PLIMCHECK
 70
     0
  9
$PEXTMIN
 10
1.0000000000000000E+020
 20
1.0000000000000000E+020
 30
1.0000000000000000E+020
  9
$PEXTMAX
 10
-1.0000000000000000E+020
 20
-1.0000000000000000E+020
 30
-1.0000000000000000E+020
  9
$PLIMMIN
 10
0.0
 20
0.0
  9
$PLIMMAX
 10
12.0
 20
9.0
  9
$UNITMODE
 70
     0
  9
$VISRETAIN
 70
     0
  9
$PLINEGEN
 70
     0
  9
$PSLTSCALE
 70
     1
  0
ENDSEC
  0
SECTION
  2
TABLES
  0
TABLE
  2
VPORT
 70
     2
  0
VPORT
  2
*ACTIVE
 70
     0
 10
0.0
 20
0.0
 11
1.0
 21
1.0
 12
2579.2116128152911
 22
1815.6616395881319
 13
0.0
 23
0.0
 14
10.0
 24
10.0
 15
10.0
 25
10.0
 16
0.0
 26
0.0
 36
1.0
 17
0.0
 27
0.0
 37
0.0
 40
3384.7202347511129
 41
1.5051150895140659
 42
50.0
 43
0.0
 44
0.0
 50
0.0
 51
0.0
 71
     0
 72
   100
 73
     1
 74
     0
 75
     0
 76
     0
 77
     0
 78
     0
  0
ENDTAB
  0
TABLE
  2
LTYPE
 70
     2
  0
LTYPE
  2
CONTINUOUS
 70
     0
  3
Solid line
 72
    65
 73
     0
 40
0.0
  0
LTYPE
  2
CENTER
 70
     0
  3
____ _ ____ _ ____ _ ____ _ ____ _ ____ _ ____ 
 72
    65
 73
     4
 40
2.0
 49
1.25
 49
-0.25
 49
0.25
 49
-0.25
  0
ENDTAB
  0
TABLE
  2
LAYER
 70
     6
  0
LAYER
  2
0
 70
     0
 62
     7
  6
CONTINUOUS
  0
LAYER
  2
3
 70
     0
 62
     2
  6
CONTINUOUS
  0
LAYER
  2
2
 70
     0
 62
     3
  6
CENTER
  0
LAYER
  2
1
 70
     0
 62
     4
  6
CONTINUOUS
  0
LAYER
  2
4
 70
     0
 62
     7
  6
CONTINUOUS
  0
LAYER
  2
DEFPOINTS
 70
     0
 62
     7
  6
CONTINUOUS
  0
ENDTAB
  0
TABLE
  2
STYLE
 70
     1
  0
STYLE
  2
STANDARD
 70
     0
 40
0.0
 41
1.0
 50
0.0
 71
     0
 42
180.0
  3
simplex.shx
  4
extfont.shx
  0
ENDTAB
  0
TABLE
  2
VIEW
 70
     0
  0
ENDTAB
  0
TABLE
  2
UCS
 70
     0
  0
ENDTAB
  0
TABLE
  2
APPID
 70
     1
  0
APPID
  2
ACAD
 70
     0
  0
ENDTAB
  0
TABLE
  2
DIMSTYLE
 70
     1
  0
DIMSTYLE
  2
IGA
 70
     0
  3

  4

  5

  6
OPEN
  7
OPEN
 40
2.0
 41
2.0
 42
0.5
 43
10.0
 44
1.0
 45
0.0
 46
0.0
 47
1.0
 48
1.0
140
3.0
141
0.0
142
0.0
143
0.03937
144
1.0
145
0.0
146
10.0
147
1.0
 71
     0
 72
     0
 73
     0
 74
     0
 75
     0
 76
     0
 77
     1
 78
     8
170
     0
171
     2
172
     0
173
     1
174
     0
175
     0
176
     0
177
     0
178
     0
  0
ENDTAB
  0
ENDSEC
  0
SECTION
  2
BLOCKS
  0
BLOCK
  8
0
  2
$MODEL_SPACE
 70
     0
 10
0.0
 20
0.0
 30
0.0
  3
$MODEL_SPACE
  1

  0
ENDBLK
  5
1B
  8
0
  0
BLOCK
 67
     1
  8
0
  2
$PAPER_SPACE
 70
     0
 10
0.0
 20
0.0
 30
0.0
  3
$PAPER_SPACE
  1

  0
ENDBLK
  5
18
 67
     1
  8
0
  0
BLOCK
  8
0
  2
_OPEN
 70
     0
 10
0.0
 20
0.0
 30
0.0
  3
_OPEN
  1

  0
LINE
  5
7B15
  8
0
  6
BYBLOCK
 62
     0
 10
-1.0
 20
0.166667
 30
0.0
 11
0.0
 21
0.0
 31
0.0
  0
LINE
  5
7B16
  8
0
  6
BYBLOCK
 62
     0
 10
0.0
 20
0.0
 30
0.0
 11
-1.0
 21
-0.166667
 31
0.0
  0
LINE
  5
7B17
  8
0
  6
BYBLOCK
 62
     0
 10
0.0
 20
0.0
 30
0.0
 11
-1.0
 21
0.0
 31
0.0
  0
ENDBLK
  5
7B18
  8
0
  0
BLOCK
  8
0
  2
*D1
 70
     1
 10
0.0
 20
0.0
 30
0.0
  3
*D1
  1

  0
LINE
  5
7DDE
  8
3
  6
CONTINUOUS
 62
     0
 10
620.07479899999987
 20
1256.5074614874411
 30
0.0
 11
620.07479899999987
 21
1292.6662064874411
 31
0.0
  0
LINE
  5
7DDF
  8
3
  6
CONTINUOUS
 62
     0
 10
820.07479899999987
 20
1256.5074614874411
 30
0.0
 11
820.07479899999987
 21
1292.6662064874411
 31
0.0
  0
LINE
  5
7DE0
  8
3
  6
CONTINUOUS
 62
     0
 10
640.07479899999998
 20
1282.6662064874411
 30
0.0
 11
800.07479899999998
 21
1282.6662064874411
 31
0.0
  0
INSERT
  5
7DE1
  8
3
  6
CONTINUOUS
 62
     0
  2
_OPEN
 10
620.07479899999987
 20
1282.6662064874411
 30
0.0
 41
20.0
 42
20.0
 43
20.0
 50
180.0
  0
INSERT
  5
7DE2
  8
3
  6
CONTINUOUS
 62
     0
  2
_OPEN
 10
820.07479899999987
 20
1282.6662064874411
 30
0.0
 41
20.0
 42
20.0
 43
20.0
  0
TEXT
  8
3
  40
30
  5
7E74
  62
0
  72
0
  71
0
 10
657.325
 20
1254.57
 30
0.000000
  1
200
  0
POINT
  5
7DE4
  8
DEFPOINTS
  6
CONTINUOUS
 62
     0
 10
620.07479899999987
 20
1251.5074614874411
 30
0.0
  0
POINT
  5
7DE5
  8
DEFPOINTS
  6
CONTINUOUS
 62
     0
 10
820.07479899999987
 20
1251.5074614874411
 30
0.0
  0
POINT
  5
7DE6
  8
DEFPOINTS
  6
CONTINUOUS
 62
     0
 10
820.07479899999987
 20
1282.6662064874411
 30
0.0
  0
ENDBLK
  5
7B25
  8
0
  0
BLOCK
  8
0
  2
*D2
 70
     1
 10
0.0
 20
0.0
 30
0.0
  3
*D2
  1

  0
LINE
  5
7DE7
  8
3
  6
CONTINUOUS
 62
     0
 10
975.64198699999997
 20
1091.5074614874411
 30
0.0
 11
1061.644886
 21
1091.5074614874411
 31
0.0
  0
LINE
  5
7DE8
  8
3
  6
CONTINUOUS
 62
     0
 10
985.07479899999998
 20
816.50746148744156
 30
0.0
 11
1061.644886
 21
816.50746148744156
 31
0.0
  0
LINE
  5
7DE9
  8
3
  6
CONTINUOUS
 62
     0
 10
1051.644886
 20
1071.5074614874411
 30
0.0
 11
1051.644886
 21
836.50746148744156
 31
0.0
  0
INSERT
  5
7DEA
  8
3
  6
CONTINUOUS
 62
     0
  2
_OPEN
 10
1051.644886
 20
1091.5074614874411
 30
0.0
 41
20.0
 42
20.0
 43
20.0
 50
90.0
  0
INSERT
  5
7DEB
  8
3
  6
CONTINUOUS
 62
     0
  2
_OPEN
 10
1051.644886
 20
816.50746148744156
 30
0.0
 41
20.0
 42
20.0
 43
20.0
 50
270.0
  0
TEXT
  8
3
  40
30
  5
7E75
  62
0
  72
0
  71
0
 10
966.645
 20
900.907
 30
0.000000
  1
275
  0
POINT
  5
7DED
  8
DEFPOINTS
  6
CONTINUOUS
 62
     0
 10
970.64198699999986
 20
1091.5074614874411
 30
0.0
  0
POINT
  5
7DEE
  8
DEFPOINTS
  6
CONTINUOUS
 62
     0
 10
980.07479899999987
 20
816.50746148744156
 30
0.0
  0
POINT
  5
7DEF
  8
DEFPOINTS
  6
CONTINUOUS
 62
     0
 10
1051.644886
 20
816.50746148744156
 30
0.0
  0
ENDBLK
  5
7CFA
  8
0
  0
BLOCK
  8
0
  2
*D3
 70
     1
 10
0.0
 20
0.0
 30
0.0
  3
*D3
  1

  0
LINE
  5
7DF0
  8
3
  6
CONTINUOUS
 62
     0
 10
846.07479899999987
 20
1251.5074614874411
 30
0.0
 11
1129.678842
 21
1251.5074614874411
 31
0.0
  0
LINE
  5
7DF1
  8
3
  6
CONTINUOUS
 62
     0
 10
985.07479899999998
 20
816.50746148744156
 30
0.0
 11
1129.678842
 21
816.50746148744156
 31
0.0
  0
LINE
  5
7DF2
  8
3
  6
CONTINUOUS
 62
     0
 10
1119.678842
 20
1231.5074614874411
 30
0.0
 11
1119.678842
 21
836.50746148744156
 31
0.0
  0
INSERT
  5
7DF3
  8
3
  6
CONTINUOUS
 62
     0
  2
_OPEN
 10
1119.678842
 20
1251.5074614874411
 30
0.0
 41
20.0
 42
20.0
 43
20.0
 50
90.0
  0
INSERT
  5
7DF4
  8
3
  6
CONTINUOUS
 62
     0
  2
_OPEN
 10
1119.678842
 20
816.50746148744156
 30
0.0
 41
20.0
 42
20.0
 43
20.0
 50
270.0
  0
TEXT
  8
3
  40
30
  5
7E76
  62
0
  72
0
  71
0
 10
1034.68
 20
993.176
 30
0.000000
  1
435
  0
POINT
  5
7DF6
  8
DEFPOINTS
  6
CONTINUOUS
 62
     0
 10
841.07479899999998
 20
1251.5074614874411
 30
0.0
  0
POINT
  5
7DF7
  8
DEFPOINTS
  6
CONTINUOUS
 62
     0
 10
980.07479899999987
 20
816.50746148744156
 30
0.0
  0
POINT
  5
7DF8
  8
DEFPOINTS
  6
CONTINUOUS
 62
     0
 10
1119.678842
 20
816.50746148744156
 30
0.0
  0
ENDBLK
  5
7B68
  8
0
  0
BLOCK
  8
0
  2
*D4
 70
     1
 10
0.0
 20
0.0
 30
0.0
  3
*D4
  1

  0
LINE
  5
7DF9
  8
3
  6
CONTINUOUS
 62
     0
 10
350.07479899999993
 20
811.50746148744156
 30
0.0
 11
350.07479899999993
 21
729.59970948744149
 31
0.0
  0
LINE
  5
7DFA
  8
3
  6
CONTINUOUS
 62
     0
 10
820.07479899999987
 20
811.50746148744156
 30
0.0
 11
820.07479899999987
 21
729.59970948744149
 31
0.0
  0
LINE
  5
7DFB
  8
3
  6
CONTINUOUS
 62
     0
 10
370.07479899999993
 20
739.5997094874416
 30
0.0
 11
800.07479899999998
 21
739.5997094874416
 31
0.0
  0
INSERT
  5
7DFC
  8
3
  6
CONTINUOUS
 62
     0
  2
_OPEN
 10
350.07479899999993
 20
739.5997094874416
 30
0.0
 41
20.0
 42
20.0
 43
20.0
 50
180.0
  0
INSERT
  5
7DFD
  8
3
  6
CONTINUOUS
 62
     0
  2
_OPEN
 10
820.07479899999987
 20
739.5997094874416
 30
0.0
 41
20.0
 42
20.0
 43
20.0
  0
TEXT
  8
3
  40
30
  5
7E77
  62
0
  72
0
  71
0
 10
532.001
 20
711.500
 30
0.000000
  1
470
  0
POINT
  5
7DFF
  8
DEFPOINTS
  6
CONTINUOUS
 62
     0
 10
350.07479899999993
 20
816.50746148744156
 30
0.0
  0
POINT
  5
7E00
  8
DEFPOINTS
  6
CONTINUOUS
 62
     0
 10
820.07479899999987
 20
816.50746148744156
 30
0.0
  0
POINT
  5
7E01
  8
DEFPOINTS
  6
CONTINUOUS
 62
     0
 10
820.07479899999987
 20
739.5997094874416
 30
0.0
  0
ENDBLK
  5
7B75
  8
0
  0
BLOCK
  8
0
  2
*D5
 70
     1
 10
0.0
 20
0.0
 30
0.0
  3
*D5
  1

  0
LINE
  5
7E02
  8
3
  6
CONTINUOUS
 62
     0
 10
980.07479899999987
 20
811.50746148744156
 30
0.0
 11
980.07479899999987
 21
729.59970948744149
 31
0.0
  0
LINE
  5
7E03
  8
3
  6
CONTINUOUS
 62
     0
 10
840.07479899999987
 20
739.5997094874416
 30
0.0
 11
960.07479899999998
 21
739.5997094874416
 31
0.0
  0
INSERT
  5
7E04
  8
3
  6
CONTINUOUS
 62
     0
  2
_OPEN
 10
820.07479899999987
 20
739.5997094874416
 30
0.0
 41
20.0
 42
20.0
 43
20.0
 50
180.0
  0
INSERT
  5
7E05
  8
3
  6
CONTINUOUS
 62
     0
  2
_OPEN
 10
980.07479899999987
 20
739.5997094874416
 30
0.0
 41
20.0
 42
20.0
 43
20.0
  0
TEXT
  8
3
  40
30
  5
7E78
  62
0
  72
0
  71
0
 10
840.075
 20
711.500
 30
0.000000
  1
160
  0
POINT
  5
7E07
  8
DEFPOINTS
  6
CONTINUOUS
 62
     0
 10
820.07479899999987
 20
816.50746148744156
 30
0.0
  0
POINT
  5
7E08
  8
DEFPOINTS
  6
CONTINUOUS
 62
     0
 10
980.07479899999987
 20
816.50746148744156
 30
0.0
  0
POINT
  5
7E09
  8
DEFPOINTS
  6
CONTINUOUS
 62
     0
 10
980.07479899999987
 20
739.5997094874416
 30
0.0
  0
ENDBLK
  5
7B81
  8
0
  0
BLOCK
  8
0
  2
*D6
 70
     1
 10
0.0
 20
0.0
 30
0.0
  3
*D6
  1

  0
LINE
  5
7E0A
  8
3
  6
CONTINUOUS
 62
     0
 10
1395.9726385072031
 20
811.50746148744156
 30
0.0
 11
1395.9726385072031
 21
739.88041048744151
 31
0.0
  0
LINE
  5
7E0B
  8
3
  6
CONTINUOUS
 62
     0
 10
1609.9726385072031
 20
811.50746148744156
 30
0.0
 11
1609.9726385072031
 21
739.88041048744151
 31
0.0
  0
LINE
  5
7E0C
  8
3
  6
CONTINUOUS
 62
     0
 10
1415.9726385072031
 20
749.88041048744151
 30
0.0
 11
1589.9726385072031
 21
749.88041048744151
 31
0.0
  0
INSERT
  5
7E0D
  8
3
  6
CONTINUOUS
 62
     0
  2
_OPEN
 10
1395.9726385072031
 20
749.88041048744151
 30
0.0
 41
20.0
 42
20.0
 43
20.0
 50
180.0
  0
INSERT
  5
7E0E
  8
3
  6
CONTINUOUS
 62
     0
  2
_OPEN
 10
1609.9726385072031
 20
749.88041048744151
 30
0.0
 41
20.0
 42
20.0
 43
20.0
  0
TEXT
  8
3
  40
30
  5
7E79
  62
0
  72
0
  71
0
 10
1445.83
 20
721.780
 30
0.000000
  1
214
  0
POINT
  5
7E10
  8
DEFPOINTS
  6
CONTINUOUS
 62
     0
 10
1395.9726385072031
 20
816.50746148744156
 30
0.0
  0
POINT
  5
7E11
  8
DEFPOINTS
  6
CONTINUOUS
 62
     0
 10
1609.9726385072031
 20
816.50746148744156
 30
0.0
  0
POINT
  5
7E12
  8
DEFPOINTS
  6
CONTINUOUS
 62
     0
 10
1609.9726385072031
 20
749.88041048744151
 30
0.0
  0
ENDBLK
  5
7BB7
  8
0
  0
BLOCK
  8
0
  2
*D7
 70
     1
 10
0.0
 20
0.0
 30
0.0
  3
*D7
  1

  0
LINE
  5
7E13
  8
3
  6
CONTINUOUS
 62
     0
 10
1619.9726385072031
 20
811.50746148744156
 30
0.0
 11
1619.9726385072031
 21
739.88041048744151
 31
0.0
  0
LINE
  5
7E14
  8
3
  6
CONTINUOUS
 62
     0
 10
1589.9726385072031
 20
749.88041048744151
 30
0.0
 11
1569.9726385072031
 21
749.88041048744151
 31
0.0
  0
LINE
  5
7E15
  8
3
  6
CONTINUOUS
 62
     0
 10
1639.9726385072031
 20
749.88041048744151
 30
0.0
 11
1659.9726385072031
 21
749.88041048744151
 31
0.0
  0
TEXT
  8
3
  40
30
  5
7E7A
  62
0
  72
0
  71
0
 10
1596.27
 20
721.630
 30
0.000000
  1
10
  0
LINE
  5
7E17
  8
3
  6
CONTINUOUS
 62
     0
 10
1609.9726385072031
 20
749.88041048744151
 30
0.0
 11
1619.9726385072031
 21
749.88041048744151
 31
0.0
  0
INSERT
  5
7E18
  8
3
  6
CONTINUOUS
 62
     0
  2
_OPEN
 10
1609.9726385072031
 20
749.88041048744151
 30
0.0
 41
20.0
 42
20.0
 43
20.0
  0
INSERT
  5
7E19
  8
3
  6
CONTINUOUS
 62
     0
  2
_OPEN
 10
1619.9726385072031
 20
749.88041048744151
 30
0.0
 41
20.0
 42
20.0
 43
20.0
 50
180.0
  0
POINT
  5
7E1A
  8
DEFPOINTS
  6
CONTINUOUS
 62
     0
 10
1609.9726385072031
 20
816.50746148744156
 30
0.0
  0
POINT
  5
7E1B
  8
DEFPOINTS
  6
CONTINUOUS
 62
     0
 10
1619.9726385072031
 20
816.50746148744156
 30
0.0
  0
POINT
  5
7E1C
  8
DEFPOINTS
  6
CONTINUOUS
 62
     0
 10
1619.9726385072031
 20
749.88041048744151
 30
0.0
  0
ENDBLK
  5
7BE2
  8
0
  0
BLOCK
  8
0
  2
*D8
 70
     1
 10
0.0
 20
0.0
 30
0.0
  3
*D8
  1

  0
LINE
  5
7E1D
  8
3
  6
CONTINUOUS
 62
     0
 10
1539.9726385072031
 20
1256.5074614874411
 30
0.0
 11
1539.9726385072031
 21
1295.7117624874411
 31
0.0
  0
LINE
  5
7E1E
  8
3
  6
CONTINUOUS
 62
     0
 10
1679.9726385072031
 20
1256.5074614874411
 30
0.0
 11
1679.9726385072031
 21
1295.7117624874411
 31
0.0
  0
LINE
  5
7E1F
  8
3
  6
CONTINUOUS
 62
     0
 10
1559.9726385072031
 20
1285.7117624874411
 30
0.0
 11
1659.9726385072031
 21
1285.7117624874411
 31
0.0
  0
INSERT
  5
7E20
  8
3
  6
CONTINUOUS
 62
     0
  2
_OPEN
 10
1539.9726385072031
 20
1285.7117624874411
 30
0.0
 41
20.0
 42
20.0
 43
20.0
 50
180.0
  0
INSERT
  5
7E21
  8
3
  6
CONTINUOUS
 62
     0
  2
_OPEN
 10
1679.9726385072031
 20
1285.7117624874411
 30
0.0
 41
20.0
 42
20.0
 43
20.0
  0
TEXT
  8
3
  40
30
  5
7E7B
  62
0
  72
0
  71
0
 10
1554.26
 20
1257.61
 30
0.000000
  1
140
  0
POINT
  5
7E23
  8
DEFPOINTS
  6
CONTINUOUS
 62
     0
 10
1539.9726385072031
 20
1251.5074614874411
 30
0.0
  0
POINT
  5
7E24
  8
DEFPOINTS
  6
CONTINUOUS
 62
     0
 10
1679.9726385072031
 20
1251.5074614874411
 30
0.0
  0
POINT
  5
7E25
  8
DEFPOINTS
  6
CONTINUOUS
 62
     0
 10
1679.9726385072031
 20
1285.7117624874411
 30
0.0
  0
ENDBLK
  5
7BEE
  8
0
  0
BLOCK
  8
0
  2
*D9
 70
     1
 10
0.0
 20
0.0
 30
0.0
  3
*D9
  1

  0
LINE
  5
7E26
  8
3
  6
CONTINUOUS
 62
     0
 10
1309.9726385072031
 20
1206.5074614874411
 30
0.0
 11
1309.9726385072031
 21
1346.190630487441
 31
0.0
  0
LINE
  5
7E27
  8
3
  6
CONTINUOUS
 62
     0
 10
1609.9726385072031
 20
1332.5183414874409
 30
0.0
 11
1609.9726385072031
 21
1346.190630487441
 31
0.0
  0
LINE
  5
7E28
  8
3
  6
CONTINUOUS
 62
     0
 10
1329.9726385072031
 20
1336.190630487441
 30
0.0
 11
1589.9726385072031
 21
1336.190630487441
 31
0.0
  0
INSERT
  5
7E29
  8
3
  6
CONTINUOUS
 62
     0
  2
_OPEN
 10
1309.9726385072031
 20
1336.190630487441
 30
0.0
 41
20.0
 42
20.0
 43
20.0
 50
180.0
  0
INSERT
  5
7E2A
  8
3
  6
CONTINUOUS
 62
     0
  2
_OPEN
 10
1609.9726385072031
 20
1336.190630487441
 30
0.0
 41
20.0
 42
20.0
 43
20.0
  0
TEXT
  8
3
  40
30
  5
7E7C
  62
0
  72
0
  71
0
 10
1400.24
 20
1333.09
 30
0.000000
  1
MAX
  0
TEXT
  8
3
  40
30
  5
7E7D
  62
0
  72
0
  71
0
 10
1400.24
 20
1294.09
 30
0.000000
  1
300
  0
POINT
  5
7E2C
  8
DEFPOINTS
  6
CONTINUOUS
 62
     0
 10
1309.9726385072031
 20
1201.5074614874411
 30
0.0
  0
POINT
  5
7E2D
  8
DEFPOINTS
  6
CONTINUOUS
 62
     0
 10
1609.9726385072031
 20
1327.5183414874409
 30
0.0
  0
POINT
  5
7E2E
  8
DEFPOINTS
  6
CONTINUOUS
 62
     0
 10
1609.9726385072031
 20
1336.190630487441
 30
0.0
  0
ENDBLK
  5
7CDE
  8
0
  0
BLOCK
  8
0
  2
*D10
 70
     1
 10
0.0
 20
0.0
 30
0.0
  3
*D10
  1

  0
LINE
  5
7E2F
  8
3
  6
CONTINUOUS
 62
     0
 10
1687.9726385072031
 20
1216.5074614874411
 30
0.0
 11
1687.9726385072031
 21
1346.190630487441
 31
0.0
  0
LINE
  5
7E30
  8
3
  6
CONTINUOUS
 62
     0
 10
1629.9726385072031
 20
1336.190630487441
 30
0.0
 11
1667.9726385072031
 21
1336.190630487441
 31
0.0
  0
TEXT
  8
3
  40
30
  5
7E7E
  62
0
  72
0
  71
0
 10
1590.20
 20
1308.09
 30
0.000000
  1
78
  0
INSERT
  5
7E32
  8
3
  6
CONTINUOUS
 62
     0
  2
_OPEN
 10
1609.9726385072031
 20
1336.190630487441
 30
0.0
 41
20.0
 42
20.0
 43
20.0
 50
180.0
  0
INSERT
  5
7E33
  8
3
  6
CONTINUOUS
 62
     0
  2
_OPEN
 10
1687.9726385072031
 20
1336.190630487441
 30
0.0
 41
20.0
 42
20.0
 43
20.0
  0
POINT
  5
7E34
  8
DEFPOINTS
  6
CONTINUOUS
 62
     0
 10
1609.9726385072031
 20
1327.5183414874409
 30
0.0
  0
POINT
  5
7E35
  8
DEFPOINTS
  6
CONTINUOUS
 62
     0
 10
1687.9726385072031
 20
1211.5074614874411
 30
0.0
  0
POINT
  5
7E36
  8
DEFPOINTS
  6
CONTINUOUS
 62
     0
 10
1687.9726385072031
 20
1336.190630487441
 30
0.0
  0
ENDBLK
  5
7CA1
  8
0
  0
BLOCK
  8
0
  2
*D11
 70
     1
 10
0.0
 20
0.0
 30
0.0
  3
*D11
  1

  0
LINE
  5
7E37
  8
3
  6
CONTINUOUS
 62
     0
 10
1692.9726385072031
 20
1191.5074614874411
 30
0.0
 11
1768.093166507203
 21
1191.5074614874411
 31
0.0
  0
LINE
  5
7E38
  8
3
  6
CONTINUOUS
 62
     0
 10
1692.9726385072031
 20
991.50746148744156
 30
0.0
 11
1768.093166507203
 21
991.50746148744156
 31
0.0
  0
LINE
  5
7E39
  8
3
  6
CONTINUOUS
 62
     0
 10
1758.093166507203
 20
1171.5074614874411
 30
0.0
 11
1758.093166507203
 21
1011.507461487441
 31
0.0
  0
INSERT
  5
7E3A
  8
3
  6
CONTINUOUS
 62
     0
  2
_OPEN
 10
1758.093166507203
 20
1191.5074614874411
 30
0.0
 41
20.0
 42
20.0
 43
20.0
 50
90.0
  0
INSERT
  5
7E3B
  8
3
  6
CONTINUOUS
 62
     0
  2
_OPEN
 10
1758.093166507203
 20
991.50746148744156
 30
0.0
 41
20.0
 42
20.0
 43
20.0
 50
270.0
  0
TEXT
  8
3
  40
30
  5
7E7F
  62
0
  72
0
  71
0
 10
1673.09
 20
1051.84
 30
0.000000
  1
φ200
  0
POINT
  5
7E3D
  8
DEFPOINTS
  6
CONTINUOUS
 62
     0
 10
1687.9726385072031
 20
1191.5074614874411
 30
0.0
  0
POINT
  5
7E3E
  8
DEFPOINTS
  6
CONTINUOUS
 62
     0
 10
1687.9726385072031
 20
991.50746148744156
 30
0.0
  0
POINT
  5
7E3F
  8
DEFPOINTS
  6
CONTINUOUS
 62
     0
 10
1758.093166507203
 20
991.50746148744156
 30
0.0
  0
ENDBLK
  5
7CD3
  8
0
  0
BLOCK
  8
0
  2
*D12
 70
     1
 10
0.0
 20
0.0
 30
0.0
  3
*D12
  1

  0
LINE
  5
7E40
  8
3
  6
CONTINUOUS
 62
     0
 10
350.07479899999998
 20
1780.908067874107
 30
0.0
 11
350.07479899999998
 21
1618.9320798741071
 31
0.0
  0
LINE
  5
7E41
  8
3
  6
CONTINUOUS
 62
     0
 10
980.07479899999987
 20
1780.908067874107
 30
0.0
 11
980.07479899999987
 21
1618.9320798741071
 31
0.0
  0
LINE
  5
7E42
  8
3
  6
CONTINUOUS
 62
     0
 10
370.07479899999998
 20
1628.9320798741071
 30
0.0
 11
960.07479899999998
 21
1628.9320798741071
 31
0.0
  0
INSERT
  5
7E43
  8
3
  6
CONTINUOUS
 62
     0
  2
_OPEN
 10
350.07479899999998
 20
1628.9320798741071
 30
0.0
 41
20.0
 42
20.0
 43
20.0
 50
180.0
  0
INSERT
  5
7E44
  8
3
  6
CONTINUOUS
 62
     0
  2
_OPEN
 10
980.07479899999987
 20
1628.9320798741071
 30
0.0
 41
20.0
 42
20.0
 43
20.0
  0
TEXT
  8
3
  40
30
  5
7E80
  62
0
  72
0
  71
0
 10
593.967
 20
1600.83
 30
0.000000
  1
630
  0
POINT
  5
7E46
  8
DEFPOINTS
  6
CONTINUOUS
 62
     0
 10
350.07479899999998
 20
1785.908067874107
 30
0.0
  0
POINT
  5
7E47
  8
DEFPOINTS
  6
CONTINUOUS
 62
     0
 10
980.07479899999987
 20
1785.908067874107
 30
0.0
  0
POINT
  5
7E48
  8
DEFPOINTS
  6
CONTINUOUS
 62
     0
 10
980.07479899999987
 20
1628.9320798741071
 30
0.0
  0
ENDBLK
  5
7C3E
  8
0
  0
BLOCK
  8
0
  2
*D13
 70
     1
 10
0.0
 20
0.0
 30
0.0
  3
*D13
  1

  0
LINE
  5
7E49
  8
3
  6
CONTINUOUS
 62
     0
 10
846.07479899999987
 20
1251.5074614874411
 30
0.0
 11
1061.644886
 21
1251.5074614874411
 31
0.0
  0
LINE
  5
7E4A
  8
3
  6
CONTINUOUS
 62
     0
 10
1051.644886
 20
1111.5074614874411
 30
0.0
 11
1051.644886
 21
1231.5074614874411
 31
0.0
  0
INSERT
  5
7E4B
  8
3
  6
CONTINUOUS
 62
     0
  2
_OPEN
 10
1051.644886
 20
1091.5074614874411
 30
0.0
 41
20.0
 42
20.0
 43
20.0
 50
270.0
  0
INSERT
  5
7E4C
  8
3
  6
CONTINUOUS
 62
     0
  2
_OPEN
 10
1051.644886
 20
1251.5074614874411
 30
0.0
 41
20.0
 42
20.0
 43
20.0
 50
90.0
  0
TEXT
  8
3
  40
30
  5
7E81
  62
0
  72
0
  71
0
 10
966.645
 20
1118.41
 30
0.000000
  1
160
  0
POINT
  5
7E4E
  8
DEFPOINTS
  6
CONTINUOUS
 62
     0
 10
970.64198699999986
 20
1091.5074614874411
 30
0.0
  0
POINT
  5
7E4F
  8
DEFPOINTS
  6
CONTINUOUS
 62
     0
 10
841.07479899999998
 20
1251.5074614874411
 30
0.0
  0
POINT
  5
7E50
  8
DEFPOINTS
  6
CONTINUOUS
 62
     0
 10
1051.644886
 20
1251.5074614874411
 30
0.0
  0
ENDBLK
  5
7C5C
  8
0
  0
BLOCK
  8
0
  2
*D14
 70
     1
 10
0.0
 20
0.0
 30
0.0
  3
*D14
  1

  0
LINE
  5
7E51
  8
3
  6
CONTINUOUS
 62
     0
 10
609.07479899999987
 20
1241.5074614874411
 30
0.0
 11
609.07479899999987
 21
1341.1247174874411
 31
0.0
  0
LINE
  5
7E52
  8
3
  6
CONTINUOUS
 62
     0
 10
820.07479899999987
 20
1256.5074614874411
 30
0.0
 11
820.07479899999987
 21
1341.1247174874411
 31
0.0
  0
LINE
  5
7E53
  8
3
  6
CONTINUOUS
 62
     0
 10
629.07479899999987
 20
1331.1247174874411
 30
0.0
 11
800.07479899999998
 21
1331.1247174874411
 31
0.0
  0
INSERT
  5
7E54
  8
3
  6
CONTINUOUS
 62
     0
  2
_OPEN
 10
609.07479899999987
 20
1331.1247174874411
 30
0.0
 41
20.0
 42
20.0
 43
20.0
 50
180.0
  0
INSERT
  5
7E55
  8
3
  6
CONTINUOUS
 62
     0
  2
_OPEN
 10
820.07479899999987
 20
1331.1247174874411
 30
0.0
 41
20.0
 42
20.0
 43
20.0
  0
TEXT
  8
3
  40
30
  5
7E82
  62
0
  72
0
  71
0
 10
653.728
 20
1303.02
 30
0.000000
  1
211
  0
POINT
  5
7E57
  8
DEFPOINTS
  6
CONTINUOUS
 62
     0
 10
609.07479899999987
 20
1236.5074614874411
 30
0.0
  0
POINT
  5
7E58
  8
DEFPOINTS
  6
CONTINUOUS
 62
     0
 10
820.07479899999987
 20
1251.5074614874411
 30
0.0
  0
POINT
  5
7E59
  8
DEFPOINTS
  6
CONTINUOUS
 62
     0
 10
820.07479899999987
 20
1331.1247174874411
 30
0.0
  0
ENDBLK
  5
7C7A
  8
0
  0
BLOCK
  8
0
  2
*D15
 70
     1
 10
0.0
 20
0.0
 30
0.0
  3
*D15
  1

  0
LINE
  5
7E5A
  8
3
  6
CONTINUOUS
 62
     0
 10
970.64198699999986
 20
1096.5074614874411
 30
0.0
 11
970.64198699999986
 21
1341.1247174874411
 31
0.0
  0
LINE
  5
7E5B
  8
3
  6
CONTINUOUS
 62
     0
 10
840.07479899999987
 20
1331.1247174874411
 30
0.0
 11
950.64198699999997
 21
1331.1247174874411
 31
0.0
  0
INSERT
  5
7E5C
  8
3
  6
CONTINUOUS
 62
     0
  2
_OPEN
 10
820.07479899999987
 20
1331.1247174874411
 30
0.0
 41
20.0
 42
20.0
 43
20.0
 50
180.0
  0
INSERT
  5
7E5D
  8
3
  6
CONTINUOUS
 62
     0
  2
_OPEN
 10
970.64198699999986
 20
1331.1247174874411
 30
0.0
 41
20.0
 42
20.0
 43
20.0
  0
TEXT
  8
3
  40
30
  5
7E83
  62
0
  72
0
  71
0
 10
835.358
 20
1303.02
 30
0.000000
  1
151
  0
POINT
  5
7E5F
  8
DEFPOINTS
  6
CONTINUOUS
 62
     0
 10
820.07479899999987
 20
1251.5074614874411
 30
0.0
  0
POINT
  5
7E60
  8
DEFPOINTS
  6
CONTINUOUS
 62
     0
 10
970.64198699999986
 20
1091.5074614874411
 30
0.0
  0
POINT
  5
7E61
  8
DEFPOINTS
  6
CONTINUOUS
 62
     0
 10
970.64198699999986
 20
1331.1247174874411
 30
0.0
  0
ENDBLK
  5
7C86
  8
0
  0
BLOCK
  8
0
  2
*D16
 70
     1
 10
0.0
 20
0.0
 30
0.0
  3
*D16
  1

  0
LINE
  5
7E62
  8
3
 62
     0
 10
345.07479899999998
 20
2009.908067874107
 30
0.0
 11
278.35811942425448
 21
2009.908067874107
 31
0.0
  0
LINE
  5
7E63
  8
3
 62
     0
 10
345.07479899999998
 20
1785.908067874107
 30
0.0
 11
278.35811942425448
 21
1785.908067874107
 31
0.0
  0
LINE
  5
7E64
  8
3
 62
     0
 10
288.35811942425448
 20
1989.908067874107
 30
0.0
 11
288.35811942425448
 21
1805.908067874107
 31
0.0
  0
INSERT
  5
7E65
  8
3
 62
     0
  2
_OPEN
 10
288.35811942425448
 20
2009.908067874107
 30
0.0
 41
20.0
 42
20.0
 43
20.0
 50
90.0
  0
INSERT
  5
7E66
  8
3
 62
     0
  2
_OPEN
 10
288.35811942425448
 20
1785.908067874107
 30
0.0
 41
20.0
 42
20.0
 43
20.0
 50
270.0
  0
TEXT
  8
3
  40
30
  5
7E84
  62
0
  72
0
  71
0
 10
203.358
 20
1854.32
 30
0.000000
  1
224
  0
POINT
  5
7E68
  8
DEFPOINTS
 62
     0
 10
350.07479899999998
 20
2009.908067874107
 30
0.0
  0
POINT
  5
7E69
  8
DEFPOINTS
 62
     0
 10
350.07479899999998
 20
1785.908067874107
 30
0.0
  0
POINT
  5
7E6A
  8
DEFPOINTS
 62
     0
 10
288.35811942425448
 20
1785.908067874107
 30
0.0
  0
ENDBLK
  5
7CC8
  8
0
  0
BLOCK
  8
0
  2
*D17
 70
     1
 10
0.0
 20
0.0
 30
0.0
  3
*D17
  1

  0
LINE
  5
7E6B
  8
3
 62
     0
 10
970.64198699999986
 20
1101.5074614874411
 30
0.0
 11
970.64198699999986
 21
1407.17031676436
 31
0.0
  0
LINE
  5
7E6C
  8
3
 62
     0
 10
350.07479899999993
 20
871.50746148744167
 30
0.0
 11
350.07479899999998
 21
1407.17031676436
 31
0.0
  0
LINE
  5
7E6D
  8
3
 62
     0
 10
950.64198699999997
 20
1397.17031676436
 30
0.0
 11
370.07479899999998
 21
1397.17031676436
 31
0.0
  0
INSERT
  5
7E6E
  8
3
 62
     0
  2
_OPEN
 10
970.64198699999986
 20
1397.17031676436
 30
0.0
 41
20.0
 42
20.0
 43
20.0
  0
INSERT
  5
7E6F
  8
3
 62
     0
  2
_OPEN
 10
350.07479899999998
 20
1397.17031676436
 30
0.0
 41
20.0
 42
20.0
 43
20.0
 50
180.0
  0
TEXT
  8
3
  40
30
  5
7E85
  62
0
  72
0
  71
0
 10
622.393
 20
1369.07
 30
0.000000
  1
621
  0
POINT
  5
7E71
  8
DEFPOINTS
 62
     0
 10
970.64198699999986
 20
1096.5074614874411
 30
0.0
  0
POINT
  5
7E72
  8
DEFPOINTS
 62
     0
 10
350.07479899999993
 20
866.50746148744156
 30
0.0
  0
POINT
  5
7E73
  8
DEFPOINTS
 62
     0
 10
350.07479899999998
 20
1397.17031676436
 30
0.0
  0
ENDBLK
  5
7CEA
  8
0
  0
ENDSEC
  0
SECTION
  2
ENTITIES
  0
CIRCLE
  5
7A7A
  8
1
  6
CONTINUOUS
 10
820.07479899999987
 20
1091.5074614874411
 30
0.0
 40
120.0
  0
CIRCLE
  5
7A7B
  8
1
  6
CONTINUOUS
 10
820.07479899999987
 20
1091.5074614874411
 30
0.0
 40
100.0
  0
LINE
  5
7A7C
  8
1
  6
CONTINUOUS
 10
620.07479899999987
 20
2009.908067874107
 30
0.0
 11
350.07479899999998
 21
2009.908067874107
 31
0.0
  0
LINE
  5
7A7D
  8
1
  6
CONTINUOUS
 10
832.07479899999987
 20
1752.408067874107
 30
0.0
 11
832.07479899999987
 21
1922.1080678741071
 31
0.0
  0
LINE
  5
7A7E
  8
1
  6
CONTINUOUS
 10
808.07479899999998
 20
1752.408067874107
 30
0.0
 11
808.07479899999998
 21
1922.1080678741071
 31
0.0
  0
LINE
  5
7A7F
  8
1
  6
CONTINUOUS
 10
507.874799
 20
1785.908067874107
 30
0.0
 11
350.07479899999998
 21
1785.908067874107
 31
0.0
  0
LINE
  5
7A80
  8
1
  6
CONTINUOUS
 10
808.07479899999998
 20
1785.908067874107
 30
0.0
 11
531.87479900000005
 21
1785.908067874107
 31
0.0
  0
LINE
  5
7A81
  8
1
  6
CONTINUOUS
 10
927.07479899999998
 20
866.50746148744156
 30
0.0
 11
927.07479899999998
 21
1201.5074614874411
 31
0.0
  0
LINE
  5
7A82
  8
1
  6
CONTINUOUS
 10
980.07479899999987
 20
1785.908067874107
 30
0.0
 11
980.07479899999987
 21
2009.908067874107
 31
0.0
  0
LINE
  5
7A83
  8
1
  6
CONTINUOUS
 10
927.07479899999998
 20
1699.908067874107
 30
0.0
 11
927.07479899999998
 21
1774.908067874107
 31
0.0
  0
LINE
  5
7A84
  8
1
  6
CONTINUOUS
 10
927.07479899999998
 20
1699.908067874107
 30
0.0
 11
397.07479899999998
 21
1699.908067874107
 31
0.0
  0
LINE
  5
7A85
  8
1
  6
CONTINUOUS
 10
770.07479899999987
 20
1722.408067874107
 30
0.0
 11
770.07479899999987
 21
1752.408067874107
 31
0.0
  0
LINE
  5
7A86
  8
1
  6
CONTINUOUS
 10
870.07479899999987
 20
1722.408067874107
 30
0.0
 11
870.07479899999987
 21
1752.408067874107
 31
0.0
  0
LINE
  5
7A87
  8
1
  6
CONTINUOUS
 10
770.07479899999987
 20
1722.408067874107
 30
0.0
 11
870.07479899999987
 21
1722.408067874107
 31
0.0
  0
LINE
  5
7A88
  8
1
  6
CONTINUOUS
 10
770.07479899999987
 20
1752.408067874107
 30
0.0
 11
870.07479899999987
 21
1752.408067874107
 31
0.0
  0
LINE
  5
7A89
  8
1
  6
CONTINUOUS
 10
507.874799
 20
1752.408067874107
 30
0.0
 11
507.874799
 21
1805.1080678741071
 31
0.0
  0
LINE
  5
7A8A
  8
1
  6
CONTINUOUS
 10
531.87479900000005
 20
1752.408067874107
 30
0.0
 11
531.87479900000005
 21
1805.1080678741071
 31
0.0
  0
LINE
  5
7A8B
  8
1
  6
CONTINUOUS
 10
350.07479899999998
 20
1785.908067874107
 30
0.0
 11
350.07479899999998
 21
2009.908067874107
 31
0.0
  0
LINE
  5
7A8C
  8
1
  6
CONTINUOUS
 10
980.07479899999987
 20
2009.908067874107
 30
0.0
 11
971.07479899999987
 21
2009.908067874107
 31
0.0
  0
LINE
  5
7A8D
  8
1
  6
CONTINUOUS
 10
980.07479899999987
 20
1785.908067874107
 30
0.0
 11
832.07479899999987
 21
1785.908067874107
 31
0.0
  0
LINE
  5
7A8E
  8
1
  6
CONTINUOUS
 10
397.07479899999998
 20
1699.908067874107
 30
0.0
 11
397.07479899999998
 21
1774.908067874107
 31
0.0
  0
LINE
  5
7A8F
  8
1
  6
CONTINUOUS
 10
927.07479899999998
 20
1774.908067874107
 30
0.0
 11
397.07479899999998
 21
1774.908067874107
 31
0.0
  0
LINE
  5
7A90
  8
1
  6
CONTINUOUS
 10
484.87479899999988
 20
1722.408067874107
 30
0.0
 11
484.87479899999988
 21
1752.408067874107
 31
0.0
  0
LINE
  5
7A91
  8
1
  6
CONTINUOUS
 10
554.87479900000005
 20
1722.408067874107
 30
0.0
 11
554.87479900000005
 21
1752.408067874107
 31
0.0
  0
LINE
  5
7A92
  8
1
  6
CONTINUOUS
 10
484.87479899999988
 20
1752.408067874107
 30
0.0
 11
554.87479900000005
 21
1752.408067874107
 31
0.0
  0
LINE
  5
7A93
  8
1
  6
CONTINUOUS
 10
484.87479899999988
 20
1722.408067874107
 30
0.0
 11
554.87479900000005
 21
1722.408067874107
 31
0.0
  0
LINE
  5
7A94
  8
1
  6
CONTINUOUS
 10
600.47479900000008
 20
1996.0080678741069
 30
0.0
 11
430.47479900000002
 21
1996.0080678741069
 31
0.0
  0
LINE
  5
7A95
  8
1
  6
CONTINUOUS
 10
600.47479900000008
 20
1805.1080678741071
 30
0.0
 11
430.47479900000002
 21
1805.1080678741071
 31
0.0
  0
LINE
  5
7A96
  8
1
  6
CONTINUOUS
 10
430.47479900000002
 20
1805.1080678741071
 30
0.0
 11
430.47479900000002
 21
1996.0080678741069
 31
0.0
  0
LINE
  5
7A97
  8
1
  6
CONTINUOUS
 10
600.47479900000008
 20
1805.1080678741071
 30
0.0
 11
600.47479900000008
 21
1996.0080678741069
 31
0.0
  0
LINE
  5
7A98
  8
1
  6
CONTINUOUS
 10
1619.9726385072031
 20
866.50746148744156
 30
0.0
 11
1619.9726385072031
 21
816.50746148744156
 31
0.0
  0
LINE
  5
7A99
  8
1
  6
CONTINUOUS
 10
1395.9726385072031
 20
816.50746148744156
 30
0.0
 11
1619.9726385072031
 21
816.50746148744156
 31
0.0
  0
LINE
  5
7A9A
  8
1
  6
CONTINUOUS
 10
1309.9726385072031
 20
866.50746148744156
 30
0.0
 11
1619.9726385072031
 21
866.50746148744156
 31
0.0
  0
LINE
  5
7A9B
  8
1
  6
CONTINUOUS
 10
1395.9726385072031
 20
866.50746148744156
 30
0.0
 11
1395.9726385072031
 21
816.50746148744156
 31
0.0
  0
LINE
  5
7A9C
  8
1
  6
CONTINUOUS
 10
1309.9726385072031
 20
1201.5074614874411
 30
0.0
 11
1309.9726385072031
 21
866.50746148744156
 31
0.0
  0
LINE
  5
7A9D
  8
1
  6
CONTINUOUS
 10
1419.9726385072031
 20
1058.2074614874409
 30
0.0
 11
1419.9726385072031
 21
866.50746148744156
 31
0.0
  0
LINE
  5
7A9E
  8
1
  6
CONTINUOUS
 10
1419.9726385072031
 20
1058.2074614874409
 30
0.0
 11
1531.9726385072031
 21
1145.2074614874409
 31
0.0
  0
LINE
  5
7A9F
  8
1
  6
CONTINUOUS
 10
1309.9726385072031
 20
1201.5074614874411
 30
0.0
 11
1384.9726385072031
 21
1201.5074614874411
 31
0.0
  0
LINE
  5
7AA0
  8
1
  6
CONTINUOUS
 10
1332.4726385072031
 20
1141.5074614874411
 30
0.0
 11
1362.4726385072031
 21
1141.5074614874411
 31
0.0
  0
LINE
  5
7AA1
  8
1
  6
CONTINUOUS
 10
1332.4726385072031
 20
1041.5074614874411
 30
0.0
 11
1362.4726385072031
 21
1041.5074614874411
 31
0.0
  0
LINE
  5
7AA2
  8
1
  6
CONTINUOUS
 10
1384.9726385072031
 20
1201.5074614874411
 30
0.0
 11
1384.9726385072031
 21
866.50746148744156
 31
0.0
  0
LINE
  5
7AA3
  8
1
  6
CONTINUOUS
 10
1332.4726385072031
 20
1141.5074614874411
 30
0.0
 11
1332.4726385072031
 21
1041.5074614874411
 31
0.0
  0
LINE
  5
7AA4
  8
1
  6
CONTINUOUS
 10
1362.4726385072031
 20
1141.5074614874411
 30
0.0
 11
1362.4726385072031
 21
1041.5074614874411
 31
0.0
  0
LINE
  5
7AA5
  8
1
  6
CONTINUOUS
 10
1332.4726385072031
 20
1002.607461487441
 30
0.0
 11
1332.4726385072031
 21
932.60746148744158
 31
0.0
  0
LINE
  5
7AA6
  8
1
  6
CONTINUOUS
 10
1362.4726385072031
 20
1002.607461487441
 30
0.0
 11
1362.4726385072031
 21
932.60746148744158
 31
0.0
  0
LINE
  5
7AA7
  8
1
  6
CONTINUOUS
 10
1332.4726385072031
 20
1002.607461487441
 30
0.0
 11
1362.4726385072031
 21
1002.607461487441
 31
0.0
  0
LINE
  5
7AA8
  8
1
  6
CONTINUOUS
 10
1332.4726385072031
 20
932.60746148744158
 30
0.0
 11
1362.4726385072031
 21
932.60746148744158
 31
0.0
  0
LINE
  5
7AA9
  8
1
  6
CONTINUOUS
 10
1362.4726385072031
 20
979.60746148744147
 30
0.0
 11
1419.9726385072031
 21
979.60746148744147
 31
0.0
  0
LINE
  5
7AAA
  8
1
  6
CONTINUOUS
 10
1362.4726385072031
 20
955.60746148744158
 30
0.0
 11
1419.9726385072031
 21
955.60746148744158
 31
0.0
  0
LINE
  5
7AAB
  8
1
  6
CONTINUOUS
 10
1362.4726385072031
 20
1103.5074614874411
 30
0.0
 11
1478.2726385072031
 21
1103.5074614874411
 31
0.0
  0
LINE
  5
7AAC
  8
1
  6
CONTINUOUS
 10
1362.4726385072031
 20
1079.5074614874411
 30
0.0
 11
1447.372638507203
 21
1079.5074614874411
 31
0.0
  0
LINE
  5
7AAD
  8
1
  6
CONTINUOUS
 10
980.07479899999987
 20
816.50746148744156
 30
0.0
 11
980.07479899999987
 21
866.50746148744156
 31
0.0
  0
LINE
  5
7AAE
  8
1
  6
CONTINUOUS
 10
350.07479899999993
 20
866.50746148744156
 30
0.0
 11
980.07479899999987
 21
866.50746148744156
 31
0.0
  0
LINE
  5
7AAF
  8
1
  6
CONTINUOUS
 10
350.07479899999993
 20
816.50746148744156
 30
0.0
 11
980.07479899999987
 21
816.50746148744156
 31
0.0
  0
LINE
  5
7AB0
  8
1
  6
CONTINUOUS
 10
350.07479899999993
 20
816.50746148744156
 30
0.0
 11
350.07479899999993
 21
866.50746148744156
 31
0.0
  0
LINE
  5
7AB1
  8
1
  6
CONTINUOUS
 10
357.37479899999988
 20
887.20746148744149
 30
0.0
 11
357.37479899999988
 21
866.50746148744156
 31
0.0
  0
LINE
  5
7AB2
  8
1
  6
CONTINUOUS
 10
608.37479900000005
 20
887.20746148744149
 30
0.0
 11
357.37479899999988
 21
887.20746148744149
 31
0.0
  0
LINE
  5
7AB3
  8
1
  6
CONTINUOUS
 10
608.37479900000005
 20
866.50746148744156
 30
0.0
 11
608.37479900000005
 21
887.20746148744149
 31
0.0
  0
LINE
  5
7AB4
  8
1
  6
CONTINUOUS
 10
397.07479899999993
 20
1201.5074614874411
 30
0.0
 11
927.07479899999998
 21
1201.5074614874411
 31
0.0
  0
LINE
  5
7AB5
  8
1
  6
CONTINUOUS
 10
397.07479899999993
 20
866.50746148744156
 30
0.0
 11
397.07479899999993
 21
1201.5074614874411
 31
0.0
  0
CIRCLE
  5
7AB6
  8
1
  6
CONTINUOUS
 10
519.87479900000005
 20
967.60746148744158
 30
0.0
 40
35.0
  0
ARC
  5
7AB7
  8
1
  6
CONTINUOUS
 10
515.47479899999996
 20
967.20746148744161
 30
0.0
 40
85.0
 50
324.69999999999987
 51
215.30000000000001
  0
LINE
  5
7AB8
  8
1
  6
CONTINUOUS
 10
437.97479900000008
 20
895.20746148744149
 30
0.0
 11
446.17479900000001
 21
918.00746148744167
 31
0.0
  0
LINE
  5
7AB9
  8
1
  6
CONTINUOUS
 10
592.97479899999996
 20
887.20746148744149
 30
0.0
 11
592.97479899999996
 21
895.20746148744149
 31
0.0
  0
LINE
  5
7ABA
  8
1
  6
CONTINUOUS
 10
592.97479899999996
 20
895.20746148744149
 30
0.0
 11
584.87479900000005
 21
918.00746148744167
 31
0.0
  0
LINE
  5
7ABB
  8
1
  6
CONTINUOUS
 10
437.97479900000008
 20
887.20746148744149
 30
0.0
 11
437.97479900000008
 21
895.20746148744149
 31
0.0
  0
LINE
  5
7ABC
  8
2
  6
CENTER
 10
519.87479900000005
 20
932.60746148744158
 30
0.0
 11
519.87479900000005
 21
1002.607461487441
 31
0.0
  0
LINE
  5
7ABD
  8
2
  6
CENTER
 10
484.87479899999988
 20
967.60746148744158
 30
0.0
 11
554.87479900000005
 21
967.60746148744158
 31
0.0
  0
LINE
  5
7ABE
  8
1
  6
CONTINUOUS
 10
820.07479899999987
 20
1236.5074614874411
 30
0.0
 11
830.07479899999987
 21
1236.5074614874411
 31
0.0
  0
LINE
  5
7ABF
  8
1
  6
CONTINUOUS
 10
609.07479899999987
 20
1236.5074614874411
 30
0.0
 11
620.07479899999987
 21
1236.5074614874411
 31
0.0
  0
LINE
  5
7AC0
  8
1
  6
CONTINUOUS
 10
620.07479899999987
 20
1251.5074614874411
 30
0.0
 11
620.07479899999987
 21
1236.5074614874411
 31
0.0
  0
LINE
  5
7AC1
  8
1
  6
CONTINUOUS
 10
955.07479899999987
 20
866.50746148744156
 30
0.0
 11
955.07479899999987
 21
1145.2074614874409
 31
0.0
  0
LINE
  5
7AC2
  8
1
  6
CONTINUOUS
 10
871.67479900000001
 20
1216.5074614874411
 30
0.0
 11
768.47479899999996
 21
1216.5074614874411
 31
0.0
  0
LINE
  5
7AC3
  8
1
  6
CONTINUOUS
 10
685.07479899999998
 20
1145.2074614874409
 30
0.0
 11
685.07479899999998
 21
866.50746148744156
 31
0.0
  0
LINE
  5
7AC4
  8
1
  6
CONTINUOUS
 10
871.67479900000001
 20
1216.5074614874411
 30
0.0
 11
955.07479899999987
 21
1145.2074614874409
 31
0.0
  0
LINE
  5
7AC5
  8
1
  6
CONTINUOUS
 10
768.47479899999996
 20
1216.5074614874411
 30
0.0
 11
685.07479899999998
 21
1145.2074614874409
 31
0.0
  0
LINE
  5
7AC6
  8
1
  6
CONTINUOUS
 10
685.07479899999998
 20
1058.2074614874409
 30
0.0
 11
955.07479899999987
 21
1058.2074614874409
 31
0.0
  0
ARC
  5
7AC7
  8
1
  6
CONTINUOUS
 10
806.07479899999987
 20
1077.5074614874411
 30
0.0
 40
165.0
 50
269.69999999999999
 51
0.6
  0
LINE
  5
7AC8
  8
1
  6
CONTINUOUS
 10
821.07479899999987
 20
1251.5074614874411
 30
0.0
 11
806.07479899999987
 21
1236.5074614874411
 31
0.0
  0
LINE
  5
7AC9
  8
1
  6
CONTINUOUS
 10
634.07479899999987
 20
1236.5074614874411
 30
0.0
 11
806.07479899999987
 21
1236.5074614874411
 31
0.0
  0
LINE
  5
7ACA
  8
1
  6
CONTINUOUS
 10
619.07479899999998
 20
1251.5074614874411
 30
0.0
 11
634.07479899999987
 21
1236.5074614874411
 31
0.0
  0
ARC
  5
7ACB
  8
1
  6
CONTINUOUS
 10
831.07479899999987
 20
1080.5074614874411
 30
0.0
 40
140.0
 50
359.39999999999992
 51
90.40000000000002
  0
ARC
  5
7ACC
  8
1
  6
CONTINUOUS
 10
804.07479899999987
 20
1107.5074614874411
 30
0.0
 40
195.0
 50
180.0
 51
270.30000000000001
  0
LINE
  5
7ACD
  8
1
  6
CONTINUOUS
 10
609.07479899999987
 20
1236.5074614874411
 30
0.0
 11
609.07479899999987
 21
1107.5074614874411
 31
0.0
  0
LINE
  5
7ACE
  8
1
  6
CONTINUOUS
 10
820.07479899999987
 20
1251.5074614874411
 30
0.0
 11
820.07479899999987
 21
1236.5074614874411
 31
0.0
  0
LINE
  5
7ACF
  8
1
  6
CONTINUOUS
 10
599.07479899999998
 20
1251.5074614874411
 30
0.0
 11
841.07479899999998
 21
1251.5074614874411
 31
0.0
  0
LINE
  5
7AD0
  8
1
  6
CONTINUOUS
 10
830.07479899999987
 20
1236.5074614874411
 30
0.0
 11
830.07479899999987
 21
1220.5074614874411
 31
0.0
  0
LINE
  5
7AD1
  8
1
  6
CONTINUOUS
 10
1539.9726385072031
 20
971.50746148744167
 30
0.0
 11
1531.9726385072031
 21
971.50746148744167
 31
0.0
  0
LINE
  5
7AD2
  8
1
  6
CONTINUOUS
 10
1531.9726385072031
 20
1211.5074614874411
 30
0.0
 11
1531.9726385072031
 21
866.50746148744156
 31
0.0
  0
LINE
  5
7AD3
  8
1
  6
CONTINUOUS
 10
1539.9726385072031
 20
1211.5074614874411
 30
0.0
 11
1531.9726385072031
 21
1211.5074614874411
 31
0.0
  0
LINE
  5
7AD4
  8
1
  6
CONTINUOUS
 10
1518.9726385072031
 20
1251.5074614874411
 30
0.0
 11
1700.9726385072031
 21
1251.5074614874411
 31
0.0
  0
LINE
  5
7AD5
  8
1
  6
CONTINUOUS
 10
1549.9726385072031
 20
912.50746148744167
 30
0.0
 11
1669.9726385072031
 21
912.50746148744167
 31
0.0
  0
LINE
  5
7AD6
  8
1
  6
CONTINUOUS
 10
1679.9726385072031
 20
1251.5074614874411
 30
0.0
 11
1679.9726385072031
 21
922.50746148744167
 31
0.0
  0
LINE
  5
7AD7
  8
1
  6
CONTINUOUS
 10
1539.9726385072031
 20
1251.5074614874411
 30
0.0
 11
1539.9726385072031
 21
922.50746148744167
 31
0.0
  0
ARC
  5
7AD8
  8
1
  6
CONTINUOUS
 10
1549.9726385072031
 20
922.50746148744167
 30
0.0
 40
10.0
 50
180.0
 51
270.0
  0
ARC
  5
7AD9
  8
1
  6
CONTINUOUS
 10
1669.9726385072031
 20
922.50746148744167
 30
0.0
 40
10.0
 50
270.0
 51
0.0
  0
LINE
  5
7ADA
  8
1
  6
CONTINUOUS
 10
1538.9726385072031
 20
1251.5074614874411
 30
0.0
 11
1553.9726385072031
 21
1236.5074614874411
 31
0.0
  0
LINE
  5
7ADB
  8
1
  6
CONTINUOUS
 10
1553.9726385072031
 20
1236.5074614874411
 30
0.0
 11
1665.9726385072031
 21
1236.5074614874411
 31
0.0
  0
LINE
  5
7ADC
  8
1
  6
CONTINUOUS
 10
1680.9726385072031
 20
1251.5074614874411
 30
0.0
 11
1665.9726385072031
 21
1236.5074614874411
 31
0.0
  0
LINE
  5
7ADD
  8
1
  6
CONTINUOUS
 10
1679.9726385072031
 20
1211.5074614874411
 30
0.0
 11
1687.9726385072031
 21
1211.5074614874411
 31
0.0
  0
LINE
  5
7ADE
  8
1
  6
CONTINUOUS
 10
1687.9726385072031
 20
1211.5074614874411
 30
0.0
 11
1687.9726385072031
 21
971.50746148744167
 31
0.0
  0
LINE
  5
7ADF
  8
1
  6
CONTINUOUS
 10
1679.9726385072031
 20
971.50746148744167
 30
0.0
 11
1687.9726385072031
 21
971.50746148744167
 31
0.0
  0
LINE
  5
7AE0
  8
1
  6
CONTINUOUS
 10
700.07479899999987
 20
2069.7080678741072
 30
0.0
 11
700.07479899999987
 21
2077.7080678741072
 31
0.0
  0
LINE
  5
7AE1
  8
1
  6
CONTINUOUS
 10
971.07479899999987
 20
1941.908067874107
 30
0.0
 11
971.07479899999987
 21
2057.908067874107
 31
0.0
  0
LINE
  5
7AE2
  8
1
  6
CONTINUOUS
 10
700.07479899999987
 20
2077.7080678741072
 30
0.0
 11
940.07479899999987
 21
2077.7080678741072
 31
0.0
  0
LINE
  5
7AE3
  8
1
  6
CONTINUOUS
 10
940.07479899999987
 20
2069.7080678741072
 30
0.0
 11
940.07479899999987
 21
2077.7080678741072
 31
0.0
  0
LINE
  5
7AE4
  8
1
  6
CONTINUOUS
 10
940.07479899999987
 20
1930.1080678741071
 30
0.0
 11
940.07479899999987
 21
1922.1080678741071
 31
0.0
  0
LINE
  5
7AE5
  8
1
  6
CONTINUOUS
 10
700.07479899999987
 20
1922.1080678741071
 30
0.0
 11
940.07479899999987
 21
1922.1080678741071
 31
0.0
  0
LINE
  5
7AE6
  8
1
  6
CONTINUOUS
 10
700.07479899999987
 20
1930.1080678741071
 30
0.0
 11
700.07479899999987
 21
1922.1080678741071
 31
0.0
  0
LINE
  5
7AE7
  8
1
  6
CONTINUOUS
 10
820.07479899999987
 20
1929.908067874107
 30
0.0
 11
820.07479899999987
 21
2069.908067874107
 31
0.0
  0
LINE
  5
7AE8
  8
1
  6
CONTINUOUS
 10
959.07479899999998
 20
2069.908067874107
 30
0.0
 11
620.07479899999987
 21
2069.908067874107
 31
0.0
  0
LINE
  5
7AE9
  8
1
  6
CONTINUOUS
 10
620.07479899999987
 20
2069.908067874107
 30
0.0
 11
620.07479899999987
 21
1929.908067874107
 31
0.0
  0
LINE
  5
7AEA
  8
1
  6
CONTINUOUS
 10
620.07479899999987
 20
1929.908067874107
 30
0.0
 11
959.07479899999998
 21
1929.908067874107
 31
0.0
  0
ARC
  5
7AEB
  8
1
  6
CONTINUOUS
 10
959.07479899999998
 20
1941.908067874107
 30
0.0
 40
12.0
 50
270.0
 51
0.0
  0
ARC
  5
7AEC
  8
1
  6
CONTINUOUS
 10
959.07479899999998
 20
2057.908067874107
 30
0.0
 40
12.0
 50
0.0
 51
90.0
  0
LINE
  5
7AED
  8
1
  6
CONTINUOUS
 10
620.07479899999987
 20
1929.908067874107
 30
0.0
 11
820.07479899999987
 21
2069.908067874107
 31
0.0
  0
LINE
  5
7AEE
  8
1
  6
CONTINUOUS
 10
620.07479899999987
 20
2069.908067874107
 30
0.0
 11
820.07479899999987
 21
1929.908067874107
 31
0.0
  0
LINE
  5
7AEF
  8
1
  6
CONTINUOUS
 10
505.07479899999993
 20
999.30746148744163
 30
0.0
 11
798.87479900000005
 21
1136.8074614874411
 31
0.0
  0
LINE
  5
7AF0
  8
1
  6
CONTINUOUS
 10
531.77479899999992
 20
934.70746148744149
 30
0.0
 11
836.97479899999996
 21
1044.5074614874411
 31
0.0
  0
LINE
  5
7AF1
  8
2
  6
CENTER
 10
585.85182899999995
 20
1091.5074614874411
 30
0.0
 11
990.28621899999996
 21
1091.5074614874411
 31
0.0
  0
LINE
  5
7AF2
  8
2
  6
CENTER
 10
820.07479899999987
 20
782.90496248744148
 30
0.0
 11
820.07479899999987
 21
1305.719405487441
 31
0.0
  0
CIRCLE
  5
7AF3
  8
1
  6
CONTINUOUS
 10
820.07479899999987
 20
1091.5074614874411
 30
0.0
 40
50.0
  0
LINE
  5
7AF4
  8
4
  6
CONTINUOUS
 10
1850.0
 20
500.0
 30
0.0
 11
1850.0
 21
300.0
 31
0.0
  0
LINE
  5
7AF5
  8
4
  6
CONTINUOUS
 10
1150.0
 20
500.0
 30
0.0
 11
1150.0
 21
300.0
 31
0.0
  0
LINE
  5
7AF6
  8
4
  6
CONTINUOUS
 10
650.0
 20
500.0
 30
0.0
 11
650.0
 21
300.0
 31
0.0
  0
LINE
  5
7AF9
  8
4
  6
CONTINUOUS
 10
650.0
 20
300.0
 30
0.0
 11
1850.0
 21
300.0
 31
0.0
  0
LINE
  5
7AFA
  8
4
  6
CONTINUOUS
 10
650.0
 20
400.0
 30
0.0
 11
1850.0
 21
400.0
 31
0.0
  0
TEXT
  5
7AFB
  8
4
  6
CONTINUOUS
 10
688.50208099999998
 20
431.543026
 30
0.0
 40
50.0
  1
機器名称
  0
TEXT
  5
7AFC
  8
4
  6
CONTINUOUS
 10
686.258106
 20
321.64515699999993
 30
0.0
 40
50.0
  1
機器型番
  0
TEXT
  5
7AFD
  8
4
  6
CONTINUOUS
 10
1177.678744999999
 20
422.57176900000002
 30
0.0
 40
45.0
  1
ミツヤニューマルチファン
  0
TEXT
  5
7AFE
  8
4
  6
CONTINUOUS
 10
1186.6544960000001
 20
317.159584
 30
0.0
 40
50.0
  1
NM#1 1/4-1
  0
TEXT
  5
7B00
  8
4
  6
CONTINUOUS
 10
904.78576499999997
 20
2383.4288409999999
 30
0.0
 40
54.0
  1
床置ベット
  0
TEXT
  5
7B01
  8
4
  6
CONTINUOUS
 10
316.16759300000001
 20
2533.8809759999999
 30
0.0
 40
72.0
  1
ベルト駆動式片吸込片持多翼ファン
  0
LINE
  5
7B02
  8
4
  6
CONTINUOUS
 10
250.0
 20
2469.408754
 30
0.0
 11
1850.0
 21
2469.408754
 31
0.0
  0
LINE
  5
7B03
  8
4
  6
CONTINUOUS
 10
250.0
 20
2669.408754
 30
0.0
 11
1850.0
 21
2669.408754
 31
0.0
  0
LINE
  5
7B04
  8
4
  6
CONTINUOUS
 10
650.0
 20
500.0
 30
0.0
 11
1850.0
 21
500.0
 31
0.0
  0
LINE
  5
7B05
  8
4
  6
CONTINUOUS
 10
250.0
 20
2669.408754
 30
0.0
 11
250.0
 21
2469.408754
 31
0.0
  0
TEXT
  5
7B06
  8
4
  6
CONTINUOUS
 10
468.92693300000002
 20
2382.3194779999999
 30
0.0
 40
54.0
  1
右回転上向
  0
TEXT
  5
7B07
  8
4
  6
CONTINUOUS
 10
1468.9695589999999
 20
2706.0610809999998
 30
0.0
 40
56.0
  1
No.
  0
TEXT
  5
7B08
  8
4
  6
CONTINUOUS
 10
1311.296063
 20
2383.4288409999999
 30
0.0
 40
54.0
  1
縮尺：1/10
  0
LINE
  5
7B09
  8
4
  6
CONTINUOUS
 10
1850.0
 20
2669.408754
 30
0.0
 11
1850.0
 21
2469.408754
 31
0.0
  0
LINE
  5
7B0B
  8
4
  6
CONTINUOUS
 10
1440.617422
 20
2681.2635829999999
 30
0.0
 11
1440.617422
 21
2786.6522620000001
 31
0.0
  0
LINE
  5
7B0C
  8
4
  6
CONTINUOUS
 10
1440.617422
 20
2786.6522620000001
 30
0.0
 11
1850.0
 21
2786.6522620000001
 31
0.0
  0
LINE
  5
7B0D
  8
4
  6
CONTINUOUS
 10
1850.0
 20
2786.6522620000001
 30
0.0
 11
1850.0
 21
2681.2635829999999
 31
0.0
  0
LINE
  5
7B0E
  8
4
  6
CONTINUOUS
 10
1850.0
 20
2681.2635829999999
 30
0.0
 11
1440.617422
 21
2681.2635829999999
 31
0.0
  0
DIMENSION
  5
7B26
  8
3
  6
CONTINUOUS
  2
*D1
 10
820.07479899999987
 20
1282.6662064874411
 30
0.0
 11
717.32460000000003
 21
1282.6662064874411
 31
0.0
 70
   128
 13
620.07479899999987
 23
1251.5074614874411
 33
0.0
 14
820.07479899999987
 24
1251.5074614874411
 34
0.0
1001
ACAD
1000
DSTYLE
1002
{
1070
   287
1070
     3
1070
   287
1070
     3
1070
    40
1040
10.0
1070
   143
1040
0.039
1070
   172
1070
     1
1070
   271
1070
     0
1070
   279
1070
     0
1070
   288
1070
     1
1002
}
  0
DIMENSION
  5
7B5C
  8
3
  6
CONTINUOUS
  2
*D2
 10
1051.644886
 20
816.50746148744156
 30
0.0
 11
1026.6448859999989
 21
954.00746148744156
 31
0.0
 70
     0
 13
970.64198699999986
 23
1091.5074614874411
 33
0.0
 14
980.07479899999987
 24
816.50746148744156
 34
0.0
 50
90.0
1001
ACAD
1000
DSTYLE
1002
{
1070
   287
1070
     3
1070
   287
1070
     3
1070
    40
1040
10.0
1070
   143
1040
0.039
1070
   172
1070
     1
1070
   271
1070
     0
1070
   279
1070
     0
1070
   288
1070
     1
1002
}
  0
DIMENSION
  5
7B69
  8
3
  6
CONTINUOUS
  2
*D3
 10
1119.678842
 20
816.50746148744156
 30
0.0
 11
1119.678842
 21
1046.2757614874411
 31
0.0
 70
   128
 13
841.07479899999998
 23
1251.5074614874411
 33
0.0
 14
980.07479899999987
 24
816.50746148744156
 34
0.0
 50
90.0
1001
ACAD
1000
DSTYLE
1002
{
1070
   287
1070
     3
1070
   287
1070
     3
1070
    40
1040
10.0
1070
   143
1040
0.039
1070
   172
1070
     1
1070
   271
1070
     0
1070
   279
1070
     0
1070
   288
1070
     1
1002
}
  0
DIMENSION
  5
7B76
  8
3
  6
CONTINUOUS
  2
*D4
 10
820.07479899999987
 20
739.5997094874416
 30
0.0
 11
592.00083299999994
 21
739.5997094874416
 31
0.0
 70
   128
 13
350.07479899999993
 23
816.50746148744156
 33
0.0
 14
820.07479899999987
 24
816.50746148744156
 34
0.0
1001
ACAD
1000
DSTYLE
1002
{
1070
   287
1070
     3
1070
   287
1070
     3
1070
    40
1040
10.0
1070
   143
1040
0.039
1070
   172
1070
     1
1070
   271
1070
     0
1070
   279
1070
     0
1070
   288
1070
     1
1002
}
  0
DIMENSION
  5
7B82
  8
3
  6
CONTINUOUS
  2
*D5
 10
980.07479899999987
 20
739.5997094874416
 30
0.0
 11
900.07479899999998
 21
764.5997094874416
 31
0.0
 70
     0
 13
820.07479899999987
 23
816.50746148744156
 33
0.0
 14
980.07479899999987
 24
816.50746148744156
 34
0.0
1001
ACAD
1000
DSTYLE
1002
{
1070
   287
1070
     4
1070
   287
1070
     4
1070
    40
1040
10.0
1070
    75
1070
     1
1070
   143
1040
0.039
1070
   172
1070
     1
1070
   271
1070
     0
1070
   279
1070
     1
1070
   288
1070
     1
1002
}
  0
LINE
  5
7B83
  8
2
  6
CENTER
 10
1609.9726385072031
 20
750.05203948744145
 30
0.0
 11
1609.9726385072031
 21
1289.5867214874411
 31
0.0
  0
LINE
  5
7B84
  8
2
  6
CENTER
 10
560.33767199999988
 20
1999.908067874107
 30
0.0
 11
996.54035399999975
 21
1999.908067874107
 31
0.0
  0
LINE
  5
7B85
  8
2
  6
CENTER
 10
820.07479899999987
 20
1680.4041888741069
 30
0.0
 11
820.07479899999987
 21
2120.314356874107
 31
0.0
  0
DIMENSION
  5
7BB8
  8
3
  6
CONTINUOUS
  2
*D6
 10
1609.9726385072031
 20
749.88041048744151
 30
0.0
 11
1505.826545507203
 21
749.88041048744151
 31
0.0
 70
   128
 13
1395.9726385072031
 23
816.50746148744156
 33
0.0
 14
1609.9726385072031
 24
816.50746148744156
 34
0.0
1001
ACAD
1000
DSTYLE
1002
{
1070
   287
1070
     3
1070
   287
1070
     3
1070
    40
1040
10.0
1070
   143
1040
0.039
1070
   172
1070
     1
1070
   271
1070
     0
1070
   279
1070
     0
1070
   288
1070
     1
1002
}
  0
DIMENSION
  5
7BC8
  8
3
  6
CONTINUOUS
  2
*D7
 10
1619.9726385072031
 20
749.88041048744151
 30
0.0
 11
1656.2747085072031
 21
749.73047748744148
 31
0.0
 70
   128
 13
1609.9726385072031
 23
816.50746148744156
 33
0.0
 14
1619.9726385072031
 24
816.50746148744156
 34
0.0
1001
ACAD
1000
DSTYLE
1002
{
1070
   287
1070
     4
1070
   287
1070
     4
1070
    40
1040
10.0
1070
    75
1070
     1
1070
   143
1040
0.039
1070
   172
1070
     1
1070
   271
1070
     0
1070
   279
1070
     1
1070
   288
1070
     1
1002
}
  0
DIMENSION
  5
7BEF
  8
3
  6
CONTINUOUS
  2
*D8
 10
1679.9726385072031
 20
1285.7117624874411
 30
0.0
 11
1614.258352507203
 21
1285.7117624874411
 31
0.0
 70
   128
 13
1539.9726385072031
 23
1251.5074614874411
 33
0.0
 14
1679.9726385072031
 24
1251.5074614874411
 34
0.0
1001
ACAD
1000
DSTYLE
1002
{
1070
   287
1070
     3
1070
   287
1070
     3
1070
    40
1040
10.0
1070
   143
1040
0.039
1070
   172
1070
     1
1070
   271
1070
     0
1070
   279
1070
     0
1070
   288
1070
     1
1002
}
  0
DIMENSION
  5
7BFC
  8
3
  6
CONTINUOUS
  2
*D9
 10
1609.9726385072031
 20
1336.190630487441
 30
0.0
 11
1460.2361795072029
 21
1336.190630487441
 31
0.0
 70
   128
  1
MAX\P300
 13
1309.9726385072031
 23
1201.5074614874411
 33
0.0
 14
1609.9726385072031
 24
1327.5183414874409
 34
0.0
1001
ACAD
1000
DSTYLE
1002
{
1070
   287
1070
     3
1070
   287
1070
     3
1070
    40
1040
10.0
1070
   143
1040
0.039
1070
   172
1070
     1
1070
   271
1070
     0
1070
   279
1070
     0
1070
   288
1070
     1
1002
}
  0
DIMENSION
  5
7C0A
  8
3
  6
CONTINUOUS
  2
*D10
 10
1687.9726385072031
 20
1336.190630487441
 30
0.0
 11
1650.195985507203
 21
1336.190630487441
 31
0.0
 70
   128
 13
1609.9726385072031
 23
1327.5183414874409
 33
0.0
 14
1687.9726385072031
 24
1211.5074614874411
 34
0.0
1001
ACAD
1000
DSTYLE
1002
{
1070
   287
1070
     4
1070
   287
1070
     4
1070
    40
1040
10.0
1070
    75
1070
     1
1070
   143
1040
0.039
1070
   172
1070
     1
1070
   271
1070
     0
1070
   279
1070
     1
1070
   288
1070
     1
1002
}
  0
LINE
  5
7C22
  8
3
  6
CONTINUOUS
 10
1687.9726385072031
 20
1191.5074614874411
 30
0.0
 11
1700.3453765072029
 21
1191.5074614874411
 31
0.0
  0
LINE
  5
7C24
  8
3
  6
CONTINUOUS
 10
1687.9726385072031
 20
991.50746148744156
 30
0.0
 11
1697.3060265072029
 21
991.50746148744156
 31
0.0
  0
DIMENSION
  5
7C31
  8
3
  6
CONTINUOUS
  2
*D11
 10
1758.093166507203
 20
991.50746148744156
 30
0.0
 11
1758.093166507203
 21
1104.936032916012
 31
0.0
 70
   128
 13
1687.9726385072031
 23
1191.5074614874411
 33
0.0
 14
1687.9726385072031
 24
991.50746148744156
 34
0.0
 50
90.0
1001
ACAD
1000
DSTYLE
1002
{
1070
   287
1070
     3
1070
   287
1070
     3
1070
     3
1000
φ<>
1070
    40
1040
10.0
1070
   143
1040
0.039
1070
   172
1070
     1
1070
   271
1070
     0
1070
   279
1070
     0
1070
   288
1070
     1
1002
}
  0
LINE
  5
7C32
  8
2
  6
CENTER
 10
1273.6214555072031
 20
1091.5074614874411
 30
0.0
 11
1709.5164255072029
 21
1091.5074614874411
 31
0.0
  0
DIMENSION
  5
7C3F
  8
3
  6
CONTINUOUS
  2
*D12
 10
980.07479899999987
 20
1628.9320798741071
 30
0.0
 11
653.96732199999997
 21
1628.9320798741071
 31
0.0
 70
   128
 13
350.07479899999998
 23
1785.908067874107
 33
0.0
 14
980.07479899999987
 24
1785.908067874107
 34
0.0
1001
ACAD
1000
DSTYLE
1002
{
1070
   287
1070
     3
1070
   287
1070
     3
1070
    40
1040
10.0
1070
   143
1040
0.039
1070
   172
1070
     1
1070
   271
1070
     0
1070
   279
1070
     0
1070
   288
1070
     1
1002
}
  0
DIMENSION
  5
7C5D
  8
3
  6
CONTINUOUS
  2
*D13
 10
1051.644886
 20
1251.5074614874411
 30
0.0
 11
1026.6448859999989
 21
1171.5074614874411
 31
0.0
 70
     0
 13
970.64198699999986
 23
1091.5074614874411
 33
0.0
 14
841.07479899999998
 24
1251.5074614874411
 34
0.0
 50
90.0
1001
ACAD
1000
DSTYLE
1002
{
1070
   287
1070
     4
1070
   287
1070
     4
1070
    40
1040
10.0
1070
    75
1070
     1
1070
   143
1040
0.039
1070
   172
1070
     1
1070
   271
1070
     0
1070
   279
1070
     1
1070
   288
1070
     1
1002
}
  0
DIMENSION
  5
7C7B
  8
3
  6
CONTINUOUS
  2
*D14
 10
820.07479899999987
 20
1331.1247174874411
 30
0.0
 11
713.72822099999985
 21
1331.1247174874411
 31
0.0
 70
   128
 13
609.07479899999987
 23
1236.5074614874411
 33
0.0
 14
820.07479899999987
 24
1251.5074614874411
 34
0.0
1001
ACAD
1000
DSTYLE
1002
{
1070
   287
1070
     3
1070
   287
1070
     3
1070
    40
1040
10.0
1070
   143
1040
0.039
1070
   172
1070
     1
1070
   271
1070
     0
1070
   279
1070
     0
1070
   288
1070
     1
1002
}
  0
DIMENSION
  5
7C87
  8
3
  6
CONTINUOUS
  2
*D15
 10
970.64198699999986
 20
1331.1247174874411
 30
0.0
 11
895.35839299999998
 21
1356.1247174874411
 31
0.0
 70
     0
 13
820.07479899999987
 23
1251.5074614874411
 33
0.0
 14
970.64198699999986
 24
1091.5074614874411
 34
0.0
1001
ACAD
1000
DSTYLE
1002
{
1070
   287
1070
     4
1070
   287
1070
     4
1070
    40
1040
10.0
1070
    75
1070
     1
1070
   143
1040
0.039
1070
   172
1070
     1
1070
   271
1070
     0
1070
   279
1070
     1
1070
   288
1070
     1
1002
}
  0
DIMENSION
  5
7CBD
  8
3
  2
*D16
 10
288.35811942425448
 20
1785.908067874107
 30
0.0
 11
288.3581194242542
 21
1907.418522525428
 31
0.0
 70
   128
 13
350.07479899999998
 23
2009.908067874107
 33
0.0
 14
350.07479899999998
 24
1785.908067874107
 34
0.0
 50
90.0
1001
ACAD
1000
DSTYLE
1002
{
1070
   287
1070
     3
1070
   287
1070
     3
1070
    40
1040
10.0
1070
   143
1040
0.039
1070
   172
1070
     1
1070
   271
1070
     0
1070
   279
1070
     0
1070
   288
1070
     1
1002
}
  0
DIMENSION
  5
7CEB
  8
3
  2
*D17
 10
350.07479899999998
 20
1397.17031676436
 30
0.0
 11
682.39332410859777
 21
1397.17031676436
 31
0.0
 70
   128
 13
970.64198699999986
 23
1096.5074614874411
 33
0.0
 14
350.07479899999993
 24
866.50746148744156
 34
0.0
1001
ACAD
1000
DSTYLE
1002
{
1070
   287
1070
     3
1070
   287
1070
     3
1070
    40
1040
10.0
1070
   143
1040
0.039
1070
   172
1070
     1
1070
   271
1070
     0
1070
   279
1070
     0
1070
   288
1070
     1
1002
}
  0
ENDSEC
  0
EOF
