  0
SECTION
  2
HEADER
  9
$ACADVER
  1
AC1009
  9
$INSBASE
 10
0.0
 20
0.0
 30
0.0
  9
$EXTMIN
 10
-988.19835399999977
 20
-2193.5590889999999
 30
0.0
  9
$EXTMAX
 10
611.80164599999989
 20
293.09317299999992
 30
0.0
  9
$LIMMIN
 10
0.0
 20
0.0
  9
$LIMMAX
 10
297.0
 20
210.0
  9
$ORTHOMODE
 70
     0
  9
$REGENMODE
 70
     1
  9
$FILLMODE
 70
     0
  9
$QTEXTMODE
 70
     0
  9
$MIRRTEXT
 70
     1
  9
$DRAGMODE
 70
     2
  9
$LTSCALE
 40
100.0
  9
$OSMODE
 70
    37
  9
$ATTMODE
 70
     1
  9
$TEXTSIZE
 40
180.0
  9
$TRACEWID
 40
0.05
  9
$TEXTSTYLE
  7
STANDARD
  9
$CLAYER
  8
3
  9
$CELTYPE
  6
BYLAYER
  9
$CECOLOR
 62
   256
  9
$DIMSCALE
 40
10.0
  9
$DIMASZ
 40
2.0
  9
$DIMEXO
 40
0.5
  9
$DIMDLI
 40
10.0
  9
$DIMRND
 40
0.0
  9
$DIMDLE
 40
0.0
  9
$DIMEXE
 40
1.0
  9
$DIMTP
 40
1.0
  9
$DIMTM
 40
1.0
  9
$DIMTXT
 40
3.0
  9
$DIMCEN
 40
0.0
  9
$DIMTSZ
 40
0.0
  9
$DIMTOL
 70
     0
  9
$DIMLIM
 70
     0
  9
$DIMTIH
 70
     0
  9
$DIMTOH
 70
     0
  9
$DIMSE1
 70
     0
  9
$DIMSE2
 70
     0
  9
$DIMTAD
 70
     1
  9
$DIMZIN
 70
     8
  9
$DIMBLK
  1

  9
$DIMASO
 70
     1
  9
$DIMSHO
 70
     1
  9
$DIMPOST
  1

  9
$DIMAPOST
  1

  9
$DIMALT
 70
     0
  9
$DIMALTD
 70
     2
  9
$DIMALTF
 40
0.039
  9
$DIMLFAC
 40
1.0
  9
$DIMTOFL
 70
     1
  9
$DIMTVP
 40
0.0
  9
$DIMTIX
 70
     0
  9
$DIMSOXD
 70
     0
  9
$DIMSAH
 70
     1
  9
$DIMBLK1
  1
OPEN
  9
$DIMBLK2
  1
OPEN
  9
$DIMSTYLE
  2
IGA
  9
$DIMCLRD
 70
     0
  9
$DIMCLRE
 70
     0
  9
$DIMCLRT
 70
     0
  9
$DIMTFAC
 40
10.0
  9
$DIMGAP
 40
1.0
  9
$LUNITS
 70
     2
  9
$LUPREC
 70
     3
  9
$SKETCHINC
 40
0.1
  9
$FILLETRAD
 40
50.0
  9
$AUNITS
 70
     0
  9
$AUPREC
 70
     0
  9
$MENU
  1
acad
  9
$ELEVATION
 40
0.0
  9
$PELEVATION
 40
0.0
  9
$THICKNESS
 40
0.0
  9
$LIMCHECK
 70
     0
  9
$BLIPMODE
 70
     0
  9
$CHAMFERA
 40
0.5
  9
$CHAMFERB
 40
0.5
  9
$SKPOLY
 70
     0
  9
$TDCREATE
 40
2450737.4051078702
  9
$TDUPDATE
 40
2454953.861636817
  9
$TDINDWG
 40
0.0052854514
  9
$TDUSRTIMER
 40
0.0052854514
  9
$USRTIMER
 70
     1
  9
$ANGBASE
 50
0.0
  9
$ANGDIR
 70
     0
  9
$PDMODE
 70
     0
  9
$PDSIZE
 40
0.0
  9
$PLINEWID
 40
0.0
  9
$COORDS
 70
     1
  9
$SPLFRAME
 70
     0
  9
$SPLINETYPE
 70
     6
  9
$SPLINESEGS
 70
     8
  9
$ATTDIA
 70
     0
  9
$ATTREQ
 70
     1
  9
$HANDLING
 70
 10241
  9
$HANDSEED
  5
7E48
  9
$SURFTAB1
 70
     6
  9
$SURFTAB2
 70
     6
  9
$SURFTYPE
 70
     6
  9
$SURFU
 70
     6
  9
$SURFV
 70
     6
  9
$UCSNAME
  2

  9
$UCSORG
 10
0.0
 20
0.0
 30
0.0
  9
$UCSXDIR
 10
1.0
 20
0.0
 30
0.0
  9
$UCSYDIR
 10
0.0
 20
1.0
 30
0.0
  9
$PUCSNAME
  2

  9
$PUCSORG
 10
0.0
 20
0.0
 30
0.0
  9
$PUCSXDIR
 10
1.0
 20
0.0
 30
0.0
  9
$PUCSYDIR
 10
0.0
 20
1.0
 30
0.0
  9
$USERI1
 70
     0
  9
$USERI2
 70
     0
  9
$USERI3
 70
     0
  9
$USERI4
 70
     0
  9
$USERI5
 70
     0
  9
$USERR1
 40
0.0
  9
$USERR2
 40
0.0
  9
$USERR3
 40
0.0
  9
$USERR4
 40
0.0
  9
$USERR5
 40
0.0
  9
$WORLDVIEW
 70
     1
  9
$SHADEDGE
 70
     3
  9
$SHADEDIF
 70
    70
  9
$TILEMODE
 70
     1
  9
$MAXACTVP
 70
    16
  9
$PLIMCHECK
 70
     0
  9
$PEXTMIN
 10
1.0000000000000000E+020
 20
1.0000000000000000E+020
 30
1.0000000000000000E+020
  9
$PEXTMAX
 10
-1.0000000000000000E+020
 20
-1.0000000000000000E+020
 30
-1.0000000000000000E+020
  9
$PLIMMIN
 10
0.0
 20
0.0
  9
$PLIMMAX
 10
12.0
 20
9.0
  9
$UNITMODE
 70
     0
  9
$VISRETAIN
 70
     0
  9
$PLINEGEN
 70
     0
  9
$PSLTSCALE
 70
     1
  0
ENDSEC
  0
SECTION
  2
TABLES
  0
TABLE
  2
VPORT
 70
     2
  0
VPORT
  2
*ACTIVE
 70
     0
 10
0.0
 20
0.0
 11
1.0
 21
1.0
 12
1312.7559263703661
 22
-726.3385817202377
 13
0.0
 23
0.0
 14
10.0
 24
10.0
 15
10.0
 25
10.0
 16
0.0
 26
0.0
 36
1.0
 17
0.0
 27
0.0
 37
0.0
 40
3384.7202369232782
 41
1.5051150895140659
 42
50.0
 43
0.0
 44
0.0
 50
0.0
 51
0.0
 71
     0
 72
   100
 73
     1
 74
     0
 75
     0
 76
     0
 77
     0
 78
     0
  0
ENDTAB
  0
TABLE
  2
LTYPE
 70
     2
  0
LTYPE
  2
CONTINUOUS
 70
     0
  3
Solid line
 72
    65
 73
     0
 40
0.0
  0
LTYPE
  2
CENTER
 70
     0
  3
____ _ ____ _ ____ _ ____ _ ____ _ ____ _ ____ 
 72
    65
 73
     4
 40
2.0
 49
1.25
 49
-0.25
 49
0.25
 49
-0.25
  0
ENDTAB
  0
TABLE
  2
LAYER
 70
     6
  0
LAYER
  2
0
 70
     0
 62
     7
  6
CONTINUOUS
  0
LAYER
  2
3
 70
     0
 62
     2
  6
CONTINUOUS
  0
LAYER
  2
2
 70
     0
 62
     3
  6
CENTER
  0
LAYER
  2
1
 70
     0
 62
     4
  6
CONTINUOUS
  0
LAYER
  2
4
 70
     0
 62
     7
  6
CONTINUOUS
  0
LAYER
  2
DEFPOINTS
 70
     0
 62
     7
  6
CONTINUOUS
  0
ENDTAB
  0
TABLE
  2
STYLE
 70
     1
  0
STYLE
  2
STANDARD
 70
     0
 40
0.0
 41
1.0
 50
0.0
 71
     0
 42
180.0
  3
simplex.shx
  4
extfont.shx
  0
ENDTAB
  0
TABLE
  2
VIEW
 70
     0
  0
ENDTAB
  0
TABLE
  2
UCS
 70
     0
  0
ENDTAB
  0
TABLE
  2
APPID
 70
     1
  0
APPID
  2
ACAD
 70
     0
  0
ENDTAB
  0
TABLE
  2
DIMSTYLE
 70
     1
  0
DIMSTYLE
  2
IGA
 70
     0
  3

  4

  5

  6
OPEN
  7
OPEN
 40
2.0
 41
2.0
 42
0.5
 43
10.0
 44
1.0
 45
0.0
 46
0.0
 47
1.0
 48
1.0
140
3.0
141
0.0
142
0.0
143
0.03937
144
1.0
145
0.0
146
10.0
147
1.0
 71
     0
 72
     0
 73
     0
 74
     0
 75
     0
 76
     0
 77
     1
 78
     8
170
     0
171
     2
172
     0
173
     1
174
     0
175
     0
176
     0
177
     0
178
     0
  0
ENDTAB
  0
ENDSEC
  0
SECTION
  2
BLOCKS
  0
BLOCK
  8
0
  2
$MODEL_SPACE
 70
     0
 10
0.0
 20
0.0
 30
0.0
  3
$MODEL_SPACE
  1

  0
ENDBLK
  5
1B
  8
0
  0
BLOCK
 67
     1
  8
0
  2
$PAPER_SPACE
 70
     0
 10
0.0
 20
0.0
 30
0.0
  3
$PAPER_SPACE
  1

  0
ENDBLK
  5
18
 67
     1
  8
0
  0
BLOCK
  8
0
  2
_OPEN
 70
     0
 10
0.0
 20
0.0
 30
0.0
  3
_OPEN
  1

  0
LINE
  5
7B16
  8
0
  6
BYBLOCK
 62
     0
 10
-1.0
 20
0.166667
 30
0.0
 11
0.0
 21
0.0
 31
0.0
  0
LINE
  5
7B17
  8
0
  6
BYBLOCK
 62
     0
 10
0.0
 20
0.0
 30
0.0
 11
-1.0
 21
-0.166667
 31
0.0
  0
LINE
  5
7B18
  8
0
  6
BYBLOCK
 62
     0
 10
0.0
 20
0.0
 30
0.0
 11
-1.0
 21
0.0
 31
0.0
  0
ENDBLK
  5
7B19
  8
0
  0
BLOCK
  8
0
  2
*D1
 70
     1
 10
0.0
 20
0.0
 30
0.0
  3
*D1
  1

  0
LINE
  5
7D9E
  8
3
  6
CONTINUOUS
 62
     0
 10
-900.38275564555352
 20
-1686.285871
 30
0.0
 11
-900.38275564555352
 21
-1769.2014810000001
 31
0.0
  0
LINE
  5
7D9F
  8
3
  6
CONTINUOUS
 62
     0
 10
-430.38275564555352
 20
-1686.285871
 30
0.0
 11
-430.38275564555352
 21
-1769.2014810000001
 31
0.0
  0
LINE
  5
7DA0
  8
3
  6
CONTINUOUS
 62
     0
 10
-880.38275564555352
 20
-1759.2014809999989
 30
0.0
 11
-450.38275564555352
 21
-1759.2014809999989
 31
0.0
  0
INSERT
  5
7DA1
  8
3
  6
CONTINUOUS
 62
     0
  2
_OPEN
 10
-900.38275564555352
 20
-1759.2014809999989
 30
0.0
 41
20.0
 42
20.0
 43
20.0
 50
180.0
  0
INSERT
  5
7DA2
  8
3
  6
CONTINUOUS
 62
     0
  2
_OPEN
 10
-430.38275564555352
 20
-1759.2014809999989
 30
0.0
 41
20.0
 42
20.0
 43
20.0
  0
TEXT
  8
3
  40
30
  5
7E36
  62
0
  72
0
  71
0
 10
-712.972
 20
-1787.30
 30
0.000000
  1
470
  0
POINT
  5
7DA4
  8
DEFPOINTS
  6
CONTINUOUS
 62
     0
 10
-900.38275564555352
 20
-1681.285871
 30
0.0
  0
POINT
  5
7DA5
  8
DEFPOINTS
  6
CONTINUOUS
 62
     0
 10
-430.38275564555352
 20
-1681.285871
 30
0.0
  0
POINT
  5
7DA6
  8
DEFPOINTS
  6
CONTINUOUS
 62
     0
 10
-430.38275564555352
 20
-1759.2014809999989
 30
0.0
  0
ENDBLK
  5
7B26
  8
0
  0
BLOCK
  8
0
  2
*D2
 70
     1
 10
0.0
 20
0.0
 30
0.0
  3
*D2
  1

  0
LINE
  5
7DA7
  8
3
  6
CONTINUOUS
 62
     0
 10
-270.38275564555352
 20
-1686.285871
 30
0.0
 11
-270.38275564555352
 21
-1769.2014810000001
 31
0.0
  0
LINE
  5
7DA8
  8
3
  6
CONTINUOUS
 62
     0
 10
-410.3827556455534
 20
-1759.2014809999989
 30
0.0
 11
-290.38275564555352
 21
-1759.2014809999989
 31
0.0
  0
INSERT
  5
7DA9
  8
3
  6
CONTINUOUS
 62
     0
  2
_OPEN
 10
-430.38275564555352
 20
-1759.2014809999989
 30
0.0
 41
20.0
 42
20.0
 43
20.0
 50
180.0
  0
INSERT
  5
7DAA
  8
3
  6
CONTINUOUS
 62
     0
  2
_OPEN
 10
-270.38275564555352
 20
-1759.2014809999989
 30
0.0
 41
20.0
 42
20.0
 43
20.0
  0
TEXT
  8
3
  40
30
  5
7E37
  62
0
  72
0
  71
0
 10
-410.383
 20
-1787.30
 30
0.000000
  1
160
  0
POINT
  5
7DAC
  8
DEFPOINTS
  6
CONTINUOUS
 62
     0
 10
-430.38275564555352
 20
-1681.285871
 30
0.0
  0
POINT
  5
7DAD
  8
DEFPOINTS
  6
CONTINUOUS
 62
     0
 10
-270.38275564555352
 20
-1681.285871
 30
0.0
  0
POINT
  5
7DAE
  8
DEFPOINTS
  6
CONTINUOUS
 62
     0
 10
-270.38275564555352
 20
-1759.2014809999989
 30
0.0
  0
ENDBLK
  5
7B32
  8
0
  0
BLOCK
  8
0
  2
*D3
 70
     1
 10
0.0
 20
0.0
 30
0.0
  3
*D3
  1

  0
LINE
  5
7DAF
  8
3
  6
CONTINUOUS
 62
     0
 10
-609.38275564555352
 20
-1401.285871
 30
0.0
 11
-609.38275564555352
 21
-1134.7187069999991
 31
0.0
  0
LINE
  5
7DB0
  8
3
  6
CONTINUOUS
 62
     0
 10
-430.38275564555352
 20
-1190.943389
 30
0.0
 11
-430.38275564555352
 21
-1134.7187069999991
 31
0.0
  0
LINE
  5
7DB1
  8
3
  6
CONTINUOUS
 62
     0
 10
-589.3827556455534
 20
-1144.718707
 30
0.0
 11
-450.38275564555352
 21
-1144.718707
 31
0.0
  0
INSERT
  5
7DB2
  8
3
  6
CONTINUOUS
 62
     0
  2
_OPEN
 10
-609.38275564555352
 20
-1144.718707
 30
0.0
 41
20.0
 42
20.0
 43
20.0
 50
180.0
  0
INSERT
  5
7DB3
  8
3
  6
CONTINUOUS
 62
     0
  2
_OPEN
 10
-430.38275564555352
 20
-1144.718707
 30
0.0
 41
20.0
 42
20.0
 43
20.0
  0
TEXT
  8
3
  40
30
  5
7E38
  62
0
  72
0
  71
0
 10
-583.878
 20
-1172.82
 30
0.000000
  1
179
  0
POINT
  5
7DB5
  8
DEFPOINTS
  6
CONTINUOUS
 62
     0
 10
-609.38275564555352
 20
-1406.285871
 30
0.0
  0
POINT
  5
7DB6
  8
DEFPOINTS
  6
CONTINUOUS
 62
     0
 10
-430.38275564555352
 20
-1195.9433889999989
 30
0.0
  0
POINT
  5
7DB7
  8
DEFPOINTS
  6
CONTINUOUS
 62
     0
 10
-430.38275564555352
 20
-1144.718707
 30
0.0
  0
ENDBLK
  5
7CB8
  8
0
  0
BLOCK
  8
0
  2
*D4
 70
     1
 10
0.0
 20
0.0
 30
0.0
  3
*D4
  1

  0
LINE
  5
7DB8
  8
3
  6
CONTINUOUS
 62
     0
 10
-270.38275564555352
 20
-1180.285871
 30
0.0
 11
-270.38275564555352
 21
-1134.7187069999991
 31
0.0
  0
LINE
  5
7DB9
  8
3
  6
CONTINUOUS
 62
     0
 10
-410.3827556455534
 20
-1144.718707
 30
0.0
 11
-290.38275564555352
 21
-1144.718707
 31
0.0
  0
INSERT
  5
7DBA
  8
3
  6
CONTINUOUS
 62
     0
  2
_OPEN
 10
-430.38275564555352
 20
-1144.718707
 30
0.0
 41
20.0
 42
20.0
 43
20.0
 50
180.0
  0
INSERT
  5
7DBB
  8
3
  6
CONTINUOUS
 62
     0
  2
_OPEN
 10
-270.38275564555352
 20
-1144.718707
 30
0.0
 41
20.0
 42
20.0
 43
20.0
  0
TEXT
  8
3
  40
30
  5
7E39
  62
0
  72
0
  71
0
 10
-410.383
 20
-1172.82
 30
0.000000
  1
160
  0
POINT
  5
7DBD
  8
DEFPOINTS
  6
CONTINUOUS
 62
     0
 10
-430.38275564555352
 20
-1195.9433889999989
 30
0.0
  0
POINT
  5
7DBE
  8
DEFPOINTS
  6
CONTINUOUS
 62
     0
 10
-270.38275564555352
 20
-1185.285871
 30
0.0
  0
POINT
  5
7DBF
  8
DEFPOINTS
  6
CONTINUOUS
 62
     0
 10
-270.38275564555352
 20
-1144.718707
 30
0.0
  0
ENDBLK
  5
7B4B
  8
0
  0
BLOCK
  8
0
  2
*D5
 70
     1
 10
0.0
 20
0.0
 30
0.0
  3
*D5
  1

  0
LINE
  5
7DC0
  8
3
  6
CONTINUOUS
 62
     0
 10
-265.38275564555352
 20
-1406.285871
 30
0.0
 11
-188.9089576455537
 21
-1406.285871
 31
0.0
  0
LINE
  5
7DC1
  8
3
  6
CONTINUOUS
 62
     0
 10
-265.38275564555352
 20
-1206.285871
 30
0.0
 11
-188.9089576455537
 21
-1206.285871
 31
0.0
  0
LINE
  5
7DC2
  8
3
  6
CONTINUOUS
 62
     0
 10
-198.9089576455537
 20
-1386.285871
 30
0.0
 11
-198.9089576455537
 21
-1226.285871
 31
0.0
  0
INSERT
  5
7DC3
  8
3
  6
CONTINUOUS
 62
     0
  2
_OPEN
 10
-198.9089576455537
 20
-1406.285871
 30
0.0
 41
20.0
 42
20.0
 43
20.0
 50
270.0
  0
INSERT
  5
7DC4
  8
3
  6
CONTINUOUS
 62
     0
  2
_OPEN
 10
-198.9089576455537
 20
-1206.285871
 30
0.0
 41
20.0
 42
20.0
 43
20.0
 50
90.0
  0
TEXT
  8
3
  40
30
  5
7E3A
  62
0
  72
0
  71
0
 10
-283.909
 20
-1356.09
 30
0.000000
  1
200
  0
POINT
  5
7DC6
  8
DEFPOINTS
  6
CONTINUOUS
 62
     0
 10
-270.38275564555352
 20
-1406.285871
 30
0.0
  0
POINT
  5
7DC7
  8
DEFPOINTS
  6
CONTINUOUS
 62
     0
 10
-270.38275564555352
 20
-1206.285871
 30
0.0
  0
POINT
  5
7DC8
  8
DEFPOINTS
  6
CONTINUOUS
 62
     0
 10
-198.9089576455537
 20
-1206.285871
 30
0.0
  0
ENDBLK
  5
7B58
  8
0
  0
BLOCK
  8
0
  2
*D6
 70
     1
 10
0.0
 20
0.0
 30
0.0
  3
*D6
  1

  0
LINE
  5
7DC9
  8
3
  6
CONTINUOUS
 62
     0
 10
-280.38275564555352
 20
-1195.285871
 30
0.0
 11
-128.30604664555369
 21
-1195.285871
 31
0.0
  0
LINE
  5
7DCA
  8
3
  6
CONTINUOUS
 62
     0
 10
-265.38275564555352
 20
-1406.285871
 30
0.0
 11
-128.30604664555381
 21
-1406.285871
 31
0.0
  0
LINE
  5
7DCB
  8
3
  6
CONTINUOUS
 62
     0
 10
-138.30604664555369
 20
-1215.285871
 30
0.0
 11
-138.30604664555381
 21
-1386.285871
 31
0.0
  0
INSERT
  5
7DCC
  8
3
  6
CONTINUOUS
 62
     0
  2
_OPEN
 10
-138.30604664555369
 20
-1195.285871
 30
0.0
 41
20.0
 42
20.0
 43
20.0
 50
90.0
  0
INSERT
  5
7DCD
  8
3
  6
CONTINUOUS
 62
     0
  2
_OPEN
 10
-138.30604664555381
 20
-1406.285871
 30
0.0
 41
20.0
 42
20.0
 43
20.0
 50
270.0
  0
TEXT
  8
3
  40
30
  5
7E3B
  62
0
  72
0
  71
0
 10
-223.306
 20
-1347.79
 30
0.000000
  1
211
  0
POINT
  5
7DCF
  8
DEFPOINTS
  6
CONTINUOUS
 62
     0
 10
-285.38275564555352
 20
-1195.285871
 30
0.0
  0
POINT
  5
7DD0
  8
DEFPOINTS
  6
CONTINUOUS
 62
     0
 10
-270.38275564555352
 20
-1406.285871
 30
0.0
  0
POINT
  5
7DD1
  8
DEFPOINTS
  6
CONTINUOUS
 62
     0
 10
-138.30604664555381
 20
-1406.285871
 30
0.0
  0
ENDBLK
  5
7B7F
  8
0
  0
BLOCK
  8
0
  2
*D7
 70
     1
 10
0.0
 20
0.0
 30
0.0
  3
*D7
  1

  0
LINE
  5
7DD2
  8
3
  6
CONTINUOUS
 62
     0
 10
-265.38275564555352
 20
-1681.285871
 30
0.0
 11
-128.30604664555349
 21
-1681.285871
 31
0.0
  0
LINE
  5
7DD3
  8
3
  6
CONTINUOUS
 62
     0
 10
-138.30604664555349
 20
-1426.285871
 30
0.0
 11
-138.30604664555349
 21
-1661.285871
 31
0.0
  0
INSERT
  5
7DD4
  8
3
  6
CONTINUOUS
 62
     0
  2
_OPEN
 10
-138.30604664555349
 20
-1406.285871
 30
0.0
 41
20.0
 42
20.0
 43
20.0
 50
90.0
  0
INSERT
  5
7DD5
  8
3
  6
CONTINUOUS
 62
     0
  2
_OPEN
 10
-138.30604664555349
 20
-1681.285871
 30
0.0
 41
20.0
 42
20.0
 43
20.0
 50
270.0
  0
TEXT
  8
3
  40
30
  5
7E3C
  62
0
  72
0
  71
0
 10
-223.306
 20
-1596.89
 30
0.000000
  1
275
  0
POINT
  5
7DD7
  8
DEFPOINTS
  6
CONTINUOUS
 62
     0
 10
-270.38275564555352
 20
-1406.285871
 30
0.0
  0
POINT
  5
7DD8
  8
DEFPOINTS
  6
CONTINUOUS
 62
     0
 10
-270.38275564555352
 20
-1681.285871
 30
0.0
  0
POINT
  5
7DD9
  8
DEFPOINTS
  6
CONTINUOUS
 62
     0
 10
-138.30604664555349
 20
-1681.285871
 30
0.0
  0
ENDBLK
  5
7B8B
  8
0
  0
BLOCK
  8
0
  2
*D8
 70
     1
 10
0.0
 20
0.0
 30
0.0
  3
*D8
  1

  0
LINE
  5
7DDA
  8
3
  6
CONTINUOUS
 62
     0
 10
178.89603997978139
 20
-1686.285871
 30
0.0
 11
178.89603997978139
 21
-1750.448386
 31
0.0
  0
LINE
  5
7DDB
  8
3
  6
CONTINUOUS
 62
     0
 10
392.89603997978139
 20
-1686.285871
 30
0.0
 11
392.89603997978139
 21
-1750.448386
 31
0.0
  0
LINE
  5
7DDC
  8
3
  6
CONTINUOUS
 62
     0
 10
198.89603997978139
 20
-1740.4483859999989
 30
0.0
 11
372.89603997978139
 21
-1740.4483859999989
 31
0.0
  0
INSERT
  5
7DDD
  8
3
  6
CONTINUOUS
 62
     0
  2
_OPEN
 10
178.89603997978139
 20
-1740.4483859999989
 30
0.0
 41
20.0
 42
20.0
 43
20.0
 50
180.0
  0
INSERT
  5
7DDE
  8
3
  6
CONTINUOUS
 62
     0
  2
_OPEN
 10
392.89603997978139
 20
-1740.4483859999989
 30
0.0
 41
20.0
 42
20.0
 43
20.0
  0
TEXT
  8
3
  40
30
  5
7E3D
  62
0
  72
0
  71
0
 10
236.956
 20
-1768.55
 30
0.000000
  1
214
  0
POINT
  5
7DE0
  8
DEFPOINTS
  6
CONTINUOUS
 62
     0
 10
178.89603997978139
 20
-1681.285871
 30
0.0
  0
POINT
  5
7DE1
  8
DEFPOINTS
  6
CONTINUOUS
 62
     0
 10
392.89603997978139
 20
-1681.285871
 30
0.0
  0
POINT
  5
7DE2
  8
DEFPOINTS
  6
CONTINUOUS
 62
     0
 10
392.89603997978139
 20
-1740.4483859999989
 30
0.0
  0
ENDBLK
  5
7BA6
  8
0
  0
BLOCK
  8
0
  2
*D9
 70
     1
 10
0.0
 20
0.0
 30
0.0
  3
*D9
  1

  0
LINE
  5
7DE3
  8
3
  6
CONTINUOUS
 62
     0
 10
402.89603997978139
 20
-1686.285871
 30
0.0
 11
402.89603997978139
 21
-1750.448386
 31
0.0
  0
LINE
  5
7DE4
  8
3
  6
CONTINUOUS
 62
     0
 10
372.89603997978139
 20
-1740.4483859999989
 30
0.0
 11
352.89603997978139
 21
-1740.4483859999989
 31
0.0
  0
LINE
  5
7DE5
  8
3
  6
CONTINUOUS
 62
     0
 10
422.89603997978139
 20
-1740.4483859999989
 30
0.0
 11
442.89603997978139
 21
-1740.4483859999989
 31
0.0
  0
TEXT
  8
3
  40
30
  5
7E3E
  62
0
  72
0
  71
0
 10
371.991
 20
-1768.55
 30
0.000000
  1
10
  0
LINE
  5
7DE7
  8
3
  6
CONTINUOUS
 62
     0
 10
392.89603997978139
 20
-1740.4483859999989
 30
0.0
 11
402.89603997978139
 21
-1740.4483859999989
 31
0.0
  0
INSERT
  5
7DE8
  8
3
  6
CONTINUOUS
 62
     0
  2
_OPEN
 10
392.89603997978139
 20
-1740.4483859999989
 30
0.0
 41
20.0
 42
20.0
 43
20.0
  0
INSERT
  5
7DE9
  8
3
  6
CONTINUOUS
 62
     0
  2
_OPEN
 10
402.89603997978139
 20
-1740.4483859999989
 30
0.0
 41
20.0
 42
20.0
 43
20.0
 50
180.0
  0
POINT
  5
7DEA
  8
DEFPOINTS
  6
CONTINUOUS
 62
     0
 10
392.89603997978139
 20
-1681.285871
 30
0.0
  0
POINT
  5
7DEB
  8
DEFPOINTS
  6
CONTINUOUS
 62
     0
 10
402.89603997978139
 20
-1681.285871
 30
0.0
  0
POINT
  5
7DEC
  8
DEFPOINTS
  6
CONTINUOUS
 62
     0
 10
402.89603997978139
 20
-1740.4483859999989
 30
0.0
  0
ENDBLK
  5
7BD1
  8
0
  0
BLOCK
  8
0
  2
*D10
 70
     1
 10
0.0
 20
0.0
 30
0.0
  3
*D10
  1

  0
LINE
  5
7DED
  8
3
  6
CONTINUOUS
 62
     0
 10
322.89603997978139
 20
-1201.285871
 30
0.0
 11
322.89603997978139
 21
-1159.5668129999999
 31
0.0
  0
LINE
  5
7DEE
  8
3
  6
CONTINUOUS
 62
     0
 10
462.89603997978139
 20
-1201.285871
 30
0.0
 11
462.89603997978139
 21
-1159.5668129999999
 31
0.0
  0
LINE
  5
7DEF
  8
3
  6
CONTINUOUS
 62
     0
 10
302.89603997978139
 20
-1169.5668129999999
 30
0.0
 11
282.89603997978139
 21
-1169.5668129999999
 31
0.0
  0
LINE
  5
7DF0
  8
3
  6
CONTINUOUS
 62
     0
 10
482.89603997978139
 20
-1169.5668129999999
 30
0.0
 11
502.89603997978139
 21
-1169.5668129999999
 31
0.0
  0
LINE
  5
7DF1
  8
3
  6
CONTINUOUS
 62
     0
 10
322.89603997978139
 20
-1169.5668129999999
 30
0.0
 11
462.89603997978139
 21
-1169.5668129999999
 31
0.0
  0
INSERT
  5
7DF2
  8
3
  6
CONTINUOUS
 62
     0
  2
_OPEN
 10
322.89603997978139
 20
-1169.5668129999999
 30
0.0
 41
20.0
 42
20.0
 43
20.0
  0
INSERT
  5
7DF3
  8
3
  6
CONTINUOUS
 62
     0
  2
_OPEN
 10
462.89603997978139
 20
-1169.5668129999999
 30
0.0
 41
20.0
 42
20.0
 43
20.0
 50
180.0
  0
TEXT
  8
3
  40
30
  5
7E3F
  62
0
  72
0
  71
0
 10
328.610
 20
-1197.67
 30
0.000000
  1
140
  0
POINT
  5
7DF5
  8
DEFPOINTS
  6
CONTINUOUS
 62
     0
 10
322.89603997978139
 20
-1206.285871
 30
0.0
  0
POINT
  5
7DF6
  8
DEFPOINTS
  6
CONTINUOUS
 62
     0
 10
462.89603997978139
 20
-1206.285871
 30
0.0
  0
POINT
  5
7DF7
  8
DEFPOINTS
  6
CONTINUOUS
 62
     0
 10
462.89603997978139
 20
-1169.5668129999999
 30
0.0
  0
ENDBLK
  5
7BDD
  8
0
  0
BLOCK
  8
0
  2
*D11
 70
     1
 10
0.0
 20
0.0
 30
0.0
  3
*D11
  1

  0
LINE
  5
7DF8
  8
3
  6
CONTINUOUS
 62
     0
 10
92.896039979781449
 20
-1291.285871
 30
0.0
 11
92.896039979781449
 21
-1098.9595159999999
 31
0.0
  0
LINE
  5
7DF9
  8
3
  6
CONTINUOUS
 62
     0
 10
392.89603997978139
 20
-1119.7966029999991
 30
0.0
 11
392.89603997978139
 21
-1098.9595159999999
 31
0.0
  0
LINE
  5
7DFA
  8
3
  6
CONTINUOUS
 62
     0
 10
112.89603997978141
 20
-1108.9595159999999
 30
0.0
 11
372.89603997978139
 21
-1108.9595159999999
 31
0.0
  0
INSERT
  5
7DFB
  8
3
  6
CONTINUOUS
 62
     0
  2
_OPEN
 10
92.896039979781449
 20
-1108.9595159999999
 30
0.0
 41
20.0
 42
20.0
 43
20.0
 50
180.0
  0
INSERT
  5
7DFC
  8
3
  6
CONTINUOUS
 62
     0
  2
_OPEN
 10
392.89603997978139
 20
-1108.9595159999999
 30
0.0
 41
20.0
 42
20.0
 43
20.0
  0
TEXT
  8
3
  40
30
  5
7E40
  62
0
  72
0
  71
0
 10
180.203
 20
-1112.06
 30
0.000000
  1
MAX
  0
TEXT
  8
3
  40
30
  5
7E41
  62
0
  72
0
  71
0
 10
180.203
 20
-1151.06
 30
0.000000
  1
300
  0
POINT
  5
7DFE
  8
DEFPOINTS
  6
CONTINUOUS
 62
     0
 10
92.896039979781449
 20
-1296.285871
 30
0.0
  0
POINT
  5
7DFF
  8
DEFPOINTS
  6
CONTINUOUS
 62
     0
 10
392.89603997978139
 20
-1124.796603
 30
0.0
  0
POINT
  5
7E00
  8
DEFPOINTS
  6
CONTINUOUS
 62
     0
 10
392.89603997978139
 20
-1108.9595159999999
 30
0.0
  0
ENDBLK
  5
7C9C
  8
0
  0
BLOCK
  8
0
  2
*D12
 70
     1
 10
0.0
 20
0.0
 30
0.0
  3
*D12
  1

  0
LINE
  5
7E01
  8
3
  6
CONTINUOUS
 62
     0
 10
470.89603997978139
 20
-1281.285871
 30
0.0
 11
470.89603997978139
 21
-1098.9595159999999
 31
0.0
  0
LINE
  5
7E02
  8
3
  6
CONTINUOUS
 62
     0
 10
412.89603997978139
 20
-1108.9595159999999
 30
0.0
 11
450.89603997978139
 21
-1108.9595159999999
 31
0.0
  0
TEXT
  8
3
  40
30
  5
7E42
  62
0
  72
0
  71
0
 10
368.077
 20
-1138.82
 30
0.000000
  1
78
  0
INSERT
  5
7E04
  8
3
  6
CONTINUOUS
 62
     0
  2
_OPEN
 10
392.89603997978139
 20
-1108.9595159999999
 30
0.0
 41
20.0
 42
20.0
 43
20.0
 50
180.0
  0
INSERT
  5
7E05
  8
3
  6
CONTINUOUS
 62
     0
  2
_OPEN
 10
470.89603997978139
 20
-1108.9595159999999
 30
0.0
 41
20.0
 42
20.0
 43
20.0
  0
POINT
  5
7E06
  8
DEFPOINTS
  6
CONTINUOUS
 62
     0
 10
392.89603997978139
 20
-1124.796603
 30
0.0
  0
POINT
  5
7E07
  8
DEFPOINTS
  6
CONTINUOUS
 62
     0
 10
470.89603997978139
 20
-1286.285871
 30
0.0
  0
POINT
  5
7E08
  8
DEFPOINTS
  6
CONTINUOUS
 62
     0
 10
470.89603997978139
 20
-1108.9595159999999
 30
0.0
  0
ENDBLK
  5
7C68
  8
0
  0
BLOCK
  8
0
  2
*D13
 70
     1
 10
0.0
 20
0.0
 30
0.0
  3
*D13
  1

  0
LINE
  5
7E09
  8
3
  6
CONTINUOUS
 62
     0
 10
-900.38275564555352
 20
-649.22635765457972
 30
0.0
 11
-900.38275564555352
 21
-822.25759765457974
 31
0.0
  0
LINE
  5
7E0A
  8
3
  6
CONTINUOUS
 62
     0
 10
-270.38275564555352
 20
-649.22635765457972
 30
0.0
 11
-270.38275564555352
 21
-822.25759765457974
 31
0.0
  0
LINE
  5
7E0B
  8
3
  6
CONTINUOUS
 62
     0
 10
-880.38275564555352
 20
-812.25759765457985
 30
0.0
 11
-290.38275564555352
 21
-812.25759765457985
 31
0.0
  0
INSERT
  5
7E0C
  8
3
  6
CONTINUOUS
 62
     0
  2
_OPEN
 10
-900.38275564555352
 20
-812.25759765457985
 30
0.0
 41
20.0
 42
20.0
 43
20.0
 50
180.0
  0
INSERT
  5
7E0D
  8
3
  6
CONTINUOUS
 62
     0
  2
_OPEN
 10
-270.38275564555352
 20
-812.25759765457985
 30
0.0
 41
20.0
 42
20.0
 43
20.0
  0
TEXT
  8
3
  40
30
  5
7E43
  62
0
  72
0
  71
0
 10
-660.360
 20
-840.358
 30
0.000000
  1
630
  0
POINT
  5
7E0F
  8
DEFPOINTS
  6
CONTINUOUS
 62
     0
 10
-900.38275564555352
 20
-644.22635765457972
 30
0.0
  0
POINT
  5
7E10
  8
DEFPOINTS
  6
CONTINUOUS
 62
     0
 10
-270.38275564555352
 20
-644.22635765457972
 30
0.0
  0
POINT
  5
7E11
  8
DEFPOINTS
  6
CONTINUOUS
 62
     0
 10
-270.38275564555352
 20
-812.25759765457985
 30
0.0
  0
ENDBLK
  5
7C1B
  8
0
  0
BLOCK
  8
0
  2
*D14
 70
     1
 10
0.0
 20
0.0
 30
0.0
  3
*D14
  1

  0
LINE
  5
7E12
  8
3
  6
CONTINUOUS
 62
     0
 10
475.89603997978139
 20
-1306.285871
 30
0.0
 11
544.14477597978123
 21
-1306.285871
 31
0.0
  0
LINE
  5
7E13
  8
3
  6
CONTINUOUS
 62
     0
 10
475.89603997978139
 20
-1506.285871
 30
0.0
 11
544.14477597978123
 21
-1506.285871
 31
0.0
  0
LINE
  5
7E14
  8
3
  6
CONTINUOUS
 62
     0
 10
534.14477597978123
 20
-1326.285871
 30
0.0
 11
534.14477597978123
 21
-1486.285871
 31
0.0
  0
INSERT
  5
7E15
  8
3
  6
CONTINUOUS
 62
     0
  2
_OPEN
 10
534.14477597978123
 20
-1306.285871
 30
0.0
 41
20.0
 42
20.0
 43
20.0
 50
90.0
  0
INSERT
  5
7E16
  8
3
  6
CONTINUOUS
 62
     0
  2
_OPEN
 10
534.14477597978123
 20
-1506.285871
 30
0.0
 41
20.0
 42
20.0
 43
20.0
 50
270.0
  0
TEXT
  8
3
  40
30
  5
7E44
  62
0
  72
0
  71
0
 10
449.145
 20
-1445.96
 30
0.000000
  1
φ200
  0
POINT
  5
7E18
  8
DEFPOINTS
  6
CONTINUOUS
 62
     0
 10
470.89603997978139
 20
-1306.285871
 30
0.0
  0
POINT
  5
7E19
  8
DEFPOINTS
  6
CONTINUOUS
 62
     0
 10
470.89603997978139
 20
-1506.285871
 30
0.0
  0
POINT
  5
7E1A
  8
DEFPOINTS
  6
CONTINUOUS
 62
     0
 10
534.14477597978123
 20
-1506.285871
 30
0.0
  0
ENDBLK
  5
7CA7
  8
0
  0
BLOCK
  8
0
  2
*D15
 70
     1
 10
0.0
 20
0.0
 30
0.0
  3
*D15
  1

  0
LINE
  5
7E1B
  8
3
  6
CONTINUOUS
 62
     0
 10
-265.38275564555352
 20
-1185.285871
 30
0.0
 11
-50.660597645553878
 21
-1185.285871
 31
0.0
  0
LINE
  5
7E1C
  8
3
  6
CONTINUOUS
 62
     0
 10
-265.38275564555352
 20
-1681.285871
 30
0.0
 11
-50.660597645553999
 21
-1681.285871
 31
0.0
  0
LINE
  5
7E1D
  8
3
  6
CONTINUOUS
 62
     0
 10
-60.660597645553892
 20
-1205.285871
 30
0.0
 11
-60.660597645553992
 21
-1661.285871
 31
0.0
  0
INSERT
  5
7E1E
  8
3
  6
CONTINUOUS
 62
     0
  2
_OPEN
 10
-60.660597645553878
 20
-1185.285871
 30
0.0
 41
20.0
 42
20.0
 43
20.0
 50
90.0
  0
INSERT
  5
7E1F
  8
3
  6
CONTINUOUS
 62
     0
  2
_OPEN
 10
-60.660597645553999
 20
-1681.285871
 30
0.0
 41
20.0
 42
20.0
 43
20.0
 50
270.0
  0
TEXT
  8
3
  40
30
  5
7E45
  62
0
  72
0
  71
0
 10
-145.661
 20
-1500.70
 30
0.000000
  1
496
  0
POINT
  5
7E21
  8
DEFPOINTS
  6
CONTINUOUS
 62
     0
 10
-270.38275564555352
 20
-1185.285871
 30
0.0
  0
POINT
  5
7E22
  8
DEFPOINTS
  6
CONTINUOUS
 62
     0
 10
-270.38275564555352
 20
-1681.285871
 30
0.0
  0
POINT
  5
7E23
  8
DEFPOINTS
  6
CONTINUOUS
 62
     0
 10
-60.660597645553999
 20
-1681.285871
 30
0.0
  0
ENDBLK
  5
7C52
  8
0
  0
BLOCK
  8
0
  2
*D16
 70
     1
 10
0.0
 20
0.0
 30
0.0
  3
*D16
  1

  0
LINE
  5
7E24
  8
3
 62
     0
 10
-905.38275564555352
 20
-420.22635765457972
 30
0.0
 11
-955.30718013067974
 21
-420.22635765457972
 31
0.0
  0
LINE
  5
7E25
  8
3
 62
     0
 10
-905.38275564555352
 20
-644.22635765457972
 30
0.0
 11
-955.30718013067974
 21
-644.22635765457972
 31
0.0
  0
LINE
  5
7E26
  8
3
 62
     0
 10
-945.30718013067985
 20
-440.22635765457972
 30
0.0
 11
-945.30718013067985
 21
-624.22635765457972
 31
0.0
  0
INSERT
  5
7E27
  8
3
 62
     0
  2
_OPEN
 10
-945.30718013067985
 20
-420.22635765457972
 30
0.0
 41
20.0
 42
20.0
 43
20.0
 50
90.0
  0
INSERT
  5
7E28
  8
3
 62
     0
  2
_OPEN
 10
-945.30718013067985
 20
-644.22635765457972
 30
0.0
 41
20.0
 42
20.0
 43
20.0
 50
270.0
  0
TEXT
  8
3
  40
30
  5
7E46
  62
0
  72
0
  71
0
 10
-1030.31
 20
-589.062
 30
0.000000
  1
224
  0
POINT
  5
7E2A
  8
DEFPOINTS
 62
     0
 10
-900.38275564555352
 20
-420.22635765457972
 30
0.0
  0
POINT
  5
7E2B
  8
DEFPOINTS
 62
     0
 10
-900.38275564555352
 20
-644.22635765457972
 30
0.0
  0
POINT
  5
7E2C
  8
DEFPOINTS
 62
     0
 10
-945.30718013067985
 20
-644.22635765457972
 30
0.0
  0
ENDBLK
  5
7C83
  8
0
  0
BLOCK
  8
0
  2
*D17
 70
     1
 10
0.0
 20
0.0
 30
0.0
  3
*D17
  1

  0
LINE
  5
7E2D
  8
3
 62
     0
 10
-270.38275564555352
 20
-1180.285871
 30
0.0
 11
-270.38275564555352
 21
-1069.5586076868631
 31
0.0
  0
LINE
  5
7E2E
  8
3
 62
     0
 10
-900.38275564555352
 20
-1626.285871
 30
0.0
 11
-900.38275564555352
 21
-1069.5586076868631
 31
0.0
  0
LINE
  5
7E2F
  8
3
 62
     0
 10
-290.38275564555352
 20
-1079.5586076868631
 30
0.0
 11
-880.38275564555352
 21
-1079.5586076868631
 31
0.0
  0
INSERT
  5
7E30
  8
3
 62
     0
  2
_OPEN
 10
-270.38275564555352
 20
-1079.5586076868631
 30
0.0
 41
20.0
 42
20.0
 43
20.0
  0
INSERT
  5
7E31
  8
3
 62
     0
  2
_OPEN
 10
-900.38275564555352
 20
-1079.5586076868631
 30
0.0
 41
20.0
 42
20.0
 43
20.0
 50
180.0
  0
TEXT
  8
3
  40
30
  5
7E47
  62
0
  72
0
  71
0
 10
-640.871
 20
-1107.66
 30
0.000000
  1
630
  0
POINT
  5
7E33
  8
DEFPOINTS
 62
     0
 10
-270.38275564555352
 20
-1185.285871
 30
0.0
  0
POINT
  5
7E34
  8
DEFPOINTS
 62
     0
 10
-900.38275564555352
 20
-1631.285871
 30
0.0
  0
POINT
  5
7E35
  8
DEFPOINTS
 62
     0
 10
-900.38275564555352
 20
-1079.5586076868631
 30
0.0
  0
ENDBLK
  5
7C90
  8
0
  0
ENDSEC
  0
SECTION
  2
ENTITIES
  0
CIRCLE
  5
7A7A
  8
1
  6
CONTINUOUS
 10
-430.38275564555352
 20
-1406.285871
 30
0.0
 40
100.0
  0
LINE
  5
7A7B
  8
1
  6
CONTINUOUS
 10
-418.3827556455534
 20
-508.22635765457972
 30
0.0
 11
-418.3827556455534
 21
-677.72635765457972
 31
0.0
  0
LINE
  5
7A7C
  8
1
  6
CONTINUOUS
 10
-442.38275564555352
 20
-508.22635765457972
 30
0.0
 11
-442.38275564555352
 21
-677.72635765457972
 31
0.0
  0
LINE
  5
7A7D
  8
1
  6
CONTINUOUS
 10
-742.58275564555345
 20
-644.22635765457972
 30
0.0
 11
-900.38275564555352
 21
-644.22635765457972
 31
0.0
  0
LINE
  5
7A7E
  8
1
  6
CONTINUOUS
 10
-442.38275564555352
 20
-644.22635765457972
 30
0.0
 11
-718.58275564555345
 21
-644.22635765457972
 31
0.0
  0
LINE
  5
7A7F
  8
1
  6
CONTINUOUS
 10
145.39603997978139
 20
-1418.285871
 30
0.0
 11
230.2960399797814
 21
-1418.285871
 31
0.0
  0
LINE
  5
7A80
  8
1
  6
CONTINUOUS
 10
145.39603997978139
 20
-1394.285871
 30
0.0
 11
261.19603997978152
 21
-1394.285871
 31
0.0
  0
LINE
  5
7A81
  8
1
  6
CONTINUOUS
 10
145.39603997978139
 20
-1542.1858709999999
 30
0.0
 11
202.89603997978139
 21
-1542.1858709999999
 31
0.0
  0
LINE
  5
7A82
  8
1
  6
CONTINUOUS
 10
145.39603997978139
 20
-1518.1858709999999
 30
0.0
 11
202.89603997978139
 21
-1518.1858709999999
 31
0.0
  0
LINE
  5
7A83
  8
2
  6
CENTER
 10
-765.58275564555345
 20
-1530.1858709999999
 30
0.0
 11
-695.58275564555356
 21
-1530.1858709999999
 31
0.0
  0
LINE
  5
7A84
  8
2
  6
CENTER
 10
-730.58275564555345
 20
-1565.1858709999999
 30
0.0
 11
-730.58275564555345
 21
-1495.1858709999999
 31
0.0
  0
LINE
  5
7A85
  8
1
  6
CONTINUOUS
 10
-812.48275564555365
 20
-1610.585871
 30
0.0
 11
-812.48275564555365
 21
-1602.585871
 31
0.0
  0
LINE
  5
7A86
  8
1
  6
CONTINUOUS
 10
-657.48275564555365
 20
-1602.585871
 30
0.0
 11
-665.58275564555345
 21
-1579.785871
 31
0.0
  0
LINE
  5
7A87
  8
1
  6
CONTINUOUS
 10
-657.48275564555365
 20
-1610.585871
 30
0.0
 11
-657.48275564555365
 21
-1602.585871
 31
0.0
  0
LINE
  5
7A88
  8
1
  6
CONTINUOUS
 10
-812.48275564555365
 20
-1602.585871
 30
0.0
 11
-804.28275564555361
 21
-1579.785871
 31
0.0
  0
ARC
  5
7A89
  8
1
  6
CONTINUOUS
 10
-734.98275564555365
 20
-1530.585871
 30
0.0
 40
85.0
 50
324.69999999999987
 51
215.30000000000001
  0
LINE
  5
7A8A
  8
1
  6
CONTINUOUS
 10
-649.98275564555365
 20
-625.02635765457978
 30
0.0
 11
-649.98275564555365
 21
-434.12635765457981
 31
0.0
  0
LINE
  5
7A8B
  8
1
  6
CONTINUOUS
 10
-819.98275564555365
 20
-625.02635765457978
 30
0.0
 11
-819.98275564555365
 21
-434.12635765457981
 31
0.0
  0
LINE
  5
7A8C
  8
1
  6
CONTINUOUS
 10
-649.98275564555365
 20
-625.02635765457978
 30
0.0
 11
-819.98275564555365
 21
-625.02635765457978
 31
0.0
  0
LINE
  5
7A8D
  8
1
  6
CONTINUOUS
 10
-649.98275564555365
 20
-434.12635765457981
 30
0.0
 11
-819.98275564555365
 21
-434.12635765457981
 31
0.0
  0
LINE
  5
7A8E
  8
1
  6
CONTINUOUS
 10
-480.38275564555352
 20
-677.72635765457972
 30
0.0
 11
-380.38275564555352
 21
-677.72635765457972
 31
0.0
  0
LINE
  5
7A8F
  8
1
  6
CONTINUOUS
 10
-480.38275564555352
 20
-707.72635765457972
 30
0.0
 11
-380.38275564555352
 21
-707.72635765457972
 31
0.0
  0
LINE
  5
7A90
  8
1
  6
CONTINUOUS
 10
-765.58275564555345
 20
-707.72635765457972
 30
0.0
 11
-695.58275564555356
 21
-707.72635765457972
 31
0.0
  0
LINE
  5
7A91
  8
1
  6
CONTINUOUS
 10
-765.58275564555345
 20
-677.72635765457972
 30
0.0
 11
-695.58275564555356
 21
-677.72635765457972
 31
0.0
  0
LINE
  5
7A92
  8
1
  6
CONTINUOUS
 10
-695.58275564555356
 20
-707.72635765457972
 30
0.0
 11
-695.58275564555356
 21
-677.72635765457972
 31
0.0
  0
LINE
  5
7A93
  8
1
  6
CONTINUOUS
 10
-765.58275564555345
 20
-707.72635765457972
 30
0.0
 11
-765.58275564555345
 21
-677.72635765457972
 31
0.0
  0
LINE
  5
7A94
  8
1
  6
CONTINUOUS
 10
115.39603997978141
 20
-1565.1858709999999
 30
0.0
 11
145.39603997978139
 21
-1565.1858709999999
 31
0.0
  0
LINE
  5
7A95
  8
1
  6
CONTINUOUS
 10
115.39603997978141
 20
-1495.1858709999999
 30
0.0
 11
145.39603997978139
 21
-1495.1858709999999
 31
0.0
  0
LINE
  5
7A96
  8
1
  6
CONTINUOUS
 10
145.39603997978139
 20
-1495.1858709999999
 30
0.0
 11
145.39603997978139
 21
-1565.1858709999999
 31
0.0
  0
LINE
  5
7A97
  8
1
  6
CONTINUOUS
 10
115.39603997978141
 20
-1495.1858709999999
 30
0.0
 11
115.39603997978141
 21
-1565.1858709999999
 31
0.0
  0
LINE
  5
7A98
  8
1
  6
CONTINUOUS
 10
145.39603997978139
 20
-1356.285871
 30
0.0
 11
145.39603997978139
 21
-1456.285871
 31
0.0
  0
LINE
  5
7A99
  8
1
  6
CONTINUOUS
 10
115.39603997978141
 20
-1356.285871
 30
0.0
 11
115.39603997978141
 21
-1456.285871
 31
0.0
  0
LINE
  5
7A9A
  8
1
  6
CONTINUOUS
 10
-323.38275564555352
 20
-655.22635765457972
 30
0.0
 11
-853.3827556455534
 21
-655.22635765457972
 31
0.0
  0
LINE
  5
7A9B
  8
1
  6
CONTINUOUS
 10
167.89603997978139
 20
-1296.285871
 30
0.0
 11
167.89603997978139
 21
-1631.285871
 31
0.0
  0
LINE
  5
7A9C
  8
1
  6
CONTINUOUS
 10
115.39603997978141
 20
-1456.285871
 30
0.0
 11
145.39603997978139
 21
-1456.285871
 31
0.0
  0
LINE
  5
7A9D
  8
1
  6
CONTINUOUS
 10
115.39603997978141
 20
-1356.285871
 30
0.0
 11
145.39603997978139
 21
-1356.285871
 31
0.0
  0
LINE
  5
7A9E
  8
1
  6
CONTINUOUS
 10
-380.38275564555352
 20
-707.72635765457972
 30
0.0
 11
-380.38275564555352
 21
-677.72635765457972
 31
0.0
  0
LINE
  5
7A9F
  8
1
  6
CONTINUOUS
 10
-480.38275564555352
 20
-707.72635765457972
 30
0.0
 11
-480.38275564555352
 21
-677.72635765457972
 31
0.0
  0
LINE
  5
7AA0
  8
1
  6
CONTINUOUS
 10
92.896039979781449
 20
-1296.285871
 30
0.0
 11
167.89603997978139
 21
-1296.285871
 31
0.0
  0
LINE
  5
7AA1
  8
1
  6
CONTINUOUS
 10
-323.38275564555352
 20
-730.22635765457972
 30
0.0
 11
-853.3827556455534
 21
-730.22635765457972
 31
0.0
  0
LINE
  5
7AA2
  8
1
  6
CONTINUOUS
 10
-323.38275564555352
 20
-730.22635765457972
 30
0.0
 11
-323.38275564555352
 21
-655.22635765457972
 31
0.0
  0
LINE
  5
7AA3
  8
1
  6
CONTINUOUS
 10
-853.3827556455534
 20
-730.22635765457972
 30
0.0
 11
-853.3827556455534
 21
-655.22635765457972
 31
0.0
  0
CIRCLE
  5
7AA4
  8
1
  6
CONTINUOUS
 10
-730.58275564555345
 20
-1530.1858709999999
 30
0.0
 40
35.0
  0
LINE
  5
7AA5
  8
1
  6
CONTINUOUS
 10
-323.38275564555352
 20
-1631.285871
 30
0.0
 11
-323.38275564555352
 21
-1296.285871
 31
0.0
  0
LINE
  5
7AA6
  8
1
  6
CONTINUOUS
 10
-853.3827556455534
 20
-1631.285871
 30
0.0
 11
-853.3827556455534
 21
-1296.285871
 31
0.0
  0
LINE
  5
7AA7
  8
1
  6
CONTINUOUS
 10
-853.3827556455534
 20
-1296.285871
 30
0.0
 11
-323.38275564555352
 21
-1296.285871
 31
0.0
  0
LINE
  5
7AA8
  8
1
  6
CONTINUOUS
 10
-642.08275564555345
 20
-1631.285871
 30
0.0
 11
-642.08275564555345
 21
-1610.585871
 31
0.0
  0
LINE
  5
7AA9
  8
1
  6
CONTINUOUS
 10
-642.08275564555345
 20
-1610.585871
 30
0.0
 11
-893.08275564555356
 21
-1610.585871
 31
0.0
  0
LINE
  5
7AAA
  8
1
  6
CONTINUOUS
 10
-893.08275564555356
 20
-1610.585871
 30
0.0
 11
-893.08275564555356
 21
-1631.285871
 31
0.0
  0
LINE
  5
7AAB
  8
1
  6
CONTINUOUS
 10
-270.38275564555352
 20
-644.22635765457972
 30
0.0
 11
-418.3827556455534
 21
-644.22635765457972
 31
0.0
  0
LINE
  5
7AAC
  8
1
  6
CONTINUOUS
 10
-609.38275564555352
 20
-420.22635765457972
 30
0.0
 11
-900.38275564555352
 21
-420.22635765457972
 31
0.0
  0
LINE
  5
7AAD
  8
1
  6
CONTINUOUS
 10
-270.38275564555352
 20
-644.22635765457972
 30
0.0
 11
-270.38275564555352
 21
-500.22635765457972
 31
0.0
  0
LINE
  5
7AAE
  8
1
  6
CONTINUOUS
 10
-900.38275564555352
 20
-644.22635765457972
 30
0.0
 11
-900.38275564555352
 21
-420.22635765457972
 31
0.0
  0
LINE
  5
7AAF
  8
1
  6
CONTINUOUS
 10
202.89603997978139
 20
-1439.585871
 30
0.0
 11
314.89603997978139
 21
-1352.585871
 31
0.0
  0
LINE
  5
7AB0
  8
1
  6
CONTINUOUS
 10
202.89603997978139
 20
-1439.585871
 30
0.0
 11
202.89603997978139
 21
-1631.285871
 31
0.0
  0
LINE
  5
7AB1
  8
1
  6
CONTINUOUS
 10
92.896039979781449
 20
-1296.285871
 30
0.0
 11
92.896039979781449
 21
-1631.285871
 31
0.0
  0
ARC
  5
7AB2
  8
1
  6
CONTINUOUS
 10
450.89603997978139
 20
-1545.285871
 30
0.0
 40
12.0
 50
270.0
 51
0.0
  0
LINE
  5
7AB3
  8
1
  6
CONTINUOUS
 10
462.69603997978152
 20
-1286.285871
 30
0.0
 11
470.89603997978139
 21
-1286.285871
 31
0.0
  0
LINE
  5
7AB4
  8
1
  6
CONTINUOUS
 10
470.89603997978139
 20
-1286.285871
 30
0.0
 11
470.89603997978139
 21
-1526.285871
 31
0.0
  0
LINE
  5
7AB5
  8
1
  6
CONTINUOUS
 10
462.69603997978152
 20
-1526.285871
 30
0.0
 11
470.89603997978139
 21
-1526.285871
 31
0.0
  0
LINE
  5
7AB6
  8
1
  6
CONTINUOUS
 10
178.89603997978139
 20
-1631.285871
 30
0.0
 11
178.89603997978139
 21
-1681.285871
 31
0.0
  0
LINE
  5
7AB7
  8
1
  6
CONTINUOUS
 10
402.89603997978139
 20
-1631.285871
 30
0.0
 11
402.89603997978139
 21
-1681.285871
 31
0.0
  0
LINE
  5
7AB8
  8
1
  6
CONTINUOUS
 10
92.896039979781449
 20
-1631.285871
 30
0.0
 11
402.89603997978139
 21
-1631.285871
 31
0.0
  0
LINE
  5
7AB9
  8
1
  6
CONTINUOUS
 10
178.89603997978139
 20
-1681.285871
 30
0.0
 11
402.89603997978139
 21
-1681.285871
 31
0.0
  0
CIRCLE
  5
7ABA
  8
1
  6
CONTINUOUS
 10
-430.38275564555352
 20
-1406.285871
 30
0.0
 40
120.0
  0
LINE
  5
7ABB
  8
1
  6
CONTINUOUS
 10
-270.38275564555352
 20
-1681.285871
 30
0.0
 11
-270.38275564555352
 21
-1631.285871
 31
0.0
  0
LINE
  5
7ABC
  8
1
  6
CONTINUOUS
 10
-900.38275564555352
 20
-1681.285871
 30
0.0
 11
-900.38275564555352
 21
-1631.285871
 31
0.0
  0
LINE
  5
7ABD
  8
1
  6
CONTINUOUS
 10
-285.38275564555352
 20
-1416.285871
 30
0.0
 11
-301.38275564555352
 21
-1416.285871
 31
0.0
  0
LINE
  5
7ABE
  8
1
  6
CONTINUOUS
 10
-270.38275564555352
 20
-1185.285871
 30
0.0
 11
-270.38275564555352
 21
-1427.285871
 31
0.0
  0
LINE
  5
7ABF
  8
1
  6
CONTINUOUS
 10
-270.38275564555352
 20
-1406.285871
 30
0.0
 11
-285.38275564555352
 21
-1406.285871
 31
0.0
  0
LINE
  5
7AC0
  8
1
  6
CONTINUOUS
 10
-285.38275564555352
 20
-1195.285871
 30
0.0
 11
-414.3827556455534
 21
-1195.285871
 31
0.0
  0
ARC
  5
7AC1
  8
1
  6
CONTINUOUS
 10
-414.3827556455534
 20
-1390.285871
 30
0.0
 40
195.0
 50
90.0
 51
180.30000000000001
  0
ARC
  5
7AC2
  8
1
  6
CONTINUOUS
 10
-441.38275564555352
 20
-1417.2858709999989
 30
0.0
 40
140.0
 50
269.39999999999992
 51
0.4
  0
LINE
  5
7AC3
  8
1
  6
CONTINUOUS
 10
-270.38275564555352
 20
-1205.285871
 30
0.0
 11
-285.38275564555352
 21
-1220.285871
 31
0.0
  0
LINE
  5
7AC4
  8
1
  6
CONTINUOUS
 10
-285.38275564555352
 20
-1220.285871
 30
0.0
 11
-285.38275564555352
 21
-1392.285871
 31
0.0
  0
LINE
  5
7AC5
  8
1
  6
CONTINUOUS
 10
-270.38275564555352
 20
-1407.285871
 30
0.0
 11
-285.38275564555352
 21
-1392.285871
 31
0.0
  0
LINE
  5
7AC6
  8
1
  6
CONTINUOUS
 10
334.89603997978139
 20
-1557.285871
 30
0.0
 11
450.89603997978139
 21
-1557.285871
 31
0.0
  0
ARC
  5
7AC7
  8
1
  6
CONTINUOUS
 10
-444.38275564555352
 20
-1392.285871
 30
0.0
 40
165.0
 50
179.6999999999999
 51
270.60000000000002
  0
LINE
  5
7AC8
  8
1
  6
CONTINUOUS
 10
323.09603997978138
 20
-1526.285871
 30
0.0
 11
314.89603997978139
 21
-1526.285871
 31
0.0
  0
LINE
  5
7AC9
  8
1
  6
CONTINUOUS
 10
314.89603997978139
 20
-1286.285871
 30
0.0
 11
314.89603997978139
 21
-1631.285871
 31
0.0
  0
LINE
  5
7ACA
  8
1
  6
CONTINUOUS
 10
323.09603997978138
 20
-1286.285871
 30
0.0
 11
314.89603997978139
 21
-1286.285871
 31
0.0
  0
LINE
  5
7ACB
  8
1
  6
CONTINUOUS
 10
322.89603997978139
 20
-1406.285871
 30
0.0
 11
462.89603997978139
 21
-1406.285871
 31
0.0
  0
LINE
  5
7ACC
  8
1
  6
CONTINUOUS
 10
462.89603997978139
 20
-1545.285871
 30
0.0
 11
462.89603997978139
 21
-1206.285871
 31
0.0
  0
LINE
  5
7ACD
  8
1
  6
CONTINUOUS
 10
462.89603997978139
 20
-1206.285871
 30
0.0
 11
322.89603997978139
 21
-1206.285871
 31
0.0
  0
LINE
  5
7ACE
  8
1
  6
CONTINUOUS
 10
322.89603997978139
 20
-1206.285871
 30
0.0
 11
322.89603997978139
 21
-1545.285871
 31
0.0
  0
ARC
  5
7ACF
  8
1
  6
CONTINUOUS
 10
334.89603997978139
 20
-1545.285871
 30
0.0
 40
12.0
 50
180.0
 51
270.0
  0
ARC
  5
7AD0
  8
1
  6
CONTINUOUS
 10
450.89603997978139
 20
-1545.285871
 30
0.0
 40
12.0
 50
270.0
 51
0.0
  0
LINE
  5
7AD1
  8
1
  6
CONTINUOUS
 10
322.89603997978139
 20
-1206.285871
 30
0.0
 11
462.89603997978139
 21
-1406.285871
 31
0.0
  0
LINE
  5
7AD2
  8
1
  6
CONTINUOUS
 10
462.89603997978139
 20
-1206.285871
 30
0.0
 11
322.89603997978139
 21
-1406.285871
 31
0.0
  0
LINE
  5
7AD3
  8
1
  6
CONTINUOUS
 10
-550.38275564555352
 20
-360.22635765457972
 30
0.0
 11
-550.38275564555352
 21
-352.22635765457972
 31
0.0
  0
LINE
  5
7AD4
  8
1
  6
CONTINUOUS
 10
-310.38275564555352
 20
-352.22635765457972
 30
0.0
 11
-550.38275564555352
 21
-352.22635765457972
 31
0.0
  0
LINE
  5
7AD5
  8
1
  6
CONTINUOUS
 10
-310.38275564555352
 20
-360.22635765457972
 30
0.0
 11
-310.38275564555352
 21
-352.22635765457972
 31
0.0
  0
LINE
  5
7AD6
  8
1
  6
CONTINUOUS
 10
-270.38275564555352
 20
-339.22635765457972
 30
0.0
 11
-270.38275564555352
 21
-521.2263576545796
 31
0.0
  0
LINE
  5
7AD7
  8
1
  6
CONTINUOUS
 10
-609.38275564555352
 20
-370.22635765457972
 30
0.0
 11
-609.38275564555352
 21
-490.22635765457972
 31
0.0
  0
LINE
  5
7AD8
  8
1
  6
CONTINUOUS
 10
-270.38275564555352
 20
-500.22635765457972
 30
0.0
 11
-599.38275564555352
 21
-500.22635765457972
 31
0.0
  0
LINE
  5
7AD9
  8
1
  6
CONTINUOUS
 10
-270.38275564555352
 20
-360.22635765457972
 30
0.0
 11
-599.38275564555352
 21
-360.22635765457972
 31
0.0
  0
ARC
  5
7ADA
  8
1
  6
CONTINUOUS
 10
-599.38275564555352
 20
-370.22635765457972
 30
0.0
 40
10.0
 50
90.0
 51
180.0
  0
ARC
  5
7ADB
  8
1
  6
CONTINUOUS
 10
-599.38275564555352
 20
-490.22635765457972
 30
0.0
 40
10.0
 50
180.0
 51
270.0
  0
LINE
  5
7ADC
  8
1
  6
CONTINUOUS
 10
-270.38275564555352
 20
-359.22635765457972
 30
0.0
 11
-285.38275564555352
 21
-374.22635765457972
 31
0.0
  0
LINE
  5
7ADD
  8
1
  6
CONTINUOUS
 10
-285.38275564555352
 20
-374.22635765457972
 30
0.0
 11
-285.38275564555352
 21
-486.22635765457972
 31
0.0
  0
LINE
  5
7ADE
  8
1
  6
CONTINUOUS
 10
-270.38275564555352
 20
-501.22635765457972
 30
0.0
 11
-285.38275564555352
 21
-486.22635765457972
 31
0.0
  0
LINE
  5
7ADF
  8
1
  6
CONTINUOUS
 10
-718.58275564555345
 20
-677.72635765457972
 30
0.0
 11
-718.58275564555345
 21
-625.02635765457978
 31
0.0
  0
LINE
  5
7AE0
  8
1
  6
CONTINUOUS
 10
-742.58275564555345
 20
-677.72635765457972
 30
0.0
 11
-742.58275564555345
 21
-625.02635765457978
 31
0.0
  0
LINE
  5
7AE1
  8
1
  6
CONTINUOUS
 10
-565.38275564555352
 20
-1439.585871
 30
0.0
 11
-295.38275564555352
 21
-1439.585871
 31
0.0
  0
LINE
  5
7AE2
  8
1
  6
CONTINUOUS
 10
-481.9827556455536
 20
-1281.285871
 30
0.0
 11
-565.38275564555352
 21
-1352.585871
 31
0.0
  0
LINE
  5
7AE3
  8
1
  6
CONTINUOUS
 10
-378.78275564555349
 20
-1281.285871
 30
0.0
 11
-295.38275564555352
 21
-1352.585871
 31
0.0
  0
LINE
  5
7AE4
  8
1
  6
CONTINUOUS
 10
-565.38275564555352
 20
-1352.585871
 30
0.0
 11
-565.38275564555352
 21
-1631.285871
 31
0.0
  0
LINE
  5
7AE5
  8
1
  6
CONTINUOUS
 10
-378.78275564555349
 20
-1281.285871
 30
0.0
 11
-481.9827556455536
 21
-1281.285871
 31
0.0
  0
LINE
  5
7AE6
  8
1
  6
CONTINUOUS
 10
-295.38275564555352
 20
-1631.285871
 30
0.0
 11
-295.38275564555352
 21
-1352.585871
 31
0.0
  0
LINE
  5
7AE7
  8
1
  6
CONTINUOUS
 10
-900.38275564555352
 20
-1681.285871
 30
0.0
 11
-270.38275564555352
 21
-1681.285871
 31
0.0
  0
CIRCLE
  5
7AE8
  8
1
  6
CONTINUOUS
 10
-430.38275564555352
 20
-1406.285871
 30
0.0
 40
50.0
  0
LINE
  5
7AE9
  8
1
  6
CONTINUOUS
 10
-310.38275564555352
 20
-500.22635765457972
 30
0.0
 11
-310.38275564555352
 21
-508.22635765457972
 31
0.0
  0
LINE
  5
7AEA
  8
1
  6
CONTINUOUS
 10
-310.38275564555352
 20
-508.22635765457972
 30
0.0
 11
-550.38275564555352
 21
-508.22635765457972
 31
0.0
  0
LINE
  5
7AEB
  8
1
  6
CONTINUOUS
 10
-550.38275564555352
 20
-500.22635765457972
 30
0.0
 11
-550.38275564555352
 21
-508.22635765457972
 31
0.0
  0
LINE
  5
7AEC
  8
1
  6
CONTINUOUS
 10
-270.38275564555352
 20
-1206.285871
 30
0.0
 11
-285.38275564555352
 21
-1206.285871
 31
0.0
  0
LINE
  5
7AED
  8
1
  6
CONTINUOUS
 10
-285.38275564555352
 20
-1195.285871
 30
0.0
 11
-285.38275564555352
 21
-1206.285871
 31
0.0
  0
LINE
  5
7AEE
  8
1
  6
CONTINUOUS
 10
-285.38275564555352
 20
-1406.285871
 30
0.0
 11
-285.38275564555352
 21
-1416.285871
 31
0.0
  0
LINE
  5
7AEF
  8
2
  6
CENTER
 10
-430.38275564555352
 20
-1706.285871
 30
0.0
 11
-430.38275564555352
 21
-1160.246277
 31
0.0
  0
LINE
  5
7AF0
  8
2
  6
CENTER
 10
-890.38275564555352
 20
-1406.285871
 30
0.0
 11
-236.21871964555359
 21
-1406.285871
 31
0.0
  0
LINE
  5
7AF1
  8
1
  6
CONTINUOUS
 10
-900.38275564555352
 20
-1631.285871
 30
0.0
 11
-270.38275564555352
 21
-1631.285871
 31
0.0
  0
LINE
  5
7AF2
  8
1
  6
CONTINUOUS
 10
-745.38275564555352
 20
-1498.4858710000001
 30
0.0
 11
-451.58275564555379
 21
-1360.9858710000001
 31
0.0
  0
LINE
  5
7AF3
  8
1
  6
CONTINUOUS
 10
-718.68275564555358
 20
-1563.085871
 30
0.0
 11
-413.4827556455536
 21
-1453.285871
 31
0.0
  0
LINE
  5
7AF4
  8
4
  6
CONTINUOUS
 10
611.80164599999989
 20
-1993.5590890000001
 30
0.0
 11
611.80164599999989
 21
-2193.5590889999999
 31
0.0
  0
LINE
  5
7AF5
  8
4
  6
CONTINUOUS
 10
-88.198353999999995
 20
-1993.5590890000001
 30
0.0
 11
-88.198353999999995
 21
-2193.5590889999999
 31
0.0
  0
LINE
  5
7AF6
  8
4
  6
CONTINUOUS
 10
-588.19835399999999
 20
-1993.5590890000001
 30
0.0
 11
-588.19835399999999
 21
-2193.5590889999999
 31
0.0
  0
LINE
  5
7AF9
  8
4
  6
CONTINUOUS
 10
-588.19835399999999
 20
-2193.5590889999999
 30
0.0
 11
611.80164599999989
 21
-2193.5590889999999
 31
0.0
  0
LINE
  5
7AFA
  8
4
  6
CONTINUOUS
 10
-588.19835399999999
 20
-2093.5590889999999
 30
0.0
 11
611.80164599999989
 21
-2093.5590889999999
 31
0.0
  0
TEXT
  5
7AFB
  8
4
  6
CONTINUOUS
 10
-549.69627299999991
 20
-2062.016063
 30
0.0
 40
50.0
  1
機器名称
  0
TEXT
  5
7AFC
  8
4
  6
CONTINUOUS
 10
-551.940248
 20
-2171.9139319999999
 30
0.0
 40
50.0
  1
機器型番
  0
TEXT
  5
7AFD
  8
4
  6
CONTINUOUS
 10
-60.519607999999991
 20
-2070.9873199999988
 30
0.0
 40
45.0
  1
ミツヤニューマルチファン
  0
TEXT
  5
7AFE
  8
4
  6
CONTINUOUS
 10
-51.543858
 20
-2176.399504
 30
0.0
 40
50.0
  1
NM#1 1/4-1
  0
TEXT
  5
7B00
  8
4
  6
CONTINUOUS
 10
-333.41258799999991
 20
-110.130247
 30
0.0
 40
54.0
  1
床置ベット
  0
TEXT
  5
7B01
  8
4
  6
CONTINUOUS
 10
-922.03075999999987
 20
40.32188699999999
 30
0.0
 40
72.0
  1
ベルト駆動式片吸込片持多翼ファン
  0
LINE
  5
7B02
  8
4
  6
CONTINUOUS
 10
-988.19835399999977
 20
-24.150334999999998
 30
0.0
 11
611.80164599999989
 21
-24.150334999999998
 31
0.0
  0
LINE
  5
7B03
  8
4
  6
CONTINUOUS
 10
-988.19835399999977
 20
175.8496649999999
 30
0.0
 11
611.80164599999989
 21
175.8496649999999
 31
0.0
  0
LINE
  5
7B04
  8
4
  6
CONTINUOUS
 10
-588.19835399999999
 20
-1993.5590890000001
 30
0.0
 11
611.80164599999989
 21
-1993.5590890000001
 31
0.0
  0
LINE
  5
7B05
  8
4
  6
CONTINUOUS
 10
-988.19835399999977
 20
175.8496649999999
 30
0.0
 11
-988.19835399999977
 21
-24.150334999999998
 31
0.0
  0
TEXT
  5
7B06
  8
4
  6
CONTINUOUS
 10
-769.27142000000003
 20
-111.239611
 30
0.0
 40
54.0
  1
右回転右横向
  0
TEXT
  5
7B07
  8
4
  6
CONTINUOUS
 10
230.77120600000001
 20
212.501993
 30
0.0
 40
56.0
  1
No.
  0
TEXT
  5
7B08
  8
4
  6
CONTINUOUS
 10
73.097708999999995
 20
-110.130247
 30
0.0
 40
54.0
  1
縮尺：1/10
  0
LINE
  5
7B09
  8
4
  6
CONTINUOUS
 10
611.80164599999989
 20
175.8496649999999
 30
0.0
 11
611.80164599999989
 21
-24.150334999999998
 31
0.0
  0
LINE
  5
7B0B
  8
4
  6
CONTINUOUS
 10
202.41906900000001
 20
187.7044939999999
 30
0.0
 11
202.41906900000001
 21
293.09317299999992
 31
0.0
  0
LINE
  5
7B0C
  8
4
  6
CONTINUOUS
 10
202.41906900000001
 20
293.09317299999992
 30
0.0
 11
611.80164599999989
 21
293.09317299999992
 31
0.0
  0
LINE
  5
7B0D
  8
4
  6
CONTINUOUS
 10
611.80164599999989
 20
293.09317299999992
 30
0.0
 11
611.80164599999989
 21
187.7044939999999
 31
0.0
  0
LINE
  5
7B0E
  8
4
  6
CONTINUOUS
 10
611.80164599999989
 20
187.7044939999999
 30
0.0
 11
202.41906900000001
 21
187.7044939999999
 31
0.0
  0
LINE
  5
7B13
  8
2
  6
CENTER
 10
-249.3122686455535
 20
-430.2263576545796
 30
0.0
 11
-641.5813936455537
 21
-430.2263576545796
 31
0.0
  0
DIMENSION
  5
7B27
  8
3
  6
CONTINUOUS
  2
*D1
 10
-430.38275564555352
 20
-1759.2014809999989
 30
0.0
 11
-652.97208564555365
 21
-1759.2014809999989
 31
0.0
 70
   128
 13
-900.38275564555352
 23
-1681.285871
 33
0.0
 14
-430.38275564555352
 24
-1681.285871
 34
0.0
1001
ACAD
1000
DSTYLE
1002
{
1070
   287
1070
     3
1070
   287
1070
     3
1070
    40
1040
10.0
1070
   143
1040
0.039
1070
   172
1070
     1
1070
   271
1070
     0
1070
   279
1070
     0
1070
   288
1070
     1
1002
}
  0
DIMENSION
  5
7B33
  8
3
  6
CONTINUOUS
  2
*D2
 10
-270.38275564555352
 20
-1759.2014809999989
 30
0.0
 11
-350.38275564555352
 21
-1734.2014809999989
 31
0.0
 70
     0
 13
-430.38275564555352
 23
-1681.285871
 33
0.0
 14
-270.38275564555352
 24
-1681.285871
 34
0.0
1001
ACAD
1000
DSTYLE
1002
{
1070
   287
1070
     4
1070
   287
1070
     4
1070
    40
1040
10.0
1070
    75
1070
     1
1070
   143
1040
0.039
1070
   172
1070
     1
1070
   271
1070
     0
1070
   279
1070
     1
1070
   288
1070
     1
1002
}
  0
DIMENSION
  5
7B40
  8
3
  6
CONTINUOUS
  2
*D3
 10
-430.38275564555352
 20
-1144.718707
 30
0.0
 11
-523.87769764555378
 21
-1144.718707
 31
0.0
 70
   128
 13
-609.38275564555352
 23
-1406.285871
 33
0.0
 14
-430.38275564555352
 24
-1195.9433889999989
 34
0.0
1001
ACAD
1000
DSTYLE
1002
{
1070
   287
1070
     3
1070
   287
1070
     3
1070
    40
1040
10.0
1070
   143
1040
0.039
1070
   172
1070
     1
1070
   271
1070
     0
1070
   279
1070
     0
1070
   288
1070
     1
1002
}
  0
DIMENSION
  5
7B4C
  8
3
  6
CONTINUOUS
  2
*D4
 10
-270.38275564555352
 20
-1144.718707
 30
0.0
 11
-350.38275564555352
 21
-1119.718707
 31
0.0
 70
     0
 13
-430.38275564555352
 23
-1195.9433889999989
 33
0.0
 14
-270.38275564555352
 24
-1185.285871
 34
0.0
1001
ACAD
1000
DSTYLE
1002
{
1070
   287
1070
     4
1070
   287
1070
     4
1070
    40
1040
10.0
1070
    75
1070
     1
1070
   143
1040
0.039
1070
   172
1070
     1
1070
   271
1070
     0
1070
   279
1070
     1
1070
   288
1070
     1
1002
}
  0
DIMENSION
  5
7B59
  8
3
  6
CONTINUOUS
  2
*D5
 10
-198.9089576455537
 20
-1206.285871
 30
0.0
 11
-198.9089576455535
 21
-1302.9943659999999
 31
0.0
 70
   128
 13
-270.38275564555352
 23
-1406.285871
 33
0.0
 14
-270.38275564555352
 24
-1206.285871
 34
0.0
 50
90.0
1001
ACAD
1000
DSTYLE
1002
{
1070
   287
1070
     3
1070
   287
1070
     3
1070
    40
1040
10.0
1070
   143
1040
0.039
1070
   172
1070
     1
1070
   271
1070
     0
1070
   279
1070
     0
1070
   288
1070
     1
1002
}
  0
DIMENSION
  5
7B80
  8
3
  6
CONTINUOUS
  2
*D6
 10
-138.30604664555381
 20
-1406.285871
 30
0.0
 11
-138.30604664555349
 21
-1294.6915320000001
 31
0.0
 70
   128
 13
-285.38275564555352
 23
-1195.285871
 33
0.0
 14
-270.38275564555352
 24
-1406.285871
 34
0.0
 50
90.0
1001
ACAD
1000
DSTYLE
1002
{
1070
   287
1070
     3
1070
   287
1070
     3
1070
    40
1040
10.0
1070
   143
1040
0.039
1070
   172
1070
     1
1070
   271
1070
     0
1070
   279
1070
     0
1070
   288
1070
     1
1002
}
  0
DIMENSION
  5
7B8C
  8
3
  6
CONTINUOUS
  2
*D7
 10
-138.30604664555349
 20
-1681.285871
 30
0.0
 11
-163.30604664555329
 21
-1543.785871
 31
0.0
 70
     0
 13
-270.38275564555352
 23
-1406.285871
 33
0.0
 14
-270.38275564555352
 24
-1681.285871
 34
0.0
 50
90.0
1001
ACAD
1000
DSTYLE
1002
{
1070
   287
1070
     4
1070
   287
1070
     4
1070
    40
1040
10.0
1070
    75
1070
     1
1070
   143
1040
0.039
1070
   172
1070
     1
1070
   271
1070
     0
1070
   279
1070
     1
1070
   288
1070
     1
1002
}
  0
LINE
  5
7B9A
  8
2
  6
CENTER
 10
392.89603997978139
 20
-1164.4584219999999
 30
0.0
 11
392.89603997978139
 21
-1744.3585230000001
 31
0.0
  0
DIMENSION
  5
7BA7
  8
3
  6
CONTINUOUS
  2
*D8
 10
392.89603997978139
 20
-1740.4483859999989
 30
0.0
 11
296.95639197978142
 21
-1740.4483859999989
 31
0.0
 70
   128
 13
178.89603997978139
 23
-1681.285871
 33
0.0
 14
392.89603997978139
 24
-1681.285871
 34
0.0
1001
ACAD
1000
DSTYLE
1002
{
1070
   287
1070
     3
1070
   287
1070
     3
1070
    40
1040
10.0
1070
   143
1040
0.039
1070
   172
1070
     1
1070
   271
1070
     0
1070
   279
1070
     0
1070
   288
1070
     1
1002
}
  0
DIMENSION
  5
7BB7
  8
3
  6
CONTINUOUS
  2
*D9
 10
402.89603997978139
 20
-1740.4483859999989
 30
0.0
 11
431.9912959797814
 21
-1740.4483859999989
 31
0.0
 70
   128
 13
392.89603997978139
 23
-1681.285871
 33
0.0
 14
402.89603997978139
 24
-1681.285871
 34
0.0
1001
ACAD
1000
DSTYLE
1002
{
1070
   287
1070
     4
1070
   287
1070
     4
1070
    40
1040
10.0
1070
    75
1070
     1
1070
   143
1040
0.039
1070
   172
1070
     1
1070
   271
1070
     0
1070
   279
1070
     1
1070
   288
1070
     1
1002
}
  0
DIMENSION
  5
7BDE
  8
3
  6
CONTINUOUS
  2
*D10
 10
462.89603997978139
 20
-1169.5668129999999
 30
0.0
 11
388.61032497978141
 21
-1169.5668129999999
 31
0.0
 70
   128
 13
322.89603997978139
 23
-1206.285871
 33
0.0
 14
462.89603997978139
 24
-1206.285871
 34
0.0
1001
ACAD
1000
DSTYLE
1002
{
1070
   287
1070
     3
1070
   287
1070
     3
1070
    40
1040
10.0
1070
   143
1040
0.039
1070
   172
1070
     1
1070
   271
1070
     0
1070
   279
1070
     0
1070
   288
1070
     1
1002
}
  0
DIMENSION
  5
7BEB
  8
3
  6
CONTINUOUS
  2
*D11
 10
392.89603997978139
 20
-1108.9595159999999
 30
0.0
 11
240.20259797978139
 21
-1108.9595159999999
 31
0.0
 70
   128
  1
MAX\P300
 13
92.896039979781449
 23
-1296.285871
 33
0.0
 14
392.89603997978139
 24
-1124.796603
 34
0.0
1001
ACAD
1000
DSTYLE
1002
{
1070
   287
1070
     3
1070
   287
1070
     3
1070
    40
1040
10.0
1070
   143
1040
0.039
1070
   172
1070
     1
1070
   271
1070
     0
1070
   279
1070
     0
1070
   288
1070
     1
1002
}
  0
DIMENSION
  5
7BF9
  8
3
  6
CONTINUOUS
  2
*D12
 10
470.89603997978139
 20
-1108.9595159999999
 30
0.0
 11
428.07725997978127
 21
-1110.721511
 31
0.0
 70
   128
 13
392.89603997978139
 23
-1124.796603
 33
0.0
 14
470.89603997978139
 24
-1286.285871
 34
0.0
1001
ACAD
1000
DSTYLE
1002
{
1070
   287
1070
     4
1070
   287
1070
     4
1070
    40
1040
10.0
1070
    75
1070
     1
1070
   143
1040
0.039
1070
   172
1070
     1
1070
   271
1070
     0
1070
   279
1070
     1
1070
   288
1070
     1
1002
}
  0
DIMENSION
  5
7C1C
  8
3
  6
CONTINUOUS
  2
*D13
 10
-270.38275564555352
 20
-812.25759765457985
 30
0.0
 11
-600.35994964555346
 21
-812.25759765457985
 31
0.0
 70
   128
 13
-900.38275564555352
 23
-644.22635765457972
 33
0.0
 14
-270.38275564555352
 24
-644.22635765457972
 34
0.0
1001
ACAD
1000
DSTYLE
1002
{
1070
   287
1070
     3
1070
   287
1070
     3
1070
    40
1040
10.0
1070
   143
1040
0.039
1070
   172
1070
     1
1070
   271
1070
     0
1070
   279
1070
     0
1070
   288
1070
     1
1002
}
  0
LINE
  5
7C2B
  8
3
  6
CONTINUOUS
 10
470.89603997978139
 20
-1306.285871
 30
0.0
 11
478.31163397978128
 21
-1306.285871
 31
0.0
  0
LINE
  5
7C2D
  8
3
  6
CONTINUOUS
 10
470.89603997978139
 20
-1506.285871
 30
0.0
 11
479.00094197978137
 21
-1506.285871
 31
0.0
  0
DIMENSION
  5
7C3A
  8
3
  6
CONTINUOUS
  2
*D14
 10
534.14477597978123
 20
-1506.285871
 30
0.0
 11
534.14477597978134
 21
-1392.857299571428
 31
0.0
 70
   128
 13
470.89603997978139
 23
-1306.285871
 33
0.0
 14
470.89603997978139
 24
-1506.285871
 34
0.0
 50
90.0
1001
ACAD
1000
DSTYLE
1002
{
1070
   287
1070
     3
1070
   287
1070
     3
1070
     3
1000
φ<>
1070
    40
1040
10.0
1070
   143
1040
0.039
1070
   172
1070
     1
1070
   271
1070
     0
1070
   279
1070
     0
1070
   288
1070
     1
1002
}
  0
LINE
  5
7C3B
  8
2
  6
CENTER
 10
-430.38275564555352
 20
-783.90203765457966
 30
0.0
 11
-430.38275564555352
 21
-307.62635765457981
 31
0.0
  0
LINE
  5
7C3C
  8
2
  6
CENTER
 10
48.270132979781472
 20
-1406.285871
 30
0.0
 11
495.89603997978139
 21
-1406.285871
 31
0.0
  0
DIMENSION
  5
7C53
  8
3
  6
CONTINUOUS
  2
*D15
 10
-60.660597645553999
 20
-1681.285871
 30
0.0
 11
-60.660597645553707
 21
-1447.604650999999
 31
0.0
 70
   128
 13
-270.38275564555352
 23
-1185.285871
 33
0.0
 14
-270.38275564555352
 24
-1681.285871
 34
0.0
 50
90.0
1001
ACAD
1000
DSTYLE
1002
{
1070
   287
1070
     3
1070
   287
1070
     3
1070
    40
1040
10.0
1070
   143
1040
0.039
1070
   172
1070
     1
1070
   271
1070
     0
1070
   279
1070
     0
1070
   288
1070
     1
1002
}
  0
DIMENSION
  5
7C84
  8
3
  2
*D16
 10
-945.30718013067985
 20
-644.22635765457972
 30
0.0
 11
-945.30718013067963
 21
-535.96203931846685
 31
0.0
 70
   128
 13
-900.38275564555352
 23
-420.22635765457972
 33
0.0
 14
-900.38275564555352
 24
-644.22635765457972
 34
0.0
 50
90.0
1001
ACAD
1000
DSTYLE
1002
{
1070
   287
1070
     3
1070
   287
1070
     3
1070
    40
1040
10.0
1070
   143
1040
0.039
1070
   172
1070
     1
1070
   271
1070
     0
1070
   279
1070
     0
1070
   288
1070
     1
1002
}
  0
DIMENSION
  5
7C91
  8
3
  2
*D17
 10
-900.38275564555352
 20
-1079.5586076868631
 30
0.0
 11
-580.87119483532115
 21
-1079.5586076868631
 31
0.0
 70
   128
 13
-270.38275564555352
 23
-1185.285871
 33
0.0
 14
-900.38275564555352
 24
-1631.285871
 34
0.0
1001
ACAD
1000
DSTYLE
1002
{
1070
   287
1070
     3
1070
   287
1070
     3
1070
    40
1040
10.0
1070
   143
1040
0.039
1070
   172
1070
     1
1070
   271
1070
     0
1070
   279
1070
     0
1070
   288
1070
     1
1002
}
  0
LINE
  5
7CAD
  8
2
  6
CENTER
 10
-609.38275564555352
 20
-1706.285871
 30
0.0
 11
-609.38275564555352
 21
-1160.246277
 31
0.0
  0
ENDSEC
  0
EOF
