  0
SECTION
  2
HEADER
  9
$ACADVER
  1
AC1009
  9
$INSBASE
 10
0.0
 20
0.0
 30
0.0
  9
$EXTMIN
 10
226.1733156805239
 20
300.0
 30
0.0
  9
$EXTMAX
 10
1850.0
 20
2786.6522620000001
 30
0.0
  9
$LIMMIN
 10
0.0
 20
0.0
  9
$LIMMAX
 10
297.0
 20
210.0
  9
$ORTHOMODE
 70
     0
  9
$REGENMODE
 70
     1
  9
$FILLMODE
 70
     0
  9
$QTEXTMODE
 70
     0
  9
$MIRRTEXT
 70
     1
  9
$DRAGMODE
 70
     2
  9
$LTSCALE
 40
100.0
  9
$OSMODE
 70
    37
  9
$ATTMODE
 70
     1
  9
$TEXTSIZE
 40
180.0
  9
$TRACEWID
 40
0.05
  9
$TEXTSTYLE
  7
STANDARD
  9
$CLAYER
  8
3
  9
$CELTYPE
  6
BYLAYER
  9
$CECOLOR
 62
   256
  9
$DIMSCALE
 40
10.0
  9
$DIMASZ
 40
2.0
  9
$DIMEXO
 40
0.5
  9
$DIMDLI
 40
10.0
  9
$DIMRND
 40
0.0
  9
$DIMDLE
 40
0.0
  9
$DIMEXE
 40
1.0
  9
$DIMTP
 40
1.0
  9
$DIMTM
 40
1.0
  9
$DIMTXT
 40
3.0
  9
$DIMCEN
 40
0.0
  9
$DIMTSZ
 40
0.0
  9
$DIMTOL
 70
     0
  9
$DIMLIM
 70
     0
  9
$DIMTIH
 70
     0
  9
$DIMTOH
 70
     0
  9
$DIMSE1
 70
     0
  9
$DIMSE2
 70
     0
  9
$DIMTAD
 70
     1
  9
$DIMZIN
 70
     8
  9
$DIMBLK
  1

  9
$DIMASO
 70
     1
  9
$DIMSHO
 70
     1
  9
$DIMPOST
  1

  9
$DIMAPOST
  1

  9
$DIMALT
 70
     0
  9
$DIMALTD
 70
     2
  9
$DIMALTF
 40
0.039
  9
$DIMLFAC
 40
1.0
  9
$DIMTOFL
 70
     1
  9
$DIMTVP
 40
0.0
  9
$DIMTIX
 70
     0
  9
$DIMSOXD
 70
     0
  9
$DIMSAH
 70
     1
  9
$DIMBLK1
  1
OPEN
  9
$DIMBLK2
  1
OPEN
  9
$DIMSTYLE
  2
IGA
  9
$DIMCLRD
 70
     0
  9
$DIMCLRE
 70
     0
  9
$DIMCLRT
 70
     0
  9
$DIMTFAC
 40
10.0
  9
$DIMGAP
 40
1.0
  9
$LUNITS
 70
     2
  9
$LUPREC
 70
     3
  9
$SKETCHINC
 40
0.1
  9
$FILLETRAD
 40
50.0
  9
$AUNITS
 70
     0
  9
$AUPREC
 70
     0
  9
$MENU
  1
acad
  9
$ELEVATION
 40
0.0
  9
$PELEVATION
 40
0.0
  9
$THICKNESS
 40
0.0
  9
$LIMCHECK
 70
     0
  9
$BLIPMODE
 70
     0
  9
$CHAMFERA
 40
0.5
  9
$CHAMFERB
 40
0.5
  9
$SKPOLY
 70
     0
  9
$TDCREATE
 40
2450737.5321104159
  9
$TDUPDATE
 40
2454953.8615777311
  9
$TDINDWG
 40
0.0140323264
  9
$TDUSRTIMER
 40
0.0140323264
  9
$USRTIMER
 70
     1
  9
$ANGBASE
 50
0.0
  9
$ANGDIR
 70
     0
  9
$PDMODE
 70
     0
  9
$PDSIZE
 40
0.0
  9
$PLINEWID
 40
0.0
  9
$COORDS
 70
     1
  9
$SPLFRAME
 70
     0
  9
$SPLINETYPE
 70
     6
  9
$SPLINESEGS
 70
     8
  9
$ATTDIA
 70
     0
  9
$ATTREQ
 70
     1
  9
$HANDLING
 70
 10241
  9
$HANDSEED
  5
7EDD
  9
$SURFTAB1
 70
     6
  9
$SURFTAB2
 70
     6
  9
$SURFTYPE
 70
     6
  9
$SURFU
 70
     6
  9
$SURFV
 70
     6
  9
$UCSNAME
  2

  9
$UCSORG
 10
0.0
 20
0.0
 30
0.0
  9
$UCSXDIR
 10
1.0
 20
0.0
 30
0.0
  9
$UCSYDIR
 10
0.0
 20
1.0
 30
0.0
  9
$PUCSNAME
  2

  9
$PUCSORG
 10
0.0
 20
0.0
 30
0.0
  9
$PUCSXDIR
 10
1.0
 20
0.0
 30
0.0
  9
$PUCSYDIR
 10
0.0
 20
1.0
 30
0.0
  9
$USERI1
 70
     0
  9
$USERI2
 70
     0
  9
$USERI3
 70
     0
  9
$USERI4
 70
     0
  9
$USERI5
 70
     0
  9
$USERR1
 40
0.0
  9
$USERR2
 40
0.0
  9
$USERR3
 40
0.0
  9
$USERR4
 40
0.0
  9
$USERR5
 40
0.0
  9
$WORLDVIEW
 70
     1
  9
$SHADEDGE
 70
     3
  9
$SHADEDIF
 70
    70
  9
$TILEMODE
 70
     1
  9
$MAXACTVP
 70
    16
  9
$PLIMCHECK
 70
     0
  9
$PEXTMIN
 10
1.0000000000000000E+020
 20
1.0000000000000000E+020
 30
1.0000000000000000E+020
  9
$PEXTMAX
 10
-1.0000000000000000E+020
 20
-1.0000000000000000E+020
 30
-1.0000000000000000E+020
  9
$PLIMMIN
 10
0.0
 20
0.0
  9
$PLIMMAX
 10
12.0
 20
9.0
  9
$UNITMODE
 70
     0
  9
$VISRETAIN
 70
     0
  9
$PLINEGEN
 70
     0
  9
$PSLTSCALE
 70
     1
  0
ENDSEC
  0
SECTION
  2
TABLES
  0
TABLE
  2
VPORT
 70
     2
  0
VPORT
  2
*ACTIVE
 70
     0
 10
0.0
 20
0.0
 11
1.0
 21
1.0
 12
2607.4689416619808
 22
1706.6690767873019
 13
0.0
 23
0.0
 14
10.0
 24
10.0
 15
10.0
 25
10.0
 16
0.0
 26
0.0
 36
1.0
 17
0.0
 27
0.0
 37
0.0
 40
3384.7202371128892
 41
1.5051150895140659
 42
50.0
 43
0.0
 44
0.0
 50
0.0
 51
0.0
 71
     0
 72
   100
 73
     1
 74
     0
 75
     0
 76
     0
 77
     0
 78
     0
  0
ENDTAB
  0
TABLE
  2
LTYPE
 70
     2
  0
LTYPE
  2
CONTINUOUS
 70
     0
  3
Solid line
 72
    65
 73
     0
 40
0.0
  0
LTYPE
  2
CENTER
 70
     0
  3
____ _ ____ _ ____ _ ____ _ ____ _ ____ _ ____ 
 72
    65
 73
     4
 40
2.0
 49
1.25
 49
-0.25
 49
0.25
 49
-0.25
  0
ENDTAB
  0
TABLE
  2
LAYER
 70
     6
  0
LAYER
  2
0
 70
     0
 62
     7
  6
CONTINUOUS
  0
LAYER
  2
3
 70
     0
 62
     2
  6
CONTINUOUS
  0
LAYER
  2
2
 70
     0
 62
     3
  6
CENTER
  0
LAYER
  2
1
 70
     0
 62
     4
  6
CONTINUOUS
  0
LAYER
  2
4
 70
     0
 62
     7
  6
CONTINUOUS
  0
LAYER
  2
DEFPOINTS
 70
     0
 62
     7
  6
CONTINUOUS
  0
ENDTAB
  0
TABLE
  2
STYLE
 70
     1
  0
STYLE
  2
STANDARD
 70
     0
 40
0.0
 41
1.0
 50
0.0
 71
     0
 42
180.0
  3
simplex.shx
  4
extfont.shx
  0
ENDTAB
  0
TABLE
  2
VIEW
 70
     0
  0
ENDTAB
  0
TABLE
  2
UCS
 70
     0
  0
ENDTAB
  0
TABLE
  2
APPID
 70
     1
  0
APPID
  2
ACAD
 70
     0
  0
ENDTAB
  0
TABLE
  2
DIMSTYLE
 70
     1
  0
DIMSTYLE
  2
IGA
 70
     0
  3

  4

  5

  6
OPEN
  7
OPEN
 40
2.0
 41
2.0
 42
0.5
 43
10.0
 44
1.0
 45
0.0
 46
0.0
 47
1.0
 48
1.0
140
3.0
141
0.0
142
0.0
143
0.03937
144
1.0
145
0.0
146
10.0
147
1.0
 71
     0
 72
     0
 73
     0
 74
     0
 75
     0
 76
     0
 77
     1
 78
     8
170
     0
171
     2
172
     0
173
     1
174
     0
175
     0
176
     0
177
     0
178
     0
  0
ENDTAB
  0
ENDSEC
  0
SECTION
  2
BLOCKS
  0
BLOCK
  8
0
  2
$MODEL_SPACE
 70
     0
 10
0.0
 20
0.0
 30
0.0
  3
$MODEL_SPACE
  1

  0
ENDBLK
  5
1B
  8
0
  0
BLOCK
 67
     1
  8
0
  2
$PAPER_SPACE
 70
     0
 10
0.0
 20
0.0
 30
0.0
  3
$PAPER_SPACE
  1

  0
ENDBLK
  5
18
 67
     1
  8
0
  0
BLOCK
  8
0
  2
_OPEN
 70
     0
 10
0.0
 20
0.0
 30
0.0
  3
_OPEN
  1

  0
LINE
  5
7B13
  8
0
  6
BYBLOCK
 62
     0
 10
-1.0
 20
0.166667
 30
0.0
 11
0.0
 21
0.0
 31
0.0
  0
LINE
  5
7B14
  8
0
  6
BYBLOCK
 62
     0
 10
0.0
 20
0.0
 30
0.0
 11
-1.0
 21
-0.166667
 31
0.0
  0
LINE
  5
7B15
  8
0
  6
BYBLOCK
 62
     0
 10
0.0
 20
0.0
 30
0.0
 11
-1.0
 21
0.0
 31
0.0
  0
ENDBLK
  5
7B16
  8
0
  0
BLOCK
  8
0
  2
*D1
 70
     1
 10
0.0
 20
0.0
 30
0.0
  3
*D1
  1

  0
LINE
  5
7E29
  8
3
  6
CONTINUOUS
 62
     0
 10
609.05262865996065
 20
1272.074955871509
 30
0.0
 11
609.05262865996065
 21
1461.466637871509
 31
0.0
  0
LINE
  5
7E2A
  8
3
  6
CONTINUOUS
 62
     0
 10
788.05262865996065
 20
1422.64214487151
 30
0.0
 11
788.05262865996065
 21
1461.466637871509
 31
0.0
  0
LINE
  5
7E2B
  8
3
  6
CONTINUOUS
 62
     0
 10
629.05262865996065
 20
1451.4666378715101
 30
0.0
 11
768.05262865996065
 21
1451.4666378715101
 31
0.0
  0
INSERT
  5
7E2C
  8
3
  6
CONTINUOUS
 62
     0
  2
_OPEN
 10
609.05262865996065
 20
1451.4666378715101
 30
0.0
 41
20.0
 42
20.0
 43
20.0
 50
180.0
  0
INSERT
  5
7E2D
  8
3
  6
CONTINUOUS
 62
     0
  2
_OPEN
 10
788.05262865996065
 20
1451.4666378715101
 30
0.0
 41
20.0
 42
20.0
 43
20.0
  0
TEXT
  8
3
  40
30
  5
7ECA
  62
0
  72
0
  71
0
 10
644.608
 20
1423.37
 30
0.000000
  1
179
  0
POINT
  5
7E2F
  8
DEFPOINTS
  6
CONTINUOUS
 62
     0
 10
609.05262865996065
 20
1267.074955871509
 30
0.0
  0
POINT
  5
7E30
  8
DEFPOINTS
  6
CONTINUOUS
 62
     0
 10
788.05262865996065
 20
1417.64214487151
 30
0.0
  0
POINT
  5
7E31
  8
DEFPOINTS
  6
CONTINUOUS
 62
     0
 10
788.05262865996065
 20
1451.4666378715101
 30
0.0
  0
ENDBLK
  5
7D3A
  8
0
  0
BLOCK
  8
0
  2
*D2
 70
     1
 10
0.0
 20
0.0
 30
0.0
  3
*D2
  1

  0
LINE
  5
7E32
  8
3
  6
CONTINUOUS
 62
     0
 10
948.05262865996065
 20
1293.074955871509
 30
0.0
 11
948.05262865996065
 21
1461.466637871509
 31
0.0
  0
LINE
  5
7E33
  8
3
  6
CONTINUOUS
 62
     0
 10
808.05262865996065
 20
1451.4666378715101
 30
0.0
 11
928.05262865996065
 21
1451.4666378715101
 31
0.0
  0
INSERT
  5
7E34
  8
3
  6
CONTINUOUS
 62
     0
  2
_OPEN
 10
788.05262865996065
 20
1451.4666378715101
 30
0.0
 41
20.0
 42
20.0
 43
20.0
 50
180.0
  0
INSERT
  5
7E35
  8
3
  6
CONTINUOUS
 62
     0
  2
_OPEN
 10
948.05262865996065
 20
1451.4666378715101
 30
0.0
 41
20.0
 42
20.0
 43
20.0
  0
TEXT
  8
3
  40
30
  5
7ECB
  62
0
  72
0
  71
0
 10
808.053
 20
1423.37
 30
0.000000
  1
160
  0
POINT
  5
7E37
  8
DEFPOINTS
  6
CONTINUOUS
 62
     0
 10
788.05262865996065
 20
1417.64214487151
 30
0.0
  0
POINT
  5
7E38
  8
DEFPOINTS
  6
CONTINUOUS
 62
     0
 10
948.05262865996065
 20
1288.074955871509
 30
0.0
  0
POINT
  5
7E39
  8
DEFPOINTS
  6
CONTINUOUS
 62
     0
 10
948.05262865996065
 20
1451.4666378715101
 30
0.0
  0
ENDBLK
  5
7B2F
  8
0
  0
BLOCK
  8
0
  2
*D3
 70
     1
 10
0.0
 20
0.0
 30
0.0
  3
*D3
  1

  0
LINE
  5
7E3A
  8
3
  6
CONTINUOUS
 62
     0
 10
318.05262865996042
 20
987.07495587150993
 30
0.0
 11
318.05262865996042
 21
903.1323338715099
 31
0.0
  0
LINE
  5
7E3B
  8
3
  6
CONTINUOUS
 62
     0
 10
788.05262865996065
 20
987.07495587150993
 30
0.0
 11
788.05262865996065
 21
903.1323338715099
 31
0.0
  0
LINE
  5
7E3C
  8
3
  6
CONTINUOUS
 62
     0
 10
338.05262865996042
 20
913.13233387150979
 30
0.0
 11
768.05262865996065
 21
913.13233387150979
 31
0.0
  0
INSERT
  5
7E3D
  8
3
  6
CONTINUOUS
 62
     0
  2
_OPEN
 10
318.05262865996042
 20
913.13233387150979
 30
0.0
 41
20.0
 42
20.0
 43
20.0
 50
180.0
  0
INSERT
  5
7E3E
  8
3
  6
CONTINUOUS
 62
     0
  2
_OPEN
 10
788.05262865996065
 20
913.13233387150979
 30
0.0
 41
20.0
 42
20.0
 43
20.0
  0
TEXT
  8
3
  40
30
  5
7ECC
  62
0
  72
0
  71
0
 10
501.650
 20
885.032
 30
0.000000
  1
470
  0
POINT
  5
7E40
  8
DEFPOINTS
  6
CONTINUOUS
 62
     0
 10
318.05262865996042
 20
992.07495587150993
 30
0.0
  0
POINT
  5
7E41
  8
DEFPOINTS
  6
CONTINUOUS
 62
     0
 10
788.05262865996065
 20
992.07495587150993
 30
0.0
  0
POINT
  5
7E42
  8
DEFPOINTS
  6
CONTINUOUS
 62
     0
 10
788.05262865996065
 20
913.13233387150979
 30
0.0
  0
ENDBLK
  5
7B3C
  8
0
  0
BLOCK
  8
0
  2
*D4
 70
     1
 10
0.0
 20
0.0
 30
0.0
  3
*D4
  1

  0
LINE
  5
7E43
  8
3
  6
CONTINUOUS
 62
     0
 10
948.05262865996065
 20
987.07495587150993
 30
0.0
 11
948.05262865996065
 21
903.1323338715099
 31
0.0
  0
LINE
  5
7E44
  8
3
  6
CONTINUOUS
 62
     0
 10
808.05262865996065
 20
913.13233387150979
 30
0.0
 11
928.05262865996065
 21
913.13233387150979
 31
0.0
  0
INSERT
  5
7E45
  8
3
  6
CONTINUOUS
 62
     0
  2
_OPEN
 10
788.05262865996065
 20
913.13233387150979
 30
0.0
 41
20.0
 42
20.0
 43
20.0
 50
180.0
  0
INSERT
  5
7E46
  8
3
  6
CONTINUOUS
 62
     0
  2
_OPEN
 10
948.05262865996065
 20
913.13233387150979
 30
0.0
 41
20.0
 42
20.0
 43
20.0
  0
TEXT
  8
3
  40
30
  5
7ECD
  62
0
  72
0
  71
0
 10
808.053
 20
885.032
 30
0.000000
  1
160
  0
POINT
  5
7E48
  8
DEFPOINTS
  6
CONTINUOUS
 62
     0
 10
788.05262865996065
 20
992.07495587150993
 30
0.0
  0
POINT
  5
7E49
  8
DEFPOINTS
  6
CONTINUOUS
 62
     0
 10
948.05262865996065
 20
992.07495587150993
 30
0.0
  0
POINT
  5
7E4A
  8
DEFPOINTS
  6
CONTINUOUS
 62
     0
 10
948.05262865996065
 20
913.13233387150979
 30
0.0
  0
ENDBLK
  5
7B48
  8
0
  0
BLOCK
  8
0
  2
*D5
 70
     1
 10
0.0
 20
0.0
 30
0.0
  3
*D5
  1

  0
LINE
  5
7E4B
  8
3
  6
CONTINUOUS
 62
     0
 10
953.05262865996065
 20
1267.074955871509
 30
0.0
 11
1017.05573465996
 21
1267.074955871509
 31
0.0
  0
LINE
  5
7E4C
  8
3
  6
CONTINUOUS
 62
     0
 10
953.05262865996065
 20
1067.0749558715099
 30
0.0
 11
1017.05573465996
 21
1067.0749558715099
 31
0.0
  0
LINE
  5
7E4D
  8
3
  6
CONTINUOUS
 62
     0
 10
1007.05573465996
 20
1247.074955871509
 30
0.0
 11
1007.05573465996
 21
1087.0749558715099
 31
0.0
  0
INSERT
  5
7E4E
  8
3
  6
CONTINUOUS
 62
     0
  2
_OPEN
 10
1007.05573465996
 20
1267.074955871509
 30
0.0
 41
20.0
 42
20.0
 43
20.0
 50
90.0
  0
INSERT
  5
7E4F
  8
3
  6
CONTINUOUS
 62
     0
  2
_OPEN
 10
1007.05573465996
 20
1067.0749558715099
 30
0.0
 41
20.0
 42
20.0
 43
20.0
 50
270.0
  0
TEXT
  8
3
  40
30
  5
7ECE
  62
0
  72
0
  71
0
 10
922.056
 20
1113.36
 30
0.000000
  1
200
  0
POINT
  5
7E51
  8
DEFPOINTS
  6
CONTINUOUS
 62
     0
 10
948.05262865996065
 20
1267.074955871509
 30
0.0
  0
POINT
  5
7E52
  8
DEFPOINTS
  6
CONTINUOUS
 62
     0
 10
948.05262865996065
 20
1067.0749558715099
 30
0.0
  0
POINT
  5
7E53
  8
DEFPOINTS
  6
CONTINUOUS
 62
     0
 10
1007.05573465996
 20
1067.0749558715099
 30
0.0
  0
ENDBLK
  5
7B9E
  8
0
  0
BLOCK
  8
0
  2
*D6
 70
     1
 10
0.0
 20
0.0
 30
0.0
  3
*D6
  1

  0
LINE
  5
7E54
  8
3
  6
CONTINUOUS
 62
     0
 10
793.05262865996065
 20
1417.64214487151
 30
0.0
 11
1158.99452465996
 21
1417.64214487151
 31
0.0
  0
LINE
  5
7E55
  8
3
  6
CONTINUOUS
 62
     0
 10
953.05262865996065
 20
1267.074955871509
 30
0.0
 11
1158.99452465996
 21
1267.074955871509
 31
0.0
  0
LINE
  5
7E56
  8
3
  6
CONTINUOUS
 62
     0
 10
1148.99452465996
 20
1397.6421448715089
 30
0.0
 11
1148.99452465996
 21
1287.074955871509
 31
0.0
  0
INSERT
  5
7E57
  8
3
  6
CONTINUOUS
 62
     0
  2
_OPEN
 10
1148.99452465996
 20
1417.64214487151
 30
0.0
 41
20.0
 42
20.0
 43
20.0
 50
90.0
  0
INSERT
  5
7E58
  8
3
  6
CONTINUOUS
 62
     0
  2
_OPEN
 10
1148.99452465996
 20
1267.074955871509
 30
0.0
 41
20.0
 42
20.0
 43
20.0
 50
270.0
  0
TEXT
  8
3
  40
30
  5
7ECF
  62
0
  72
0
  71
0
 10
1063.99
 20
1292.81
 30
0.000000
  1
151
  0
POINT
  5
7E5A
  8
DEFPOINTS
  6
CONTINUOUS
 62
     0
 10
788.05262865996065
 20
1417.64214487151
 30
0.0
  0
POINT
  5
7E5B
  8
DEFPOINTS
  6
CONTINUOUS
 62
     0
 10
948.05262865996065
 20
1267.074955871509
 30
0.0
  0
POINT
  5
7E5C
  8
DEFPOINTS
  6
CONTINUOUS
 62
     0
 10
1148.99452465996
 20
1267.074955871509
 30
0.0
  0
ENDBLK
  5
7CA9
  8
0
  0
BLOCK
  8
0
  2
*D7
 70
     1
 10
0.0
 20
0.0
 30
0.0
  3
*D7
  1

  0
LINE
  5
7E5D
  8
3
  6
CONTINUOUS
 62
     0
 10
953.05262865996065
 20
992.07495587150993
 30
0.0
 11
1158.99452465996
 21
992.07495587150993
 31
0.0
  0
LINE
  5
7E5E
  8
3
  6
CONTINUOUS
 62
     0
 10
1148.99452465996
 20
1247.074955871509
 30
0.0
 11
1148.99452465996
 21
1012.074955871509
 31
0.0
  0
INSERT
  5
7E5F
  8
3
  6
CONTINUOUS
 62
     0
  2
_OPEN
 10
1148.99452465996
 20
1267.074955871509
 30
0.0
 41
20.0
 42
20.0
 43
20.0
 50
90.0
  0
INSERT
  5
7E60
  8
3
  6
CONTINUOUS
 62
     0
  2
_OPEN
 10
1148.99452465996
 20
992.07495587150993
 30
0.0
 41
20.0
 42
20.0
 43
20.0
 50
270.0
  0
TEXT
  8
3
  40
30
  5
7ED0
  62
0
  72
0
  71
0
 10
1063.99
 20
1076.47
 30
0.000000
  1
275
  0
POINT
  5
7E62
  8
DEFPOINTS
  6
CONTINUOUS
 62
     0
 10
948.05262865996065
 20
1267.074955871509
 30
0.0
  0
POINT
  5
7E63
  8
DEFPOINTS
  6
CONTINUOUS
 62
     0
 10
948.05262865996065
 20
992.07495587150993
 30
0.0
  0
POINT
  5
7E64
  8
DEFPOINTS
  6
CONTINUOUS
 62
     0
 10
1148.99452465996
 20
992.07495587150993
 30
0.0
  0
ENDBLK
  5
7CB3
  8
0
  0
BLOCK
  8
0
  2
*D8
 70
     1
 10
0.0
 20
0.0
 30
0.0
  3
*D8
  1

  0
LINE
  5
7E65
  8
3
  6
CONTINUOUS
 62
     0
 10
793.05262865996065
 20
1417.64214487151
 30
0.0
 11
1225.33980465996
 21
1417.64214487151
 31
0.0
  0
LINE
  5
7E66
  8
3
  6
CONTINUOUS
 62
     0
 10
953.05262865996065
 20
992.07495587150993
 30
0.0
 11
1225.33980465996
 21
992.07495587150993
 31
0.0
  0
LINE
  5
7E67
  8
3
  6
CONTINUOUS
 62
     0
 10
1215.33980465996
 20
1397.6421448715089
 30
0.0
 11
1215.33980465996
 21
1012.074955871509
 31
0.0
  0
INSERT
  5
7E68
  8
3
  6
CONTINUOUS
 62
     0
  2
_OPEN
 10
1215.33980465996
 20
1417.64214487151
 30
0.0
 41
20.0
 42
20.0
 43
20.0
 50
90.0
  0
INSERT
  5
7E69
  8
3
  6
CONTINUOUS
 62
     0
  2
_OPEN
 10
1215.33980465996
 20
992.07495587150993
 30
0.0
 41
20.0
 42
20.0
 43
20.0
 50
270.0
  0
TEXT
  8
3
  40
30
  5
7ED1
  62
0
  72
0
  71
0
 10
1130.34
 20
1144.35
 30
0.000000
  1
426
  0
POINT
  5
7E6B
  8
DEFPOINTS
  6
CONTINUOUS
 62
     0
 10
788.05262865996065
 20
1417.64214487151
 30
0.0
  0
POINT
  5
7E6C
  8
DEFPOINTS
  6
CONTINUOUS
 62
     0
 10
948.05262865996065
 20
992.07495587150993
 30
0.0
  0
POINT
  5
7E6D
  8
DEFPOINTS
  6
CONTINUOUS
 62
     0
 10
1215.33980465996
 20
992.07495587150993
 30
0.0
  0
ENDBLK
  5
7C9E
  8
0
  0
BLOCK
  8
0
  2
*D9
 70
     1
 10
0.0
 20
0.0
 30
0.0
  3
*D9
  1

  0
LINE
  5
7E6E
  8
3
  6
CONTINUOUS
 62
     0
 10
1570.51205765996
 20
1411.0749558715099
 30
0.0
 11
1570.51205765996
 21
1459.30758487151
 31
0.0
  0
LINE
  5
7E6F
  8
3
  6
CONTINUOUS
 62
     0
 10
1710.51205765996
 20
1411.0749558715099
 30
0.0
 11
1710.51205765996
 21
1459.30758487151
 31
0.0
  0
LINE
  5
7E70
  8
3
  6
CONTINUOUS
 62
     0
 10
1550.51205765996
 20
1449.3075848715091
 30
0.0
 11
1530.51205765996
 21
1449.3075848715091
 31
0.0
  0
LINE
  5
7E71
  8
3
  6
CONTINUOUS
 62
     0
 10
1730.51205765996
 20
1449.3075848715091
 30
0.0
 11
1750.51205765996
 21
1449.3075848715091
 31
0.0
  0
LINE
  5
7E72
  8
3
  6
CONTINUOUS
 62
     0
 10
1570.51205765996
 20
1449.3075848715091
 30
0.0
 11
1710.51205765996
 21
1449.3075848715091
 31
0.0
  0
INSERT
  5
7E73
  8
3
  6
CONTINUOUS
 62
     0
  2
_OPEN
 10
1570.51205765996
 20
1449.3075848715091
 30
0.0
 41
20.0
 42
20.0
 43
20.0
  0
INSERT
  5
7E74
  8
3
  6
CONTINUOUS
 62
     0
  2
_OPEN
 10
1710.51205765996
 20
1449.3075848715091
 30
0.0
 41
20.0
 42
20.0
 43
20.0
 50
180.0
  0
TEXT
  8
3
  40
30
  5
7ED2
  62
0
  72
0
  71
0
 10
1576.23
 20
1421.21
 30
0.000000
  1
140
  0
POINT
  5
7E76
  8
DEFPOINTS
  6
CONTINUOUS
 62
     0
 10
1570.51205765996
 20
1406.0749558715099
 30
0.0
  0
POINT
  5
7E77
  8
DEFPOINTS
  6
CONTINUOUS
 62
     0
 10
1710.51205765996
 20
1406.0749558715099
 30
0.0
  0
POINT
  5
7E78
  8
DEFPOINTS
  6
CONTINUOUS
 62
     0
 10
1710.51205765996
 20
1449.3075848715091
 30
0.0
  0
ENDBLK
  5
7BD2
  8
0
  0
BLOCK
  8
0
  2
*D10
 70
     1
 10
0.0
 20
0.0
 30
0.0
  3
*D10
  1

  0
LINE
  5
7E79
  8
3
  6
CONTINUOUS
 62
     0
 10
1340.51205765996
 20
1382.0749558715099
 30
0.0
 11
1340.51205765996
 21
1507.02849487151
 31
0.0
  0
LINE
  5
7E7A
  8
3
  6
CONTINUOUS
 62
     0
 10
1640.51205765996
 20
1498.2056578715089
 30
0.0
 11
1640.51205765996
 21
1507.02849487151
 31
0.0
  0
LINE
  5
7E7B
  8
3
  6
CONTINUOUS
 62
     0
 10
1360.51205765996
 20
1497.02849487151
 30
0.0
 11
1620.51205765996
 21
1497.02849487151
 31
0.0
  0
INSERT
  5
7E7C
  8
3
  6
CONTINUOUS
 62
     0
  2
_OPEN
 10
1340.51205765996
 20
1497.02849487151
 30
0.0
 41
20.0
 42
20.0
 43
20.0
 50
180.0
  0
INSERT
  5
7E7D
  8
3
  6
CONTINUOUS
 62
     0
  2
_OPEN
 10
1640.51205765996
 20
1497.02849487151
 30
0.0
 41
20.0
 42
20.0
 43
20.0
  0
TEXT
  8
3
  40
30
  5
7ED3
  62
0
  72
0
  71
0
 10
1435.52
 20
1493.93
 30
0.000000
  1
MAX
  0
TEXT
  8
3
  40
30
  5
7ED4
  62
0
  72
0
  71
0
 10
1435.52
 20
1454.93
 30
0.000000
  1
300
  0
POINT
  5
7E7F
  8
DEFPOINTS
  6
CONTINUOUS
 62
     0
 10
1340.51205765996
 20
1377.0749558715099
 30
0.0
  0
POINT
  5
7E80
  8
DEFPOINTS
  6
CONTINUOUS
 62
     0
 10
1640.51205765996
 20
1493.2056578715089
 30
0.0
  0
POINT
  5
7E81
  8
DEFPOINTS
  6
CONTINUOUS
 62
     0
 10
1640.51205765996
 20
1497.02849487151
 30
0.0
  0
ENDBLK
  5
7D1D
  8
0
  0
BLOCK
  8
0
  2
*D11
 70
     1
 10
0.0
 20
0.0
 30
0.0
  3
*D11
  1

  0
LINE
  5
7E82
  8
3
  6
CONTINUOUS
 62
     0
 10
1718.51205765996
 20
1392.074955871509
 30
0.0
 11
1718.51205765996
 21
1507.02849487151
 31
0.0
  0
LINE
  5
7E83
  8
3
  6
CONTINUOUS
 62
     0
 10
1660.51205765996
 20
1497.02849487151
 30
0.0
 11
1698.51205765996
 21
1497.02849487151
 31
0.0
  0
TEXT
  8
3
  40
30
  5
7ED5
  62
0
  72
0
  71
0
 10
1615.68
 20
1468.79
 30
0.000000
  1
78
  0
INSERT
  5
7E85
  8
3
  6
CONTINUOUS
 62
     0
  2
_OPEN
 10
1640.51205765996
 20
1497.02849487151
 30
0.0
 41
20.0
 42
20.0
 43
20.0
 50
180.0
  0
INSERT
  5
7E86
  8
3
  6
CONTINUOUS
 62
     0
  2
_OPEN
 10
1718.51205765996
 20
1497.02849487151
 30
0.0
 41
20.0
 42
20.0
 43
20.0
  0
POINT
  5
7E87
  8
DEFPOINTS
  6
CONTINUOUS
 62
     0
 10
1640.51205765996
 20
1493.2056578715089
 30
0.0
  0
POINT
  5
7E88
  8
DEFPOINTS
  6
CONTINUOUS
 62
     0
 10
1718.51205765996
 20
1387.0749558715099
 30
0.0
  0
POINT
  5
7E89
  8
DEFPOINTS
  6
CONTINUOUS
 62
     0
 10
1718.51205765996
 20
1497.02849487151
 30
0.0
  0
ENDBLK
  5
7CDA
  8
0
  0
BLOCK
  8
0
  2
*D12
 70
     1
 10
0.0
 20
0.0
 30
0.0
  3
*D12
  1

  0
LINE
  5
7E8A
  8
3
  6
CONTINUOUS
 62
     0
 10
1426.51205765996
 20
987.07495587150993
 30
0.0
 11
1426.51205765996
 21
909.41350487150987
 31
0.0
  0
LINE
  5
7E8B
  8
3
  6
CONTINUOUS
 62
     0
 10
1640.51205765996
 20
987.07495587150993
 30
0.0
 11
1640.51205765996
 21
909.41350487150987
 31
0.0
  0
LINE
  5
7E8C
  8
3
  6
CONTINUOUS
 62
     0
 10
1446.51205765996
 20
919.41350487150976
 30
0.0
 11
1620.51205765996
 21
919.41350487150976
 31
0.0
  0
INSERT
  5
7E8D
  8
3
  6
CONTINUOUS
 62
     0
  2
_OPEN
 10
1426.51205765996
 20
919.41350487150976
 30
0.0
 41
20.0
 42
20.0
 43
20.0
 50
180.0
  0
INSERT
  5
7E8E
  8
3
  6
CONTINUOUS
 62
     0
  2
_OPEN
 10
1640.51205765996
 20
919.41350487150976
 30
0.0
 41
20.0
 42
20.0
 43
20.0
  0
TEXT
  8
3
  40
30
  5
7ED6
  62
0
  72
0
  71
0
 10
1474.36
 20
891.314
 30
0.000000
  1
214
  0
POINT
  5
7E90
  8
DEFPOINTS
  6
CONTINUOUS
 62
     0
 10
1426.51205765996
 20
992.07495587150993
 30
0.0
  0
POINT
  5
7E91
  8
DEFPOINTS
  6
CONTINUOUS
 62
     0
 10
1640.51205765996
 20
992.07495587150993
 30
0.0
  0
POINT
  5
7E92
  8
DEFPOINTS
  6
CONTINUOUS
 62
     0
 10
1640.51205765996
 20
919.41350487150976
 30
0.0
  0
ENDBLK
  5
7BFB
  8
0
  0
BLOCK
  8
0
  2
*D13
 70
     1
 10
0.0
 20
0.0
 30
0.0
  3
*D13
  1

  0
LINE
  5
7E93
  8
3
  6
CONTINUOUS
 62
     0
 10
1650.51205765996
 20
987.07495587150993
 30
0.0
 11
1650.51205765996
 21
909.41350487150987
 31
0.0
  0
LINE
  5
7E94
  8
3
  6
CONTINUOUS
 62
     0
 10
1620.51205765996
 20
919.41350487150976
 30
0.0
 11
1600.51205765996
 21
919.41350487150976
 31
0.0
  0
LINE
  5
7E95
  8
3
  6
CONTINUOUS
 62
     0
 10
1670.51205765996
 20
919.41350487150976
 30
0.0
 11
1690.51205765996
 21
919.41350487150976
 31
0.0
  0
TEXT
  8
3
  40
30
  5
7ED7
  62
0
  72
0
  71
0
 10
1625.51
 20
891.071
 30
0.000000
  1
10
  0
LINE
  5
7E97
  8
3
  6
CONTINUOUS
 62
     0
 10
1640.51205765996
 20
919.41350487150976
 30
0.0
 11
1650.51205765996
 21
919.41350487150976
 31
0.0
  0
INSERT
  5
7E98
  8
3
  6
CONTINUOUS
 62
     0
  2
_OPEN
 10
1640.51205765996
 20
919.41350487150976
 30
0.0
 41
20.0
 42
20.0
 43
20.0
  0
INSERT
  5
7E99
  8
3
  6
CONTINUOUS
 62
     0
  2
_OPEN
 10
1650.51205765996
 20
919.41350487150976
 30
0.0
 41
20.0
 42
20.0
 43
20.0
 50
180.0
  0
POINT
  5
7E9A
  8
DEFPOINTS
  6
CONTINUOUS
 62
     0
 10
1640.51205765996
 20
992.07495587150993
 30
0.0
  0
POINT
  5
7E9B
  8
DEFPOINTS
  6
CONTINUOUS
 62
     0
 10
1650.51205765996
 20
992.07495587150993
 30
0.0
  0
POINT
  5
7E9C
  8
DEFPOINTS
  6
CONTINUOUS
 62
     0
 10
1650.51205765996
 20
919.41350487150976
 30
0.0
  0
ENDBLK
  5
7C26
  8
0
  0
BLOCK
  8
0
  2
*D14
 70
     1
 10
0.0
 20
0.0
 30
0.0
  3
*D14
  1

  0
LINE
  5
7E9D
  8
3
  6
CONTINUOUS
 62
     0
 10
1723.51205765996
 20
1367.0749558715099
 30
0.0
 11
1803.65167665996
 21
1367.0749558715099
 31
0.0
  0
LINE
  5
7E9E
  8
3
  6
CONTINUOUS
 62
     0
 10
1723.51205765996
 20
1167.0749558715099
 30
0.0
 11
1803.65167665996
 21
1167.0749558715099
 31
0.0
  0
LINE
  5
7E9F
  8
3
  6
CONTINUOUS
 62
     0
 10
1793.65167665996
 20
1347.0749558715099
 30
0.0
 11
1793.65167665996
 21
1187.074955871509
 31
0.0
  0
INSERT
  5
7EA0
  8
3
  6
CONTINUOUS
 62
     0
  2
_OPEN
 10
1793.65167665996
 20
1367.0749558715099
 30
0.0
 41
20.0
 42
20.0
 43
20.0
 50
90.0
  0
INSERT
  5
7EA1
  8
3
  6
CONTINUOUS
 62
     0
  2
_OPEN
 10
1793.65167665996
 20
1167.0749558715099
 30
0.0
 41
20.0
 42
20.0
 43
20.0
 50
270.0
  0
TEXT
  8
3
  40
30
  5
7ED8
  62
0
  72
0
  71
0
 10
1708.65
 20
1200.55
 30
0.000000
  1
φ200
  0
POINT
  5
7EA3
  8
DEFPOINTS
  6
CONTINUOUS
 62
     0
 10
1718.51205765996
 20
1367.0749558715099
 30
0.0
  0
POINT
  5
7EA4
  8
DEFPOINTS
  6
CONTINUOUS
 62
     0
 10
1718.51205765996
 20
1167.0749558715099
 30
0.0
  0
POINT
  5
7EA5
  8
DEFPOINTS
  6
CONTINUOUS
 62
     0
 10
1793.65167665996
 20
1167.0749558715099
 30
0.0
  0
ENDBLK
  5
7D12
  8
0
  0
BLOCK
  8
0
  2
*D15
 70
     1
 10
0.0
 20
0.0
 30
0.0
  3
*D15
  1

  0
LINE
  5
7EA6
  8
3
  6
CONTINUOUS
 62
     0
 10
318.05262865996042
 20
1867.998517109764
 30
0.0
 11
318.05262865996042
 21
1674.579314109764
 31
0.0
  0
LINE
  5
7EA7
  8
3
  6
CONTINUOUS
 62
     0
 10
948.05262865996065
 20
1867.998517109764
 30
0.0
 11
948.05262865996065
 21
1674.579314109764
 31
0.0
  0
LINE
  5
7EA8
  8
3
  6
CONTINUOUS
 62
     0
 10
338.05262865996042
 20
1684.5793141097629
 30
0.0
 11
928.05262865996065
 21
1684.5793141097629
 31
0.0
  0
INSERT
  5
7EA9
  8
3
  6
CONTINUOUS
 62
     0
  2
_OPEN
 10
318.05262865996042
 20
1684.5793141097629
 30
0.0
 41
20.0
 42
20.0
 43
20.0
 50
180.0
  0
INSERT
  5
7EAA
  8
3
  6
CONTINUOUS
 62
     0
  2
_OPEN
 10
948.05262865996065
 20
1684.5793141097629
 30
0.0
 41
20.0
 42
20.0
 43
20.0
  0
TEXT
  8
3
  40
30
  5
7ED9
  62
0
  72
0
  71
0
 10
561.935
 20
1656.48
 30
0.000000
  1
630
  0
POINT
  5
7EAC
  8
DEFPOINTS
  6
CONTINUOUS
 62
     0
 10
318.05262865996042
 20
1872.998517109763
 30
0.0
  0
POINT
  5
7EAD
  8
DEFPOINTS
  6
CONTINUOUS
 62
     0
 10
948.05262865996065
 20
1872.998517109763
 30
0.0
  0
POINT
  5
7EAE
  8
DEFPOINTS
  6
CONTINUOUS
 62
     0
 10
948.05262865996065
 20
1684.5793141097629
 30
0.0
  0
ENDBLK
  5
7C59
  8
0
  0
BLOCK
  8
0
  2
*D16
 70
     1
 10
0.0
 20
0.0
 30
0.0
  3
*D16
  1

  0
LINE
  5
7EAF
  8
3
  6
CONTINUOUS
 62
     0
 10
952.05262865996065
 20
1267.074955871509
 30
0.0
 11
1098.9754116599611
 21
1267.074955871509
 31
0.0
  0
LINE
  5
7EB0
  8
3
  6
CONTINUOUS
 62
     0
 10
938.05262865996053
 20
1056.0749558715099
 30
0.0
 11
1098.9754116599611
 21
1056.0749558715099
 31
0.0
  0
LINE
  5
7EB1
  8
3
  6
CONTINUOUS
 62
     0
 10
1088.9754116599599
 20
1247.074955871509
 30
0.0
 11
1088.9754116599599
 21
1076.074955871509
 31
0.0
  0
INSERT
  5
7EB2
  8
3
  6
CONTINUOUS
 62
     0
  2
_OPEN
 10
1088.9754116599599
 20
1267.074955871509
 30
0.0
 41
20.0
 42
20.0
 43
20.0
 50
90.0
  0
INSERT
  5
7EB3
  8
3
  6
CONTINUOUS
 62
     0
  2
_OPEN
 10
1088.9754116599599
 20
1056.0749558715099
 30
0.0
 41
20.0
 42
20.0
 43
20.0
 50
270.0
  0
TEXT
  8
3
  40
30
  5
7EDA
  62
0
  72
0
  71
0
 10
1003.98
 20
1113.46
 30
0.000000
  1
211
  0
POINT
  5
7EB5
  8
DEFPOINTS
  6
CONTINUOUS
 62
     0
 10
947.05262865996053
 20
1267.074955871509
 30
0.0
  0
POINT
  5
7EB6
  8
DEFPOINTS
  6
CONTINUOUS
 62
     0
 10
933.05262865996065
 20
1056.0749558715099
 30
0.0
  0
POINT
  5
7EB7
  8
DEFPOINTS
  6
CONTINUOUS
 62
     0
 10
1088.9754116599599
 20
1056.0749558715099
 30
0.0
  0
ENDBLK
  5
7CBF
  8
0
  0
BLOCK
  8
0
  2
*D17
 70
     1
 10
0.0
 20
0.0
 30
0.0
  3
*D17
  1

  0
LINE
  5
7EB8
  8
3
 62
     0
 10
313.05262865996042
 20
2096.9985171097628
 30
0.0
 11
256.17331568052418
 21
2096.9985171097628
 31
0.0
  0
LINE
  5
7EB9
  8
3
 62
     0
 10
313.05262865996042
 20
1872.998517109763
 30
0.0
 11
256.17331568052418
 21
1872.998517109763
 31
0.0
  0
LINE
  5
7EBA
  8
3
 62
     0
 10
266.17331568052418
 20
2076.9985171097642
 30
0.0
 11
266.17331568052418
 21
1892.998517109764
 31
0.0
  0
INSERT
  5
7EBB
  8
3
 62
     0
  2
_OPEN
 10
266.17331568052418
 20
2096.9985171097628
 30
0.0
 41
20.0
 42
20.0
 43
20.0
 50
90.0
  0
INSERT
  5
7EBC
  8
3
 62
     0
  2
_OPEN
 10
266.17331568052418
 20
1872.998517109763
 30
0.0
 41
20.0
 42
20.0
 43
20.0
 50
270.0
  0
TEXT
  8
3
  40
30
  5
7EDB
  62
0
  72
0
  71
0
 10
181.173
 20
1930.70
 30
0.000000
  1
224
  0
POINT
  5
7EBE
  8
DEFPOINTS
 62
     0
 10
318.05262865996042
 20
2096.9985171097628
 30
0.0
  0
POINT
  5
7EBF
  8
DEFPOINTS
 62
     0
 10
318.05262865996042
 20
1872.998517109763
 30
0.0
  0
POINT
  5
7EC0
  8
DEFPOINTS
 62
     0
 10
266.17331568052418
 20
1872.998517109763
 30
0.0
  0
ENDBLK
  5
7D06
  8
0
  0
BLOCK
  8
0
  2
*D18
 70
     1
 10
0.0
 20
0.0
 30
0.0
  3
*D18
  1

  0
LINE
  5
7EC1
  8
3
 62
     0
 10
948.05262865996065
 20
1298.0749558715099
 30
0.0
 11
948.05262865996065
 21
1518.6317640934519
 31
0.0
  0
LINE
  5
7EC2
  8
3
 62
     0
 10
318.05262865996042
 20
1047.0749558715099
 30
0.0
 11
318.05262865996042
 21
1518.6317640934519
 31
0.0
  0
LINE
  5
7EC3
  8
3
 62
     0
 10
928.05262865996065
 20
1508.6317640934519
 30
0.0
 11
338.05262865996042
 21
1508.6317640934519
 31
0.0
  0
INSERT
  5
7EC4
  8
3
 62
     0
  2
_OPEN
 10
948.05262865996065
 20
1508.6317640934519
 30
0.0
 41
20.0
 42
20.0
 43
20.0
  0
INSERT
  5
7EC5
  8
3
 62
     0
  2
_OPEN
 10
318.05262865996042
 20
1508.6317640934519
 30
0.0
 41
20.0
 42
20.0
 43
20.0
 50
180.0
  0
TEXT
  8
3
  40
30
  5
7EDC
  62
0
  72
0
  71
0
 10
549.979
 20
1480.53
 30
0.000000
  1
630
  0
POINT
  5
7EC7
  8
DEFPOINTS
 62
     0
 10
948.05262865996065
 20
1293.074955871509
 30
0.0
  0
POINT
  5
7EC8
  8
DEFPOINTS
 62
     0
 10
318.05262865996042
 20
1042.0749558715099
 30
0.0
  0
POINT
  5
7EC9
  8
DEFPOINTS
 62
     0
 10
318.05262865996042
 20
1508.6317640934519
 30
0.0
  0
ENDBLK
  5
7D29
  8
0
  0
ENDSEC
  0
SECTION
  2
ENTITIES
  0
CIRCLE
  5
7A79
  8
1
  6
CONTINUOUS
 10
788.05262865996065
 20
1267.074955871509
 30
0.0
 40
120.0
  0
CIRCLE
  5
7A7A
  8
1
  6
CONTINUOUS
 10
788.05262865996065
 20
1267.074955871509
 30
0.0
 40
100.0
  0
LINE
  5
7A7B
  8
1
  6
CONTINUOUS
 10
800.05262865996065
 20
2008.998517109763
 30
0.0
 11
800.05262865996065
 21
1839.498517109764
 31
0.0
  0
LINE
  5
7A7C
  8
1
  6
CONTINUOUS
 10
776.05262865996065
 20
2008.998517109763
 30
0.0
 11
776.05262865996065
 21
1839.498517109764
 31
0.0
  0
LINE
  5
7A7D
  8
1
  6
CONTINUOUS
 10
475.85262865996032
 20
1872.998517109763
 30
0.0
 11
318.05262865996042
 21
1872.998517109763
 31
0.0
  0
LINE
  5
7A7E
  8
1
  6
CONTINUOUS
 10
776.05262865996065
 20
1872.998517109763
 30
0.0
 11
499.85262865996032
 21
1872.998517109763
 31
0.0
  0
LINE
  5
7A7F
  8
1
  6
CONTINUOUS
 10
895.05262865996065
 20
1042.0749558715099
 30
0.0
 11
895.05262865996065
 21
1377.0749558715099
 31
0.0
  0
LINE
  5
7A80
  8
1
  6
CONTINUOUS
 10
948.05262865996065
 20
1872.998517109763
 30
0.0
 11
948.05262865996065
 21
2016.998517109763
 31
0.0
  0
LINE
  5
7A81
  8
1
  6
CONTINUOUS
 10
895.05262865996065
 20
1786.998517109763
 30
0.0
 11
895.05262865996065
 21
1861.998517109763
 31
0.0
  0
LINE
  5
7A82
  8
1
  6
CONTINUOUS
 10
895.05262865996065
 20
1786.998517109763
 30
0.0
 11
365.05262865996042
 21
1786.998517109763
 31
0.0
  0
LINE
  5
7A83
  8
1
  6
CONTINUOUS
 10
738.05262865996065
 20
1809.498517109764
 30
0.0
 11
738.05262865996065
 21
1839.498517109764
 31
0.0
  0
LINE
  5
7A84
  8
1
  6
CONTINUOUS
 10
838.05262865996053
 20
1809.498517109764
 30
0.0
 11
838.05262865996053
 21
1839.498517109764
 31
0.0
  0
LINE
  5
7A85
  8
1
  6
CONTINUOUS
 10
738.05262865996065
 20
1809.498517109764
 30
0.0
 11
838.05262865996053
 21
1809.498517109764
 31
0.0
  0
LINE
  5
7A86
  8
1
  6
CONTINUOUS
 10
738.05262865996065
 20
1839.498517109764
 30
0.0
 11
838.05262865996053
 21
1839.498517109764
 31
0.0
  0
LINE
  5
7A87
  8
1
  6
CONTINUOUS
 10
475.85262865996032
 20
1839.498517109764
 30
0.0
 11
475.85262865996032
 21
1892.198517109764
 31
0.0
  0
LINE
  5
7A88
  8
1
  6
CONTINUOUS
 10
499.85262865996032
 20
1839.498517109764
 30
0.0
 11
499.85262865996032
 21
1892.198517109764
 31
0.0
  0
LINE
  5
7A89
  8
1
  6
CONTINUOUS
 10
318.05262865996042
 20
1872.998517109763
 30
0.0
 11
318.05262865996042
 21
2096.9985171097628
 31
0.0
  0
LINE
  5
7A8A
  8
1
  6
CONTINUOUS
 10
609.05262865996065
 20
2096.9985171097628
 30
0.0
 11
318.05262865996042
 21
2096.9985171097628
 31
0.0
  0
LINE
  5
7A8B
  8
1
  6
CONTINUOUS
 10
948.05262865996065
 20
1872.998517109763
 30
0.0
 11
800.05262865996065
 21
1872.998517109763
 31
0.0
  0
LINE
  5
7A8C
  8
1
  6
CONTINUOUS
 10
365.05262865996042
 20
1786.998517109763
 30
0.0
 11
365.05262865996042
 21
1861.998517109763
 31
0.0
  0
LINE
  5
7A8D
  8
1
  6
CONTINUOUS
 10
895.05262865996065
 20
1861.998517109763
 30
0.0
 11
365.05262865996042
 21
1861.998517109763
 31
0.0
  0
LINE
  5
7A8E
  8
1
  6
CONTINUOUS
 10
452.85262865996032
 20
1809.498517109764
 30
0.0
 11
452.85262865996032
 21
1839.498517109764
 31
0.0
  0
LINE
  5
7A8F
  8
1
  6
CONTINUOUS
 10
522.85262865996037
 20
1809.498517109764
 30
0.0
 11
522.85262865996037
 21
1839.498517109764
 31
0.0
  0
LINE
  5
7A90
  8
1
  6
CONTINUOUS
 10
452.85262865996032
 20
1839.498517109764
 30
0.0
 11
522.85262865996037
 21
1839.498517109764
 31
0.0
  0
LINE
  5
7A91
  8
1
  6
CONTINUOUS
 10
452.85262865996032
 20
1809.498517109764
 30
0.0
 11
522.85262865996037
 21
1809.498517109764
 31
0.0
  0
LINE
  5
7A92
  8
1
  6
CONTINUOUS
 10
568.45262865996051
 20
2083.0985171097641
 30
0.0
 11
398.45262865996051
 21
2083.0985171097641
 31
0.0
  0
LINE
  5
7A93
  8
1
  6
CONTINUOUS
 10
568.45262865996051
 20
1892.198517109764
 30
0.0
 11
398.45262865996051
 21
1892.198517109764
 31
0.0
  0
LINE
  5
7A94
  8
1
  6
CONTINUOUS
 10
398.45262865996051
 20
1892.198517109764
 30
0.0
 11
398.45262865996051
 21
2083.0985171097641
 31
0.0
  0
LINE
  5
7A95
  8
1
  6
CONTINUOUS
 10
568.45262865996051
 20
1892.198517109764
 30
0.0
 11
568.45262865996051
 21
2083.0985171097641
 31
0.0
  0
LINE
  5
7A96
  8
1
  6
CONTINUOUS
 10
1650.51205765996
 20
1042.0749558715099
 30
0.0
 11
1650.51205765996
 21
992.07495587150993
 31
0.0
  0
LINE
  5
7A97
  8
1
  6
CONTINUOUS
 10
1426.51205765996
 20
992.07495587150993
 30
0.0
 11
1650.51205765996
 21
992.07495587150993
 31
0.0
  0
LINE
  5
7A98
  8
1
  6
CONTINUOUS
 10
1340.51205765996
 20
1042.0749558715099
 30
0.0
 11
1650.51205765996
 21
1042.0749558715099
 31
0.0
  0
LINE
  5
7A99
  8
1
  6
CONTINUOUS
 10
1426.51205765996
 20
1042.0749558715099
 30
0.0
 11
1426.51205765996
 21
992.07495587150993
 31
0.0
  0
LINE
  5
7A9A
  8
1
  6
CONTINUOUS
 10
1340.51205765996
 20
1377.0749558715099
 30
0.0
 11
1340.51205765996
 21
1042.0749558715099
 31
0.0
  0
LINE
  5
7A9B
  8
1
  6
CONTINUOUS
 10
1450.51205765996
 20
1233.77495587151
 30
0.0
 11
1450.51205765996
 21
1042.0749558715099
 31
0.0
  0
LINE
  5
7A9C
  8
1
  6
CONTINUOUS
 10
1450.51205765996
 20
1233.77495587151
 30
0.0
 11
1562.51205765996
 21
1320.77495587151
 31
0.0
  0
LINE
  5
7A9D
  8
1
  6
CONTINUOUS
 10
1340.51205765996
 20
1377.0749558715099
 30
0.0
 11
1415.51205765996
 21
1377.0749558715099
 31
0.0
  0
LINE
  5
7A9E
  8
1
  6
CONTINUOUS
 10
1363.01205765996
 20
1317.0749558715099
 30
0.0
 11
1393.01205765996
 21
1317.0749558715099
 31
0.0
  0
LINE
  5
7A9F
  8
1
  6
CONTINUOUS
 10
1363.01205765996
 20
1217.0749558715099
 30
0.0
 11
1393.01205765996
 21
1217.0749558715099
 31
0.0
  0
LINE
  5
7AA0
  8
1
  6
CONTINUOUS
 10
1415.51205765996
 20
1377.0749558715099
 30
0.0
 11
1415.51205765996
 21
1042.0749558715099
 31
0.0
  0
LINE
  5
7AA1
  8
1
  6
CONTINUOUS
 10
1363.01205765996
 20
1317.0749558715099
 30
0.0
 11
1363.01205765996
 21
1217.0749558715099
 31
0.0
  0
LINE
  5
7AA2
  8
1
  6
CONTINUOUS
 10
1393.01205765996
 20
1317.0749558715099
 30
0.0
 11
1393.01205765996
 21
1217.0749558715099
 31
0.0
  0
LINE
  5
7AA3
  8
1
  6
CONTINUOUS
 10
1363.01205765996
 20
1178.1749558715089
 30
0.0
 11
1363.01205765996
 21
1108.1749558715101
 31
0.0
  0
LINE
  5
7AA4
  8
1
  6
CONTINUOUS
 10
1393.01205765996
 20
1178.1749558715089
 30
0.0
 11
1393.01205765996
 21
1108.1749558715101
 31
0.0
  0
LINE
  5
7AA5
  8
1
  6
CONTINUOUS
 10
1363.01205765996
 20
1178.1749558715089
 30
0.0
 11
1393.01205765996
 21
1178.1749558715089
 31
0.0
  0
LINE
  5
7AA6
  8
1
  6
CONTINUOUS
 10
1363.01205765996
 20
1108.1749558715101
 30
0.0
 11
1393.01205765996
 21
1108.1749558715101
 31
0.0
  0
LINE
  5
7AA7
  8
1
  6
CONTINUOUS
 10
1393.01205765996
 20
1155.1749558715101
 30
0.0
 11
1450.51205765996
 21
1155.1749558715101
 31
0.0
  0
LINE
  5
7AA8
  8
1
  6
CONTINUOUS
 10
1393.01205765996
 20
1131.1749558715101
 30
0.0
 11
1450.51205765996
 21
1131.1749558715101
 31
0.0
  0
LINE
  5
7AA9
  8
1
  6
CONTINUOUS
 10
1393.01205765996
 20
1279.074955871509
 30
0.0
 11
1508.8120576599599
 21
1279.074955871509
 31
0.0
  0
LINE
  5
7AAA
  8
1
  6
CONTINUOUS
 10
1393.01205765996
 20
1255.074955871509
 30
0.0
 11
1477.9120576599601
 21
1255.074955871509
 31
0.0
  0
LINE
  5
7AAB
  8
1
  6
CONTINUOUS
 10
948.05262865996065
 20
992.07495587150993
 30
0.0
 11
948.05262865996065
 21
1042.0749558715099
 31
0.0
  0
LINE
  5
7AAC
  8
1
  6
CONTINUOUS
 10
318.05262865996042
 20
1042.0749558715099
 30
0.0
 11
948.05262865996065
 21
1042.0749558715099
 31
0.0
  0
LINE
  5
7AAD
  8
1
  6
CONTINUOUS
 10
318.05262865996042
 20
992.07495587150993
 30
0.0
 11
948.05262865996065
 21
992.07495587150993
 31
0.0
  0
LINE
  5
7AAE
  8
1
  6
CONTINUOUS
 10
318.05262865996042
 20
992.07495587150993
 30
0.0
 11
318.05262865996042
 21
1042.0749558715099
 31
0.0
  0
LINE
  5
7AAF
  8
1
  6
CONTINUOUS
 10
325.35262865996032
 20
1062.77495587151
 30
0.0
 11
325.35262865996032
 21
1042.0749558715099
 31
0.0
  0
LINE
  5
7AB0
  8
1
  6
CONTINUOUS
 10
576.35262865996037
 20
1062.77495587151
 30
0.0
 11
325.35262865996032
 21
1062.77495587151
 31
0.0
  0
LINE
  5
7AB1
  8
1
  6
CONTINUOUS
 10
576.35262865996037
 20
1042.0749558715099
 30
0.0
 11
576.35262865996037
 21
1062.77495587151
 31
0.0
  0
LINE
  5
7AB2
  8
1
  6
CONTINUOUS
 10
365.05262865996042
 20
1377.0749558715099
 30
0.0
 11
895.05262865996065
 21
1377.0749558715099
 31
0.0
  0
LINE
  5
7AB3
  8
1
  6
CONTINUOUS
 10
365.05262865996042
 20
1042.0749558715099
 30
0.0
 11
365.05262865996042
 21
1377.0749558715099
 31
0.0
  0
CIRCLE
  5
7AB4
  8
1
  6
CONTINUOUS
 10
487.85262865996032
 20
1143.1749558715101
 30
0.0
 40
35.0
  0
ARC
  5
7AB5
  8
1
  6
CONTINUOUS
 10
483.4526286599604
 20
1142.7749558715091
 30
0.0
 40
85.0
 50
324.69999999999987
 51
215.30000000000001
  0
LINE
  5
7AB6
  8
1
  6
CONTINUOUS
 10
405.95262865996051
 20
1070.77495587151
 30
0.0
 11
414.1526286599605
 21
1093.574955871509
 31
0.0
  0
LINE
  5
7AB7
  8
1
  6
CONTINUOUS
 10
560.95262865996051
 20
1062.77495587151
 30
0.0
 11
560.95262865996051
 21
1070.77495587151
 31
0.0
  0
LINE
  5
7AB8
  8
1
  6
CONTINUOUS
 10
560.95262865996051
 20
1070.77495587151
 30
0.0
 11
552.85262865996026
 21
1093.574955871509
 31
0.0
  0
LINE
  5
7AB9
  8
1
  6
CONTINUOUS
 10
405.95262865996051
 20
1062.77495587151
 30
0.0
 11
405.95262865996051
 21
1070.77495587151
 31
0.0
  0
LINE
  5
7ABA
  8
2
  6
CENTER
 10
487.85262865996032
 20
1108.1749558715101
 30
0.0
 11
487.85262865996032
 21
1178.1749558715089
 31
0.0
  0
LINE
  5
7ABB
  8
2
  6
CENTER
 10
452.85262865996032
 20
1143.1749558715101
 30
0.0
 11
522.85262865996037
 21
1143.1749558715101
 31
0.0
  0
LINE
  5
7ABC
  8
1
  6
CONTINUOUS
 10
933.05262865996065
 20
1267.074955871509
 30
0.0
 11
933.05262865996065
 21
1277.074955871509
 31
0.0
  0
LINE
  5
7ABD
  8
1
  6
CONTINUOUS
 10
933.05262865996065
 20
1056.0749558715099
 30
0.0
 11
933.05262865996065
 21
1067.0749558715099
 31
0.0
  0
LINE
  5
7ABE
  8
1
  6
CONTINUOUS
 10
948.05262865996065
 20
1067.0749558715099
 30
0.0
 11
933.05262865996065
 21
1067.0749558715099
 31
0.0
  0
LINE
  5
7ABF
  8
1
  6
CONTINUOUS
 10
668.05262865996065
 20
2016.998517109763
 30
0.0
 11
668.05262865996065
 21
2008.998517109763
 31
0.0
  0
LINE
  5
7AC0
  8
1
  6
CONTINUOUS
 10
908.05262865996065
 20
2008.998517109763
 30
0.0
 11
668.05262865996065
 21
2008.998517109763
 31
0.0
  0
LINE
  5
7AC1
  8
1
  6
CONTINUOUS
 10
908.05262865996065
 20
2016.998517109763
 30
0.0
 11
908.05262865996065
 21
2008.998517109763
 31
0.0
  0
LINE
  5
7AC2
  8
1
  6
CONTINUOUS
 10
923.05262865996065
 20
1042.0749558715099
 30
0.0
 11
923.05262865996065
 21
1320.77495587151
 31
0.0
  0
LINE
  5
7AC3
  8
1
  6
CONTINUOUS
 10
839.65262865996056
 20
1392.074955871509
 30
0.0
 11
736.45262865996074
 21
1392.074955871509
 31
0.0
  0
LINE
  5
7AC4
  8
1
  6
CONTINUOUS
 10
653.05262865996065
 20
1320.77495587151
 30
0.0
 11
653.05262865996065
 21
1042.0749558715099
 31
0.0
  0
LINE
  5
7AC5
  8
1
  6
CONTINUOUS
 10
839.65262865996056
 20
1392.074955871509
 30
0.0
 11
923.05262865996065
 21
1320.77495587151
 31
0.0
  0
LINE
  5
7AC6
  8
1
  6
CONTINUOUS
 10
736.45262865996074
 20
1392.074955871509
 30
0.0
 11
653.05262865996065
 21
1320.77495587151
 31
0.0
  0
LINE
  5
7AC7
  8
1
  6
CONTINUOUS
 10
653.05262865996065
 20
1300.3749558715101
 30
0.0
 11
923.05262865996065
 21
1300.3749558715101
 31
0.0
  0
LINE
  5
7AC8
  8
1
  6
CONTINUOUS
 10
948.05262865996065
 20
2015.998517109764
 30
0.0
 11
933.05262865996065
 21
2030.998517109763
 31
0.0
  0
LINE
  5
7AC9
  8
1
  6
CONTINUOUS
 10
933.05262865996065
 20
2142.9985171097628
 30
0.0
 11
933.05262865996065
 21
2030.998517109763
 31
0.0
  0
LINE
  5
7ACA
  8
1
  6
CONTINUOUS
 10
948.05262865996065
 20
2157.9985171097628
 30
0.0
 11
933.05262865996065
 21
2142.9985171097628
 31
0.0
  0
ARC
  5
7ACB
  8
1
  6
CONTINUOUS
 10
619.05262865996065
 20
2026.998517109763
 30
0.0
 40
10.0
 50
180.0
 51
270.0
  0
ARC
  5
7ACC
  8
1
  6
CONTINUOUS
 10
619.05262865996065
 20
2146.9985171097628
 30
0.0
 40
10.0
 50
90.0
 51
180.0
  0
LINE
  5
7ACD
  8
1
  6
CONTINUOUS
 10
948.05262865996065
 20
2156.9985171097642
 30
0.0
 11
619.05262865996065
 21
2156.9985171097642
 31
0.0
  0
LINE
  5
7ACE
  8
1
  6
CONTINUOUS
 10
948.05262865996065
 20
2016.998517109763
 30
0.0
 11
619.05262865996065
 21
2016.998517109763
 31
0.0
  0
LINE
  5
7ACF
  8
1
  6
CONTINUOUS
 10
609.05262865996065
 20
2146.9985171097628
 30
0.0
 11
609.05262865996065
 21
2026.998517109763
 31
0.0
  0
LINE
  5
7AD0
  8
1
  6
CONTINUOUS
 10
948.05262865996065
 20
2177.9985171097628
 30
0.0
 11
948.05262865996065
 21
1995.998517109764
 31
0.0
  0
LINE
  5
7AD1
  8
1
  6
CONTINUOUS
 10
908.05262865996065
 20
2156.9985171097642
 30
0.0
 11
908.05262865996065
 21
2164.9985171097628
 31
0.0
  0
LINE
  5
7AD2
  8
1
  6
CONTINUOUS
 10
908.05262865996065
 20
2164.9985171097628
 30
0.0
 11
668.05262865996065
 21
2164.9985171097628
 31
0.0
  0
LINE
  5
7AD3
  8
1
  6
CONTINUOUS
 10
668.05262865996065
 20
2156.9985171097642
 30
0.0
 11
668.05262865996065
 21
2164.9985171097628
 31
0.0
  0
LINE
  5
7AD4
  8
1
  6
CONTINUOUS
 10
1710.51205765996
 20
1067.0749558715099
 30
0.0
 11
1570.51205765996
 21
1267.074955871509
 31
0.0
  0
LINE
  5
7AD5
  8
1
  6
CONTINUOUS
 10
1570.51205765996
 20
1067.0749558715099
 30
0.0
 11
1710.51205765996
 21
1267.074955871509
 31
0.0
  0
ARC
  5
7AD6
  8
1
  6
CONTINUOUS
 10
1698.51205765996
 20
1406.0749558715099
 30
0.0
 40
12.0
 50
0.0
 51
90.0
  0
ARC
  5
7AD7
  8
1
  6
CONTINUOUS
 10
1582.51205765996
 20
1406.0749558715099
 30
0.0
 40
12.0
 50
90.0
 51
180.0
  0
LINE
  5
7AD8
  8
1
  6
CONTINUOUS
 10
1570.51205765996
 20
1067.0749558715099
 30
0.0
 11
1570.51205765996
 21
1406.0749558715099
 31
0.0
  0
LINE
  5
7AD9
  8
1
  6
CONTINUOUS
 10
1710.51205765996
 20
1067.0749558715099
 30
0.0
 11
1570.51205765996
 21
1067.0749558715099
 31
0.0
  0
LINE
  5
7ADA
  8
1
  6
CONTINUOUS
 10
1710.51205765996
 20
1406.0749558715099
 30
0.0
 11
1710.51205765996
 21
1067.0749558715099
 31
0.0
  0
LINE
  5
7ADB
  8
1
  6
CONTINUOUS
 10
1570.51205765996
 20
1267.074955871509
 30
0.0
 11
1710.51205765996
 21
1267.074955871509
 31
0.0
  0
LINE
  5
7ADC
  8
1
  6
CONTINUOUS
 10
1570.71205765996
 20
1147.074955871509
 30
0.0
 11
1562.71205765996
 21
1147.074955871509
 31
0.0
  0
LINE
  5
7ADD
  8
1
  6
CONTINUOUS
 10
1562.71205765996
 20
1042.0749558715099
 30
0.0
 11
1562.71205765996
 21
1387.0749558715099
 31
0.0
  0
LINE
  5
7ADE
  8
1
  6
CONTINUOUS
 10
1570.71205765996
 20
1387.0749558715099
 30
0.0
 11
1562.71205765996
 21
1387.0749558715099
 31
0.0
  0
ARC
  5
7ADF
  8
1
  6
CONTINUOUS
 10
774.05262865996065
 20
1253.074955871509
 30
0.0
 40
165.0
 50
89.400000000000006
 51
180.30000000000001
  0
LINE
  5
7AE0
  8
1
  6
CONTINUOUS
 10
1710.3120576599599
 20
1387.0749558715099
 30
0.0
 11
1718.51205765996
 21
1387.0749558715099
 31
0.0
  0
LINE
  5
7AE1
  8
1
  6
CONTINUOUS
 10
1718.51205765996
 20
1147.074955871509
 30
0.0
 11
1718.51205765996
 21
1387.0749558715099
 31
0.0
  0
LINE
  5
7AE2
  8
1
  6
CONTINUOUS
 10
1582.51205765996
 20
1418.074955871509
 30
0.0
 11
1698.51205765996
 21
1418.074955871509
 31
0.0
  0
LINE
  5
7AE3
  8
1
  6
CONTINUOUS
 10
948.05262865996065
 20
1268.0749558715099
 30
0.0
 11
933.05262865996065
 21
1253.074955871509
 31
0.0
  0
LINE
  5
7AE4
  8
1
  6
CONTINUOUS
 10
933.05262865996065
 20
1081.0749558715099
 30
0.0
 11
933.05262865996065
 21
1253.074955871509
 31
0.0
  0
LINE
  5
7AE5
  8
1
  6
CONTINUOUS
 10
948.05262865996065
 20
1066.0749558715099
 30
0.0
 11
933.05262865996065
 21
1081.0749558715099
 31
0.0
  0
ARC
  5
7AE6
  8
1
  6
CONTINUOUS
 10
777.05262865996065
 20
1278.0749558715099
 30
0.0
 40
140.0
 50
359.60000000000002
 51
90.599999999999994
  0
ARC
  5
7AE7
  8
1
  6
CONTINUOUS
 10
804.05262865996065
 20
1251.074955871509
 30
0.0
 40
195.0
 50
179.6999999999999
 51
270.0
  0
LINE
  5
7AE8
  8
1
  6
CONTINUOUS
 10
933.05262865996065
 20
1056.0749558715099
 30
0.0
 11
804.05262865996065
 21
1056.0749558715099
 31
0.0
  0
LINE
  5
7AE9
  8
1
  6
CONTINUOUS
 10
948.05262865996065
 20
1267.074955871509
 30
0.0
 11
933.05262865996065
 21
1267.074955871509
 31
0.0
  0
LINE
  5
7AEA
  8
1
  6
CONTINUOUS
 10
948.05262865996065
 20
1046.074955871509
 30
0.0
 11
948.05262865996065
 21
1288.074955871509
 31
0.0
  0
LINE
  5
7AEB
  8
1
  6
CONTINUOUS
 10
933.05262865996065
 20
1277.074955871509
 30
0.0
 11
917.05262865996065
 21
1277.074955871509
 31
0.0
  0
LINE
  5
7AEC
  8
1
  6
CONTINUOUS
 10
1710.3120576599599
 20
1147.074955871509
 30
0.0
 11
1718.51205765996
 21
1147.074955871509
 31
0.0
  0
LINE
  5
7AED
  8
1
  6
CONTINUOUS
 10
473.05262865996059
 20
1174.874955871509
 30
0.0
 11
766.8526286599606
 21
1312.3749558715101
 31
0.0
  0
LINE
  5
7AEE
  8
1
  6
CONTINUOUS
 10
499.75262865996052
 20
1110.27495587151
 30
0.0
 11
804.95262865996085
 21
1220.0749558715099
 31
0.0
  0
LINE
  5
7AEF
  8
2
  6
CENTER
 10
568.28135165996059
 20
1267.074955871509
 30
0.0
 11
971.92298265996055
 21
1267.074955871509
 31
0.0
  0
LINE
  5
7AF0
  8
2
  6
CENTER
 10
788.05262865996065
 20
990.12020687150994
 30
0.0
 11
788.05262865996065
 21
1424.777384871509
 31
0.0
  0
CIRCLE
  5
7AF1
  8
1
  6
CONTINUOUS
 10
788.05262865996065
 20
1267.074955871509
 30
0.0
 40
50.0
  0
LINE
  5
7AF2
  8
4
  6
CONTINUOUS
 10
1850.0
 20
500.0
 30
0.0
 11
1850.0
 21
300.0
 31
0.0
  0
LINE
  5
7AF3
  8
4
  6
CONTINUOUS
 10
1150.0
 20
500.0
 30
0.0
 11
1150.0
 21
300.0
 31
0.0
  0
LINE
  5
7AF4
  8
4
  6
CONTINUOUS
 10
650.0
 20
500.0
 30
0.0
 11
650.0
 21
300.0
 31
0.0
  0
LINE
  5
7AF7
  8
4
  6
CONTINUOUS
 10
650.0
 20
300.0
 30
0.0
 11
1850.0
 21
300.0
 31
0.0
  0
LINE
  5
7AF8
  8
4
  6
CONTINUOUS
 10
650.0
 20
400.0
 30
0.0
 11
1850.0
 21
400.0
 31
0.0
  0
TEXT
  5
7AF9
  8
4
  6
CONTINUOUS
 10
688.50208099999998
 20
431.543026
 30
0.0
 40
50.0
  1
機器名称
  0
TEXT
  5
7AFA
  8
4
  6
CONTINUOUS
 10
686.258106
 20
321.64515699999993
 30
0.0
 40
50.0
  1
機器型番
  0
TEXT
  5
7AFB
  8
4
  6
CONTINUOUS
 10
1177.678744999999
 20
422.57176900000002
 30
0.0
 40
45.0
  1
ミツヤニューマルチファン
  0
TEXT
  5
7AFC
  8
4
  6
CONTINUOUS
 10
1186.6544960000001
 20
317.159584
 30
0.0
 40
50.0
  1
NM#1 1/4-1
  0
TEXT
  5
7AFE
  8
4
  6
CONTINUOUS
 10
904.78576499999997
 20
2383.4288409999999
 30
0.0
 40
54.0
  1
床置ベット
  0
TEXT
  5
7AFF
  8
4
  6
CONTINUOUS
 10
316.16759300000001
 20
2533.8809759999999
 30
0.0
 40
72.0
  1
ベルト駆動式片吸込片持多翼ファン
  0
LINE
  5
7B00
  8
4
  6
CONTINUOUS
 10
250.0
 20
2469.408754
 30
0.0
 11
1850.0
 21
2469.408754
 31
0.0
  0
LINE
  5
7B01
  8
4
  6
CONTINUOUS
 10
250.0
 20
2669.408754
 30
0.0
 11
1850.0
 21
2669.408754
 31
0.0
  0
LINE
  5
7B02
  8
4
  6
CONTINUOUS
 10
650.0
 20
500.0
 30
0.0
 11
1850.0
 21
500.0
 31
0.0
  0
LINE
  5
7B03
  8
4
  6
CONTINUOUS
 10
250.0
 20
2669.408754
 30
0.0
 11
250.0
 21
2469.408754
 31
0.0
  0
TEXT
  5
7B04
  8
4
  6
CONTINUOUS
 10
468.92693300000002
 20
2382.3194779999999
 30
0.0
 40
54.0
  1
左回転右横向
  0
TEXT
  5
7B05
  8
4
  6
CONTINUOUS
 10
1468.9695589999999
 20
2706.0610809999998
 30
0.0
 40
56.0
  1
No.
  0
TEXT
  5
7B06
  8
4
  6
CONTINUOUS
 10
1311.296063
 20
2383.4288409999999
 30
0.0
 40
54.0
  1
縮尺：1/10
  0
LINE
  5
7B07
  8
4
  6
CONTINUOUS
 10
1850.0
 20
2669.408754
 30
0.0
 11
1850.0
 21
2469.408754
 31
0.0
  0
LINE
  5
7B09
  8
4
  6
CONTINUOUS
 10
1440.617422
 20
2681.2635829999999
 30
0.0
 11
1440.617422
 21
2786.6522620000001
 31
0.0
  0
LINE
  5
7B0A
  8
4
  6
CONTINUOUS
 10
1440.617422
 20
2786.6522620000001
 30
0.0
 11
1850.0
 21
2786.6522620000001
 31
0.0
  0
LINE
  5
7B0B
  8
4
  6
CONTINUOUS
 10
1850.0
 20
2786.6522620000001
 30
0.0
 11
1850.0
 21
2681.2635829999999
 31
0.0
  0
LINE
  5
7B0C
  8
4
  6
CONTINUOUS
 10
1850.0
 20
2681.2635829999999
 30
0.0
 11
1440.617422
 21
2681.2635829999999
 31
0.0
  0
DIMENSION
  5
7B24
  8
3
  6
CONTINUOUS
  2
*D1
 10
788.05262865996065
 20
1451.4666378715101
 30
0.0
 11
704.60786965996056
 21
1451.4666378715101
 31
0.0
 70
   128
 13
609.05262865996065
 23
1267.074955871509
 33
0.0
 14
788.05262865996065
 24
1417.64214487151
 34
0.0
1001
ACAD
1000
DSTYLE
1002
{
1070
   287
1070
     3
1070
   287
1070
     3
1070
    40
1040
10.0
1070
   143
1040
0.039
1070
   172
1070
     1
1070
   271
1070
     0
1070
   279
1070
     0
1070
   288
1070
     1
1002
}
  0
DIMENSION
  5
7B30
  8
3
  6
CONTINUOUS
  2
*D2
 10
948.05262865996065
 20
1451.4666378715101
 30
0.0
 11
868.05262865996065
 21
1476.466637871509
 31
0.0
 70
     0
 13
788.05262865996065
 23
1417.64214487151
 33
0.0
 14
948.05262865996065
 24
1288.074955871509
 34
0.0
1001
ACAD
1000
DSTYLE
1002
{
1070
   287
1070
     4
1070
   287
1070
     4
1070
    40
1040
10.0
1070
    75
1070
     1
1070
   143
1040
0.039
1070
   172
1070
     1
1070
   271
1070
     0
1070
   279
1070
     1
1070
   288
1070
     1
1002
}
  0
DIMENSION
  5
7B3D
  8
3
  6
CONTINUOUS
  2
*D3
 10
788.05262865996065
 20
913.13233387150979
 30
0.0
 11
561.6504886599605
 21
913.13233387150979
 31
0.0
 70
   128
 13
318.05262865996042
 23
992.07495587150993
 33
0.0
 14
788.05262865996065
 24
992.07495587150993
 34
0.0
1001
ACAD
1000
DSTYLE
1002
{
1070
   287
1070
     3
1070
   287
1070
     3
1070
    40
1040
10.0
1070
   143
1040
0.039
1070
   172
1070
     1
1070
   271
1070
     0
1070
   279
1070
     0
1070
   288
1070
     1
1002
}
  0
DIMENSION
  5
7B49
  8
3
  6
CONTINUOUS
  2
*D4
 10
948.05262865996065
 20
913.13233387150979
 30
0.0
 11
868.05262865996065
 21
938.13233387150979
 31
0.0
 70
     0
 13
788.05262865996065
 23
992.07495587150993
 33
0.0
 14
948.05262865996065
 24
992.07495587150993
 34
0.0
1001
ACAD
1000
DSTYLE
1002
{
1070
   287
1070
     4
1070
   287
1070
     4
1070
    40
1040
10.0
1070
    75
1070
     1
1070
   143
1040
0.039
1070
   172
1070
     1
1070
   271
1070
     0
1070
   279
1070
     1
1070
   288
1070
     1
1002
}
  0
DIMENSION
  5
7B56
  8
3
  6
CONTINUOUS
  2
*D5
 10
1007.05573465996
 20
1067.0749558715099
 30
0.0
 11
1007.05573465996
 21
1166.461759871509
 31
0.0
 70
   128
 13
948.05262865996065
 23
1267.074955871509
 33
0.0
 14
948.05262865996065
 24
1067.0749558715099
 34
0.0
 50
90.0
1001
ACAD
1000
DSTYLE
1002
{
1070
   287
1070
     3
1070
   287
1070
     3
1070
    40
1040
10.0
1070
   143
1040
0.039
1070
   172
1070
     1
1070
   271
1070
     0
1070
   279
1070
     0
1070
   288
1070
     1
1002
}
  0
DIMENSION
  5
7BAB
  8
3
  6
CONTINUOUS
  2
*D6
 10
1148.99452465996
 20
1267.074955871509
 30
0.0
 11
1148.99452465996
 21
1345.91227187151
 31
0.0
 70
   128
 13
788.05262865996065
 23
1417.64214487151
 33
0.0
 14
948.05262865996065
 24
1267.074955871509
 34
0.0
 50
90.0
1001
ACAD
1000
DSTYLE
1002
{
1070
   287
1070
     3
1070
   287
1070
     3
1070
    40
1040
10.0
1070
   143
1040
0.039
1070
   172
1070
     1
1070
   271
1070
     0
1070
   279
1070
     0
1070
   288
1070
     1
1002
}
  0
DIMENSION
  5
7BB7
  8
3
  6
CONTINUOUS
  2
*D7
 10
1148.99452465996
 20
992.07495587150993
 30
0.0
 11
1123.99452465996
 21
1129.5749558715099
 31
0.0
 70
     0
 13
948.05262865996065
 23
1267.074955871509
 33
0.0
 14
948.05262865996065
 24
992.07495587150993
 34
0.0
 50
90.0
1001
ACAD
1000
DSTYLE
1002
{
1070
   287
1070
     4
1070
   287
1070
     4
1070
    40
1040
10.0
1070
    75
1070
     1
1070
   143
1040
0.039
1070
   172
1070
     1
1070
   271
1070
     0
1070
   279
1070
     1
1070
   288
1070
     1
1002
}
  0
DIMENSION
  5
7BC4
  8
3
  6
CONTINUOUS
  2
*D8
 10
1215.33980465996
 20
992.07495587150993
 30
0.0
 11
1215.33980465996
 21
1197.4472158715089
 31
0.0
 70
   128
 13
788.05262865996065
 23
1417.64214487151
 33
0.0
 14
948.05262865996065
 24
992.07495587150993
 34
0.0
 50
90.0
1001
ACAD
1000
DSTYLE
1002
{
1070
   287
1070
     3
1070
   287
1070
     3
1070
    40
1040
10.0
1070
   143
1040
0.039
1070
   172
1070
     1
1070
   271
1070
     0
1070
   279
1070
     0
1070
   288
1070
     1
1002
}
  0
LINE
  5
7BC5
  8
2
  6
CENTER
 10
1640.51205765996
 20
1493.2056578715089
 30
0.0
 11
1640.51205765996
 21
1493.1992658715101
 31
0.0
  0
DIMENSION
  5
7BD3
  8
3
  6
CONTINUOUS
  2
*D9
 10
1710.51205765996
 20
1449.3075848715091
 30
0.0
 11
1636.22634265996
 21
1449.3075848715091
 31
0.0
 70
   128
 13
1570.51205765996
 23
1406.0749558715099
 33
0.0
 14
1710.51205765996
 24
1406.0749558715099
 34
0.0
1001
ACAD
1000
DSTYLE
1002
{
1070
   287
1070
     3
1070
   287
1070
     3
1070
    40
1040
10.0
1070
   143
1040
0.039
1070
   172
1070
     1
1070
   271
1070
     0
1070
   279
1070
     0
1070
   288
1070
     1
1002
}
  0
DIMENSION
  5
7BE0
  8
3
  6
CONTINUOUS
  2
*D10
 10
1640.51205765996
 20
1497.02849487151
 30
0.0
 11
1495.5228196599601
 21
1497.02849487151
 31
0.0
 70
   128
  1
MAX\P300
 13
1340.51205765996
 23
1377.0749558715099
 33
0.0
 14
1640.51205765996
 24
1493.2056578715089
 34
0.0
1001
ACAD
1000
DSTYLE
1002
{
1070
   287
1070
     3
1070
   287
1070
     3
1070
    40
1040
10.0
1070
   143
1040
0.039
1070
   172
1070
     1
1070
   271
1070
     0
1070
   279
1070
     0
1070
   288
1070
     1
1002
}
  0
DIMENSION
  5
7BEE
  8
3
  6
CONTINUOUS
  2
*D11
 10
1718.51205765996
 20
1497.02849487151
 30
0.0
 11
1675.68127565996
 21
1496.8853618715091
 31
0.0
 70
   128
 13
1640.51205765996
 23
1493.2056578715089
 33
0.0
 14
1718.51205765996
 24
1387.0749558715099
 34
0.0
1001
ACAD
1000
DSTYLE
1002
{
1070
   287
1070
     4
1070
   287
1070
     4
1070
    40
1040
10.0
1070
    75
1070
     1
1070
   143
1040
0.039
1070
   172
1070
     1
1070
   271
1070
     0
1070
   279
1070
     1
1070
   288
1070
     1
1002
}
  0
DIMENSION
  5
7BFC
  8
3
  6
CONTINUOUS
  2
*D12
 10
1640.51205765996
 20
919.41350487150976
 30
0.0
 11
1534.3625736599599
 21
919.41350487150976
 31
0.0
 70
   128
 13
1426.51205765996
 23
992.07495587150993
 33
0.0
 14
1640.51205765996
 24
992.07495587150993
 34
0.0
1001
ACAD
1000
DSTYLE
1002
{
1070
   287
1070
     3
1070
   287
1070
     3
1070
    40
1040
10.0
1070
   143
1040
0.039
1070
   172
1070
     1
1070
   271
1070
     0
1070
   279
1070
     0
1070
   288
1070
     1
1002
}
  0
DIMENSION
  5
7C0C
  8
3
  6
CONTINUOUS
  2
*D13
 10
1650.51205765996
 20
919.41350487150976
 30
0.0
 11
1685.5121346599601
 21
919.17101987150977
 31
0.0
 70
   128
 13
1640.51205765996
 23
992.07495587150993
 33
0.0
 14
1650.51205765996
 24
992.07495587150993
 34
0.0
1001
ACAD
1000
DSTYLE
1002
{
1070
   287
1070
     4
1070
   287
1070
     4
1070
    40
1040
10.0
1070
    75
1070
     1
1070
   143
1040
0.039
1070
   172
1070
     1
1070
   271
1070
     0
1070
   279
1070
     1
1070
   288
1070
     1
1002
}
  0
LINE
  5
7C3E
  8
3
  6
CONTINUOUS
 10
1718.51205765996
 20
1367.0749558715099
 30
0.0
 11
1732.20875865996
 21
1367.0749558715099
 31
0.0
  0
LINE
  5
7C40
  8
3
  6
CONTINUOUS
 10
1718.51205765996
 20
1167.0749558715099
 30
0.0
 11
1733.4376116599601
 21
1167.0749558715099
 31
0.0
  0
DIMENSION
  5
7C4D
  8
3
  6
CONTINUOUS
  2
*D14
 10
1793.65167665996
 20
1167.0749558715099
 30
0.0
 11
1793.65167665996
 21
1253.6463844429379
 31
0.0
 70
   128
 13
1718.51205765996
 23
1367.0749558715099
 33
0.0
 14
1718.51205765996
 24
1167.0749558715099
 34
0.0
 50
90.0
1001
ACAD
1000
DSTYLE
1002
{
1070
   287
1070
     3
1070
   287
1070
     3
1070
     3
1000
φ<>
1070
    40
1040
10.0
1070
   143
1040
0.039
1070
   172
1070
     1
1070
   271
1070
     0
1070
   279
1070
     0
1070
   288
1070
     1
1002
}
  0
DIMENSION
  5
7C5A
  8
3
  6
CONTINUOUS
  2
*D15
 10
948.05262865996065
 20
1684.5793141097629
 30
0.0
 11
621.9353056599607
 21
1684.5793141097629
 31
0.0
 70
   128
 13
318.05262865996042
 23
1872.998517109763
 33
0.0
 14
948.05262865996065
 24
1872.998517109763
 34
0.0
1001
ACAD
1000
DSTYLE
1002
{
1070
   287
1070
     3
1070
   287
1070
     3
1070
    40
1040
10.0
1070
   143
1040
0.039
1070
   172
1070
     1
1070
   271
1070
     0
1070
   279
1070
     0
1070
   288
1070
     1
1002
}
  0
LINE
  5
7C68
  8
2
  6
CENTER
 10
788.05262865996065
 20
1739.080090109763
 30
0.0
 11
788.05262865996065
 21
2197.2559671097638
 31
0.0
  0
LINE
  5
7C69
  8
2
  6
CENTER
 10
1324.57522665996
 20
1267.074955871509
 30
0.0
 11
1734.98315165996
 21
1267.074955871509
 31
0.0
  0
DIMENSION
  5
7CC0
  8
3
  6
CONTINUOUS
  2
*D16
 10
1088.9754116599599
 20
1056.0749558715099
 30
0.0
 11
1088.9754116599599
 21
1166.56259987151
 31
0.0
 70
   128
 13
947.05262865996053
 23
1267.074955871509
 33
0.0
 14
933.05262865996065
 24
1056.0749558715099
 34
0.0
 50
90.0
1001
ACAD
1000
DSTYLE
1002
{
1070
   287
1070
     3
1070
   287
1070
     3
1070
    40
1040
10.0
1070
   143
1040
0.039
1070
   172
1070
     1
1070
   271
1070
     0
1070
   279
1070
     0
1070
   288
1070
     1
1002
}
  0
LINE
  5
7CDB
  8
2
  6
CENTER
 10
1640.51205765996
 20
1454.380858871509
 30
0.0
 11
1640.51205765996
 21
948.23801287150991
 31
0.0
  0
LINE
  5
7CDC
  8
2
  6
CENTER
 10
972.17402065996066
 20
2086.9985171097628
 30
0.0
 11
552.68761265996045
 21
2086.9985171097628
 31
0.0
  0
DIMENSION
  5
7D07
  8
3
  2
*D17
 10
266.17331568052418
 20
1872.998517109763
 30
0.0
 11
266.1733156805239
 21
1983.800783433318
 31
0.0
 70
   128
 13
318.05262865996042
 23
2096.9985171097628
 33
0.0
 14
318.05262865996042
 24
1872.998517109763
 34
0.0
 50
90.0
1001
ACAD
1000
DSTYLE
1002
{
1070
   287
1070
     3
1070
   287
1070
     3
1070
    40
1040
10.0
1070
   143
1040
0.039
1070
   172
1070
     1
1070
   271
1070
     0
1070
   279
1070
     0
1070
   288
1070
     1
1002
}
  0
DIMENSION
  5
7D2A
  8
3
  2
*D18
 10
318.05262865996042
 20
1508.6317640934519
 30
0.0
 11
609.97947548525917
 21
1508.6317640934519
 31
0.0
 70
   128
 13
948.05262865996065
 23
1293.074955871509
 33
0.0
 14
318.05262865996042
 24
1042.0749558715099
 34
0.0
1001
ACAD
1000
DSTYLE
1002
{
1070
   287
1070
     3
1070
   287
1070
     3
1070
    40
1040
10.0
1070
   143
1040
0.039
1070
   172
1070
     1
1070
   271
1070
     0
1070
   279
1070
     0
1070
   288
1070
     1
1002
}
  0
ENDSEC
  0
EOF
