  0
SECTION
  2
HEADER
  9
$ACADVER
  1
AC1009
  9
$INSBASE
 10
0.0
 20
0.0
 30
0.0
  9
$EXTMIN
 10
250.0
 20
300.0
 30
0.0
  9
$EXTMAX
 10
1850.0
 20
2786.6522620000001
 30
0.0
  9
$LIMMIN
 10
0.0
 20
0.0
  9
$LIMMAX
 10
297.0
 20
210.0
  9
$ORTHOMODE
 70
     0
  9
$REGENMODE
 70
     1
  9
$FILLMODE
 70
     0
  9
$QTEXTMODE
 70
     0
  9
$MIRRTEXT
 70
     1
  9
$DRAGMODE
 70
     2
  9
$LTSCALE
 40
100.0
  9
$OSMODE
 70
    37
  9
$ATTMODE
 70
     1
  9
$TEXTSIZE
 40
180.0
  9
$TRACEWID
 40
0.05
  9
$TEXTSTYLE
  7
STANDARD
  9
$CLAYER
  8
3
  9
$CELTYPE
  6
BYLAYER
  9
$CECOLOR
 62
   256
  9
$DIMSCALE
 40
10.0
  9
$DIMASZ
 40
2.0
  9
$DIMEXO
 40
0.5
  9
$DIMDLI
 40
10.0
  9
$DIMRND
 40
0.0
  9
$DIMDLE
 40
0.0
  9
$DIMEXE
 40
1.0
  9
$DIMTP
 40
1.0
  9
$DIMTM
 40
1.0
  9
$DIMTXT
 40
3.0
  9
$DIMCEN
 40
0.0
  9
$DIMTSZ
 40
0.0
  9
$DIMTOL
 70
     0
  9
$DIMLIM
 70
     0
  9
$DIMTIH
 70
     0
  9
$DIMTOH
 70
     0
  9
$DIMSE1
 70
     0
  9
$DIMSE2
 70
     0
  9
$DIMTAD
 70
     1
  9
$DIMZIN
 70
     8
  9
$DIMBLK
  1

  9
$DIMASO
 70
     1
  9
$DIMSHO
 70
     1
  9
$DIMPOST
  1

  9
$DIMAPOST
  1

  9
$DIMALT
 70
     0
  9
$DIMALTD
 70
     2
  9
$DIMALTF
 40
0.039
  9
$DIMLFAC
 40
1.0
  9
$DIMTOFL
 70
     1
  9
$DIMTVP
 40
0.0
  9
$DIMTIX
 70
     0
  9
$DIMSOXD
 70
     0
  9
$DIMSAH
 70
     1
  9
$DIMBLK1
  1
OPEN
  9
$DIMBLK2
  1
OPEN
  9
$DIMSTYLE
  2
IGA
  9
$DIMCLRD
 70
     0
  9
$DIMCLRE
 70
     0
  9
$DIMCLRT
 70
     0
  9
$DIMTFAC
 40
10.0
  9
$DIMGAP
 40
1.0
  9
$LUNITS
 70
     2
  9
$LUPREC
 70
     3
  9
$SKETCHINC
 40
0.1
  9
$FILLETRAD
 40
50.0
  9
$AUNITS
 70
     0
  9
$AUPREC
 70
     0
  9
$MENU
  1
acad
  9
$ELEVATION
 40
0.0
  9
$PELEVATION
 40
0.0
  9
$THICKNESS
 40
0.0
  9
$LIMCHECK
 70
     0
  9
$BLIPMODE
 70
     0
  9
$CHAMFERA
 40
0.5
  9
$CHAMFERB
 40
0.5
  9
$SKPOLY
 70
     0
  9
$TDCREATE
 40
2450737.4245364582
  9
$TDUPDATE
 40
2454953.8615182978
  9
$TDINDWG
 40
0.0034246412
  9
$TDUSRTIMER
 40
0.0034246412
  9
$USRTIMER
 70
     1
  9
$ANGBASE
 50
0.0
  9
$ANGDIR
 70
     0
  9
$PDMODE
 70
     0
  9
$PDSIZE
 40
0.0
  9
$PLINEWID
 40
0.0
  9
$COORDS
 70
     1
  9
$SPLFRAME
 70
     0
  9
$SPLINETYPE
 70
     6
  9
$SPLINESEGS
 70
     8
  9
$ATTDIA
 70
     0
  9
$ATTREQ
 70
     1
  9
$HANDLING
 70
 10241
  9
$HANDSEED
  5
7E3A
  9
$SURFTAB1
 70
     6
  9
$SURFTAB2
 70
     6
  9
$SURFTYPE
 70
     6
  9
$SURFU
 70
     6
  9
$SURFV
 70
     6
  9
$UCSNAME
  2

  9
$UCSORG
 10
0.0
 20
0.0
 30
0.0
  9
$UCSXDIR
 10
1.0
 20
0.0
 30
0.0
  9
$UCSYDIR
 10
0.0
 20
1.0
 30
0.0
  9
$PUCSNAME
  2

  9
$PUCSORG
 10
0.0
 20
0.0
 30
0.0
  9
$PUCSXDIR
 10
1.0
 20
0.0
 30
0.0
  9
$PUCSYDIR
 10
0.0
 20
1.0
 30
0.0
  9
$USERI1
 70
     0
  9
$USERI2
 70
     0
  9
$USERI3
 70
     0
  9
$USERI4
 70
     0
  9
$USERI5
 70
     0
  9
$USERR1
 40
0.0
  9
$USERR2
 40
0.0
  9
$USERR3
 40
0.0
  9
$USERR4
 40
0.0
  9
$USERR5
 40
0.0
  9
$WORLDVIEW
 70
     1
  9
$SHADEDGE
 70
     3
  9
$SHADEDIF
 70
    70
  9
$TILEMODE
 70
     1
  9
$MAXACTVP
 70
    16
  9
$PLIMCHECK
 70
     0
  9
$PEXTMIN
 10
1.0000000000000000E+020
 20
1.0000000000000000E+020
 30
1.0000000000000000E+020
  9
$PEXTMAX
 10
-1.0000000000000000E+020
 20
-1.0000000000000000E+020
 30
-1.0000000000000000E+020
  9
$PLIMMIN
 10
0.0
 20
0.0
  9
$PLIMMAX
 10
12.0
 20
9.0
  9
$UNITMODE
 70
     0
  9
$VISRETAIN
 70
     0
  9
$PLINEGEN
 70
     0
  9
$PSLTSCALE
 70
     1
  0
ENDSEC
  0
SECTION
  2
TABLES
  0
TABLE
  2
VPORT
 70
     2
  0
VPORT
  2
*ACTIVE
 70
     0
 10
0.0
 20
0.0
 11
1.0
 21
1.0
 12
2571.138091399524
 22
1787.404307055092
 13
0.0
 23
0.0
 14
10.0
 24
10.0
 15
10.0
 25
10.0
 16
0.0
 26
0.0
 36
1.0
 17
0.0
 27
0.0
 37
0.0
 40
3384.7202297544959
 41
1.5051150895140659
 42
50.0
 43
0.0
 44
0.0
 50
0.0
 51
0.0
 71
     0
 72
   100
 73
     1
 74
     0
 75
     0
 76
     0
 77
     0
 78
     0
  0
ENDTAB
  0
TABLE
  2
LTYPE
 70
     2
  0
LTYPE
  2
CONTINUOUS
 70
     0
  3
Solid line
 72
    65
 73
     0
 40
0.0
  0
LTYPE
  2
CENTER
 70
     0
  3
____ _ ____ _ ____ _ ____ _ ____ _ ____ _ ____ 
 72
    65
 73
     4
 40
2.0
 49
1.25
 49
-0.25
 49
0.25
 49
-0.25
  0
ENDTAB
  0
TABLE
  2
LAYER
 70
     6
  0
LAYER
  2
0
 70
     0
 62
     7
  6
CONTINUOUS
  0
LAYER
  2
3
 70
     0
 62
     2
  6
CONTINUOUS
  0
LAYER
  2
2
 70
     0
 62
     3
  6
CENTER
  0
LAYER
  2
1
 70
     0
 62
     4
  6
CONTINUOUS
  0
LAYER
  2
4
 70
     0
 62
     7
  6
CONTINUOUS
  0
LAYER
  2
DEFPOINTS
 70
     0
 62
     7
  6
CONTINUOUS
  0
ENDTAB
  0
TABLE
  2
STYLE
 70
     1
  0
STYLE
  2
STANDARD
 70
     0
 40
0.0
 41
1.0
 50
0.0
 71
     0
 42
180.0
  3
simplex.shx
  4
extfont.shx
  0
ENDTAB
  0
TABLE
  2
VIEW
 70
     0
  0
ENDTAB
  0
TABLE
  2
UCS
 70
     0
  0
ENDTAB
  0
TABLE
  2
APPID
 70
     1
  0
APPID
  2
ACAD
 70
     0
  0
ENDTAB
  0
TABLE
  2
DIMSTYLE
 70
     1
  0
DIMSTYLE
  2
IGA
 70
     0
  3

  4

  5

  6
OPEN
  7
OPEN
 40
2.0
 41
2.0
 42
0.5
 43
10.0
 44
1.0
 45
0.0
 46
0.0
 47
1.0
 48
1.0
140
3.0
141
0.0
142
0.0
143
0.03937
144
1.0
145
0.0
146
10.0
147
1.0
 71
     0
 72
     0
 73
     0
 74
     0
 75
     0
 76
     0
 77
     1
 78
     8
170
     0
171
     2
172
     0
173
     1
174
     0
175
     0
176
     0
177
     0
178
     0
  0
ENDTAB
  0
ENDSEC
  0
SECTION
  2
BLOCKS
  0
BLOCK
  8
0
  2
$MODEL_SPACE
 70
     0
 10
0.0
 20
0.0
 30
0.0
  3
$MODEL_SPACE
  1

  0
ENDBLK
  5
1B
  8
0
  0
BLOCK
 67
     1
  8
0
  2
$PAPER_SPACE
 70
     0
 10
0.0
 20
0.0
 30
0.0
  3
$PAPER_SPACE
  1

  0
ENDBLK
  5
18
 67
     1
  8
0
  0
BLOCK
  8
0
  2
_OPEN
 70
     0
 10
0.0
 20
0.0
 30
0.0
  3
_OPEN
  1

  0
LINE
  5
7B17
  8
0
  6
BYBLOCK
 62
     0
 10
-1.0
 20
0.166667
 30
0.0
 11
0.0
 21
0.0
 31
0.0
  0
LINE
  5
7B18
  8
0
  6
BYBLOCK
 62
     0
 10
0.0
 20
0.0
 30
0.0
 11
-1.0
 21
-0.166667
 31
0.0
  0
LINE
  5
7B19
  8
0
  6
BYBLOCK
 62
     0
 10
0.0
 20
0.0
 30
0.0
 11
-1.0
 21
0.0
 31
0.0
  0
ENDBLK
  5
7B1A
  8
0
  0
BLOCK
  8
0
  2
*D1
 70
     1
 10
0.0
 20
0.0
 30
0.0
  3
*D1
  1

  0
LINE
  5
7D92
  8
3
  6
CONTINUOUS
 62
     0
 10
1384.2179317434659
 20
824.07967377668012
 30
0.0
 11
1384.2179317434659
 21
757.5750497766802
 31
0.0
  0
LINE
  5
7D93
  8
3
  6
CONTINUOUS
 62
     0
 10
1598.217931743467
 20
824.07967377668012
 30
0.0
 11
1598.217931743467
 21
757.5750497766802
 31
0.0
  0
LINE
  5
7D94
  8
3
  6
CONTINUOUS
 62
     0
 10
1404.2179317434659
 20
767.57504977668009
 30
0.0
 11
1578.2179317434659
 21
767.57504977668009
 31
0.0
  0
INSERT
  5
7D95
  8
3
  6
CONTINUOUS
 62
     0
  2
_OPEN
 10
1384.2179317434659
 20
767.57504977668009
 30
0.0
 41
20.0
 42
20.0
 43
20.0
 50
180.0
  0
INSERT
  5
7D96
  8
3
  6
CONTINUOUS
 62
     0
  2
_OPEN
 10
1598.217931743467
 20
767.57504977668009
 30
0.0
 41
20.0
 42
20.0
 43
20.0
  0
TEXT
  8
3
  40
30
  5
7E28
  62
0
  72
0
  71
0
 10
1438.69
 20
739.475
 30
0.000000
  1
214
  0
POINT
  5
7D98
  8
DEFPOINTS
  6
CONTINUOUS
 62
     0
 10
1384.2179317434659
 20
829.07967377668024
 30
0.0
  0
POINT
  5
7D99
  8
DEFPOINTS
  6
CONTINUOUS
 62
     0
 10
1598.217931743467
 20
829.07967377668024
 30
0.0
  0
POINT
  5
7D9A
  8
DEFPOINTS
  6
CONTINUOUS
 62
     0
 10
1598.217931743467
 20
767.57504977668009
 30
0.0
  0
ENDBLK
  5
7B27
  8
0
  0
BLOCK
  8
0
  2
*D2
 70
     1
 10
0.0
 20
0.0
 30
0.0
  3
*D2
  1

  0
LINE
  5
7D9B
  8
3
  6
CONTINUOUS
 62
     0
 10
1608.217931743467
 20
824.07967377668012
 30
0.0
 11
1608.217931743467
 21
757.5750497766802
 31
0.0
  0
LINE
  5
7D9C
  8
3
  6
CONTINUOUS
 62
     0
 10
1578.2179317434659
 20
767.57504977668009
 30
0.0
 11
1558.217931743467
 21
767.57504977668009
 31
0.0
  0
LINE
  5
7D9D
  8
3
  6
CONTINUOUS
 62
     0
 10
1628.2179317434659
 20
767.57504977668009
 30
0.0
 11
1648.2179317434659
 21
767.57504977668009
 31
0.0
  0
TEXT
  8
3
  40
30
  5
7E29
  62
0
  72
0
  71
0
 10
1589.17
 20
739.228
 30
0.000000
  1
10
  0
LINE
  5
7D9F
  8
3
  6
CONTINUOUS
 62
     0
 10
1598.217931743467
 20
767.57504977668009
 30
0.0
 11
1608.217931743467
 21
767.57504977668009
 31
0.0
  0
INSERT
  5
7DA0
  8
3
  6
CONTINUOUS
 62
     0
  2
_OPEN
 10
1598.217931743467
 20
767.57504977668009
 30
0.0
 41
20.0
 42
20.0
 43
20.0
  0
INSERT
  5
7DA1
  8
3
  6
CONTINUOUS
 62
     0
  2
_OPEN
 10
1608.217931743467
 20
767.57504977668009
 30
0.0
 41
20.0
 42
20.0
 43
20.0
 50
180.0
  0
POINT
  5
7DA2
  8
DEFPOINTS
  6
CONTINUOUS
 62
     0
 10
1598.217931743467
 20
829.07967377668024
 30
0.0
  0
POINT
  5
7DA3
  8
DEFPOINTS
  6
CONTINUOUS
 62
     0
 10
1608.217931743467
 20
829.07967377668024
 30
0.0
  0
POINT
  5
7DA4
  8
DEFPOINTS
  6
CONTINUOUS
 62
     0
 10
1608.217931743467
 20
767.57504977668009
 30
0.0
  0
ENDBLK
  5
7B52
  8
0
  0
BLOCK
  8
0
  2
*D3
 70
     1
 10
0.0
 20
0.0
 30
0.0
  3
*D3
  1

  0
LINE
  5
7DA5
  8
3
  6
CONTINUOUS
 62
     0
 10
1528.2179317434659
 20
1269.07967377668
 30
0.0
 11
1528.2179317434659
 21
1303.98185977668
 31
0.0
  0
LINE
  5
7DA6
  8
3
  6
CONTINUOUS
 62
     0
 10
1668.2179317434659
 20
1269.07967377668
 30
0.0
 11
1668.2179317434659
 21
1303.98185977668
 31
0.0
  0
LINE
  5
7DA7
  8
3
  6
CONTINUOUS
 62
     0
 10
1548.217931743467
 20
1293.98185977668
 30
0.0
 11
1648.2179317434659
 21
1293.98185977668
 31
0.0
  0
INSERT
  5
7DA8
  8
3
  6
CONTINUOUS
 62
     0
  2
_OPEN
 10
1528.2179317434659
 20
1293.98185977668
 30
0.0
 41
20.0
 42
20.0
 43
20.0
 50
180.0
  0
INSERT
  5
7DA9
  8
3
  6
CONTINUOUS
 62
     0
  2
_OPEN
 10
1668.2179317434659
 20
1293.98185977668
 30
0.0
 41
20.0
 42
20.0
 43
20.0
  0
TEXT
  8
3
  40
30
  5
7E2A
  62
0
  72
0
  71
0
 10
1542.50
 20
1265.88
 30
0.000000
  1
140
  0
POINT
  5
7DAB
  8
DEFPOINTS
  6
CONTINUOUS
 62
     0
 10
1528.2179317434659
 20
1264.07967377668
 30
0.0
  0
POINT
  5
7DAC
  8
DEFPOINTS
  6
CONTINUOUS
 62
     0
 10
1668.2179317434659
 20
1264.07967377668
 30
0.0
  0
POINT
  5
7DAD
  8
DEFPOINTS
  6
CONTINUOUS
 62
     0
 10
1668.2179317434659
 20
1293.98185977668
 30
0.0
  0
ENDBLK
  5
7B5E
  8
0
  0
BLOCK
  8
0
  2
*D4
 70
     1
 10
0.0
 20
0.0
 30
0.0
  3
*D4
  1

  0
LINE
  5
7DAE
  8
3
  6
CONTINUOUS
 62
     0
 10
1298.217931743467
 20
1219.07967377668
 30
0.0
 11
1298.217931743467
 21
1362.86159477668
 31
0.0
  0
LINE
  5
7DAF
  8
3
  6
CONTINUOUS
 62
     0
 10
1598.217931743467
 20
1342.8874637766801
 30
0.0
 11
1598.217931743467
 21
1362.86159477668
 31
0.0
  0
LINE
  5
7DB0
  8
3
  6
CONTINUOUS
 62
     0
 10
1318.217931743467
 20
1352.86159477668
 30
0.0
 11
1578.2179317434659
 21
1352.86159477668
 31
0.0
  0
INSERT
  5
7DB1
  8
3
  6
CONTINUOUS
 62
     0
  2
_OPEN
 10
1298.217931743467
 20
1352.86159477668
 30
0.0
 41
20.0
 42
20.0
 43
20.0
 50
180.0
  0
INSERT
  5
7DB2
  8
3
  6
CONTINUOUS
 62
     0
  2
_OPEN
 10
1598.217931743467
 20
1352.86159477668
 30
0.0
 41
20.0
 42
20.0
 43
20.0
  0
TEXT
  8
3
  40
30
  5
7E2B
  62
0
  72
0
  71
0
 10
1388.53
 20
1349.76
 30
0.000000
  1
MAX
  0
TEXT
  8
3
  40
30
  5
7E2C
  62
0
  72
0
  71
0
 10
1388.53
 20
1310.76
 30
0.000000
  1
300
  0
POINT
  5
7DB4
  8
DEFPOINTS
  6
CONTINUOUS
 62
     0
 10
1298.217931743467
 20
1214.07967377668
 30
0.0
  0
POINT
  5
7DB5
  8
DEFPOINTS
  6
CONTINUOUS
 62
     0
 10
1598.217931743467
 20
1337.8874637766801
 30
0.0
  0
POINT
  5
7DB6
  8
DEFPOINTS
  6
CONTINUOUS
 62
     0
 10
1598.217931743467
 20
1352.86159477668
 30
0.0
  0
ENDBLK
  5
7C75
  8
0
  0
BLOCK
  8
0
  2
*D5
 70
     1
 10
0.0
 20
0.0
 30
0.0
  3
*D5
  1

  0
LINE
  5
7DB7
  8
3
  6
CONTINUOUS
 62
     0
 10
1676.2179317434659
 20
1229.07967377668
 30
0.0
 11
1676.2179317434659
 21
1362.86159477668
 31
0.0
  0
LINE
  5
7DB8
  8
3
  6
CONTINUOUS
 62
     0
 10
1618.2179317434659
 20
1352.86159477668
 30
0.0
 11
1656.217931743467
 21
1352.86159477668
 31
0.0
  0
TEXT
  8
3
  40
30
  5
7E2D
  62
0
  72
0
  71
0
 10
1571.61
 20
1325.01
 30
0.000000
  1
78
  0
INSERT
  5
7DBA
  8
3
  6
CONTINUOUS
 62
     0
  2
_OPEN
 10
1598.217931743467
 20
1352.86159477668
 30
0.0
 41
20.0
 42
20.0
 43
20.0
 50
180.0
  0
INSERT
  5
7DBB
  8
3
  6
CONTINUOUS
 62
     0
  2
_OPEN
 10
1676.2179317434659
 20
1352.86159477668
 30
0.0
 41
20.0
 42
20.0
 43
20.0
  0
POINT
  5
7DBC
  8
DEFPOINTS
  6
CONTINUOUS
 62
     0
 10
1598.217931743467
 20
1337.8874637766801
 30
0.0
  0
POINT
  5
7DBD
  8
DEFPOINTS
  6
CONTINUOUS
 62
     0
 10
1676.2179317434659
 20
1224.07967377668
 30
0.0
  0
POINT
  5
7DBE
  8
DEFPOINTS
  6
CONTINUOUS
 62
     0
 10
1676.2179317434659
 20
1352.86159477668
 30
0.0
  0
ENDBLK
  5
7C43
  8
0
  0
BLOCK
  8
0
  2
*D6
 70
     1
 10
0.0
 20
0.0
 30
0.0
  3
*D6
  1

  0
LINE
  5
7DBF
  8
3
  6
CONTINUOUS
 62
     0
 10
1681.217931743467
 20
1204.07967377668
 30
0.0
 11
1753.2194007434671
 21
1204.07967377668
 31
0.0
  0
LINE
  5
7DC0
  8
3
  6
CONTINUOUS
 62
     0
 10
1681.217931743467
 20
1004.07967377668
 30
0.0
 11
1753.2194007434671
 21
1004.07967377668
 31
0.0
  0
LINE
  5
7DC1
  8
3
  6
CONTINUOUS
 62
     0
 10
1743.2194007434671
 20
1184.07967377668
 30
0.0
 11
1743.2194007434671
 21
1024.0796737766791
 31
0.0
  0
INSERT
  5
7DC2
  8
3
  6
CONTINUOUS
 62
     0
  2
_OPEN
 10
1743.2194007434671
 20
1204.07967377668
 30
0.0
 41
20.0
 42
20.0
 43
20.0
 50
90.0
  0
INSERT
  5
7DC3
  8
3
  6
CONTINUOUS
 62
     0
  2
_OPEN
 10
1743.2194007434671
 20
1004.07967377668
 30
0.0
 41
20.0
 42
20.0
 43
20.0
 50
270.0
  0
TEXT
  8
3
  40
30
  5
7E2E
  62
0
  72
0
  71
0
 10
1658.22
 20
1064.41
 30
0.000000
  1
φ200
  0
POINT
  5
7DC5
  8
DEFPOINTS
  6
CONTINUOUS
 62
     0
 10
1676.2179317434659
 20
1204.07967377668
 30
0.0
  0
POINT
  5
7DC6
  8
DEFPOINTS
  6
CONTINUOUS
 62
     0
 10
1676.2179317434659
 20
1004.07967377668
 30
0.0
  0
POINT
  5
7DC7
  8
DEFPOINTS
  6
CONTINUOUS
 62
     0
 10
1743.2194007434671
 20
1004.07967377668
 30
0.0
  0
ENDBLK
  5
7C80
  8
0
  0
BLOCK
  8
0
  2
*D7
 70
     1
 10
0.0
 20
0.0
 30
0.0
  3
*D7
  1

  0
LINE
  5
7DC8
  8
3
  6
CONTINUOUS
 62
     0
 10
387.07137899999992
 20
824.07967377668012
 30
0.0
 11
387.07137899999992
 21
749.93469077668021
 31
0.0
  0
LINE
  5
7DC9
  8
3
  6
CONTINUOUS
 62
     0
 10
547.07137899999987
 20
824.07967377668012
 30
0.0
 11
547.07137899999987
 21
749.93469077668021
 31
0.0
  0
LINE
  5
7DCA
  8
3
  6
CONTINUOUS
 62
     0
 10
407.07137899999998
 20
759.9346907766801
 30
0.0
 11
527.07137899999998
 21
759.9346907766801
 31
0.0
  0
INSERT
  5
7DCB
  8
3
  6
CONTINUOUS
 62
     0
  2
_OPEN
 10
387.07137899999992
 20
759.9346907766801
 30
0.0
 41
20.0
 42
20.0
 43
20.0
 50
180.0
  0
INSERT
  5
7DCC
  8
3
  6
CONTINUOUS
 62
     0
  2
_OPEN
 10
547.07137899999987
 20
759.9346907766801
 30
0.0
 41
20.0
 42
20.0
 43
20.0
  0
TEXT
  8
3
  40
30
  5
7E2F
  62
0
  72
0
  71
0
 10
404.862
 20
731.835
 30
0.000000
  1
160
  0
POINT
  5
7DCE
  8
DEFPOINTS
  6
CONTINUOUS
 62
     0
 10
387.07137899999992
 20
829.07967377668024
 30
0.0
  0
POINT
  5
7DCF
  8
DEFPOINTS
  6
CONTINUOUS
 62
     0
 10
547.07137899999987
 20
829.07967377668024
 30
0.0
  0
POINT
  5
7DD0
  8
DEFPOINTS
  6
CONTINUOUS
 62
     0
 10
547.07137899999987
 20
759.9346907766801
 30
0.0
  0
ENDBLK
  5
7BAD
  8
0
  0
BLOCK
  8
0
  2
*D8
 70
     1
 10
0.0
 20
0.0
 30
0.0
  3
*D8
  1

  0
LINE
  5
7DD1
  8
3
  6
CONTINUOUS
 62
     0
 10
1017.071378999999
 20
824.07967377668012
 30
0.0
 11
1017.071378999999
 21
749.93469077668021
 31
0.0
  0
LINE
  5
7DD2
  8
3
  6
CONTINUOUS
 62
     0
 10
567.07137899999987
 20
759.9346907766801
 30
0.0
 11
997.07137899999987
 21
759.9346907766801
 31
0.0
  0
INSERT
  5
7DD3
  8
3
  6
CONTINUOUS
 62
     0
  2
_OPEN
 10
547.07137899999987
 20
759.9346907766801
 30
0.0
 41
20.0
 42
20.0
 43
20.0
 50
180.0
  0
INSERT
  5
7DD4
  8
3
  6
CONTINUOUS
 62
     0
  2
_OPEN
 10
1017.071378999999
 20
759.9346907766801
 30
0.0
 41
20.0
 42
20.0
 43
20.0
  0
TEXT
  8
3
  40
30
  5
7E30
  62
0
  72
0
  71
0
 10
722.071
 20
731.835
 30
0.000000
  1
470
  0
POINT
  5
7DD6
  8
DEFPOINTS
  6
CONTINUOUS
 62
     0
 10
547.07137899999987
 20
829.07967377668024
 30
0.0
  0
POINT
  5
7DD7
  8
DEFPOINTS
  6
CONTINUOUS
 62
     0
 10
1017.071378999999
 20
829.07967377668024
 30
0.0
  0
POINT
  5
7DD8
  8
DEFPOINTS
  6
CONTINUOUS
 62
     0
 10
1017.071378999999
 20
759.9346907766801
 30
0.0
  0
ENDBLK
  5
7BB9
  8
0
  0
BLOCK
  8
0
  2
*D9
 70
     1
 10
0.0
 20
0.0
 30
0.0
  3
*D9
  1

  0
LINE
  5
7DD9
  8
3
  6
CONTINUOUS
 62
     0
 10
773.07137899999998
 20
1264.07967377668
 30
0.0
 11
1094.4927138876351
 21
1264.07967377668
 31
0.0
  0
LINE
  5
7DDA
  8
3
  6
CONTINUOUS
 62
     0
 10
762.41386
 20
1104.07967377668
 30
0.0
 11
1094.4927138876351
 21
1104.07967377668
 31
0.0
  0
LINE
  5
7DDB
  8
3
  6
CONTINUOUS
 62
     0
 10
1084.4927138876351
 20
1244.07967377668
 30
0.0
 11
1084.4927138876351
 21
1124.07967377668
 31
0.0
  0
INSERT
  5
7DDC
  8
3
  6
CONTINUOUS
 62
     0
  2
_OPEN
 10
1084.4927138876351
 20
1264.07967377668
 30
0.0
 41
20.0
 42
20.0
 43
20.0
 50
90.0
  0
INSERT
  5
7DDD
  8
3
  6
CONTINUOUS
 62
     0
  2
_OPEN
 10
1084.4927138876351
 20
1104.07967377668
 30
0.0
 41
20.0
 42
20.0
 43
20.0
 50
270.0
  0
TEXT
  8
3
  40
30
  5
7E31
  62
0
  72
0
  71
0
 10
999.493
 20
1145.27
 30
0.000000
  1
160
  0
POINT
  5
7DDF
  8
DEFPOINTS
  6
CONTINUOUS
 62
     0
 10
768.07137899999987
 20
1264.07967377668
 30
0.0
  0
POINT
  5
7DE0
  8
DEFPOINTS
  6
CONTINUOUS
 62
     0
 10
757.41386
 20
1104.07967377668
 30
0.0
  0
POINT
  5
7DE1
  8
DEFPOINTS
  6
CONTINUOUS
 62
     0
 10
1084.4927138876351
 20
1104.07967377668
 30
0.0
  0
ENDBLK
  5
7CAD
  8
0
  0
BLOCK
  8
0
  2
*D10
 70
     1
 10
0.0
 20
0.0
 30
0.0
  3
*D10
  1

  0
LINE
  5
7DE2
  8
3
  6
CONTINUOUS
 62
     0
 10
1022.071379
 20
829.07967377668024
 30
0.0
 11
1094.4927138876351
 21
829.07967377668024
 31
0.0
  0
LINE
  5
7DE3
  8
3
  6
CONTINUOUS
 62
     0
 10
1084.4927138876351
 20
1084.07967377668
 30
0.0
 11
1084.4927138876351
 21
849.07967377668012
 31
0.0
  0
INSERT
  5
7DE4
  8
3
  6
CONTINUOUS
 62
     0
  2
_OPEN
 10
1084.4927138876351
 20
1104.07967377668
 30
0.0
 41
20.0
 42
20.0
 43
20.0
 50
90.0
  0
INSERT
  5
7DE5
  8
3
  6
CONTINUOUS
 62
     0
  2
_OPEN
 10
1084.4927138876351
 20
829.07967377668024
 30
0.0
 41
20.0
 42
20.0
 43
20.0
 50
270.0
  0
TEXT
  8
3
  40
30
  5
7E32
  62
0
  72
0
  71
0
 10
999.493
 20
913.480
 30
0.000000
  1
275
  0
POINT
  5
7DE7
  8
DEFPOINTS
  6
CONTINUOUS
 62
     0
 10
757.41386
 20
1104.07967377668
 30
0.0
  0
POINT
  5
7DE8
  8
DEFPOINTS
  6
CONTINUOUS
 62
     0
 10
1017.071378999999
 20
829.07967377668024
 30
0.0
  0
POINT
  5
7DE9
  8
DEFPOINTS
  6
CONTINUOUS
 62
     0
 10
1084.4927138876351
 20
829.07967377668024
 30
0.0
  0
ENDBLK
  5
7CA2
  8
0
  0
BLOCK
  8
0
  2
*D11
 70
     1
 10
0.0
 20
0.0
 30
0.0
  3
*D11
  1

  0
LINE
  5
7DEA
  8
3
  6
CONTINUOUS
 62
     0
 10
773.07137899999998
 20
1264.07967377668
 30
0.0
 11
1152.154352
 21
1264.07967377668
 31
0.0
  0
LINE
  5
7DEB
  8
3
  6
CONTINUOUS
 62
     0
 10
1022.071379
 20
829.07967377668024
 30
0.0
 11
1152.154352
 21
829.07967377668024
 31
0.0
  0
LINE
  5
7DEC
  8
3
  6
CONTINUOUS
 62
     0
 10
1142.154352
 20
1244.07967377668
 30
0.0
 11
1142.154352
 21
849.07967377668012
 31
0.0
  0
INSERT
  5
7DED
  8
3
  6
CONTINUOUS
 62
     0
  2
_OPEN
 10
1142.154352
 20
1264.07967377668
 30
0.0
 41
20.0
 42
20.0
 43
20.0
 50
90.0
  0
INSERT
  5
7DEE
  8
3
  6
CONTINUOUS
 62
     0
  2
_OPEN
 10
1142.154352
 20
829.07967377668024
 30
0.0
 41
20.0
 42
20.0
 43
20.0
 50
270.0
  0
TEXT
  8
3
  40
30
  5
7E33
  62
0
  72
0
  71
0
 10
1057.15
 20
991.459
 30
0.000000
  1
435
  0
POINT
  5
7DF0
  8
DEFPOINTS
  6
CONTINUOUS
 62
     0
 10
768.07137899999987
 20
1264.07967377668
 30
0.0
  0
POINT
  5
7DF1
  8
DEFPOINTS
  6
CONTINUOUS
 62
     0
 10
1017.071378999999
 20
829.07967377668024
 30
0.0
  0
POINT
  5
7DF2
  8
DEFPOINTS
  6
CONTINUOUS
 62
     0
 10
1142.154352
 20
829.07967377668024
 30
0.0
  0
ENDBLK
  5
7BDF
  8
0
  0
BLOCK
  8
0
  2
*D12
 70
     1
 10
0.0
 20
0.0
 30
0.0
  3
*D12
  1

  0
LINE
  5
7DF3
  8
3
  6
CONTINUOUS
 62
     0
 10
547.07137899999987
 20
1269.07967377668
 30
0.0
 11
547.07137899999987
 21
1314.7730897766801
 31
0.0
  0
LINE
  5
7DF4
  8
3
  6
CONTINUOUS
 62
     0
 10
747.07137899999987
 20
1269.07967377668
 30
0.0
 11
747.07137899999987
 21
1314.7730897766801
 31
0.0
  0
LINE
  5
7DF5
  8
3
  6
CONTINUOUS
 62
     0
 10
567.07137899999987
 20
1304.7730897766801
 30
0.0
 11
727.07137899999998
 21
1304.7730897766801
 31
0.0
  0
INSERT
  5
7DF6
  8
3
  6
CONTINUOUS
 62
     0
  2
_OPEN
 10
547.07137899999987
 20
1304.7730897766801
 30
0.0
 41
20.0
 42
20.0
 43
20.0
 50
180.0
  0
INSERT
  5
7DF7
  8
3
  6
CONTINUOUS
 62
     0
  2
_OPEN
 10
747.07137899999987
 20
1304.7730897766801
 30
0.0
 41
20.0
 42
20.0
 43
20.0
  0
TEXT
  8
3
  40
30
  5
7E34
  62
0
  72
0
  71
0
 10
589.066
 20
1276.67
 30
0.000000
  1
200
  0
POINT
  5
7DF9
  8
DEFPOINTS
  6
CONTINUOUS
 62
     0
 10
547.07137899999987
 20
1264.07967377668
 30
0.0
  0
POINT
  5
7DFA
  8
DEFPOINTS
  6
CONTINUOUS
 62
     0
 10
747.07137899999987
 20
1264.07967377668
 30
0.0
  0
POINT
  5
7DFB
  8
DEFPOINTS
  6
CONTINUOUS
 62
     0
 10
747.07137899999987
 20
1304.7730897766801
 30
0.0
  0
ENDBLK
  5
7BEC
  8
0
  0
BLOCK
  8
0
  2
*D13
 70
     1
 10
0.0
 20
0.0
 30
0.0
  3
*D13
  1

  0
LINE
  5
7DFC
  8
3
  6
CONTINUOUS
 62
     0
 10
396.50419099999999
 20
1109.07967377668
 30
0.0
 11
396.50419099999999
 21
1365.4263497766799
 31
0.0
  0
LINE
  5
7DFD
  8
3
  6
CONTINUOUS
 62
     0
 10
547.07137899999987
 20
1269.07967377668
 30
0.0
 11
547.07137899999987
 21
1365.4263497766799
 31
0.0
  0
LINE
  5
7DFE
  8
3
  6
CONTINUOUS
 62
     0
 10
416.50419099999999
 20
1355.4263497766799
 30
0.0
 11
527.07137899999998
 21
1355.4263497766799
 31
0.0
  0
INSERT
  5
7DFF
  8
3
  6
CONTINUOUS
 62
     0
  2
_OPEN
 10
396.50419099999999
 20
1355.4263497766799
 30
0.0
 41
20.0
 42
20.0
 43
20.0
 50
180.0
  0
INSERT
  5
7E00
  8
3
  6
CONTINUOUS
 62
     0
  2
_OPEN
 10
547.07137899999987
 20
1355.4263497766799
 30
0.0
 41
20.0
 42
20.0
 43
20.0
  0
TEXT
  8
3
  40
30
  5
7E35
  62
0
  72
0
  71
0
 10
410.107
 20
1327.33
 30
0.000000
  1
151
  0
POINT
  5
7E02
  8
DEFPOINTS
  6
CONTINUOUS
 62
     0
 10
396.50419099999999
 20
1104.07967377668
 30
0.0
  0
POINT
  5
7E03
  8
DEFPOINTS
  6
CONTINUOUS
 62
     0
 10
547.07137899999987
 20
1264.07967377668
 30
0.0
  0
POINT
  5
7E04
  8
DEFPOINTS
  6
CONTINUOUS
 62
     0
 10
547.07137899999987
 20
1355.4263497766799
 30
0.0
  0
ENDBLK
  5
7BF9
  8
0
  0
BLOCK
  8
0
  2
*D14
 70
     1
 10
0.0
 20
0.0
 30
0.0
  3
*D14
  1

  0
LINE
  5
7E05
  8
3
  6
CONTINUOUS
 62
     0
 10
758.07137899999987
 20
1254.07967377668
 30
0.0
 11
758.07137899999987
 21
1365.4263497766799
 31
0.0
  0
LINE
  5
7E06
  8
3
  6
CONTINUOUS
 62
     0
 10
567.07137899999987
 20
1355.4263497766799
 30
0.0
 11
738.07137899999987
 21
1355.4263497766799
 31
0.0
  0
INSERT
  5
7E07
  8
3
  6
CONTINUOUS
 62
     0
  2
_OPEN
 10
547.07137899999987
 20
1355.4263497766799
 30
0.0
 41
20.0
 42
20.0
 43
20.0
 50
180.0
  0
INSERT
  5
7E08
  8
3
  6
CONTINUOUS
 62
     0
  2
_OPEN
 10
758.07137899999987
 20
1355.4263497766799
 30
0.0
 41
20.0
 42
20.0
 43
20.0
  0
TEXT
  8
3
  40
30
  5
7E36
  62
0
  72
0
  71
0
 10
592.571
 20
1327.33
 30
0.000000
  1
211
  0
POINT
  5
7E0A
  8
DEFPOINTS
  6
CONTINUOUS
 62
     0
 10
547.07137899999987
 20
1264.07967377668
 30
0.0
  0
POINT
  5
7E0B
  8
DEFPOINTS
  6
CONTINUOUS
 62
     0
 10
758.07137899999987
 20
1249.07967377668
 30
0.0
  0
POINT
  5
7E0C
  8
DEFPOINTS
  6
CONTINUOUS
 62
     0
 10
758.07137899999987
 20
1355.4263497766799
 30
0.0
  0
ENDBLK
  5
7C05
  8
0
  0
BLOCK
  8
0
  2
*D15
 70
     1
 10
0.0
 20
0.0
 30
0.0
  3
*D15
  1

  0
LINE
  5
7E0D
  8
3
  6
CONTINUOUS
 62
     0
 10
1022.071379
 20
2006.8666825436219
 30
0.0
 11
1102.7706189999999
 21
2006.8666825436219
 31
0.0
  0
LINE
  5
7E0E
  8
3
  6
CONTINUOUS
 62
     0
 10
1022.071379
 20
1782.8666825436219
 30
0.0
 11
1102.7706189999999
 21
1782.8666825436219
 31
0.0
  0
LINE
  5
7E0F
  8
3
  6
CONTINUOUS
 62
     0
 10
1092.7706189999999
 20
1986.8666825436219
 30
0.0
 11
1092.7706189999999
 21
1802.8666825436219
 31
0.0
  0
INSERT
  5
7E10
  8
3
  6
CONTINUOUS
 62
     0
  2
_OPEN
 10
1092.7706189999999
 20
2006.8666825436219
 30
0.0
 41
20.0
 42
20.0
 43
20.0
 50
90.0
  0
INSERT
  5
7E11
  8
3
  6
CONTINUOUS
 62
     0
  2
_OPEN
 10
1092.7706189999999
 20
1782.8666825436219
 30
0.0
 41
20.0
 42
20.0
 43
20.0
 50
270.0
  0
TEXT
  8
3
  40
30
  5
7E37
  62
0
  72
0
  71
0
 10
1007.77
 20
1848.26
 30
0.000000
  1
224
  0
POINT
  5
7E13
  8
DEFPOINTS
  6
CONTINUOUS
 62
     0
 10
1017.071378999999
 20
2006.8666825436219
 30
0.0
  0
POINT
  5
7E14
  8
DEFPOINTS
  6
CONTINUOUS
 62
     0
 10
1017.071378999999
 20
1782.8666825436219
 30
0.0
  0
POINT
  5
7E15
  8
DEFPOINTS
  6
CONTINUOUS
 62
     0
 10
1092.7706189999999
 20
1782.8666825436219
 30
0.0
  0
ENDBLK
  5
7C1F
  8
0
  0
BLOCK
  8
0
  2
*D16
 70
     1
 10
0.0
 20
0.0
 30
0.0
  3
*D16
  1

  0
LINE
  5
7E16
  8
3
  6
CONTINUOUS
 62
     0
 10
387.07137899999992
 20
1777.8666825436219
 30
0.0
 11
387.07137899999992
 21
1590.6490925436219
 31
0.0
  0
LINE
  5
7E17
  8
3
  6
CONTINUOUS
 62
     0
 10
1017.071378999999
 20
1777.8666825436219
 30
0.0
 11
1017.071378999999
 21
1590.6490925436219
 31
0.0
  0
LINE
  5
7E18
  8
3
  6
CONTINUOUS
 62
     0
 10
407.07137899999998
 20
1600.6490925436219
 30
0.0
 11
997.07137899999987
 21
1600.6490925436219
 31
0.0
  0
INSERT
  5
7E19
  8
3
  6
CONTINUOUS
 62
     0
  2
_OPEN
 10
387.07137899999992
 20
1600.6490925436219
 30
0.0
 41
20.0
 42
20.0
 43
20.0
 50
180.0
  0
INSERT
  5
7E1A
  8
3
  6
CONTINUOUS
 62
     0
  2
_OPEN
 10
1017.071378999999
 20
1600.6490925436219
 30
0.0
 41
20.0
 42
20.0
 43
20.0
  0
TEXT
  8
3
  40
30
  5
7E38
  62
0
  72
0
  71
0
 10
615.035
 20
1572.55
 30
0.000000
  1
630
  0
POINT
  5
7E1C
  8
DEFPOINTS
  6
CONTINUOUS
 62
     0
 10
387.07137899999992
 20
1782.8666825436219
 30
0.0
  0
POINT
  5
7E1D
  8
DEFPOINTS
  6
CONTINUOUS
 62
     0
 10
1017.071378999999
 20
1782.8666825436219
 30
0.0
  0
POINT
  5
7E1E
  8
DEFPOINTS
  6
CONTINUOUS
 62
     0
 10
1017.071378999999
 20
1600.6490925436219
 30
0.0
  0
ENDBLK
  5
7C5B
  8
0
  0
BLOCK
  8
0
  2
*D17
 70
     1
 10
0.0
 20
0.0
 30
0.0
  3
*D17
  1

  0
LINE
  5
7E1F
  8
3
 62
     0
 10
396.50419099999999
 20
1114.07967377668
 30
0.0
 11
396.50419099999999
 21
1439.330068976373
 31
0.0
  0
LINE
  5
7E20
  8
3
 62
     0
 10
1017.071378999999
 20
884.07967377668035
 30
0.0
 11
1017.071378999999
 21
1439.330068976373
 31
0.0
  0
LINE
  5
7E21
  8
3
 62
     0
 10
416.50419099999999
 20
1429.330068976373
 30
0.0
 11
997.07137899999987
 21
1429.330068976373
 31
0.0
  0
INSERT
  5
7E22
  8
3
 62
     0
  2
_OPEN
 10
396.50419099999999
 20
1429.330068976373
 30
0.0
 41
20.0
 42
20.0
 43
20.0
 50
180.0
  0
INSERT
  5
7E23
  8
3
 62
     0
  2
_OPEN
 10
1017.071378999999
 20
1429.330068976373
 30
0.0
 41
20.0
 42
20.0
 43
20.0
  0
TEXT
  8
3
  40
30
  5
7E39
  62
0
  72
0
  71
0
 10
677.154
 20
1401.23
 30
0.000000
  1
621
  0
POINT
  5
7E25
  8
DEFPOINTS
 62
     0
 10
396.50419099999999
 20
1109.07967377668
 30
0.0
  0
POINT
  5
7E26
  8
DEFPOINTS
 62
     0
 10
1017.071378999999
 20
879.07967377668024
 30
0.0
  0
POINT
  5
7E27
  8
DEFPOINTS
 62
     0
 10
1017.071378999999
 20
1429.330068976373
 30
0.0
  0
ENDBLK
  5
7C98
  8
0
  0
ENDSEC
  0
SECTION
  2
ENTITIES
  0
CIRCLE
  5
7A7A
  8
1
  6
CONTINUOUS
 10
547.07137899999987
 20
1104.07967377668
 30
0.0
 40
120.0
  0
CIRCLE
  5
7A7B
  8
1
  6
CONTINUOUS
 10
547.07137899999987
 20
1104.07967377668
 30
0.0
 40
100.0
  0
LINE
  5
7A7C
  8
1
  6
CONTINUOUS
 10
747.07137899999987
 20
2066.8666825436221
 30
0.0
 11
547.07137899999987
 21
1926.8666825436219
 31
0.0
  0
LINE
  5
7A7D
  8
1
  6
CONTINUOUS
 10
747.07137899999987
 20
1926.8666825436219
 30
0.0
 11
547.07137899999987
 21
2066.8666825436221
 31
0.0
  0
ARC
  5
7A7E
  8
1
  6
CONTINUOUS
 10
408.07137899999992
 20
2054.8666825436221
 30
0.0
 40
12.0
 50
90.0
 51
180.0
  0
ARC
  5
7A7F
  8
1
  6
CONTINUOUS
 10
408.07137899999992
 20
1938.8666825436219
 30
0.0
 40
12.0
 50
180.0
 51
270.0
  0
LINE
  5
7A80
  8
1
  6
CONTINUOUS
 10
747.07137899999987
 20
1926.8666825436219
 30
0.0
 11
408.07137899999992
 21
1926.8666825436219
 31
0.0
  0
LINE
  5
7A81
  8
1
  6
CONTINUOUS
 10
747.07137899999987
 20
2066.8666825436221
 30
0.0
 11
747.07137899999987
 21
1926.8666825436219
 31
0.0
  0
LINE
  5
7A82
  8
1
  6
CONTINUOUS
 10
408.07137899999992
 20
2066.8666825436221
 30
0.0
 11
747.07137899999987
 21
2066.8666825436221
 31
0.0
  0
LINE
  5
7A83
  8
1
  6
CONTINUOUS
 10
547.07137899999987
 20
1926.8666825436219
 30
0.0
 11
547.07137899999987
 21
2066.8666825436221
 31
0.0
  0
LINE
  5
7A84
  8
1
  6
CONTINUOUS
 10
667.07137899999987
 20
1927.0666825436219
 30
0.0
 11
667.07137899999987
 21
1919.0666825436219
 31
0.0
  0
LINE
  5
7A85
  8
1
  6
CONTINUOUS
 10
667.07137899999987
 20
1919.0666825436219
 30
0.0
 11
427.07137899999998
 21
1919.0666825436219
 31
0.0
  0
LINE
  5
7A86
  8
1
  6
CONTINUOUS
 10
427.07137899999998
 20
1927.0666825436219
 30
0.0
 11
427.07137899999998
 21
1919.0666825436219
 31
0.0
  0
LINE
  5
7A87
  8
1
  6
CONTINUOUS
 10
427.07137899999998
 20
2066.6666825436218
 30
0.0
 11
427.07137899999998
 21
2074.6666825436218
 31
0.0
  0
LINE
  5
7A88
  8
1
  6
CONTINUOUS
 10
667.07137899999987
 20
2074.6666825436218
 30
0.0
 11
427.07137899999998
 21
2074.6666825436218
 31
0.0
  0
LINE
  5
7A89
  8
1
  6
CONTINUOUS
 10
396.07137899999992
 20
1938.8666825436219
 30
0.0
 11
396.07137899999992
 21
2054.8666825436221
 31
0.0
  0
LINE
  5
7A8A
  8
1
  6
CONTINUOUS
 10
667.07137899999987
 20
2066.6666825436218
 30
0.0
 11
667.07137899999987
 21
2074.6666825436218
 31
0.0
  0
LINE
  5
7A8B
  8
1
  6
CONTINUOUS
 10
537.07137899999987
 20
1249.07967377668
 30
0.0
 11
537.07137899999987
 21
1233.07967377668
 31
0.0
  0
LINE
  5
7A8C
  8
1
  6
CONTINUOUS
 10
768.07137899999987
 20
1264.07967377668
 30
0.0
 11
526.07137899999987
 21
1264.07967377668
 31
0.0
  0
LINE
  5
7A8D
  8
1
  6
CONTINUOUS
 10
547.07137899999987
 20
1264.07967377668
 30
0.0
 11
547.07137899999987
 21
1249.07967377668
 31
0.0
  0
LINE
  5
7A8E
  8
1
  6
CONTINUOUS
 10
758.07137899999987
 20
1249.07967377668
 30
0.0
 11
758.07137899999987
 21
1120.07967377668
 31
0.0
  0
ARC
  5
7A8F
  8
1
  6
CONTINUOUS
 10
563.07137899999987
 20
1120.07967377668
 30
0.0
 40
195.0
 50
269.69999999999999
 51
0.0
  0
ARC
  5
7A90
  8
1
  6
CONTINUOUS
 10
536.07137899999998
 20
1093.07967377668
 30
0.0
 40
140.0
 50
89.599999999999994
 51
180.59999999999991
  0
LINE
  5
7A91
  8
1
  6
CONTINUOUS
 10
748.07137899999998
 20
1264.07967377668
 30
0.0
 11
733.07137899999987
 21
1249.07967377668
 31
0.0
  0
LINE
  5
7A92
  8
1
  6
CONTINUOUS
 10
733.07137899999987
 20
1249.07967377668
 30
0.0
 11
561.07137899999998
 21
1249.07967377668
 31
0.0
  0
LINE
  5
7A93
  8
1
  6
CONTINUOUS
 10
546.07137899999987
 20
1264.07967377668
 30
0.0
 11
561.07137899999998
 21
1249.07967377668
 31
0.0
  0
ARC
  5
7A94
  8
1
  6
CONTINUOUS
 10
561.07137899999998
 20
1090.07967377668
 30
0.0
 40
165.0
 50
179.40000000000001
 51
270.30000000000001
  0
LINE
  5
7A95
  8
1
  6
CONTINUOUS
 10
682.07137899999998
 20
1070.7796737766801
 30
0.0
 11
412.07137899999992
 21
1070.7796737766801
 31
0.0
  0
LINE
  5
7A96
  8
1
  6
CONTINUOUS
 10
598.671379
 20
1229.07967377668
 30
0.0
 11
682.07137899999998
 21
1157.7796737766801
 31
0.0
  0
LINE
  5
7A97
  8
1
  6
CONTINUOUS
 10
495.47137900000001
 20
1229.07967377668
 30
0.0
 11
412.07137899999992
 21
1157.7796737766801
 31
0.0
  0
LINE
  5
7A98
  8
1
  6
CONTINUOUS
 10
682.07137899999998
 20
1157.7796737766801
 30
0.0
 11
682.07137899999998
 21
879.07967377668024
 31
0.0
  0
LINE
  5
7A99
  8
1
  6
CONTINUOUS
 10
495.47137900000001
 20
1229.07967377668
 30
0.0
 11
598.671379
 21
1229.07967377668
 31
0.0
  0
LINE
  5
7A9A
  8
1
  6
CONTINUOUS
 10
412.07137899999992
 20
879.07967377668024
 30
0.0
 11
412.07137899999992
 21
1157.7796737766801
 31
0.0
  0
LINE
  5
7A9B
  8
1
  6
CONTINUOUS
 10
747.07137899999987
 20
1264.07967377668
 30
0.0
 11
747.07137899999987
 21
1249.07967377668
 31
0.0
  0
LINE
  5
7A9C
  8
1
  6
CONTINUOUS
 10
758.07137899999987
 20
1249.07967377668
 30
0.0
 11
747.07137899999987
 21
1249.07967377668
 31
0.0
  0
LINE
  5
7A9D
  8
1
  6
CONTINUOUS
 10
547.07137899999987
 20
1249.07967377668
 30
0.0
 11
537.07137899999987
 21
1249.07967377668
 31
0.0
  0
LINE
  5
7A9E
  8
2
  6
CENTER
 10
882.27137899999991
 20
980.17967377668026
 30
0.0
 11
812.27137900000002
 21
980.17967377668026
 31
0.0
  0
LINE
  5
7A9F
  8
2
  6
CENTER
 10
847.2713789999998
 20
945.17967377668015
 30
0.0
 11
847.2713789999998
 21
1015.17967377668
 31
0.0
  0
LINE
  5
7AA0
  8
1
  6
CONTINUOUS
 10
929.07137899999975
 20
899.77967377668028
 30
0.0
 11
929.07137899999975
 21
907.77967377668028
 31
0.0
  0
LINE
  5
7AA1
  8
1
  6
CONTINUOUS
 10
774.07137899999998
 20
907.77967377668028
 30
0.0
 11
782.27137900000002
 21
930.57967377668035
 31
0.0
  0
LINE
  5
7AA2
  8
1
  6
CONTINUOUS
 10
774.07137899999998
 20
899.77967377668028
 30
0.0
 11
774.07137899999998
 21
907.77967377668028
 31
0.0
  0
LINE
  5
7AA3
  8
1
  6
CONTINUOUS
 10
929.07137899999975
 20
907.77967377668028
 30
0.0
 11
920.97137899999996
 21
930.57967377668035
 31
0.0
  0
ARC
  5
7AA4
  8
1
  6
CONTINUOUS
 10
851.57137899999987
 20
979.77967377668017
 30
0.0
 40
85.0
 50
324.69999999999987
 51
215.30000000000001
  0
CIRCLE
  5
7AA5
  8
1
  6
CONTINUOUS
 10
847.2713789999998
 20
980.17967377668026
 30
0.0
 40
35.0
  0
LINE
  5
7AA6
  8
1
  6
CONTINUOUS
 10
970.07137899999975
 20
879.07967377668024
 30
0.0
 11
970.07137899999975
 21
1214.07967377668
 31
0.0
  0
LINE
  5
7AA7
  8
1
  6
CONTINUOUS
 10
970.07137899999975
 20
1214.07967377668
 30
0.0
 11
440.07137899999998
 21
1214.07967377668
 31
0.0
  0
LINE
  5
7AA8
  8
1
  6
CONTINUOUS
 10
758.77137900000002
 20
879.07967377668024
 30
0.0
 11
758.77137900000002
 21
899.77967377668028
 31
0.0
  0
LINE
  5
7AA9
  8
1
  6
CONTINUOUS
 10
758.77137900000002
 20
899.77967377668028
 30
0.0
 11
1009.771378999999
 21
899.77967377668028
 31
0.0
  0
LINE
  5
7AAA
  8
1
  6
CONTINUOUS
 10
1009.771378999999
 20
899.77967377668028
 30
0.0
 11
1009.771378999999
 21
879.07967377668024
 31
0.0
  0
LINE
  5
7AAB
  8
1
  6
CONTINUOUS
 10
1017.071378999999
 20
829.07967377668024
 30
0.0
 11
1017.071378999999
 21
879.07967377668024
 31
0.0
  0
LINE
  5
7AAC
  8
1
  6
CONTINUOUS
 10
1017.071378999999
 20
829.07967377668024
 30
0.0
 11
387.07137899999992
 21
829.07967377668024
 31
0.0
  0
LINE
  5
7AAD
  8
1
  6
CONTINUOUS
 10
1017.071378999999
 20
879.07967377668024
 30
0.0
 11
387.07137899999992
 21
879.07967377668024
 31
0.0
  0
LINE
  5
7AAE
  8
1
  6
CONTINUOUS
 10
387.07137899999992
 20
829.07967377668024
 30
0.0
 11
387.07137899999992
 21
879.07967377668024
 31
0.0
  0
LINE
  5
7AAF
  8
1
  6
CONTINUOUS
 10
766.57137899999987
 20
1802.0666825436219
 30
0.0
 11
766.57137899999987
 21
1992.966682543622
 31
0.0
  0
LINE
  5
7AB0
  8
1
  6
CONTINUOUS
 10
936.57137899999987
 20
1802.0666825436219
 30
0.0
 11
936.57137899999987
 21
1992.966682543622
 31
0.0
  0
LINE
  5
7AB1
  8
1
  6
CONTINUOUS
 10
766.57137899999987
 20
1802.0666825436219
 30
0.0
 11
936.57137899999987
 21
1802.0666825436219
 31
0.0
  0
LINE
  5
7AB2
  8
1
  6
CONTINUOUS
 10
766.57137899999987
 20
1992.966682543622
 30
0.0
 11
936.57137899999987
 21
1992.966682543622
 31
0.0
  0
LINE
  5
7AB3
  8
1
  6
CONTINUOUS
 10
882.27137899999991
 20
1719.3666825436219
 30
0.0
 11
812.27137900000002
 21
1719.3666825436219
 31
0.0
  0
LINE
  5
7AB4
  8
1
  6
CONTINUOUS
 10
882.27137899999991
 20
1749.3666825436219
 30
0.0
 11
812.27137900000002
 21
1749.3666825436219
 31
0.0
  0
LINE
  5
7AB5
  8
1
  6
CONTINUOUS
 10
812.27137900000002
 20
1719.3666825436219
 30
0.0
 11
812.27137900000002
 21
1749.3666825436219
 31
0.0
  0
LINE
  5
7AB6
  8
1
  6
CONTINUOUS
 10
882.27137899999991
 20
1719.3666825436219
 30
0.0
 11
882.27137899999991
 21
1749.3666825436219
 31
0.0
  0
LINE
  5
7AB7
  8
1
  6
CONTINUOUS
 10
440.07137899999998
 20
1771.8666825436219
 30
0.0
 11
970.07137899999975
 21
1771.8666825436219
 31
0.0
  0
LINE
  5
7AB8
  8
1
  6
CONTINUOUS
 10
970.07137899999975
 20
1696.8666825436219
 30
0.0
 11
970.07137899999975
 21
1771.8666825436219
 31
0.0
  0
LINE
  5
7AB9
  8
1
  6
CONTINUOUS
 10
387.07137899999992
 20
1782.8666825436219
 30
0.0
 11
535.07137899999987
 21
1782.8666825436219
 31
0.0
  0
LINE
  5
7ABA
  8
1
  6
CONTINUOUS
 10
387.07137899999992
 20
2006.8666825436219
 30
0.0
 11
396.07137899999992
 21
2006.8666825436219
 31
0.0
  0
LINE
  5
7ABB
  8
1
  6
CONTINUOUS
 10
1017.071378999999
 20
1782.8666825436219
 30
0.0
 11
1017.071378999999
 21
2006.8666825436219
 31
0.0
  0
LINE
  5
7ABC
  8
1
  6
CONTINUOUS
 10
835.27137900000014
 20
1749.3666825436219
 30
0.0
 11
835.27137900000014
 21
1802.0666825436219
 31
0.0
  0
LINE
  5
7ABD
  8
1
  6
CONTINUOUS
 10
859.27137899999991
 20
1749.3666825436219
 30
0.0
 11
859.27137899999991
 21
1802.0666825436219
 31
0.0
  0
LINE
  5
7ABE
  8
1
  6
CONTINUOUS
 10
597.07137899999987
 20
1749.3666825436219
 30
0.0
 11
497.07137899999992
 21
1749.3666825436219
 31
0.0
  0
LINE
  5
7ABF
  8
1
  6
CONTINUOUS
 10
597.07137899999987
 20
1719.3666825436219
 30
0.0
 11
497.07137899999992
 21
1719.3666825436219
 31
0.0
  0
LINE
  5
7AC0
  8
1
  6
CONTINUOUS
 10
497.07137899999992
 20
1719.3666825436219
 30
0.0
 11
497.07137899999992
 21
1749.3666825436219
 31
0.0
  0
LINE
  5
7AC1
  8
1
  6
CONTINUOUS
 10
597.07137899999987
 20
1719.3666825436219
 30
0.0
 11
597.07137899999987
 21
1749.3666825436219
 31
0.0
  0
LINE
  5
7AC2
  8
1
  6
CONTINUOUS
 10
440.07137899999998
 20
1696.8666825436219
 30
0.0
 11
970.07137899999975
 21
1696.8666825436219
 31
0.0
  0
LINE
  5
7AC3
  8
1
  6
CONTINUOUS
 10
440.07137899999998
 20
1696.8666825436219
 30
0.0
 11
440.07137899999998
 21
1771.8666825436219
 31
0.0
  0
LINE
  5
7AC4
  8
1
  6
CONTINUOUS
 10
387.07137899999992
 20
1782.8666825436219
 30
0.0
 11
387.07137899999992
 21
2006.8666825436219
 31
0.0
  0
LINE
  5
7AC5
  8
1
  6
CONTINUOUS
 10
440.07137899999998
 20
879.07967377668024
 30
0.0
 11
440.07137899999998
 21
1214.07967377668
 31
0.0
  0
LINE
  5
7AC6
  8
1
  6
CONTINUOUS
 10
559.07137899999987
 20
1782.8666825436219
 30
0.0
 11
835.27137900000014
 21
1782.8666825436219
 31
0.0
  0
LINE
  5
7AC7
  8
1
  6
CONTINUOUS
 10
859.27137899999991
 20
1782.8666825436219
 30
0.0
 11
1017.071378999999
 21
1782.8666825436219
 31
0.0
  0
LINE
  5
7AC8
  8
1
  6
CONTINUOUS
 10
559.07137899999987
 20
1749.3666825436219
 30
0.0
 11
559.07137899999987
 21
1919.0666825436219
 31
0.0
  0
LINE
  5
7AC9
  8
1
  6
CONTINUOUS
 10
535.07137899999987
 20
1749.3666825436219
 30
0.0
 11
535.07137899999987
 21
1919.0666825436219
 31
0.0
  0
LINE
  5
7ACA
  8
1
  6
CONTINUOUS
 10
747.07137899999987
 20
2006.8666825436219
 30
0.0
 11
1017.071378999999
 21
2006.8666825436219
 31
0.0
  0
LINE
  5
7ACB
  8
1
  6
CONTINUOUS
 10
530.17137899999989
 20
1057.07967377668
 30
0.0
 11
835.37137900000005
 21
947.27967377668017
 31
0.0
  0
LINE
  5
7ACC
  8
1
  6
CONTINUOUS
 10
568.27137900000002
 20
1149.37967377668
 30
0.0
 11
862.07137899999975
 21
1011.87967377668
 31
0.0
  0
CIRCLE
  5
7ACD
  8
1
  6
CONTINUOUS
 10
547.07137899999987
 20
1104.07967377668
 30
0.0
 40
50.0
  0
LINE
  5
7ACE
  8
2
  6
CENTER
 10
547.07137899999987
 20
804.65664077668009
 30
0.0
 11
547.07137899999987
 21
1315.2884327766801
 31
0.0
  0
LINE
  5
7ACF
  8
2
  6
CENTER
 10
1688.7728447434661
 20
1104.07967377668
 30
0.0
 11
1226.6978757434661
 21
1104.07967377668
 31
0.0
  0
LINE
  5
7AD0
  8
1
  6
CONTINUOUS
 10
1608.217931743467
 20
879.07967377668024
 30
0.0
 11
1608.217931743467
 21
829.07967377668024
 31
0.0
  0
LINE
  5
7AD1
  8
1
  6
CONTINUOUS
 10
1384.2179317434659
 20
829.07967377668024
 30
0.0
 11
1608.217931743467
 21
829.07967377668024
 31
0.0
  0
LINE
  5
7AD2
  8
1
  6
CONTINUOUS
 10
1298.217931743467
 20
879.07967377668024
 30
0.0
 11
1608.217931743467
 21
879.07967377668024
 31
0.0
  0
LINE
  5
7AD3
  8
1
  6
CONTINUOUS
 10
1384.2179317434659
 20
879.07967377668024
 30
0.0
 11
1384.2179317434659
 21
829.07967377668024
 31
0.0
  0
LINE
  5
7AD4
  8
1
  6
CONTINUOUS
 10
1298.217931743467
 20
1214.07967377668
 30
0.0
 11
1298.217931743467
 21
879.07967377668024
 31
0.0
  0
LINE
  5
7AD5
  8
1
  6
CONTINUOUS
 10
1408.2179317434659
 20
1070.7796737766801
 30
0.0
 11
1408.2179317434659
 21
879.07967377668024
 31
0.0
  0
LINE
  5
7AD6
  8
1
  6
CONTINUOUS
 10
1408.2179317434659
 20
1070.7796737766801
 30
0.0
 11
1520.2179317434659
 21
1157.7796737766801
 31
0.0
  0
LINE
  5
7AD7
  8
1
  6
CONTINUOUS
 10
1298.217931743467
 20
1214.07967377668
 30
0.0
 11
1373.2179317434659
 21
1214.07967377668
 31
0.0
  0
LINE
  5
7AD8
  8
1
  6
CONTINUOUS
 10
1320.7179317434659
 20
1154.07967377668
 30
0.0
 11
1350.7179317434659
 21
1154.07967377668
 31
0.0
  0
LINE
  5
7AD9
  8
1
  6
CONTINUOUS
 10
1320.7179317434659
 20
1054.07967377668
 30
0.0
 11
1350.7179317434659
 21
1054.07967377668
 31
0.0
  0
LINE
  5
7ADA
  8
1
  6
CONTINUOUS
 10
1373.2179317434659
 20
1214.07967377668
 30
0.0
 11
1373.2179317434659
 21
879.07967377668024
 31
0.0
  0
LINE
  5
7ADB
  8
1
  6
CONTINUOUS
 10
1320.7179317434659
 20
1154.07967377668
 30
0.0
 11
1320.7179317434659
 21
1054.07967377668
 31
0.0
  0
LINE
  5
7ADC
  8
1
  6
CONTINUOUS
 10
1350.7179317434659
 20
1154.07967377668
 30
0.0
 11
1350.7179317434659
 21
1054.07967377668
 31
0.0
  0
LINE
  5
7ADD
  8
1
  6
CONTINUOUS
 10
1320.7179317434659
 20
1015.17967377668
 30
0.0
 11
1320.7179317434659
 21
945.17967377668015
 31
0.0
  0
LINE
  5
7ADE
  8
1
  6
CONTINUOUS
 10
1350.7179317434659
 20
1015.17967377668
 30
0.0
 11
1350.7179317434659
 21
945.17967377668015
 31
0.0
  0
LINE
  5
7ADF
  8
1
  6
CONTINUOUS
 10
1320.7179317434659
 20
1015.17967377668
 30
0.0
 11
1350.7179317434659
 21
1015.17967377668
 31
0.0
  0
LINE
  5
7AE0
  8
1
  6
CONTINUOUS
 10
1320.7179317434659
 20
945.17967377668015
 30
0.0
 11
1350.7179317434659
 21
945.17967377668015
 31
0.0
  0
LINE
  5
7AE1
  8
1
  6
CONTINUOUS
 10
1350.7179317434659
 20
992.17967377668015
 30
0.0
 11
1408.2179317434659
 21
992.17967377668015
 31
0.0
  0
LINE
  5
7AE2
  8
1
  6
CONTINUOUS
 10
1350.7179317434659
 20
968.17967377668015
 30
0.0
 11
1408.2179317434659
 21
968.17967377668015
 31
0.0
  0
LINE
  5
7AE3
  8
1
  6
CONTINUOUS
 10
1350.7179317434659
 20
1116.07967377668
 30
0.0
 11
1466.5179317434661
 21
1116.07967377668
 31
0.0
  0
LINE
  5
7AE4
  8
1
  6
CONTINUOUS
 10
1350.7179317434659
 20
1092.07967377668
 30
0.0
 11
1435.617931743466
 21
1092.07967377668
 31
0.0
  0
LINE
  5
7AE5
  8
1
  6
CONTINUOUS
 10
1528.2179317434659
 20
984.07967377668035
 30
0.0
 11
1520.2179317434659
 21
984.07967377668035
 31
0.0
  0
LINE
  5
7AE6
  8
1
  6
CONTINUOUS
 10
1520.2179317434659
 20
1224.07967377668
 30
0.0
 11
1520.2179317434659
 21
879.07967377668024
 31
0.0
  0
LINE
  5
7AE7
  8
1
  6
CONTINUOUS
 10
1528.2179317434659
 20
1224.07967377668
 30
0.0
 11
1520.2179317434659
 21
1224.07967377668
 31
0.0
  0
LINE
  5
7AE8
  8
1
  6
CONTINUOUS
 10
1507.217931743467
 20
1264.07967377668
 30
0.0
 11
1689.2179317434659
 21
1264.07967377668
 31
0.0
  0
LINE
  5
7AE9
  8
1
  6
CONTINUOUS
 10
1538.2179317434659
 20
925.07967377668035
 30
0.0
 11
1658.2179317434659
 21
925.07967377668035
 31
0.0
  0
LINE
  5
7AEA
  8
1
  6
CONTINUOUS
 10
1668.2179317434659
 20
1264.07967377668
 30
0.0
 11
1668.2179317434659
 21
935.07967377668035
 31
0.0
  0
LINE
  5
7AEB
  8
1
  6
CONTINUOUS
 10
1528.2179317434659
 20
1264.07967377668
 30
0.0
 11
1528.2179317434659
 21
935.07967377668035
 31
0.0
  0
ARC
  5
7AEC
  8
1
  6
CONTINUOUS
 10
1538.2179317434659
 20
935.07967377668035
 30
0.0
 40
10.0
 50
180.0
 51
270.0
  0
ARC
  5
7AED
  8
1
  6
CONTINUOUS
 10
1658.2179317434659
 20
935.07967377668035
 30
0.0
 40
10.0
 50
270.0
 51
0.0
  0
LINE
  5
7AEE
  8
1
  6
CONTINUOUS
 10
1527.2179317434659
 20
1264.07967377668
 30
0.0
 11
1542.217931743467
 21
1249.07967377668
 31
0.0
  0
LINE
  5
7AEF
  8
1
  6
CONTINUOUS
 10
1542.217931743467
 20
1249.07967377668
 30
0.0
 11
1654.217931743467
 21
1249.07967377668
 31
0.0
  0
LINE
  5
7AF0
  8
1
  6
CONTINUOUS
 10
1669.2179317434659
 20
1264.07967377668
 30
0.0
 11
1654.217931743467
 21
1249.07967377668
 31
0.0
  0
LINE
  5
7AF1
  8
1
  6
CONTINUOUS
 10
1668.2179317434659
 20
1224.07967377668
 30
0.0
 11
1676.2179317434659
 21
1224.07967377668
 31
0.0
  0
LINE
  5
7AF2
  8
1
  6
CONTINUOUS
 10
1676.2179317434659
 20
1224.07967377668
 30
0.0
 11
1676.2179317434659
 21
984.07967377668035
 31
0.0
  0
LINE
  5
7AF3
  8
1
  6
CONTINUOUS
 10
1668.2179317434659
 20
984.07967377668035
 30
0.0
 11
1676.2179317434659
 21
984.07967377668035
 31
0.0
  0
LINE
  5
7AF4
  8
4
  6
CONTINUOUS
 10
1850.0
 20
500.0
 30
0.0
 11
1850.0
 21
300.0
 31
0.0
  0
LINE
  5
7AF5
  8
4
  6
CONTINUOUS
 10
1150.0
 20
500.0
 30
0.0
 11
1150.0
 21
300.0
 31
0.0
  0
LINE
  5
7AF6
  8
4
  6
CONTINUOUS
 10
650.0
 20
500.0
 30
0.0
 11
650.0
 21
300.0
 31
0.0
  0
LINE
  5
7AF9
  8
4
  6
CONTINUOUS
 10
650.0
 20
300.0
 30
0.0
 11
1850.0
 21
300.0
 31
0.0
  0
LINE
  5
7AFA
  8
4
  6
CONTINUOUS
 10
650.0
 20
400.0
 30
0.0
 11
1850.0
 21
400.0
 31
0.0
  0
TEXT
  5
7AFB
  8
4
  6
CONTINUOUS
 10
688.50208099999998
 20
431.543026
 30
0.0
 40
50.0
  1
機器名称
  0
TEXT
  5
7AFC
  8
4
  6
CONTINUOUS
 10
686.258106
 20
321.64515699999993
 30
0.0
 40
50.0
  1
機器型番
  0
TEXT
  5
7AFD
  8
4
  6
CONTINUOUS
 10
1177.678744999999
 20
422.57176900000002
 30
0.0
 40
45.0
  1
ミツヤニューマルチファン
  0
TEXT
  5
7AFE
  8
4
  6
CONTINUOUS
 10
1186.6544960000001
 20
317.159584
 30
0.0
 40
50.0
  1
NM#1 1/4-1
  0
TEXT
  5
7B00
  8
4
  6
CONTINUOUS
 10
904.78576499999997
 20
2383.4288409999999
 30
0.0
 40
54.0
  1
床置ベット
  0
TEXT
  5
7B01
  8
4
  6
CONTINUOUS
 10
316.16759300000001
 20
2533.8809759999999
 30
0.0
 40
72.0
  1
ベルト駆動式片吸込片持多翼ファン
  0
LINE
  5
7B02
  8
4
  6
CONTINUOUS
 10
250.0
 20
2469.408754
 30
0.0
 11
1850.0
 21
2469.408754
 31
0.0
  0
LINE
  5
7B03
  8
4
  6
CONTINUOUS
 10
250.0
 20
2669.408754
 30
0.0
 11
1850.0
 21
2669.408754
 31
0.0
  0
LINE
  5
7B04
  8
4
  6
CONTINUOUS
 10
650.0
 20
500.0
 30
0.0
 11
1850.0
 21
500.0
 31
0.0
  0
LINE
  5
7B05
  8
4
  6
CONTINUOUS
 10
250.0
 20
2669.408754
 30
0.0
 11
250.0
 21
2469.408754
 31
0.0
  0
TEXT
  5
7B06
  8
4
  6
CONTINUOUS
 10
468.92693300000002
 20
2382.3194779999999
 30
0.0
 40
54.0
  1
左回転上向
  0
TEXT
  5
7B07
  8
4
  6
CONTINUOUS
 10
1468.9695589999999
 20
2706.0610809999998
 30
0.0
 40
56.0
  1
No.
  0
TEXT
  5
7B08
  8
4
  6
CONTINUOUS
 10
1311.296063
 20
2383.4288409999999
 30
0.0
 40
54.0
  1
縮尺：1/10
  0
LINE
  5
7B09
  8
4
  6
CONTINUOUS
 10
1850.0
 20
2669.408754
 30
0.0
 11
1850.0
 21
2469.408754
 31
0.0
  0
LINE
  5
7B0B
  8
4
  6
CONTINUOUS
 10
1440.617422
 20
2681.2635829999999
 30
0.0
 11
1440.617422
 21
2786.6522620000001
 31
0.0
  0
LINE
  5
7B0C
  8
4
  6
CONTINUOUS
 10
1440.617422
 20
2786.6522620000001
 30
0.0
 11
1850.0
 21
2786.6522620000001
 31
0.0
  0
LINE
  5
7B0D
  8
4
  6
CONTINUOUS
 10
1850.0
 20
2786.6522620000001
 30
0.0
 11
1850.0
 21
2681.2635829999999
 31
0.0
  0
LINE
  5
7B0E
  8
4
  6
CONTINUOUS
 10
1850.0
 20
2681.2635829999999
 30
0.0
 11
1440.617422
 21
2681.2635829999999
 31
0.0
  0
LINE
  5
7B14
  8
2
  6
CENTER
 10
1598.217931743467
 20
1297.9913447766801
 30
0.0
 11
1598.217931743467
 21
797.6412937766803
 31
0.0
  0
DIMENSION
  5
7B28
  8
3
  6
CONTINUOUS
  2
*D1
 10
1598.217931743467
 20
767.57504977668009
 30
0.0
 11
1498.6870207434661
 21
767.57504977668009
 31
0.0
 70
   128
 13
1384.2179317434659
 23
829.07967377668024
 33
0.0
 14
1598.217931743467
 24
829.07967377668024
 34
0.0
1001
ACAD
1000
DSTYLE
1002
{
1070
   287
1070
     3
1070
   287
1070
     3
1070
    40
1040
10.0
1070
   143
1040
0.039
1070
   172
1070
     1
1070
   271
1070
     0
1070
   279
1070
     0
1070
   288
1070
     1
1002
}
  0
DIMENSION
  5
7B38
  8
3
  6
CONTINUOUS
  2
*D2
 10
1608.217931743467
 20
767.57504977668009
 30
0.0
 11
1649.168480743466
 21
767.32759777668025
 31
0.0
 70
   128
 13
1598.217931743467
 23
829.07967377668024
 33
0.0
 14
1608.217931743467
 24
829.07967377668024
 34
0.0
1001
ACAD
1000
DSTYLE
1002
{
1070
   287
1070
     4
1070
   287
1070
     4
1070
    40
1040
10.0
1070
    75
1070
     1
1070
   143
1040
0.039
1070
   172
1070
     1
1070
   271
1070
     0
1070
   279
1070
     1
1070
   288
1070
     1
1002
}
  0
DIMENSION
  5
7B5F
  8
3
  6
CONTINUOUS
  2
*D3
 10
1668.2179317434659
 20
1293.98185977668
 30
0.0
 11
1602.503645743466
 21
1293.98185977668
 31
0.0
 70
   128
 13
1528.2179317434659
 23
1264.07967377668
 33
0.0
 14
1668.2179317434659
 24
1264.07967377668
 34
0.0
1001
ACAD
1000
DSTYLE
1002
{
1070
   287
1070
     3
1070
   287
1070
     3
1070
    40
1040
10.0
1070
   143
1040
0.039
1070
   172
1070
     1
1070
   271
1070
     0
1070
   279
1070
     0
1070
   288
1070
     1
1002
}
  0
DIMENSION
  5
7B6C
  8
3
  6
CONTINUOUS
  2
*D4
 10
1598.217931743467
 20
1352.86159477668
 30
0.0
 11
1448.5265427434661
 21
1352.86159477668
 31
0.0
 70
   128
  1
MAX\P300
 13
1298.217931743467
 23
1214.07967377668
 33
0.0
 14
1598.217931743467
 24
1337.8874637766801
 34
0.0
1001
ACAD
1000
DSTYLE
1002
{
1070
   287
1070
     3
1070
   287
1070
     3
1070
    40
1040
10.0
1070
   143
1040
0.039
1070
   172
1070
     1
1070
   271
1070
     0
1070
   279
1070
     0
1070
   288
1070
     1
1002
}
  0
DIMENSION
  5
7B7A
  8
3
  6
CONTINUOUS
  2
*D5
 10
1676.2179317434659
 20
1352.86159477668
 30
0.0
 11
1631.6123197434661
 21
1353.10905377668
 31
0.0
 70
   128
 13
1598.217931743467
 23
1337.8874637766801
 33
0.0
 14
1676.2179317434659
 24
1224.07967377668
 34
0.0
1001
ACAD
1000
DSTYLE
1002
{
1070
   287
1070
     4
1070
   287
1070
     4
1070
    40
1040
10.0
1070
    75
1070
     1
1070
   143
1040
0.039
1070
   172
1070
     1
1070
   271
1070
     0
1070
   279
1070
     1
1070
   288
1070
     1
1002
}
  0
LINE
  5
7B92
  8
3
  6
CONTINUOUS
 10
1676.2179317434659
 20
1204.07967377668
 30
0.0
 11
1689.2968767434661
 21
1204.07967377668
 31
0.0
  0
LINE
  5
7B94
  8
3
  6
CONTINUOUS
 10
1676.2179317434659
 20
1004.07967377668
 30
0.0
 11
1685.5348437434659
 21
1004.07967377668
 31
0.0
  0
DIMENSION
  5
7BA1
  8
3
  6
CONTINUOUS
  2
*D6
 10
1743.2194007434671
 20
1004.07967377668
 30
0.0
 11
1743.2194007434671
 21
1117.5082452052509
 31
0.0
 70
   128
 13
1676.2179317434659
 23
1204.07967377668
 33
0.0
 14
1676.2179317434659
 24
1004.07967377668
 34
0.0
 50
90.0
1001
ACAD
1000
DSTYLE
1002
{
1070
   287
1070
     3
1070
   287
1070
     3
1070
     3
1000
φ<>
1070
    40
1040
10.0
1070
   143
1040
0.039
1070
   172
1070
     1
1070
   271
1070
     0
1070
   279
1070
     0
1070
   288
1070
     1
1002
}
  0
DIMENSION
  5
7BAE
  8
3
  6
CONTINUOUS
  2
*D7
 10
547.07137899999987
 20
759.9346907766801
 30
0.0
 11
464.86246399999999
 21
759.9346907766801
 31
0.0
 70
   128
 13
387.07137899999992
 23
829.07967377668024
 33
0.0
 14
547.07137899999987
 24
829.07967377668024
 34
0.0
1001
ACAD
1000
DSTYLE
1002
{
1070
   287
1070
     3
1070
   287
1070
     3
1070
    40
1040
10.0
1070
   143
1040
0.039
1070
   172
1070
     1
1070
   271
1070
     0
1070
   279
1070
     0
1070
   288
1070
     1
1002
}
  0
DIMENSION
  5
7BBA
  8
3
  6
CONTINUOUS
  2
*D8
 10
1017.071378999999
 20
759.9346907766801
 30
0.0
 11
782.07137899999998
 21
784.9346907766801
 31
0.0
 70
     0
 13
547.07137899999987
 23
829.07967377668024
 33
0.0
 14
1017.071378999999
 24
829.07967377668024
 34
0.0
1001
ACAD
1000
DSTYLE
1002
{
1070
   287
1070
     4
1070
   287
1070
     4
1070
    40
1040
10.0
1070
    75
1070
     1
1070
   143
1040
0.039
1070
   172
1070
     1
1070
   271
1070
     0
1070
   279
1070
     1
1070
   288
1070
     1
1002
}
  0
DIMENSION
  5
7BC7
  8
3
  6
CONTINUOUS
  2
*D9
 10
1084.4927138876351
 20
1104.07967377668
 30
0.0
 11
1084.4927138876351
 21
1198.365388062394
 31
0.0
 70
   128
 13
768.07137899999987
 23
1264.07967377668
 33
0.0
 14
757.41386
 24
1104.07967377668
 34
0.0
 50
90.0
1001
ACAD
1000
DSTYLE
1002
{
1070
   287
1070
     3
1070
   287
1070
     3
1070
    40
1040
10.0
1070
   143
1040
0.039
1070
   172
1070
     1
1070
   271
1070
     0
1070
   279
1070
     0
1070
   288
1070
     1
1002
}
  0
DIMENSION
  5
7BD3
  8
3
  6
CONTINUOUS
  2
*D10
 10
1084.4927138876351
 20
829.07967377668024
 30
0.0
 11
1059.4927138876351
 21
966.57967377668035
 31
0.0
 70
     0
 13
757.41386
 23
1104.07967377668
 33
0.0
 14
1017.071378999999
 24
829.07967377668024
 34
0.0
 50
90.0
1001
ACAD
1000
DSTYLE
1002
{
1070
   287
1070
     4
1070
   287
1070
     4
1070
    40
1040
10.0
1070
    75
1070
     1
1070
   143
1040
0.039
1070
   172
1070
     1
1070
   271
1070
     0
1070
   279
1070
     1
1070
   288
1070
     1
1002
}
  0
DIMENSION
  5
7BE0
  8
3
  6
CONTINUOUS
  2
*D11
 10
1142.154352
 20
829.07967377668024
 30
0.0
 11
1142.154352
 21
1044.5587927766801
 31
0.0
 70
   128
 13
768.07137899999987
 23
1264.07967377668
 33
0.0
 14
1017.071378999999
 24
829.07967377668024
 34
0.0
 50
90.0
1001
ACAD
1000
DSTYLE
1002
{
1070
   287
1070
     3
1070
   287
1070
     3
1070
    40
1040
10.0
1070
   143
1040
0.039
1070
   172
1070
     1
1070
   271
1070
     0
1070
   279
1070
     0
1070
   288
1070
     1
1002
}
  0
DIMENSION
  5
7BED
  8
3
  6
CONTINUOUS
  2
*D12
 10
747.07137899999987
 20
1304.7730897766801
 30
0.0
 11
649.06639500000006
 21
1304.7730897766801
 31
0.0
 70
   128
 13
547.07137899999987
 23
1264.07967377668
 33
0.0
 14
747.07137899999987
 24
1264.07967377668
 34
0.0
1001
ACAD
1000
DSTYLE
1002
{
1070
   287
1070
     3
1070
   287
1070
     3
1070
    40
1040
10.0
1070
   143
1040
0.039
1070
   172
1070
     1
1070
   271
1070
     0
1070
   279
1070
     0
1070
   288
1070
     1
1002
}
  0
DIMENSION
  5
7BFA
  8
3
  6
CONTINUOUS
  2
*D13
 10
547.07137899999987
 20
1355.4263497766799
 30
0.0
 11
470.10668399999997
 21
1355.4263497766799
 31
0.0
 70
   128
 13
396.50419099999999
 23
1104.07967377668
 33
0.0
 14
547.07137899999987
 24
1264.07967377668
 34
0.0
1001
ACAD
1000
DSTYLE
1002
{
1070
   287
1070
     3
1070
   287
1070
     3
1070
    40
1040
10.0
1070
   143
1040
0.039
1070
   172
1070
     1
1070
   271
1070
     0
1070
   279
1070
     0
1070
   288
1070
     1
1002
}
  0
DIMENSION
  5
7C06
  8
3
  6
CONTINUOUS
  2
*D14
 10
758.07137899999987
 20
1355.4263497766799
 30
0.0
 11
652.57137899999998
 21
1380.4263497766799
 31
0.0
 70
     0
 13
547.07137899999987
 23
1264.07967377668
 33
0.0
 14
758.07137899999987
 24
1249.07967377668
 34
0.0
1001
ACAD
1000
DSTYLE
1002
{
1070
   287
1070
     4
1070
   287
1070
     4
1070
    40
1040
10.0
1070
    75
1070
     1
1070
   143
1040
0.039
1070
   172
1070
     1
1070
   271
1070
     0
1070
   279
1070
     1
1070
   288
1070
     1
1002
}
  0
DIMENSION
  5
7C20
  8
3
  6
CONTINUOUS
  2
*D15
 10
1092.7706189999999
 20
1782.8666825436219
 30
0.0
 11
1092.770618999999
 21
1901.357466543622
 31
0.0
 70
   128
 13
1017.071378999999
 23
2006.8666825436219
 33
0.0
 14
1017.071378999999
 24
1782.8666825436219
 34
0.0
 50
90.0
1001
ACAD
1000
DSTYLE
1002
{
1070
   287
1070
     3
1070
   287
1070
     3
1070
    40
1040
10.0
1070
   143
1040
0.039
1070
   172
1070
     1
1070
   271
1070
     0
1070
   279
1070
     0
1070
   288
1070
     1
1002
}
  0
LINE
  5
7C21
  8
2
  6
CENTER
 10
789.51961799999992
 20
1996.8666825436219
 30
0.0
 11
340.49453399999987
 21
1996.8666825436219
 31
0.0
  0
LINE
  5
7C22
  8
2
  6
CENTER
 10
547.07137899999987
 20
1638.9141055436221
 30
0.0
 11
547.07137899999987
 21
2123.4497485436218
 31
0.0
  0
LINE
  5
7C23
  8
2
  6
CENTER
 10
774.01707499999986
 20
1104.07967377668
 30
0.0
 11
382.95628299999998
 21
1104.07967377668
 31
0.0
  0
DIMENSION
  5
7C50
  8
3
  6
CONTINUOUS
  2
*D16
 10
1017.071378999999
 20
1600.6490925436219
 30
0.0
 11
675.03467799999999
 21
1600.6490925436219
 31
0.0
 70
   128
 13
387.07137899999992
 23
1782.8666825436219
 33
0.0
 14
1017.071378999999
 24
1782.8666825436219
 34
0.0
1001
ACAD
1000
DSTYLE
1002
{
1070
   287
1070
     3
1070
   287
1070
     3
1070
    40
1040
10.0
1070
   143
1040
0.039
1070
   172
1070
     1
1070
   271
1070
     0
1070
   279
1070
     0
1070
   288
1070
     1
1002
}
  0
DIMENSION
  5
7C8D
  8
3
  2
*D17
 10
1017.071378999999
 20
1429.330068976373
 30
0.0
 11
737.15398409880981
 21
1429.330068976373
 31
0.0
 70
   128
 13
396.50419099999999
 23
1109.07967377668
 33
0.0
 14
1017.071378999999
 24
879.07967377668024
 34
0.0
1001
ACAD
1000
DSTYLE
1002
{
1070
   287
1070
     3
1070
   287
1070
     3
1070
    40
1040
10.0
1070
   143
1040
0.039
1070
   172
1070
     1
1070
   271
1070
     0
1070
   279
1070
     0
1070
   288
1070
     1
1002
}
  0
ENDSEC
  0
EOF
