  0
SECTION
  2
HEADER
  9
$ACADVER
  1
AC1009
  9
$INSBASE
 10
0.0
 20
0.0
 30
0.0
  9
$EXTMIN
 10
250.0
 20
300.0
 30
0.0
  9
$EXTMAX
 10
1850.0
 20
2786.6522620000001
 30
0.0
  9
$LIMMIN
 10
0.0
 20
0.0
  9
$LIMMAX
 10
297.0
 20
210.0
  9
$ORTHOMODE
 70
     0
  9
$REGENMODE
 70
     1
  9
$FILLMODE
 70
     0
  9
$QTEXTMODE
 70
     0
  9
$MIRRTEXT
 70
     1
  9
$DRAGMODE
 70
     2
  9
$LTSCALE
 40
100.0
  9
$OSMODE
 70
    37
  9
$ATTMODE
 70
     1
  9
$TEXTSIZE
 40
180.0
  9
$TRACEWID
 40
0.05
  9
$TEXTSTYLE
  7
STANDARD
  9
$CLAYER
  8
3
  9
$CELTYPE
  6
BYLAYER
  9
$CECOLOR
 62
   256
  9
$DIMSCALE
 40
10.0
  9
$DIMASZ
 40
2.0
  9
$DIMEXO
 40
0.5
  9
$DIMDLI
 40
10.0
  9
$DIMRND
 40
0.0
  9
$DIMDLE
 40
0.0
  9
$DIMEXE
 40
1.0
  9
$DIMTP
 40
1.0
  9
$DIMTM
 40
1.0
  9
$DIMTXT
 40
3.0
  9
$DIMCEN
 40
0.0
  9
$DIMTSZ
 40
0.0
  9
$DIMTOL
 70
     0
  9
$DIMLIM
 70
     0
  9
$DIMTIH
 70
     0
  9
$DIMTOH
 70
     0
  9
$DIMSE1
 70
     0
  9
$DIMSE2
 70
     0
  9
$DIMTAD
 70
     1
  9
$DIMZIN
 70
     8
  9
$DIMBLK
  1

  9
$DIMASO
 70
     1
  9
$DIMSHO
 70
     1
  9
$DIMPOST
  1

  9
$DIMAPOST
  1

  9
$DIMALT
 70
     0
  9
$DIMALTD
 70
     2
  9
$DIMALTF
 40
0.039
  9
$DIMLFAC
 40
1.0
  9
$DIMTOFL
 70
     1
  9
$DIMTVP
 40
0.0
  9
$DIMTIX
 70
     0
  9
$DIMSOXD
 70
     0
  9
$DIMSAH
 70
     1
  9
$DIMBLK1
  1
OPEN
  9
$DIMBLK2
  1
OPEN
  9
$DIMSTYLE
  2
IGA
  9
$DIMCLRD
 70
     0
  9
$DIMCLRE
 70
     0
  9
$DIMCLRT
 70
     0
  9
$DIMTFAC
 40
10.0
  9
$DIMGAP
 40
1.0
  9
$LUNITS
 70
     2
  9
$LUPREC
 70
     3
  9
$SKETCHINC
 40
0.1
  9
$FILLETRAD
 40
50.0
  9
$AUNITS
 70
     0
  9
$AUPREC
 70
     0
  9
$MENU
  1
acad
  9
$ELEVATION
 40
0.0
  9
$PELEVATION
 40
0.0
  9
$THICKNESS
 40
0.0
  9
$LIMCHECK
 70
     0
  9
$BLIPMODE
 70
     0
  9
$CHAMFERA
 40
0.5
  9
$CHAMFERB
 40
0.5
  9
$SKPOLY
 70
     0
  9
$TDCREATE
 40
2450737.3682105318
  9
$TDUPDATE
 40
2454953.861458669
  9
$TDINDWG
 40
0.0050839583
  9
$TDUSRTIMER
 40
0.0050839583
  9
$USRTIMER
 70
     1
  9
$ANGBASE
 50
0.0
  9
$ANGDIR
 70
     0
  9
$PDMODE
 70
     0
  9
$PDSIZE
 40
0.0
  9
$PLINEWID
 40
0.0
  9
$COORDS
 70
     1
  9
$SPLFRAME
 70
     0
  9
$SPLINETYPE
 70
     6
  9
$SPLINESEGS
 70
     8
  9
$ATTDIA
 70
     0
  9
$ATTREQ
 70
     1
  9
$HANDLING
 70
 10241
  9
$HANDSEED
  5
7E36
  9
$SURFTAB1
 70
     6
  9
$SURFTAB2
 70
     6
  9
$SURFTYPE
 70
     6
  9
$SURFU
 70
     6
  9
$SURFV
 70
     6
  9
$UCSNAME
  2

  9
$UCSORG
 10
0.0
 20
0.0
 30
0.0
  9
$UCSXDIR
 10
1.0
 20
0.0
 30
0.0
  9
$UCSYDIR
 10
0.0
 20
1.0
 30
0.0
  9
$PUCSNAME
  2

  9
$PUCSORG
 10
0.0
 20
0.0
 30
0.0
  9
$PUCSXDIR
 10
1.0
 20
0.0
 30
0.0
  9
$PUCSYDIR
 10
0.0
 20
1.0
 30
0.0
  9
$USERI1
 70
     0
  9
$USERI2
 70
     0
  9
$USERI3
 70
     0
  9
$USERI4
 70
     0
  9
$USERI5
 70
     0
  9
$USERR1
 40
0.0
  9
$USERR2
 40
0.0
  9
$USERR3
 40
0.0
  9
$USERR4
 40
0.0
  9
$USERR5
 40
0.0
  9
$WORLDVIEW
 70
     1
  9
$SHADEDGE
 70
     3
  9
$SHADEDIF
 70
    70
  9
$TILEMODE
 70
     1
  9
$MAXACTVP
 70
    16
  9
$PLIMCHECK
 70
     0
  9
$PEXTMIN
 10
1.0000000000000000E+020
 20
1.0000000000000000E+020
 30
1.0000000000000000E+020
  9
$PEXTMAX
 10
-1.0000000000000000E+020
 20
-1.0000000000000000E+020
 30
-1.0000000000000000E+020
  9
$PLIMMIN
 10
0.0
 20
0.0
  9
$PLIMMAX
 10
12.0
 20
9.0
  9
$UNITMODE
 70
     0
  9
$VISRETAIN
 70
     0
  9
$PLINEGEN
 70
     0
  9
$PSLTSCALE
 70
     1
  0
ENDSEC
  0
SECTION
  2
TABLES
  0
TABLE
  2
VPORT
 70
     2
  0
VPORT
  2
*ACTIVE
 70
     0
 10
0.0
 20
0.0
 11
1.0
 21
1.0
 12
2607.4689469360678
 22
1694.558792597529
 13
0.0
 23
0.0
 14
10.0
 24
10.0
 15
10.0
 25
10.0
 16
0.0
 26
0.0
 36
1.0
 17
0.0
 27
0.0
 37
0.0
 40
3384.7202369232791
 41
1.5051150895140659
 42
50.0
 43
0.0
 44
0.0
 50
0.0
 51
0.0
 71
     0
 72
   100
 73
     1
 74
     0
 75
     0
 76
     0
 77
     0
 78
     0
  0
ENDTAB
  0
TABLE
  2
LTYPE
 70
     2
  0
LTYPE
  2
CONTINUOUS
 70
     0
  3
Solid line
 72
    65
 73
     0
 40
0.0
  0
LTYPE
  2
CENTER
 70
     0
  3
____ _ ____ _ ____ _ ____ _ ____ _ ____ _ ____ 
 72
    65
 73
     4
 40
2.0
 49
1.25
 49
-0.25
 49
0.25
 49
-0.25
  0
ENDTAB
  0
TABLE
  2
LAYER
 70
     6
  0
LAYER
  2
0
 70
     0
 62
     7
  6
CONTINUOUS
  0
LAYER
  2
3
 70
     0
 62
     2
  6
CONTINUOUS
  0
LAYER
  2
2
 70
     0
 62
     3
  6
CENTER
  0
LAYER
  2
1
 70
     0
 62
     4
  6
CONTINUOUS
  0
LAYER
  2
4
 70
     0
 62
     7
  6
CONTINUOUS
  0
LAYER
  2
DEFPOINTS
 70
     0
 62
     7
  6
CONTINUOUS
  0
ENDTAB
  0
TABLE
  2
STYLE
 70
     1
  0
STYLE
  2
STANDARD
 70
     0
 40
0.0
 41
1.0
 50
0.0
 71
     0
 42
180.0
  3
simplex.shx
  4
extfont.shx
  0
ENDTAB
  0
TABLE
  2
VIEW
 70
     0
  0
ENDTAB
  0
TABLE
  2
UCS
 70
     0
  0
ENDTAB
  0
TABLE
  2
APPID
 70
     1
  0
APPID
  2
ACAD
 70
     0
  0
ENDTAB
  0
TABLE
  2
DIMSTYLE
 70
     1
  0
DIMSTYLE
  2
IGA
 70
     0
  3

  4

  5

  6
OPEN
  7
OPEN
 40
2.0
 41
2.0
 42
0.5
 43
10.0
 44
1.0
 45
0.0
 46
0.0
 47
1.0
 48
1.0
140
3.0
141
0.0
142
0.0
143
0.03937
144
1.0
145
0.0
146
10.0
147
1.0
 71
     0
 72
     0
 73
     0
 74
     0
 75
     0
 76
     0
 77
     1
 78
     8
170
     0
171
     2
172
     0
173
     1
174
     0
175
     0
176
     0
177
     0
178
     0
  0
ENDTAB
  0
ENDSEC
  0
SECTION
  2
BLOCKS
  0
BLOCK
  8
0
  2
$MODEL_SPACE
 70
     0
 10
0.0
 20
0.0
 30
0.0
  3
$MODEL_SPACE
  1

  0
ENDBLK
  5
1B
  8
0
  0
BLOCK
 67
     1
  8
0
  2
$PAPER_SPACE
 70
     0
 10
0.0
 20
0.0
 30
0.0
  3
$PAPER_SPACE
  1

  0
ENDBLK
  5
18
 67
     1
  8
0
  0
BLOCK
  8
0
  2
_OPEN
 70
     0
 10
0.0
 20
0.0
 30
0.0
  3
_OPEN
  1

  0
LINE
  5
7B16
  8
0
  6
BYBLOCK
 62
     0
 10
-1.0
 20
0.166667
 30
0.0
 11
0.0
 21
0.0
 31
0.0
  0
LINE
  5
7B17
  8
0
  6
BYBLOCK
 62
     0
 10
0.0
 20
0.0
 30
0.0
 11
-1.0
 21
-0.166667
 31
0.0
  0
LINE
  5
7B18
  8
0
  6
BYBLOCK
 62
     0
 10
0.0
 20
0.0
 30
0.0
 11
-1.0
 21
0.0
 31
0.0
  0
ENDBLK
  5
7B19
  8
0
  0
BLOCK
  8
0
  2
*D1
 70
     1
 10
0.0
 20
0.0
 30
0.0
  3
*D1
  1

  0
LINE
  5
7D8E
  8
3
  6
CONTINUOUS
 62
     0
 10
515.4320984582215
 20
801.77328499999987
 30
0.0
 11
515.4320984582215
 21
724.04408299999989
 31
0.0
  0
LINE
  5
7D8F
  8
3
  6
CONTINUOUS
 62
     0
 10
675.43209845822162
 20
801.77328499999987
 30
0.0
 11
675.43209845822162
 21
724.04408299999989
 31
0.0
  0
LINE
  5
7D90
  8
3
  6
CONTINUOUS
 62
     0
 10
535.43209845822162
 20
734.044083
 30
0.0
 11
655.43209845822162
 21
734.044083
 31
0.0
  0
INSERT
  5
7D91
  8
3
  6
CONTINUOUS
 62
     0
  2
_OPEN
 10
515.4320984582215
 20
734.044083
 30
0.0
 41
20.0
 42
20.0
 43
20.0
 50
180.0
  0
INSERT
  5
7D92
  8
3
  6
CONTINUOUS
 62
     0
  2
_OPEN
 10
675.43209845822162
 20
734.044083
 30
0.0
 41
20.0
 42
20.0
 43
20.0
  0
TEXT
  8
3
  40
30
  5
7E24
  62
0
  72
0
  71
0
 10
536.236
 20
705.944
 30
0.000000
  1
160
  0
POINT
  5
7D94
  8
DEFPOINTS
  6
CONTINUOUS
 62
     0
 10
515.4320984582215
 20
806.77328499999999
 30
0.0
  0
POINT
  5
7D95
  8
DEFPOINTS
  6
CONTINUOUS
 62
     0
 10
675.43209845822162
 20
806.77328499999999
 30
0.0
  0
POINT
  5
7D96
  8
DEFPOINTS
  6
CONTINUOUS
 62
     0
 10
675.43209845822162
 20
734.044083
 30
0.0
  0
ENDBLK
  5
7B26
  8
0
  0
BLOCK
  8
0
  2
*D2
 70
     1
 10
0.0
 20
0.0
 30
0.0
  3
*D2
  1

  0
LINE
  5
7D97
  8
3
  6
CONTINUOUS
 62
     0
 10
1145.4320984582209
 20
801.77328499999987
 30
0.0
 11
1145.4320984582209
 21
724.04408299999989
 31
0.0
  0
LINE
  5
7D98
  8
3
  6
CONTINUOUS
 62
     0
 10
695.43209845822162
 20
734.044083
 30
0.0
 11
1125.4320984582209
 21
734.044083
 31
0.0
  0
INSERT
  5
7D99
  8
3
  6
CONTINUOUS
 62
     0
  2
_OPEN
 10
675.43209845822162
 20
734.044083
 30
0.0
 41
20.0
 42
20.0
 43
20.0
 50
180.0
  0
INSERT
  5
7D9A
  8
3
  6
CONTINUOUS
 62
     0
  2
_OPEN
 10
1145.4320984582209
 20
734.044083
 30
0.0
 41
20.0
 42
20.0
 43
20.0
  0
TEXT
  8
3
  40
30
  5
7E25
  62
0
  72
0
  71
0
 10
850.432
 20
705.944
 30
0.000000
  1
470
  0
POINT
  5
7D9C
  8
DEFPOINTS
  6
CONTINUOUS
 62
     0
 10
675.43209845822162
 20
806.77328499999999
 30
0.0
  0
POINT
  5
7D9D
  8
DEFPOINTS
  6
CONTINUOUS
 62
     0
 10
1145.4320984582209
 20
806.77328499999999
 30
0.0
  0
POINT
  5
7D9E
  8
DEFPOINTS
  6
CONTINUOUS
 62
     0
 10
1145.4320984582209
 20
734.044083
 30
0.0
  0
ENDBLK
  5
7B32
  8
0
  0
BLOCK
  8
0
  2
*D3
 70
     1
 10
0.0
 20
0.0
 30
0.0
  3
*D3
  1

  0
LINE
  5
7D9F
  8
3
  6
CONTINUOUS
 62
     0
 10
515.4320984582215
 20
1307.773285
 30
0.0
 11
515.4320984582215
 21
1345.2762379999999
 31
0.0
  0
LINE
  5
7DA0
  8
3
  6
CONTINUOUS
 62
     0
 10
675.43209845822162
 20
1297.115767
 30
0.0
 11
675.43209845822162
 21
1345.2762379999999
 31
0.0
  0
LINE
  5
7DA1
  8
3
  6
CONTINUOUS
 62
     0
 10
535.43209845822162
 20
1335.2762379999999
 30
0.0
 11
655.43209845822162
 21
1335.2762379999999
 31
0.0
  0
INSERT
  5
7DA2
  8
3
  6
CONTINUOUS
 62
     0
  2
_OPEN
 10
515.4320984582215
 20
1335.2762379999999
 30
0.0
 41
20.0
 42
20.0
 43
20.0
 50
180.0
  0
INSERT
  5
7DA3
  8
3
  6
CONTINUOUS
 62
     0
  2
_OPEN
 10
675.43209845822162
 20
1335.2762379999999
 30
0.0
 41
20.0
 42
20.0
 43
20.0
  0
TEXT
  8
3
  40
30
  5
7E26
  62
0
  72
0
  71
0
 10
533.477
 20
1307.18
 30
0.000000
  1
160
  0
POINT
  5
7DA5
  8
DEFPOINTS
  6
CONTINUOUS
 62
     0
 10
515.4320984582215
 20
1302.773285
 30
0.0
  0
POINT
  5
7DA6
  8
DEFPOINTS
  6
CONTINUOUS
 62
     0
 10
675.43209845822162
 20
1292.115767
 30
0.0
  0
POINT
  5
7DA7
  8
DEFPOINTS
  6
CONTINUOUS
 62
     0
 10
675.43209845822162
 20
1335.2762379999999
 30
0.0
  0
ENDBLK
  5
7B3F
  8
0
  0
BLOCK
  8
0
  2
*D4
 70
     1
 10
0.0
 20
0.0
 30
0.0
  3
*D4
  1

  0
LINE
  5
7DA8
  8
3
  6
CONTINUOUS
 62
     0
 10
854.4320984582215
 20
1086.773285
 30
0.0
 11
854.4320984582215
 21
1345.2762379999999
 31
0.0
  0
LINE
  5
7DA9
  8
3
  6
CONTINUOUS
 62
     0
 10
695.43209845822162
 20
1335.2762379999999
 30
0.0
 11
834.43209845822162
 21
1335.2762379999999
 31
0.0
  0
INSERT
  5
7DAA
  8
3
  6
CONTINUOUS
 62
     0
  2
_OPEN
 10
675.43209845822162
 20
1335.2762379999999
 30
0.0
 41
20.0
 42
20.0
 43
20.0
 50
180.0
  0
INSERT
  5
7DAB
  8
3
  6
CONTINUOUS
 62
     0
  2
_OPEN
 10
854.4320984582215
 20
1335.2762379999999
 30
0.0
 41
20.0
 42
20.0
 43
20.0
  0
TEXT
  8
3
  40
30
  5
7E27
  62
0
  72
0
  71
0
 10
704.932
 20
1307.18
 30
0.000000
  1
179
  0
POINT
  5
7DAD
  8
DEFPOINTS
  6
CONTINUOUS
 62
     0
 10
675.43209845822162
 20
1292.115767
 30
0.0
  0
POINT
  5
7DAE
  8
DEFPOINTS
  6
CONTINUOUS
 62
     0
 10
854.4320984582215
 20
1081.773285
 30
0.0
  0
POINT
  5
7DAF
  8
DEFPOINTS
  6
CONTINUOUS
 62
     0
 10
854.4320984582215
 20
1335.2762379999999
 30
0.0
  0
ENDBLK
  5
7CAA
  8
0
  0
BLOCK
  8
0
  2
*D5
 70
     1
 10
0.0
 20
0.0
 30
0.0
  3
*D5
  1

  0
LINE
  5
7DB0
  8
3
  6
CONTINUOUS
 62
     0
 10
510.4320984582215
 20
1281.773285
 30
0.0
 11
469.28537045822179
 21
1281.773285
 31
0.0
  0
LINE
  5
7DB1
  8
3
  6
CONTINUOUS
 62
     0
 10
510.43209845822162
 20
1081.773285
 30
0.0
 11
469.28537045822179
 21
1081.773285
 31
0.0
  0
LINE
  5
7DB2
  8
3
  6
CONTINUOUS
 62
     0
 10
479.28537045822191
 20
1261.773285
 30
0.0
 11
479.28537045822179
 21
1101.773285
 31
0.0
  0
INSERT
  5
7DB3
  8
3
  6
CONTINUOUS
 62
     0
  2
_OPEN
 10
479.28537045822191
 20
1281.773285
 30
0.0
 41
20.0
 42
20.0
 43
20.0
 50
90.0
  0
INSERT
  5
7DB4
  8
3
  6
CONTINUOUS
 62
     0
  2
_OPEN
 10
479.28537045822179
 20
1081.773285
 30
0.0
 41
20.0
 42
20.0
 43
20.0
 50
270.0
  0
TEXT
  8
3
  40
30
  5
7E28
  62
0
  72
0
  71
0
 10
394.285
 20
1134.66
 30
0.000000
  1
200
  0
POINT
  5
7DB6
  8
DEFPOINTS
  6
CONTINUOUS
 62
     0
 10
515.4320984582215
 20
1281.773285
 30
0.0
  0
POINT
  5
7DB7
  8
DEFPOINTS
  6
CONTINUOUS
 62
     0
 10
515.4320984582215
 20
1081.773285
 30
0.0
  0
POINT
  5
7DB8
  8
DEFPOINTS
  6
CONTINUOUS
 62
     0
 10
479.28537045822179
 20
1081.773285
 30
0.0
  0
ENDBLK
  5
7B58
  8
0
  0
BLOCK
  8
0
  2
*D6
 70
     1
 10
0.0
 20
0.0
 30
0.0
  3
*D6
  1

  0
LINE
  5
7DB9
  8
3
  6
CONTINUOUS
 62
     0
 10
525.43209845822162
 20
1292.7732849999991
 30
0.0
 11
402.56666845822178
 21
1292.773285
 31
0.0
  0
LINE
  5
7DBA
  8
3
  6
CONTINUOUS
 62
     0
 10
510.43209845822162
 20
1081.773285
 30
0.0
 11
402.56666845822173
 21
1081.773285
 31
0.0
  0
LINE
  5
7DBB
  8
3
  6
CONTINUOUS
 62
     0
 10
412.56666845822178
 20
1272.773285
 30
0.0
 11
412.56666845822178
 21
1101.773285
 31
0.0
  0
INSERT
  5
7DBC
  8
3
  6
CONTINUOUS
 62
     0
  2
_OPEN
 10
412.56666845822178
 20
1292.773285
 30
0.0
 41
20.0
 42
20.0
 43
20.0
 50
90.0
  0
INSERT
  5
7DBD
  8
3
  6
CONTINUOUS
 62
     0
  2
_OPEN
 10
412.56666845822178
 20
1081.773285
 30
0.0
 41
20.0
 42
20.0
 43
20.0
 50
270.0
  0
TEXT
  8
3
  40
30
  5
7E29
  62
0
  72
0
  71
0
 10
327.567
 20
1133.53
 30
0.000000
  1
211
  0
POINT
  5
7DBF
  8
DEFPOINTS
  6
CONTINUOUS
 62
     0
 10
530.43209845822162
 20
1292.7732849999991
 30
0.0
  0
POINT
  5
7DC0
  8
DEFPOINTS
  6
CONTINUOUS
 62
     0
 10
515.4320984582215
 20
1081.773285
 30
0.0
  0
POINT
  5
7DC1
  8
DEFPOINTS
  6
CONTINUOUS
 62
     0
 10
412.56666845822178
 20
1081.773285
 30
0.0
  0
ENDBLK
  5
7B65
  8
0
  0
BLOCK
  8
0
  2
*D7
 70
     1
 10
0.0
 20
0.0
 30
0.0
  3
*D7
  1

  0
LINE
  5
7DC2
  8
3
  6
CONTINUOUS
 62
     0
 10
510.4320984582215
 20
806.77328499999999
 30
0.0
 11
402.5666684582215
 21
806.77328499999999
 31
0.0
  0
LINE
  5
7DC3
  8
3
  6
CONTINUOUS
 62
     0
 10
412.56666845822161
 20
1061.773285
 30
0.0
 11
412.56666845822161
 21
826.77328499999987
 31
0.0
  0
INSERT
  5
7DC4
  8
3
  6
CONTINUOUS
 62
     0
  2
_OPEN
 10
412.56666845822161
 20
1081.773285
 30
0.0
 41
20.0
 42
20.0
 43
20.0
 50
90.0
  0
INSERT
  5
7DC5
  8
3
  6
CONTINUOUS
 62
     0
  2
_OPEN
 10
412.56666845822161
 20
806.77328499999999
 30
0.0
 41
20.0
 42
20.0
 43
20.0
 50
270.0
  0
TEXT
  8
3
  40
30
  5
7E2A
  62
0
  72
0
  71
0
 10
327.567
 20
891.173
 30
0.000000
  1
275
  0
POINT
  5
7DC7
  8
DEFPOINTS
  6
CONTINUOUS
 62
     0
 10
515.4320984582215
 20
1081.773285
 30
0.0
  0
POINT
  5
7DC8
  8
DEFPOINTS
  6
CONTINUOUS
 62
     0
 10
515.4320984582215
 20
806.77328499999999
 30
0.0
  0
POINT
  5
7DC9
  8
DEFPOINTS
  6
CONTINUOUS
 62
     0
 10
412.56666845822161
 20
806.77328499999999
 30
0.0
  0
ENDBLK
  5
7B71
  8
0
  0
BLOCK
  8
0
  2
*D8
 70
     1
 10
0.0
 20
0.0
 30
0.0
  3
*D8
  1

  0
LINE
  5
7DCA
  8
3
  6
CONTINUOUS
 62
     0
 10
515.4320984582215
 20
1823.219206748214
 30
0.0
 11
515.4320984582215
 21
1654.9167767482149
 31
0.0
  0
LINE
  5
7DCB
  8
3
  6
CONTINUOUS
 62
     0
 10
1145.4320984582209
 20
1823.219206748214
 30
0.0
 11
1145.4320984582209
 21
1654.9167767482149
 31
0.0
  0
LINE
  5
7DCC
  8
3
  6
CONTINUOUS
 62
     0
 10
535.43209845822162
 20
1664.9167767482149
 30
0.0
 11
1125.4320984582209
 21
1664.9167767482149
 31
0.0
  0
INSERT
  5
7DCD
  8
3
  6
CONTINUOUS
 62
     0
  2
_OPEN
 10
515.4320984582215
 20
1664.9167767482149
 30
0.0
 41
20.0
 42
20.0
 43
20.0
 50
180.0
  0
INSERT
  5
7DCE
  8
3
  6
CONTINUOUS
 62
     0
  2
_OPEN
 10
1145.4320984582209
 20
1664.9167767482149
 30
0.0
 41
20.0
 42
20.0
 43
20.0
  0
TEXT
  8
3
  40
30
  5
7E2B
  62
0
  72
0
  71
0
 10
770.861
 20
1636.82
 30
0.000000
  1
630
  0
POINT
  5
7DD0
  8
DEFPOINTS
  6
CONTINUOUS
 62
     0
 10
515.4320984582215
 20
1828.219206748214
 30
0.0
  0
POINT
  5
7DD1
  8
DEFPOINTS
  6
CONTINUOUS
 62
     0
 10
1145.4320984582209
 20
1828.219206748214
 30
0.0
  0
POINT
  5
7DD2
  8
DEFPOINTS
  6
CONTINUOUS
 62
     0
 10
1145.4320984582209
 20
1664.9167767482149
 30
0.0
  0
ENDBLK
  5
7B8B
  8
0
  0
BLOCK
  8
0
  2
*D9
 70
     1
 10
0.0
 20
0.0
 30
0.0
  3
*D9
  1

  0
LINE
  5
7DD3
  8
3
  6
CONTINUOUS
 62
     0
 10
1150.4320984582209
 20
2052.2192067482151
 30
0.0
 11
1251.9264104582221
 21
2052.2192067482151
 31
0.0
  0
LINE
  5
7DD4
  8
3
  6
CONTINUOUS
 62
     0
 10
1150.4320984582209
 20
1828.219206748214
 30
0.0
 11
1251.9264104582221
 21
1828.219206748214
 31
0.0
  0
LINE
  5
7DD5
  8
3
  6
CONTINUOUS
 62
     0
 10
1241.926410458221
 20
2032.2192067482149
 30
0.0
 11
1241.926410458221
 21
1848.2192067482149
 31
0.0
  0
INSERT
  5
7DD6
  8
3
  6
CONTINUOUS
 62
     0
  2
_OPEN
 10
1241.926410458221
 20
2052.2192067482151
 30
0.0
 41
20.0
 42
20.0
 43
20.0
 50
90.0
  0
INSERT
  5
7DD7
  8
3
  6
CONTINUOUS
 62
     0
  2
_OPEN
 10
1241.926410458221
 20
1828.219206748214
 30
0.0
 41
20.0
 42
20.0
 43
20.0
 50
270.0
  0
TEXT
  8
3
  40
30
  5
7E2C
  62
0
  72
0
  71
0
 10
1156.93
 20
1895.69
 30
0.000000
  1
224
  0
POINT
  5
7DD9
  8
DEFPOINTS
  6
CONTINUOUS
 62
     0
 10
1145.4320984582209
 20
2052.2192067482151
 30
0.0
  0
POINT
  5
7DDA
  8
DEFPOINTS
  6
CONTINUOUS
 62
     0
 10
1145.4320984582209
 20
1828.219206748214
 30
0.0
  0
POINT
  5
7DDB
  8
DEFPOINTS
  6
CONTINUOUS
 62
     0
 10
1241.926410458221
 20
1828.219206748214
 30
0.0
  0
ENDBLK
  5
7B98
  8
0
  0
BLOCK
  8
0
  2
*D10
 70
     1
 10
0.0
 20
0.0
 30
0.0
  3
*D10
  1

  0
LINE
  5
7DDC
  8
3
  6
CONTINUOUS
 62
     0
 10
1455.3853633544461
 20
801.77328499999987
 30
0.0
 11
1455.3853633544461
 21
728.09781299999997
 31
0.0
  0
LINE
  5
7DDD
  8
3
  6
CONTINUOUS
 62
     0
 10
1669.3853633544461
 20
801.77328499999987
 30
0.0
 11
1669.3853633544461
 21
728.09781299999997
 31
0.0
  0
LINE
  5
7DDE
  8
3
  6
CONTINUOUS
 62
     0
 10
1475.3853633544461
 20
738.09781299999986
 30
0.0
 11
1649.3853633544461
 21
738.09781299999986
 31
0.0
  0
INSERT
  5
7DDF
  8
3
  6
CONTINUOUS
 62
     0
  2
_OPEN
 10
1455.3853633544461
 20
738.09781299999986
 30
0.0
 41
20.0
 42
20.0
 43
20.0
 50
180.0
  0
INSERT
  5
7DE0
  8
3
  6
CONTINUOUS
 62
     0
  2
_OPEN
 10
1669.3853633544461
 20
738.09781299999986
 30
0.0
 41
20.0
 42
20.0
 43
20.0
  0
TEXT
  8
3
  40
30
  5
7E2D
  62
0
  72
0
  71
0
 10
1495.79
 20
709.998
 30
0.000000
  1
214
  0
POINT
  5
7DE2
  8
DEFPOINTS
  6
CONTINUOUS
 62
     0
 10
1455.3853633544461
 20
806.77328499999999
 30
0.0
  0
POINT
  5
7DE3
  8
DEFPOINTS
  6
CONTINUOUS
 62
     0
 10
1669.3853633544461
 20
806.77328499999999
 30
0.0
  0
POINT
  5
7DE4
  8
DEFPOINTS
  6
CONTINUOUS
 62
     0
 10
1669.3853633544461
 20
738.09781299999986
 30
0.0
  0
ENDBLK
  5
7BA6
  8
0
  0
BLOCK
  8
0
  2
*D11
 70
     1
 10
0.0
 20
0.0
 30
0.0
  3
*D11
  1

  0
LINE
  5
7DE5
  8
3
  6
CONTINUOUS
 62
     0
 10
1679.3853633544461
 20
801.77328499999987
 30
0.0
 11
1679.3853633544461
 21
728.09781299999997
 31
0.0
  0
LINE
  5
7DE6
  8
3
  6
CONTINUOUS
 62
     0
 10
1649.3853633544461
 20
738.09781299999986
 30
0.0
 11
1629.3853633544461
 21
738.09781299999986
 31
0.0
  0
LINE
  5
7DE7
  8
3
  6
CONTINUOUS
 62
     0
 10
1699.3853633544461
 20
738.09781299999986
 30
0.0
 11
1719.3853633544461
 21
738.09781299999986
 31
0.0
  0
TEXT
  8
3
  40
30
  5
7E2E
  62
0
  72
0
  71
0
 10
1659.94
 20
709.726
 30
0.000000
  1
10
  0
LINE
  5
7DE9
  8
3
  6
CONTINUOUS
 62
     0
 10
1669.3853633544461
 20
738.09781299999986
 30
0.0
 11
1679.3853633544461
 21
738.09781299999986
 31
0.0
  0
INSERT
  5
7DEA
  8
3
  6
CONTINUOUS
 62
     0
  2
_OPEN
 10
1669.3853633544461
 20
738.09781299999986
 30
0.0
 41
20.0
 42
20.0
 43
20.0
  0
INSERT
  5
7DEB
  8
3
  6
CONTINUOUS
 62
     0
  2
_OPEN
 10
1679.3853633544461
 20
738.09781299999986
 30
0.0
 41
20.0
 42
20.0
 43
20.0
 50
180.0
  0
POINT
  5
7DEC
  8
DEFPOINTS
  6
CONTINUOUS
 62
     0
 10
1669.3853633544461
 20
806.77328499999999
 30
0.0
  0
POINT
  5
7DED
  8
DEFPOINTS
  6
CONTINUOUS
 62
     0
 10
1679.3853633544461
 20
806.77328499999999
 30
0.0
  0
POINT
  5
7DEE
  8
DEFPOINTS
  6
CONTINUOUS
 62
     0
 10
1679.3853633544461
 20
738.09781299999986
 30
0.0
  0
ENDBLK
  5
7BD1
  8
0
  0
BLOCK
  8
0
  2
*D12
 70
     1
 10
0.0
 20
0.0
 30
0.0
  3
*D12
  1

  0
LINE
  5
7DEF
  8
3
  6
CONTINUOUS
 62
     0
 10
1599.3853633544461
 20
1286.7732849999991
 30
0.0
 11
1599.3853633544461
 21
1335.5495989999999
 31
0.0
  0
LINE
  5
7DF0
  8
3
  6
CONTINUOUS
 62
     0
 10
1739.3853633544461
 20
1286.7732849999991
 30
0.0
 11
1739.3853633544461
 21
1335.5495989999999
 31
0.0
  0
LINE
  5
7DF1
  8
3
  6
CONTINUOUS
 62
     0
 10
1619.3853633544461
 20
1325.5495989999999
 30
0.0
 11
1719.3853633544461
 21
1325.5495989999999
 31
0.0
  0
INSERT
  5
7DF2
  8
3
  6
CONTINUOUS
 62
     0
  2
_OPEN
 10
1599.3853633544461
 20
1325.5495989999999
 30
0.0
 41
20.0
 42
20.0
 43
20.0
 50
180.0
  0
INSERT
  5
7DF3
  8
3
  6
CONTINUOUS
 62
     0
  2
_OPEN
 10
1739.3853633544461
 20
1325.5495989999999
 30
0.0
 41
20.0
 42
20.0
 43
20.0
  0
TEXT
  8
3
  40
30
  5
7E2F
  62
0
  72
0
  71
0
 10
1605.10
 20
1297.45
 30
0.000000
  1
140
  0
POINT
  5
7DF5
  8
DEFPOINTS
  6
CONTINUOUS
 62
     0
 10
1599.3853633544461
 20
1281.773285
 30
0.0
  0
POINT
  5
7DF6
  8
DEFPOINTS
  6
CONTINUOUS
 62
     0
 10
1739.3853633544461
 20
1281.773285
 30
0.0
  0
POINT
  5
7DF7
  8
DEFPOINTS
  6
CONTINUOUS
 62
     0
 10
1739.3853633544461
 20
1325.5495989999999
 30
0.0
  0
ENDBLK
  5
7BDD
  8
0
  0
BLOCK
  8
0
  2
*D13
 70
     1
 10
0.0
 20
0.0
 30
0.0
  3
*D13
  1

  0
LINE
  5
7DF8
  8
3
  6
CONTINUOUS
 62
     0
 10
1369.3853633544461
 20
1196.773285
 30
0.0
 11
1369.3853633544461
 21
1390.6710539999999
 31
0.0
  0
LINE
  5
7DF9
  8
3
  6
CONTINUOUS
 62
     0
 10
1669.3853633544461
 20
1375.0094730000001
 30
0.0
 11
1669.3853633544461
 21
1390.6710539999999
 31
0.0
  0
LINE
  5
7DFA
  8
3
  6
CONTINUOUS
 62
     0
 10
1389.3853633544461
 20
1380.6710539999999
 30
0.0
 11
1649.3853633544461
 21
1380.6710539999999
 31
0.0
  0
INSERT
  5
7DFB
  8
3
  6
CONTINUOUS
 62
     0
  2
_OPEN
 10
1369.3853633544461
 20
1380.6710539999999
 30
0.0
 41
20.0
 42
20.0
 43
20.0
 50
180.0
  0
INSERT
  5
7DFC
  8
3
  6
CONTINUOUS
 62
     0
  2
_OPEN
 10
1669.3853633544461
 20
1380.6710539999999
 30
0.0
 41
20.0
 42
20.0
 43
20.0
  0
TEXT
  8
3
  40
30
  5
7E30
  62
0
  72
0
  71
0
 10
1444.75
 20
1377.57
 30
0.000000
  1
MAX
  0
TEXT
  8
3
  40
30
  5
7E31
  62
0
  72
0
  71
0
 10
1444.75
 20
1338.57
 30
0.000000
  1
300
  0
POINT
  5
7DFE
  8
DEFPOINTS
  6
CONTINUOUS
 62
     0
 10
1369.3853633544461
 20
1191.773285
 30
0.0
  0
POINT
  5
7DFF
  8
DEFPOINTS
  6
CONTINUOUS
 62
     0
 10
1669.3853633544461
 20
1370.0094730000001
 30
0.0
  0
POINT
  5
7E00
  8
DEFPOINTS
  6
CONTINUOUS
 62
     0
 10
1669.3853633544461
 20
1380.6710539999999
 30
0.0
  0
ENDBLK
  5
7C83
  8
0
  0
BLOCK
  8
0
  2
*D14
 70
     1
 10
0.0
 20
0.0
 30
0.0
  3
*D14
  1

  0
LINE
  5
7E01
  8
3
  6
CONTINUOUS
 62
     0
 10
1747.3853633544461
 20
1206.773285
 30
0.0
 11
1747.3853633544461
 21
1390.6710539999999
 31
0.0
  0
LINE
  5
7E02
  8
3
  6
CONTINUOUS
 62
     0
 10
1689.3853633544461
 20
1380.6710539999999
 30
0.0
 11
1727.3853633544461
 21
1380.6710539999999
 31
0.0
  0
TEXT
  8
3
  40
30
  5
7E32
  62
0
  72
0
  71
0
 10
1647.52
 20
1352.71
 30
0.000000
  1
78
  0
INSERT
  5
7E04
  8
3
  6
CONTINUOUS
 62
     0
  2
_OPEN
 10
1669.3853633544461
 20
1380.6710539999999
 30
0.0
 41
20.0
 42
20.0
 43
20.0
 50
180.0
  0
INSERT
  5
7E05
  8
3
  6
CONTINUOUS
 62
     0
  2
_OPEN
 10
1747.3853633544461
 20
1380.6710539999999
 30
0.0
 41
20.0
 42
20.0
 43
20.0
  0
POINT
  5
7E06
  8
DEFPOINTS
  6
CONTINUOUS
 62
     0
 10
1669.3853633544461
 20
1370.0094730000001
 30
0.0
  0
POINT
  5
7E07
  8
DEFPOINTS
  6
CONTINUOUS
 62
     0
 10
1747.3853633544461
 20
1201.773285
 30
0.0
  0
POINT
  5
7E08
  8
DEFPOINTS
  6
CONTINUOUS
 62
     0
 10
1747.3853633544461
 20
1380.6710539999999
 30
0.0
  0
ENDBLK
  5
7C53
  8
0
  0
BLOCK
  8
0
  2
*D15
 70
     1
 10
0.0
 20
0.0
 30
0.0
  3
*D15
  1

  0
LINE
  5
7E09
  8
3
  6
CONTINUOUS
 62
     0
 10
1752.3853633544461
 20
1181.773285
 30
0.0
 11
1819.5993983544461
 21
1181.773285
 31
0.0
  0
LINE
  5
7E0A
  8
3
  6
CONTINUOUS
 62
     0
 10
1752.3853633544461
 20
981.77328499999999
 30
0.0
 11
1819.5993983544461
 21
981.77328499999976
 31
0.0
  0
LINE
  5
7E0B
  8
3
  6
CONTINUOUS
 62
     0
 10
1809.5993983544461
 20
1161.7732849999991
 30
0.0
 11
1809.5993983544461
 21
1001.773285
 31
0.0
  0
INSERT
  5
7E0C
  8
3
  6
CONTINUOUS
 62
     0
  2
_OPEN
 10
1809.5993983544461
 20
1181.773285
 30
0.0
 41
20.0
 42
20.0
 43
20.0
 50
90.0
  0
INSERT
  5
7E0D
  8
3
  6
CONTINUOUS
 62
     0
  2
_OPEN
 10
1809.5993983544461
 20
981.77328499999976
 30
0.0
 41
20.0
 42
20.0
 43
20.0
 50
270.0
  0
TEXT
  8
3
  40
30
  5
7E33
  62
0
  72
0
  71
0
 10
1724.60
 20
1042.10
 30
0.000000
  1
φ200
  0
POINT
  5
7E0F
  8
DEFPOINTS
  6
CONTINUOUS
 62
     0
 10
1747.3853633544461
 20
1181.773285
 30
0.0
  0
POINT
  5
7E10
  8
DEFPOINTS
  6
CONTINUOUS
 62
     0
 10
1747.3853633544461
 20
981.77328499999999
 30
0.0
  0
POINT
  5
7E11
  8
DEFPOINTS
  6
CONTINUOUS
 62
     0
 10
1809.5993983544461
 20
981.77328499999976
 30
0.0
  0
ENDBLK
  5
7C78
  8
0
  0
BLOCK
  8
0
  2
*D16
 70
     1
 10
0.0
 20
0.0
 30
0.0
  3
*D16
  1

  0
LINE
  5
7E12
  8
3
  6
CONTINUOUS
 62
     0
 10
510.4320984582215
 20
1302.773285
 30
0.0
 11
329.43237545822183
 21
1302.773285
 31
0.0
  0
LINE
  5
7E13
  8
3
  6
CONTINUOUS
 62
     0
 10
510.4320984582215
 20
806.77328499999999
 30
0.0
 11
329.43237545822171
 21
806.77328499999999
 31
0.0
  0
LINE
  5
7E14
  8
3
  6
CONTINUOUS
 62
     0
 10
339.43237545822183
 20
1282.773285
 30
0.0
 11
339.43237545822171
 21
826.77328499999987
 31
0.0
  0
INSERT
  5
7E15
  8
3
  6
CONTINUOUS
 62
     0
  2
_OPEN
 10
339.43237545822183
 20
1302.773285
 30
0.0
 41
20.0
 42
20.0
 43
20.0
 50
90.0
  0
INSERT
  5
7E16
  8
3
  6
CONTINUOUS
 62
     0
  2
_OPEN
 10
339.43237545822171
 20
806.77328499999999
 30
0.0
 41
20.0
 42
20.0
 43
20.0
 50
270.0
  0
TEXT
  8
3
  40
30
  5
7E34
  62
0
  72
0
  71
0
 10
254.432
 20
1000.61
 30
0.000000
  1
496
  0
POINT
  5
7E18
  8
DEFPOINTS
  6
CONTINUOUS
 62
     0
 10
515.4320984582215
 20
1302.773285
 30
0.0
  0
POINT
  5
7E19
  8
DEFPOINTS
  6
CONTINUOUS
 62
     0
 10
515.4320984582215
 20
806.77328499999999
 30
0.0
  0
POINT
  5
7E1A
  8
DEFPOINTS
  6
CONTINUOUS
 62
     0
 10
339.43237545822171
 20
806.77328499999999
 30
0.0
  0
ENDBLK
  5
7C47
  8
0
  0
BLOCK
  8
0
  2
*D17
 70
     1
 10
0.0
 20
0.0
 30
0.0
  3
*D17
  1

  0
LINE
  5
7E1B
  8
3
 62
     0
 10
515.4320984582215
 20
1307.773285
 30
0.0
 11
515.4320984582215
 21
1421.047025893459
 31
0.0
  0
LINE
  5
7E1C
  8
3
 62
     0
 10
1145.4320984582209
 20
861.77328499999987
 30
0.0
 11
1145.4320984582209
 21
1421.047025893459
 31
0.0
  0
LINE
  5
7E1D
  8
3
 62
     0
 10
535.43209845822162
 20
1411.047025893459
 30
0.0
 11
1125.4320984582209
 21
1411.047025893459
 31
0.0
  0
INSERT
  5
7E1E
  8
3
 62
     0
  2
_OPEN
 10
515.4320984582215
 20
1411.047025893459
 30
0.0
 41
20.0
 42
20.0
 43
20.0
 50
180.0
  0
INSERT
  5
7E1F
  8
3
 62
     0
  2
_OPEN
 10
1145.4320984582209
 20
1411.047025893459
 30
0.0
 41
20.0
 42
20.0
 43
20.0
  0
TEXT
  8
3
  40
30
  5
7E35
  62
0
  72
0
  71
0
 10
784.734
 20
1382.95
 30
0.000000
  1
630
  0
POINT
  5
7E21
  8
DEFPOINTS
 62
     0
 10
515.4320984582215
 20
1302.773285
 30
0.0
  0
POINT
  5
7E22
  8
DEFPOINTS
 62
     0
 10
1145.4320984582209
 20
856.77328499999999
 30
0.0
  0
POINT
  5
7E23
  8
DEFPOINTS
 62
     0
 10
1145.4320984582209
 20
1411.047025893459
 30
0.0
  0
ENDBLK
  5
7C9B
  8
0
  0
ENDSEC
  0
SECTION
  2
ENTITIES
  0
CIRCLE
  5
7A7A
  8
1
  6
CONTINUOUS
 10
675.43209845822162
 20
1081.773285
 30
0.0
 40
100.0
  0
LINE
  5
7A7B
  8
1
  6
CONTINUOUS
 10
1145.4320984582209
 20
856.77328499999999
 30
0.0
 11
515.4320984582215
 21
856.77328499999999
 31
0.0
  0
LINE
  5
7A7C
  8
2
  6
CENTER
 10
1760.5270187887049
 20
1081.773285
 30
0.0
 11
1336.550070354446
 21
1081.773285
 31
0.0
  0
LINE
  5
7A7D
  8
2
  6
CENTER
 10
675.43209845822162
 20
769.24840999999992
 30
0.0
 11
675.43209845822162
 21
1333.3128079999999
 31
0.0
  0
LINE
  5
7A7E
  8
1
  6
CONTINUOUS
 10
530.43209845822162
 20
1081.773285
 30
0.0
 11
530.43209845822162
 21
1071.773285
 31
0.0
  0
LINE
  5
7A7F
  8
1
  6
CONTINUOUS
 10
530.43209845822162
 20
1292.7732849999991
 30
0.0
 11
530.43209845822162
 21
1281.773285
 31
0.0
  0
LINE
  5
7A80
  8
1
  6
CONTINUOUS
 10
515.4320984582215
 20
1281.773285
 30
0.0
 11
530.43209845822162
 21
1281.773285
 31
0.0
  0
LINE
  5
7A81
  8
1
  6
CONTINUOUS
 10
795.43209845822162
 20
1972.2192067482149
 30
0.0
 11
795.43209845822162
 21
1964.2192067482149
 31
0.0
  0
LINE
  5
7A82
  8
1
  6
CONTINUOUS
 10
555.43209845822162
 20
1964.2192067482149
 30
0.0
 11
795.43209845822162
 21
1964.2192067482149
 31
0.0
  0
LINE
  5
7A83
  8
1
  6
CONTINUOUS
 10
555.43209845822162
 20
1972.2192067482149
 30
0.0
 11
555.43209845822162
 21
1964.2192067482149
 31
0.0
  0
CIRCLE
  5
7A84
  8
1
  6
CONTINUOUS
 10
675.43209845822162
 20
1081.773285
 30
0.0
 40
50.0
  0
LINE
  5
7A85
  8
1
  6
CONTINUOUS
 10
1145.4320984582209
 20
806.77328499999999
 30
0.0
 11
515.4320984582215
 21
806.77328499999999
 31
0.0
  0
LINE
  5
7A86
  8
1
  6
CONTINUOUS
 10
540.4320984582215
 20
856.77328499999999
 30
0.0
 11
540.4320984582215
 21
1135.473285
 31
0.0
  0
LINE
  5
7A87
  8
1
  6
CONTINUOUS
 10
623.83209845822159
 20
1206.773285
 30
0.0
 11
727.03209845822164
 21
1206.773285
 31
0.0
  0
LINE
  5
7A88
  8
1
  6
CONTINUOUS
 10
810.43209845822162
 20
1135.473285
 30
0.0
 11
810.43209845822162
 21
856.77328499999999
 31
0.0
  0
LINE
  5
7A89
  8
1
  6
CONTINUOUS
 10
623.83209845822159
 20
1206.773285
 30
0.0
 11
540.4320984582215
 21
1135.473285
 31
0.0
  0
LINE
  5
7A8A
  8
1
  6
CONTINUOUS
 10
727.03209845822164
 20
1206.773285
 30
0.0
 11
810.43209845822162
 21
1135.473285
 31
0.0
  0
LINE
  5
7A8B
  8
1
  6
CONTINUOUS
 10
810.43209845822162
 20
1048.473285
 30
0.0
 11
540.4320984582215
 21
1048.473285
 31
0.0
  0
LINE
  5
7A8C
  8
1
  6
CONTINUOUS
 10
987.63209845822155
 20
1794.719206748214
 30
0.0
 11
987.63209845822155
 21
1847.4192067482149
 31
0.0
  0
LINE
  5
7A8D
  8
1
  6
CONTINUOUS
 10
963.63209845822155
 20
1794.719206748214
 30
0.0
 11
963.63209845822155
 21
1847.4192067482149
 31
0.0
  0
LINE
  5
7A8E
  8
1
  6
CONTINUOUS
 10
515.4320984582215
 20
1971.2192067482149
 30
0.0
 11
530.43209845822162
 21
1986.2192067482149
 31
0.0
  0
LINE
  5
7A8F
  8
1
  6
CONTINUOUS
 10
530.43209845822162
 20
2098.2192067482151
 30
0.0
 11
530.43209845822162
 21
1986.2192067482149
 31
0.0
  0
LINE
  5
7A90
  8
1
  6
CONTINUOUS
 10
515.4320984582215
 20
2113.2192067482151
 30
0.0
 11
530.43209845822162
 21
2098.2192067482151
 31
0.0
  0
ARC
  5
7A91
  8
1
  6
CONTINUOUS
 10
844.43209845822162
 20
1982.2192067482149
 30
0.0
 40
10.0
 50
270.0
 51
0.0
  0
ARC
  5
7A92
  8
1
  6
CONTINUOUS
 10
844.43209845822162
 20
2102.2192067482151
 30
0.0
 40
10.0
 50
0.0
 51
90.0
  0
LINE
  5
7A93
  8
1
  6
CONTINUOUS
 10
515.4320984582215
 20
2112.2192067482151
 30
0.0
 11
844.43209845822162
 21
2112.2192067482151
 31
0.0
  0
LINE
  5
7A94
  8
1
  6
CONTINUOUS
 10
515.4320984582215
 20
1972.2192067482149
 30
0.0
 11
844.43209845822162
 21
1972.2192067482149
 31
0.0
  0
LINE
  5
7A95
  8
1
  6
CONTINUOUS
 10
854.4320984582215
 20
2102.2192067482151
 30
0.0
 11
854.4320984582215
 21
1982.2192067482149
 31
0.0
  0
LINE
  5
7A96
  8
1
  6
CONTINUOUS
 10
515.4320984582215
 20
2133.2192067482142
 30
0.0
 11
515.4320984582215
 21
1951.2192067482149
 31
0.0
  0
LINE
  5
7A97
  8
1
  6
CONTINUOUS
 10
555.43209845822162
 20
2112.2192067482151
 30
0.0
 11
555.43209845822162
 21
2120.2192067482151
 31
0.0
  0
LINE
  5
7A98
  8
1
  6
CONTINUOUS
 10
555.43209845822162
 20
2120.2192067482151
 30
0.0
 11
795.43209845822162
 21
2120.2192067482151
 31
0.0
  0
LINE
  5
7A99
  8
1
  6
CONTINUOUS
 10
795.43209845822162
 20
2112.2192067482151
 30
0.0
 11
795.43209845822162
 21
2120.2192067482151
 31
0.0
  0
ARC
  5
7A9A
  8
1
  6
CONTINUOUS
 10
689.43209845822162
 20
1095.7732849999991
 30
0.0
 40
165.0
 50
269.39999999999992
 51
0.3
  0
LINE
  5
7A9B
  8
1
  6
CONTINUOUS
 10
515.4320984582215
 20
1080.773285
 30
0.0
 11
530.43209845822162
 21
1095.7732849999991
 31
0.0
  0
LINE
  5
7A9C
  8
1
  6
CONTINUOUS
 10
530.43209845822162
 20
1267.773285
 30
0.0
 11
530.43209845822162
 21
1095.7732849999991
 31
0.0
  0
LINE
  5
7A9D
  8
1
  6
CONTINUOUS
 10
515.4320984582215
 20
1282.773285
 30
0.0
 11
530.43209845822162
 21
1267.773285
 31
0.0
  0
ARC
  5
7A9E
  8
1
  6
CONTINUOUS
 10
686.4320984582215
 20
1070.773285
 30
0.0
 40
140.0
 50
179.59999999999999
 51
270.60000000000002
  0
ARC
  5
7A9F
  8
1
  6
CONTINUOUS
 10
659.43209845822162
 20
1097.773285
 30
0.0
 40
195.0
 50
359.69999999999999
 51
90.0
  0
LINE
  5
7AA0
  8
1
  6
CONTINUOUS
 10
530.43209845822162
 20
1292.7732849999991
 30
0.0
 11
659.43209845822162
 21
1292.7732849999991
 31
0.0
  0
LINE
  5
7AA1
  8
1
  6
CONTINUOUS
 10
515.4320984582215
 20
1081.773285
 30
0.0
 11
530.43209845822162
 21
1081.773285
 31
0.0
  0
LINE
  5
7AA2
  8
1
  6
CONTINUOUS
 10
515.4320984582215
 20
1302.773285
 30
0.0
 11
515.4320984582215
 21
1060.773285
 31
0.0
  0
LINE
  5
7AA3
  8
1
  6
CONTINUOUS
 10
530.43209845822162
 20
1071.773285
 30
0.0
 11
546.43209845822162
 21
1071.773285
 31
0.0
  0
LINE
  5
7AA4
  8
1
  6
CONTINUOUS
 10
1145.4320984582209
 20
806.77328499999999
 30
0.0
 11
1145.4320984582209
 21
856.77328499999999
 31
0.0
  0
LINE
  5
7AA5
  8
1
  6
CONTINUOUS
 10
515.4320984582215
 20
806.77328499999999
 30
0.0
 11
515.4320984582215
 21
856.77328499999999
 31
0.0
  0
CIRCLE
  5
7AA6
  8
1
  6
CONTINUOUS
 10
675.43209845822162
 20
1081.773285
 30
0.0
 40
120.0
  0
LINE
  5
7AA7
  8
1
  6
CONTINUOUS
 10
1145.4320984582209
 20
1828.219206748214
 30
0.0
 11
1145.4320984582209
 21
2052.2192067482151
 31
0.0
  0
LINE
  5
7AA8
  8
1
  6
CONTINUOUS
 10
515.4320984582215
 20
1828.219206748214
 30
0.0
 11
515.4320984582215
 21
1972.2192067482149
 31
0.0
  0
LINE
  5
7AA9
  8
1
  6
CONTINUOUS
 10
854.4320984582215
 20
2052.2192067482151
 30
0.0
 11
1145.4320984582209
 21
2052.2192067482151
 31
0.0
  0
LINE
  5
7AAA
  8
1
  6
CONTINUOUS
 10
515.4320984582215
 20
1828.219206748214
 30
0.0
 11
663.43209845822162
 21
1828.219206748214
 31
0.0
  0
LINE
  5
7AAB
  8
1
  6
CONTINUOUS
 10
1138.132098458221
 20
877.47328499999992
 30
0.0
 11
1138.132098458221
 21
856.77328499999999
 31
0.0
  0
LINE
  5
7AAC
  8
1
  6
CONTINUOUS
 10
887.13209845822166
 20
877.47328499999992
 30
0.0
 11
1138.132098458221
 21
877.47328499999992
 31
0.0
  0
LINE
  5
7AAD
  8
1
  6
CONTINUOUS
 10
887.13209845822166
 20
856.77328499999999
 30
0.0
 11
887.13209845822166
 21
877.47328499999992
 31
0.0
  0
LINE
  5
7AAE
  8
1
  6
CONTINUOUS
 10
1098.4320984582209
 20
1191.773285
 30
0.0
 11
568.43209845822162
 21
1191.773285
 31
0.0
  0
LINE
  5
7AAF
  8
1
  6
CONTINUOUS
 10
1098.4320984582209
 20
856.77328499999999
 30
0.0
 11
1098.4320984582209
 21
1191.773285
 31
0.0
  0
LINE
  5
7AB0
  8
1
  6
CONTINUOUS
 10
568.43209845822162
 20
856.77328499999999
 30
0.0
 11
568.43209845822162
 21
1191.773285
 31
0.0
  0
CIRCLE
  5
7AB1
  8
1
  6
CONTINUOUS
 10
975.63209845822166
 20
957.8732849999999
 30
0.0
 40
35.0
  0
LINE
  5
7AB2
  8
1
  6
CONTINUOUS
 10
1098.4320984582209
 20
1742.2192067482149
 30
0.0
 11
1098.4320984582209
 21
1817.2192067482149
 31
0.0
  0
LINE
  5
7AB3
  8
1
  6
CONTINUOUS
 10
568.43209845822162
 20
1742.2192067482149
 30
0.0
 11
568.43209845822162
 21
1817.2192067482149
 31
0.0
  0
LINE
  5
7AB4
  8
1
  6
CONTINUOUS
 10
568.43209845822162
 20
1742.2192067482149
 30
0.0
 11
1098.4320984582209
 21
1742.2192067482149
 31
0.0
  0
LINE
  5
7AB5
  8
1
  6
CONTINUOUS
 10
725.43209845822162
 20
1764.719206748214
 30
0.0
 11
725.43209845822162
 21
1794.719206748214
 31
0.0
  0
LINE
  5
7AB6
  8
1
  6
CONTINUOUS
 10
625.43209845822162
 20
1764.719206748214
 30
0.0
 11
625.43209845822162
 21
1794.719206748214
 31
0.0
  0
LINE
  5
7AB7
  8
1
  6
CONTINUOUS
 10
568.43209845822162
 20
1817.2192067482149
 30
0.0
 11
1098.4320984582209
 21
1817.2192067482149
 31
0.0
  0
LINE
  5
7AB8
  8
1
  6
CONTINUOUS
 10
1010.632098458221
 20
1764.719206748214
 30
0.0
 11
1010.632098458221
 21
1794.719206748214
 31
0.0
  0
LINE
  5
7AB9
  8
1
  6
CONTINUOUS
 10
940.63209845822166
 20
1764.719206748214
 30
0.0
 11
940.63209845822166
 21
1794.719206748214
 31
0.0
  0
LINE
  5
7ABA
  8
1
  6
CONTINUOUS
 10
1010.632098458221
 20
1794.719206748214
 30
0.0
 11
940.63209845822166
 21
1794.719206748214
 31
0.0
  0
LINE
  5
7ABB
  8
1
  6
CONTINUOUS
 10
1010.632098458221
 20
1764.719206748214
 30
0.0
 11
940.63209845822166
 21
1764.719206748214
 31
0.0
  0
LINE
  5
7ABC
  8
1
  6
CONTINUOUS
 10
725.43209845822162
 20
1764.719206748214
 30
0.0
 11
625.43209845822162
 21
1764.719206748214
 31
0.0
  0
LINE
  5
7ABD
  8
1
  6
CONTINUOUS
 10
725.43209845822162
 20
1794.719206748214
 30
0.0
 11
625.43209845822162
 21
1794.719206748214
 31
0.0
  0
LINE
  5
7ABE
  8
1
  6
CONTINUOUS
 10
894.93209845822162
 20
2038.319206748215
 30
0.0
 11
1064.9320984582209
 21
2038.319206748215
 31
0.0
  0
LINE
  5
7ABF
  8
1
  6
CONTINUOUS
 10
894.93209845822162
 20
1847.4192067482149
 30
0.0
 11
1064.9320984582209
 21
1847.4192067482149
 31
0.0
  0
LINE
  5
7AC0
  8
1
  6
CONTINUOUS
 10
1064.9320984582209
 20
1847.4192067482149
 30
0.0
 11
1064.9320984582209
 21
2038.319206748215
 31
0.0
  0
LINE
  5
7AC1
  8
1
  6
CONTINUOUS
 10
894.93209845822162
 20
1847.4192067482149
 30
0.0
 11
894.93209845822162
 21
2038.319206748215
 31
0.0
  0
ARC
  5
7AC2
  8
1
  6
CONTINUOUS
 10
979.93209845822184
 20
957.47328500000003
 30
0.0
 40
85.0
 50
324.69999999999987
 51
215.30000000000001
  0
LINE
  5
7AC3
  8
1
  6
CONTINUOUS
 10
1057.4320984582209
 20
885.47328499999992
 30
0.0
 11
1049.332098458221
 21
908.27328499999987
 31
0.0
  0
LINE
  5
7AC4
  8
1
  6
CONTINUOUS
 10
902.43209845822173
 20
877.47328499999992
 30
0.0
 11
902.43209845822173
 21
885.47328499999992
 31
0.0
  0
LINE
  5
7AC5
  8
1
  6
CONTINUOUS
 10
902.43209845822173
 20
885.47328499999992
 30
0.0
 11
910.63209845822155
 21
908.27328499999987
 31
0.0
  0
LINE
  5
7AC6
  8
1
  6
CONTINUOUS
 10
1057.4320984582209
 20
877.47328499999992
 30
0.0
 11
1057.4320984582209
 21
885.47328499999992
 31
0.0
  0
LINE
  5
7AC7
  8
2
  6
CENTER
 10
975.63209845822166
 20
922.87328500000001
 30
0.0
 11
975.63209845822166
 21
992.87328500000012
 31
0.0
  0
LINE
  5
7AC8
  8
2
  6
CENTER
 10
1010.632098458221
 20
957.8732849999999
 30
0.0
 11
940.63209845822166
 21
957.8732849999999
 31
0.0
  0
LINE
  5
7AC9
  8
1
  6
CONTINUOUS
 10
687.43209845822162
 20
1828.219206748214
 30
0.0
 11
963.63209845822155
 21
1828.219206748214
 31
0.0
  0
LINE
  5
7ACA
  8
1
  6
CONTINUOUS
 10
987.63209845822155
 20
1828.219206748214
 30
0.0
 11
1145.4320984582209
 21
1828.219206748214
 31
0.0
  0
LINE
  5
7ACB
  8
1
  6
CONTINUOUS
 10
687.43209845822162
 20
1964.2192067482149
 30
0.0
 11
687.43209845822162
 21
1794.719206748214
 31
0.0
  0
LINE
  5
7ACC
  8
1
  6
CONTINUOUS
 10
663.43209845822162
 20
1964.2192067482149
 30
0.0
 11
663.43209845822162
 21
1794.719206748214
 31
0.0
  0
LINE
  5
7ACD
  8
1
  6
CONTINUOUS
 10
696.63209845822166
 20
1127.0732849999999
 30
0.0
 11
990.43209845822162
 21
989.57328499999994
 31
0.0
  0
LINE
  5
7ACE
  8
1
  6
CONTINUOUS
 10
658.53209845822164
 20
1034.7732849999991
 30
0.0
 11
963.73209845822169
 21
924.97328499999992
 31
0.0
  0
LINE
  5
7ACF
  8
1
  6
CONTINUOUS
 10
1421.8853633544461
 20
1069.7732849999991
 30
0.0
 11
1506.785363354446
 21
1069.7732849999991
 31
0.0
  0
LINE
  5
7AD0
  8
1
  6
CONTINUOUS
 10
1421.8853633544461
 20
1093.7732849999991
 30
0.0
 11
1537.6853633544461
 21
1093.7732849999991
 31
0.0
  0
LINE
  5
7AD1
  8
1
  6
CONTINUOUS
 10
1421.8853633544461
 20
945.87328500000001
 30
0.0
 11
1479.3853633544461
 21
945.87328500000001
 31
0.0
  0
LINE
  5
7AD2
  8
1
  6
CONTINUOUS
 10
1421.8853633544461
 20
969.87328500000001
 30
0.0
 11
1479.3853633544461
 21
969.87328500000001
 31
0.0
  0
LINE
  5
7AD3
  8
1
  6
CONTINUOUS
 10
1391.8853633544461
 20
922.87328500000001
 30
0.0
 11
1421.8853633544461
 21
922.87328500000001
 31
0.0
  0
LINE
  5
7AD4
  8
1
  6
CONTINUOUS
 10
1391.8853633544461
 20
992.87328500000012
 30
0.0
 11
1421.8853633544461
 21
992.87328500000012
 31
0.0
  0
LINE
  5
7AD5
  8
1
  6
CONTINUOUS
 10
1421.8853633544461
 20
992.87328500000012
 30
0.0
 11
1421.8853633544461
 21
922.87328500000001
 31
0.0
  0
LINE
  5
7AD6
  8
1
  6
CONTINUOUS
 10
1391.8853633544461
 20
992.87328500000012
 30
0.0
 11
1391.8853633544461
 21
922.87328500000001
 31
0.0
  0
LINE
  5
7AD7
  8
1
  6
CONTINUOUS
 10
1421.8853633544461
 20
1131.773285
 30
0.0
 11
1421.8853633544461
 21
1031.773285
 31
0.0
  0
LINE
  5
7AD8
  8
1
  6
CONTINUOUS
 10
1391.8853633544461
 20
1131.773285
 30
0.0
 11
1391.8853633544461
 21
1031.773285
 31
0.0
  0
LINE
  5
7AD9
  8
1
  6
CONTINUOUS
 10
1444.3853633544461
 20
1191.773285
 30
0.0
 11
1444.3853633544461
 21
856.77328499999999
 31
0.0
  0
LINE
  5
7ADA
  8
1
  6
CONTINUOUS
 10
1391.8853633544461
 20
1031.773285
 30
0.0
 11
1421.8853633544461
 21
1031.773285
 31
0.0
  0
LINE
  5
7ADB
  8
1
  6
CONTINUOUS
 10
1391.8853633544461
 20
1131.773285
 30
0.0
 11
1421.8853633544461
 21
1131.773285
 31
0.0
  0
LINE
  5
7ADC
  8
1
  6
CONTINUOUS
 10
1369.3853633544461
 20
1191.773285
 30
0.0
 11
1444.3853633544461
 21
1191.773285
 31
0.0
  0
LINE
  5
7ADD
  8
1
  6
CONTINUOUS
 10
1479.3853633544461
 20
1048.473285
 30
0.0
 11
1591.3853633544461
 21
1135.473285
 31
0.0
  0
LINE
  5
7ADE
  8
1
  6
CONTINUOUS
 10
1479.3853633544461
 20
1048.473285
 30
0.0
 11
1479.3853633544461
 21
856.77328499999999
 31
0.0
  0
LINE
  5
7ADF
  8
1
  6
CONTINUOUS
 10
1369.3853633544461
 20
1191.773285
 30
0.0
 11
1369.3853633544461
 21
856.77328499999999
 31
0.0
  0
ARC
  5
7AE0
  8
1
  6
CONTINUOUS
 10
1727.3853633544461
 20
942.77328499999987
 30
0.0
 40
12.0
 50
270.0
 51
0.0
  0
LINE
  5
7AE1
  8
1
  6
CONTINUOUS
 10
1739.1853633544461
 20
1201.773285
 30
0.0
 11
1747.3853633544461
 21
1201.773285
 31
0.0
  0
LINE
  5
7AE2
  8
1
  6
CONTINUOUS
 10
1747.3853633544461
 20
1201.773285
 30
0.0
 11
1747.3853633544461
 21
961.77328499999987
 31
0.0
  0
LINE
  5
7AE3
  8
1
  6
CONTINUOUS
 10
1739.1853633544461
 20
961.77328499999987
 30
0.0
 11
1747.3853633544461
 21
961.77328499999987
 31
0.0
  0
LINE
  5
7AE4
  8
1
  6
CONTINUOUS
 10
1455.3853633544461
 20
856.77328499999999
 30
0.0
 11
1455.3853633544461
 21
806.77328499999999
 31
0.0
  0
LINE
  5
7AE5
  8
1
  6
CONTINUOUS
 10
1679.3853633544461
 20
856.77328499999999
 30
0.0
 11
1679.3853633544461
 21
806.77328499999999
 31
0.0
  0
LINE
  5
7AE6
  8
1
  6
CONTINUOUS
 10
1369.3853633544461
 20
856.77328499999999
 30
0.0
 11
1679.3853633544461
 21
856.77328499999999
 31
0.0
  0
LINE
  5
7AE7
  8
1
  6
CONTINUOUS
 10
1455.3853633544461
 20
806.77328499999999
 30
0.0
 11
1679.3853633544461
 21
806.77328499999999
 31
0.0
  0
LINE
  5
7AE8
  8
1
  6
CONTINUOUS
 10
1611.3853633544461
 20
930.77328499999999
 30
0.0
 11
1727.3853633544461
 21
930.77328499999999
 31
0.0
  0
LINE
  5
7AE9
  8
1
  6
CONTINUOUS
 10
1599.5853633544459
 20
961.77328499999987
 30
0.0
 11
1591.3853633544461
 21
961.77328499999987
 31
0.0
  0
LINE
  5
7AEA
  8
1
  6
CONTINUOUS
 10
1591.3853633544461
 20
1201.773285
 30
0.0
 11
1591.3853633544461
 21
856.77328499999999
 31
0.0
  0
LINE
  5
7AEB
  8
1
  6
CONTINUOUS
 10
1599.5853633544459
 20
1201.773285
 30
0.0
 11
1591.3853633544461
 21
1201.773285
 31
0.0
  0
LINE
  5
7AEC
  8
1
  6
CONTINUOUS
 10
1599.3853633544461
 20
1081.773285
 30
0.0
 11
1739.3853633544461
 21
1081.773285
 31
0.0
  0
LINE
  5
7AED
  8
1
  6
CONTINUOUS
 10
1739.3853633544461
 20
942.77328499999987
 30
0.0
 11
1739.3853633544461
 21
1281.773285
 31
0.0
  0
LINE
  5
7AEE
  8
1
  6
CONTINUOUS
 10
1739.3853633544461
 20
1281.773285
 30
0.0
 11
1599.3853633544461
 21
1281.773285
 31
0.0
  0
LINE
  5
7AEF
  8
1
  6
CONTINUOUS
 10
1599.3853633544461
 20
1281.773285
 30
0.0
 11
1599.3853633544461
 21
942.77328499999987
 31
0.0
  0
ARC
  5
7AF0
  8
1
  6
CONTINUOUS
 10
1611.3853633544461
 20
942.77328499999987
 30
0.0
 40
12.0
 50
180.0
 51
270.0
  0
ARC
  5
7AF1
  8
1
  6
CONTINUOUS
 10
1727.3853633544461
 20
942.77328499999987
 30
0.0
 40
12.0
 50
270.0
 51
0.0
  0
LINE
  5
7AF2
  8
1
  6
CONTINUOUS
 10
1599.3853633544461
 20
1281.773285
 30
0.0
 11
1739.3853633544461
 21
1081.773285
 31
0.0
  0
LINE
  5
7AF3
  8
1
  6
CONTINUOUS
 10
1739.3853633544461
 20
1281.773285
 30
0.0
 11
1599.3853633544461
 21
1081.773285
 31
0.0
  0
LINE
  5
7AF4
  8
4
  6
CONTINUOUS
 10
1850.0
 20
500.0
 30
0.0
 11
1850.0
 21
300.0
 31
0.0
  0
LINE
  5
7AF5
  8
4
  6
CONTINUOUS
 10
1150.0
 20
500.0
 30
0.0
 11
1150.0
 21
300.0
 31
0.0
  0
LINE
  5
7AF6
  8
4
  6
CONTINUOUS
 10
650.0
 20
500.0
 30
0.0
 11
650.0
 21
300.0
 31
0.0
  0
LINE
  5
7AF9
  8
4
  6
CONTINUOUS
 10
650.0
 20
300.0
 30
0.0
 11
1850.0
 21
300.0
 31
0.0
  0
LINE
  5
7AFA
  8
4
  6
CONTINUOUS
 10
650.0
 20
400.0
 30
0.0
 11
1850.0
 21
400.0
 31
0.0
  0
TEXT
  5
7AFB
  8
4
  6
CONTINUOUS
 10
688.50208099999998
 20
431.543026
 30
0.0
 40
50.0
  1
機器名称
  0
TEXT
  5
7AFC
  8
4
  6
CONTINUOUS
 10
686.258106
 20
321.64515699999993
 30
0.0
 40
50.0
  1
機器型番
  0
TEXT
  5
7AFD
  8
4
  6
CONTINUOUS
 10
1177.678744999999
 20
422.57176900000002
 30
0.0
 40
45.0
  1
ミツヤニューマルチファン
  0
TEXT
  5
7AFE
  8
4
  6
CONTINUOUS
 10
1186.6544960000001
 20
317.159584
 30
0.0
 40
50.0
  1
NM#1 1/4-1
  0
TEXT
  5
7B00
  8
4
  6
CONTINUOUS
 10
904.78576499999997
 20
2383.4288409999999
 30
0.0
 40
54.0
  1
床置ベット
  0
TEXT
  5
7B01
  8
4
  6
CONTINUOUS
 10
316.16759300000001
 20
2533.8809759999999
 30
0.0
 40
72.0
  1
ベルト駆動式片吸込片持多翼ファン
  0
LINE
  5
7B02
  8
4
  6
CONTINUOUS
 10
250.0
 20
2469.408754
 30
0.0
 11
1850.0
 21
2469.408754
 31
0.0
  0
LINE
  5
7B03
  8
4
  6
CONTINUOUS
 10
250.0
 20
2669.408754
 30
0.0
 11
1850.0
 21
2669.408754
 31
0.0
  0
LINE
  5
7B04
  8
4
  6
CONTINUOUS
 10
650.0
 20
500.0
 30
0.0
 11
1850.0
 21
500.0
 31
0.0
  0
LINE
  5
7B05
  8
4
  6
CONTINUOUS
 10
250.0
 20
2669.408754
 30
0.0
 11
250.0
 21
2469.408754
 31
0.0
  0
TEXT
  5
7B06
  8
4
  6
CONTINUOUS
 10
468.92693300000002
 20
2382.3194779999999
 30
0.0
 40
54.0
  1
左回転左横向
  0
TEXT
  5
7B07
  8
4
  6
CONTINUOUS
 10
1468.9695589999999
 20
2706.0610809999998
 30
0.0
 40
56.0
  1
No.
  0
TEXT
  5
7B08
  8
4
  6
CONTINUOUS
 10
1311.296063
 20
2383.4288409999999
 30
0.0
 40
54.0
  1
縮尺：1/10
  0
LINE
  5
7B09
  8
4
  6
CONTINUOUS
 10
1850.0
 20
2669.408754
 30
0.0
 11
1850.0
 21
2469.408754
 31
0.0
  0
LINE
  5
7B0B
  8
4
  6
CONTINUOUS
 10
1440.617422
 20
2681.2635829999999
 30
0.0
 11
1440.617422
 21
2786.6522620000001
 31
0.0
  0
LINE
  5
7B0C
  8
4
  6
CONTINUOUS
 10
1440.617422
 20
2786.6522620000001
 30
0.0
 11
1850.0
 21
2786.6522620000001
 31
0.0
  0
LINE
  5
7B0D
  8
4
  6
CONTINUOUS
 10
1850.0
 20
2786.6522620000001
 30
0.0
 11
1850.0
 21
2681.2635829999999
 31
0.0
  0
LINE
  5
7B0E
  8
4
  6
CONTINUOUS
 10
1850.0
 20
2681.2635829999999
 30
0.0
 11
1440.617422
 21
2681.2635829999999
 31
0.0
  0
DIMENSION
  5
7B27
  8
3
  6
CONTINUOUS
  2
*D1
 10
675.43209845822162
 20
734.044083
 30
0.0
 11
596.23555645822159
 21
734.044083
 31
0.0
 70
   128
 13
515.4320984582215
 23
806.77328499999999
 33
0.0
 14
675.43209845822162
 24
806.77328499999999
 34
0.0
1001
ACAD
1000
DSTYLE
1002
{
1070
   287
1070
     3
1070
   287
1070
     3
1070
    40
1040
10.0
1070
   143
1040
0.039
1070
   172
1070
     1
1070
   271
1070
     0
1070
   279
1070
     0
1070
   288
1070
     1
1002
}
  0
DIMENSION
  5
7B33
  8
3
  6
CONTINUOUS
  2
*D2
 10
1145.4320984582209
 20
734.044083
 30
0.0
 11
910.43209845822162
 21
759.044083
 31
0.0
 70
     0
 13
675.43209845822162
 23
806.77328499999999
 33
0.0
 14
1145.4320984582209
 24
806.77328499999999
 34
0.0
1001
ACAD
1000
DSTYLE
1002
{
1070
   287
1070
     4
1070
   287
1070
     4
1070
    40
1040
10.0
1070
    75
1070
     1
1070
   143
1040
0.039
1070
   172
1070
     1
1070
   271
1070
     0
1070
   279
1070
     1
1070
   288
1070
     1
1002
}
  0
DIMENSION
  5
7B40
  8
3
  6
CONTINUOUS
  2
*D3
 10
675.43209845822162
 20
1335.2762379999999
 30
0.0
 11
593.47672645822161
 21
1335.2762379999999
 31
0.0
 70
   128
 13
515.4320984582215
 23
1302.773285
 33
0.0
 14
675.43209845822162
 24
1292.115767
 34
0.0
1001
ACAD
1000
DSTYLE
1002
{
1070
   287
1070
     3
1070
   287
1070
     3
1070
    40
1040
10.0
1070
   143
1040
0.039
1070
   172
1070
     1
1070
   271
1070
     0
1070
   279
1070
     0
1070
   288
1070
     1
1002
}
  0
DIMENSION
  5
7B4C
  8
3
  6
CONTINUOUS
  2
*D4
 10
854.4320984582215
 20
1335.2762379999999
 30
0.0
 11
764.93209845822162
 21
1360.2762379999999
 31
0.0
 70
     0
 13
675.43209845822162
 23
1292.115767
 33
0.0
 14
854.4320984582215
 24
1081.773285
 34
0.0
1001
ACAD
1000
DSTYLE
1002
{
1070
   287
1070
     4
1070
   287
1070
     4
1070
    40
1040
10.0
1070
    75
1070
     1
1070
   143
1040
0.039
1070
   172
1070
     1
1070
   271
1070
     0
1070
   279
1070
     1
1070
   288
1070
     1
1002
}
  0
DIMENSION
  5
7B59
  8
3
  6
CONTINUOUS
  2
*D5
 10
479.28537045822179
 20
1081.773285
 30
0.0
 11
479.28537045822162
 21
1187.7616800000001
 31
0.0
 70
   128
 13
515.4320984582215
 23
1281.773285
 33
0.0
 14
515.4320984582215
 24
1081.773285
 34
0.0
 50
90.0
1001
ACAD
1000
DSTYLE
1002
{
1070
   287
1070
     3
1070
   287
1070
     3
1070
    40
1040
10.0
1070
   143
1040
0.039
1070
   172
1070
     1
1070
   271
1070
     0
1070
   279
1070
     0
1070
   288
1070
     1
1002
}
  0
DIMENSION
  5
7B66
  8
3
  6
CONTINUOUS
  2
*D6
 10
412.56666845822178
 20
1081.773285
 30
0.0
 11
412.56666845822161
 21
1186.628878999999
 31
0.0
 70
   128
 13
530.43209845822162
 23
1292.7732849999991
 33
0.0
 14
515.4320984582215
 24
1081.773285
 34
0.0
 50
90.0
1001
ACAD
1000
DSTYLE
1002
{
1070
   287
1070
     3
1070
   287
1070
     3
1070
    40
1040
10.0
1070
   143
1040
0.039
1070
   172
1070
     1
1070
   271
1070
     0
1070
   279
1070
     0
1070
   288
1070
     1
1002
}
  0
DIMENSION
  5
7B72
  8
3
  6
CONTINUOUS
  2
*D7
 10
412.56666845822161
 20
806.77328499999999
 30
0.0
 11
387.5666684582215
 21
944.27328500000021
 31
0.0
 70
     0
 13
515.4320984582215
 23
1081.773285
 33
0.0
 14
515.4320984582215
 24
806.77328499999999
 34
0.0
 50
90.0
1001
ACAD
1000
DSTYLE
1002
{
1070
   287
1070
     4
1070
   287
1070
     4
1070
    40
1040
10.0
1070
    75
1070
     1
1070
   143
1040
0.039
1070
   172
1070
     1
1070
   271
1070
     0
1070
   279
1070
     1
1070
   288
1070
     1
1002
}
  0
DIMENSION
  5
7B8C
  8
3
  6
CONTINUOUS
  2
*D8
 10
1145.4320984582209
 20
1664.9167767482149
 30
0.0
 11
830.86123345822182
 21
1664.9167767482149
 31
0.0
 70
   128
 13
515.4320984582215
 23
1828.219206748214
 33
0.0
 14
1145.4320984582209
 24
1828.219206748214
 34
0.0
1001
ACAD
1000
DSTYLE
1002
{
1070
   287
1070
     3
1070
   287
1070
     3
1070
    40
1040
10.0
1070
   143
1040
0.039
1070
   172
1070
     1
1070
   271
1070
     0
1070
   279
1070
     0
1070
   288
1070
     1
1002
}
  0
DIMENSION
  5
7B99
  8
3
  6
CONTINUOUS
  2
*D9
 10
1241.926410458221
 20
1828.219206748214
 30
0.0
 11
1241.926410458221
 21
1948.7922737482149
 31
0.0
 70
   128
 13
1145.4320984582209
 23
2052.2192067482151
 33
0.0
 14
1145.4320984582209
 24
1828.219206748214
 34
0.0
 50
90.0
1001
ACAD
1000
DSTYLE
1002
{
1070
   287
1070
     3
1070
   287
1070
     3
1070
    40
1040
10.0
1070
   143
1040
0.039
1070
   172
1070
     1
1070
   271
1070
     0
1070
   279
1070
     0
1070
   288
1070
     1
1002
}
  0
LINE
  5
7B9A
  8
2
  6
CENTER
 10
1669.3853633544461
 20
1329.4034449999999
 30
0.0
 11
1669.3853633544461
 21
779.43890499999998
 31
0.0
  0
DIMENSION
  5
7BA7
  8
3
  6
CONTINUOUS
  2
*D10
 10
1669.3853633544461
 20
738.09781299999986
 30
0.0
 11
1555.7873483544461
 21
738.09781299999986
 31
0.0
 70
   128
 13
1455.3853633544461
 23
806.77328499999999
 33
0.0
 14
1669.3853633544461
 24
806.77328499999999
 34
0.0
1001
ACAD
1000
DSTYLE
1002
{
1070
   287
1070
     3
1070
   287
1070
     3
1070
    40
1040
10.0
1070
   143
1040
0.039
1070
   172
1070
     1
1070
   271
1070
     0
1070
   279
1070
     0
1070
   288
1070
     1
1002
}
  0
DIMENSION
  5
7BB7
  8
3
  6
CONTINUOUS
  2
*D11
 10
1679.3853633544461
 20
738.09781299999986
 30
0.0
 11
1719.9375323544459
 21
737.82561399999986
 31
0.0
 70
   128
 13
1669.3853633544461
 23
806.77328499999999
 33
0.0
 14
1679.3853633544461
 24
806.77328499999999
 34
0.0
1001
ACAD
1000
DSTYLE
1002
{
1070
   287
1070
     4
1070
   287
1070
     4
1070
    40
1040
10.0
1070
    75
1070
     1
1070
   143
1040
0.039
1070
   172
1070
     1
1070
   271
1070
     0
1070
   279
1070
     1
1070
   288
1070
     1
1002
}
  0
DIMENSION
  5
7BDE
  8
3
  6
CONTINUOUS
  2
*D12
 10
1739.3853633544461
 20
1325.5495989999999
 30
0.0
 11
1665.099649354446
 21
1325.5495989999999
 31
0.0
 70
   128
 13
1599.3853633544461
 23
1281.773285
 33
0.0
 14
1739.3853633544461
 24
1281.773285
 34
0.0
1001
ACAD
1000
DSTYLE
1002
{
1070
   287
1070
     3
1070
   287
1070
     3
1070
    40
1040
10.0
1070
   143
1040
0.039
1070
   172
1070
     1
1070
   271
1070
     0
1070
   279
1070
     0
1070
   288
1070
     1
1002
}
  0
DIMENSION
  5
7BEB
  8
3
  6
CONTINUOUS
  2
*D13
 10
1669.3853633544461
 20
1380.6710539999999
 30
0.0
 11
1504.7490563544461
 21
1380.6710539999999
 31
0.0
 70
   128
  1
MAX\P300
 13
1369.3853633544461
 23
1191.773285
 33
0.0
 14
1669.3853633544461
 24
1370.0094730000001
 34
0.0
1001
ACAD
1000
DSTYLE
1002
{
1070
   287
1070
     3
1070
   287
1070
     3
1070
    40
1040
10.0
1070
   143
1040
0.039
1070
   172
1070
     1
1070
   271
1070
     0
1070
   279
1070
     0
1070
   288
1070
     1
1002
}
  0
DIMENSION
  5
7C07
  8
3
  6
CONTINUOUS
  2
*D14
 10
1747.3853633544461
 20
1380.6710539999999
 30
0.0
 11
1707.5228143544459
 21
1380.807153
 31
0.0
 70
   128
 13
1669.3853633544461
 23
1370.0094730000001
 33
0.0
 14
1747.3853633544461
 24
1201.773285
 34
0.0
1001
ACAD
1000
DSTYLE
1002
{
1070
   287
1070
     4
1070
   287
1070
     4
1070
    40
1040
10.0
1070
    75
1070
     1
1070
   143
1040
0.039
1070
   172
1070
     1
1070
   271
1070
     0
1070
   279
1070
     1
1070
   288
1070
     1
1002
}
  0
LINE
  5
7C20
  8
3
  6
CONTINUOUS
 10
1747.3853633544461
 20
1181.773285
 30
0.0
 11
1762.6993463544461
 21
1181.773285
 31
0.0
  0
LINE
  5
7C22
  8
3
  6
CONTINUOUS
 10
1747.3853633544461
 20
981.77328499999999
 30
0.0
 11
1768.2170063544461
 21
981.77328499999999
 31
0.0
  0
DIMENSION
  5
7C2F
  8
3
  6
CONTINUOUS
  2
*D15
 10
1809.5993983544461
 20
981.77328499999976
 30
0.0
 11
1809.5993983544461
 21
1095.2018564285711
 31
0.0
 70
   128
 13
1747.3853633544461
 23
1181.773285
 33
0.0
 14
1747.3853633544461
 24
981.77328499999999
 34
0.0
 50
90.0
1001
ACAD
1000
DSTYLE
1002
{
1070
   287
1070
     3
1070
   287
1070
     3
1070
     3
1000
φ<>
1070
    40
1040
10.0
1070
   143
1040
0.039
1070
   172
1070
     1
1070
   271
1070
     0
1070
   279
1070
     0
1070
   288
1070
     1
1002
}
  0
LINE
  5
7C30
  8
2
  6
CENTER
 10
675.43209845822162
 20
1686.7774467482141
 30
0.0
 11
675.43209845822162
 21
2149.888136748214
 31
0.0
  0
LINE
  5
7C31
  8
2
  6
CENTER
 10
1147.687398458221
 20
1081.773285
 30
0.0
 11
475.97176745822162
 21
1081.773285
 31
0.0
  0
DIMENSION
  5
7C48
  8
3
  6
CONTINUOUS
  2
*D16
 10
339.43237545822171
 20
806.77328499999999
 30
0.0
 11
339.4323754582216
 21
1053.70795
 31
0.0
 70
   128
 13
515.4320984582215
 23
1302.773285
 33
0.0
 14
515.4320984582215
 24
806.77328499999999
 34
0.0
 50
90.0
1001
ACAD
1000
DSTYLE
1002
{
1070
   287
1070
     3
1070
   287
1070
     3
1070
    40
1040
10.0
1070
   143
1040
0.039
1070
   172
1070
     1
1070
   271
1070
     0
1070
   279
1070
     0
1070
   288
1070
     1
1002
}
  0
LINE
  5
7C49
  8
2
  6
CENTER
 10
476.50257945822159
 20
2042.2192067482149
 30
0.0
 11
967.98181545822183
 21
2042.2192067482149
 31
0.0
  0
DIMENSION
  5
7C90
  8
3
  2
*D17
 10
1145.4320984582209
 20
1411.047025893459
 30
0.0
 11
844.73381792646967
 21
1411.047025893459
 31
0.0
 70
   128
 13
515.4320984582215
 23
1302.773285
 33
0.0
 14
1145.4320984582209
 24
856.77328499999999
 34
0.0
1001
ACAD
1000
DSTYLE
1002
{
1070
   287
1070
     3
1070
   287
1070
     3
1070
    40
1040
10.0
1070
   143
1040
0.039
1070
   172
1070
     1
1070
   271
1070
     0
1070
   279
1070
     0
1070
   288
1070
     1
1002
}
  0
ENDSEC
  0
EOF
