  0
SECTION
  2
HEADER
  9
$ACADVER
  1
AC1027
  9
$ACADMAINTVER
 70
    81
  9
$DWGCODEPAGE
  3
ANSI_932
  9
$LASTSAVEDBY
  1
reiko.miyawaki
  9
$REQUIREDVERSIONS
160
                 0
  9
$INSBASE
 10
0.0
 20
0.0
 30
0.0
  9
$EXTMIN
 10
196.1690687476318
 20
300.0
 30
0.0
  9
$EXTMAX
 10
1850.0
 20
2786.652262
 30
0.0
  9
$LIMMIN
 10
0.0
 20
0.0
  9
$LIMMAX
 10
297.0
 20
210.0
  9
$ORTHOMODE
 70
     0
  9
$REGENMODE
 70
     1
  9
$FILLMODE
 70
     0
  9
$QTEXTMODE
 70
     0
  9
$MIRRTEXT
 70
     1
  9
$LTSCALE
 40
100.0
  9
$ATTMODE
 70
     1
  9
$TEXTSIZE
 40
180.0
  9
$TRACEWID
 40
0.05
  9
$TEXTSTYLE
  7
STANDARD
  9
$CLAYER
  8
3
  9
$CELTYPE
  6
BYLAYER
  9
$CECOLOR
 62
   256
  9
$CELTSCALE
 40
1.0
  9
$DISPSILH
 70
     0
  9
$DIMSCALE
 40
10.0
  9
$DIMASZ
 40
2.0
  9
$DIMEXO
 40
0.5
  9
$DIMDLI
 40
10.0
  9
$DIMRND
 40
0.0
  9
$DIMDLE
 40
0.0
  9
$DIMEXE
 40
1.0
  9
$DIMTP
 40
1.0
  9
$DIMTM
 40
1.0
  9
$DIMTXT
 40
3.0
  9
$DIMCEN
 40
0.0
  9
$DIMTSZ
 40
0.0
  9
$DIMTOL
 70
     0
  9
$DIMLIM
 70
     0
  9
$DIMTIH
 70
     0
  9
$DIMTOH
 70
     0
  9
$DIMSE1
 70
     0
  9
$DIMSE2
 70
     0
  9
$DIMTAD
 70
     1
  9
$DIMZIN
 70
     8
  9
$DIMBLK
  1

  9
$DIMASO
 70
     1
  9
$DIMSHO
 70
     1
  9
$DIMPOST
  1
(<>)
  9
$DIMAPOST
  1

  9
$DIMALT
 70
     0
  9
$DIMALTD
 70
     2
  9
$DIMALTF
 40
0.039
  9
$DIMLFAC
 40
1.0
  9
$DIMTOFL
 70
     1
  9
$DIMTVP
 40
0.0
  9
$DIMTIX
 70
     0
  9
$DIMSOXD
 70
     0
  9
$DIMSAH
 70
     1
  9
$DIMBLK1
  1
OPEN
  9
$DIMBLK2
  1
OPEN
  9
$DIMSTYLE
  2
IGA
  9
$DIMCLRD
 70
     0
  9
$DIMCLRE
 70
     0
  9
$DIMCLRT
 70
     0
  9
$DIMTFAC
 40
10.0
  9
$DIMGAP
 40
1.0
  9
$DIMJUST
 70
     0
  9
$DIMSD1
 70
     0
  9
$DIMSD2
 70
     0
  9
$DIMTOLJ
 70
     1
  9
$DIMTZIN
 70
     8
  9
$DIMALTZ
 70
     0
  9
$DIMALTTZ
 70
     0
  9
$DIMUPT
 70
     0
  9
$DIMDEC
 70
     0
  9
$DIMTDEC
 70
     0
  9
$DIMALTU
 70
     2
  9
$DIMALTTD
 70
     2
  9
$DIMTXSTY
  7
STANDARD
  9
$DIMAUNIT
 70
     0
  9
$DIMADEC
 70
     0
  9
$DIMALTRND
 40
0.0
  9
$DIMAZIN
 70
     0
  9
$DIMDSEP
 70
    46
  9
$DIMATFIT
 70
     3
  9
$DIMFRAC
 70
     0
  9
$DIMLDRBLK
  1
OPEN
  9
$DIMLUNIT
 70
     2
  9
$DIMLWD
 70
    -2
  9
$DIMLWE
 70
    -2
  9
$DIMTMOVE
 70
     0
  9
$DIMFXL
 40
1.0
  9
$DIMFXLON
 70
     0
  9
$DIMJOGANG
 40
0.7853981633974483
  9
$DIMTFILL
 70
     0
  9
$DIMTFILLCLR
 70
     0
  9
$DIMARCSYM
 70
     0
  9
$DIMLTYPE
  6

  9
$DIMLTEX1
  6

  9
$DIMLTEX2
  6

  9
$DIMTXTDIRECTION
 70
     0
  9
$LUNITS
 70
     2
  9
$LUPREC
 70
     3
  9
$SKETCHINC
 40
0.1
  9
$FILLETRAD
 40
50.0
  9
$AUNITS
 70
     0
  9
$AUPREC
 70
     0
  9
$MENU
  1
acad
  9
$ELEVATION
 40
0.0
  9
$PELEVATION
 40
0.0
  9
$THICKNESS
 40
0.0
  9
$LIMCHECK
 70
     0
  9
$CHAMFERA
 40
0.5
  9
$CHAMFERB
 40
0.5
  9
$CHAMFERC
 40
20.0
  9
$CHAMFERD
 40
0.0
  9
$SKPOLY
 70
     0
  9
$TDCREATE
 40
2450738.654119329
  9
$TDUCREATE
 40
2450738.279119329
  9
$TDUPDATE
 40
2459024.539913762
  9
$TDUUPDATE
 40
2459024.164913762
  9
$TDINDWG
 40
0.0075643866
  9
$TDUSRTIMER
 40
0.0075643866
  9
$USRTIMER
 70
     1
  9
$ANGBASE
 50
0.0
  9
$ANGDIR
 70
     0
  9
$PDMODE
 70
     0
  9
$PDSIZE
 40
0.0
  9
$PLINEWID
 40
0.0
  9
$SPLFRAME
 70
     0
  9
$SPLINETYPE
 70
     6
  9
$SPLINESEGS
 70
     8
  9
$HANDSEED
  5
7F62
  9
$SURFTAB1
 70
     6
  9
$SURFTAB2
 70
     6
  9
$SURFTYPE
 70
     6
  9
$SURFU
 70
     6
  9
$SURFV
 70
     6
  9
$UCSBASE
  2

  9
$UCSNAME
  2

  9
$UCSORG
 10
0.0
 20
0.0
 30
0.0
  9
$UCSXDIR
 10
1.0
 20
0.0
 30
0.0
  9
$UCSYDIR
 10
0.0
 20
1.0
 30
0.0
  9
$UCSORTHOREF
  2

  9
$UCSORTHOVIEW
 70
     0
  9
$UCSORGTOP
 10
0.0
 20
0.0
 30
0.0
  9
$UCSORGBOTTOM
 10
0.0
 20
0.0
 30
0.0
  9
$UCSORGLEFT
 10
0.0
 20
0.0
 30
0.0
  9
$UCSORGRIGHT
 10
0.0
 20
0.0
 30
0.0
  9
$UCSORGFRONT
 10
0.0
 20
0.0
 30
0.0
  9
$UCSORGBACK
 10
0.0
 20
0.0
 30
0.0
  9
$PUCSBASE
  2

  9
$PUCSNAME
  2

  9
$PUCSORG
 10
0.0
 20
0.0
 30
0.0
  9
$PUCSXDIR
 10
1.0
 20
0.0
 30
0.0
  9
$PUCSYDIR
 10
0.0
 20
1.0
 30
0.0
  9
$PUCSORTHOREF
  2

  9
$PUCSORTHOVIEW
 70
     0
  9
$PUCSORGTOP
 10
0.0
 20
0.0
 30
0.0
  9
$PUCSORGBOTTOM
 10
0.0
 20
0.0
 30
0.0
  9
$PUCSORGLEFT
 10
0.0
 20
0.0
 30
0.0
  9
$PUCSORGRIGHT
 10
0.0
 20
0.0
 30
0.0
  9
$PUCSORGFRONT
 10
0.0
 20
0.0
 30
0.0
  9
$PUCSORGBACK
 10
0.0
 20
0.0
 30
0.0
  9
$USERI1
 70
     0
  9
$USERI2
 70
     0
  9
$USERI3
 70
     0
  9
$USERI4
 70
     0
  9
$USERI5
 70
     0
  9
$USERR1
 40
0.0
  9
$USERR2
 40
0.0
  9
$USERR3
 40
0.0
  9
$USERR4
 40
0.0
  9
$USERR5
 40
0.0
  9
$WORLDVIEW
 70
     1
  9
$SHADEDGE
 70
     3
  9
$SHADEDIF
 70
    70
  9
$TILEMODE
 70
     1
  9
$MAXACTVP
 70
    16
  9
$PINSBASE
 10
0.0
 20
0.0
 30
0.0
  9
$PLIMCHECK
 70
     0
  9
$PEXTMIN
 10
1.000000000000000E+20
 20
1.000000000000000E+20
 30
1.000000000000000E+20
  9
$PEXTMAX
 10
-1.000000000000000E+20
 20
-1.000000000000000E+20
 30
-1.000000000000000E+20
  9
$PLIMMIN
 10
0.0
 20
0.0
  9
$PLIMMAX
 10
12.0
 20
9.0
  9
$UNITMODE
 70
     0
  9
$VISRETAIN
 70
     0
  9
$PLINEGEN
 70
     0
  9
$PSLTSCALE
 70
     1
  9
$TREEDEPTH
 70
  3020
  9
$CMLSTYLE
  2
STANDARD
  9
$CMLJUST
 70
     0
  9
$CMLSCALE
 40
20.0
  9
$PROXYGRAPHICS
 70
     1
  9
$MEASUREMENT
 70
     0
  9
$CELWEIGHT
370
    -1
  9
$ENDCAPS
280
     0
  9
$JOINSTYLE
280
     0
  9
$LWDISPLAY
290
     0
  9
$INSUNITS
 70
     0
  9
$HYPERLINKBASE
  1

  9
$STYLESHEET
  1

  9
$XEDIT
290
     1
  9
$CEPSNTYPE
380
     0
  9
$PSTYLEMODE
290
     1
  9
$FINGERPRINTGUID
  2
{4B444CB2-611A-427C-BE17-E84B9D23ABE2}
  9
$VERSIONGUID
  2
{4D868F19-8A83-4A2F-A677-484653590356}
  9
$EXTNAMES
290
     1
  9
$PSVPSCALE
 40
0.0
  9
$OLESTARTUP
290
     0
  9
$SORTENTS
280
   127
  9
$INDEXCTL
280
     0
  9
$HIDETEXT
280
     0
  9
$XCLIPFRAME
280
     2
  9
$HALOGAP
280
     0
  9
$OBSCOLOR
 70
   257
  9
$OBSLTYPE
280
     0
  9
$INTERSECTIONDISPLAY
280
     0
  9
$INTERSECTIONCOLOR
 70
   257
  9
$DIMASSOC
280
     1
  9
$PROJECTNAME
  1

  9
$CAMERADISPLAY
290
     0
  9
$LENSLENGTH
 40
50.0
  9
$CAMERAHEIGHT
 40
0.0
  9
$STEPSPERSEC
 40
2.0
  9
$STEPSIZE
 40
6.0
  9
$3DDWFPREC
 40
2.0
  9
$PSOLWIDTH
 40
0.25
  9
$PSOLHEIGHT
 40
4.0
  9
$LOFTANG1
 40
1.570796326794896
  9
$LOFTANG2
 40
1.570796326794896
  9
$LOFTMAG1
 40
0.0
  9
$LOFTMAG2
 40
0.0
  9
$LOFTPARAM
 70
     7
  9
$LOFTNORMALS
280
     1
  9
$LATITUDE
 40
37.795
  9
$LONGITUDE
 40
-122.394
  9
$NORTHDIRECTION
 40
0.0
  9
$TIMEZONE
 70
 -8000
  9
$LIGHTGLYPHDISPLAY
280
     1
  9
$TILEMODELIGHTSYNCH
280
     1
  9
$CMATERIAL
347
7E6E
  9
$SOLIDHIST
280
     0
  9
$SHOWHIST
280
     1
  9
$DWFFRAME
280
     2
  9
$DGNFRAME
280
     0
  9
$REALWORLDSCALE
290
     1
  9
$INTERFERECOLOR
 62
     1
  9
$INTERFEREOBJVS
345
7E90
  9
$INTERFEREVPVS
346
7E8D
  9
$CSHADOW
280
     0
  9
$SHADOWPLANELOCATION
 40
0.0
  0
ENDSEC
  0
SECTION
  2
CLASSES
  0
CLASS
  1
ACDBDICTIONARYWDFLT
  2
AcDbDictionaryWithDefault
  3
ObjectDBX Classes
 90
        0
 91
        1
280
     0
281
     0
  0
CLASS
  1
DICTIONARYVAR
  2
AcDbDictionaryVar
  3
ObjectDBX Classes
 90
        0
 91
       10
280
     0
281
     0
  0
CLASS
  1
MATERIAL
  2
AcDbMaterial
  3
ObjectDBX Classes
 90
     1153
 91
        3
280
     0
281
     0
  0
CLASS
  1
VISUALSTYLE
  2
AcDbVisualStyle
  3
ObjectDBX Classes
 90
     4095
 91
       24
280
     0
281
     0
  0
CLASS
  1
TABLESTYLE
  2
AcDbTableStyle
  3
ObjectDBX Classes
 90
     4095
 91
        1
280
     0
281
     0
  0
CLASS
  1
SCALE
  2
AcDbScale
  3
ObjectDBX Classes
 90
     1153
 91
       17
280
     0
281
     0
  0
CLASS
  1
MLEADERSTYLE
  2
AcDbMLeaderStyle
  3
ACDB_MLEADERSTYLE_CLASS
 90
     4095
 91
        1
280
     0
281
     0
  0
CLASS
  1
ACDBSECTIONVIEWSTYLE
  2
AcDbSectionViewStyle
  3
ObjectDBX Classes
 90
     1025
 91
        1
280
     0
281
     0
  0
CLASS
  1
ACDBDETAILVIEWSTYLE
  2
AcDbDetailViewStyle
  3
ObjectDBX Classes
 90
     1025
 91
        1
280
     0
281
     0
  0
CLASS
  1
CELLSTYLEMAP
  2
AcDbCellStyleMap
  3
ObjectDBX Classes
 90
     1152
 91
        1
280
     0
281
     0
  0
ENDSEC
  0
SECTION
  2
TABLES
  0
TABLE
  2
VPORT
  5
8
330
0
100
AcDbSymbolTable
 70
     1
  0
VPORT
  5
7E6B
330
8
100
AcDbSymbolTableRecord
100
AcDbViewportTableRecord
  2
*Active
 70
     0
 10
0.0
 20
0.0
 11
1.0
 21
1.0
 12
1023.126169369128
 22
1543.365852128138
 13
0.0
 23
0.0
 14
10.0
 24
10.0
 15
10.0
 25
10.0
 16
0.0
 26
0.0
 36
1.0
 17
0.0
 27
0.0
 37
0.0
 40
2505.17676149782
 41
1.957107843137254
 42
50.0
 43
0.0
 44
0.0
 50
0.0
 51
0.0
 71
     0
 72
   100
 73
     1
 74
     0
 75
     0
 76
     0
 77
     0
 78
     0
281
     0
 65
     1
110
0.0
120
0.0
130
0.0
111
1.0
121
0.0
131
0.0
112
0.0
122
1.0
132
0.0
 79
     0
146
0.0
348
7E8C
 60
     3
 61
     5
292
     1
282
     1
141
0.0
142
0.0
 63
   250
421
  3355443
1001
ACAD_NAV_VCDISPLAY
1070
     3
  0
ENDTAB
  0
TABLE
  2
LTYPE
  5
5
330
0
100
AcDbSymbolTable
 70
     2
  0
LTYPE
  5
13
330
5
100
AcDbSymbolTableRecord
100
AcDbLinetypeTableRecord
  2
BYBLOCK
 70
     0
  3

 72
    65
 73
     0
 40
0.0
  0
LTYPE
  5
14
330
5
100
AcDbSymbolTableRecord
100
AcDbLinetypeTableRecord
  2
BYLAYER
 70
     0
  3

 72
    65
 73
     0
 40
0.0
  0
LTYPE
  5
15
330
5
100
AcDbSymbolTableRecord
100
AcDbLinetypeTableRecord
  2
CONTINUOUS
 70
     0
  3
Solid line
 72
    65
 73
     0
 40
0.0
  0
LTYPE
  5
1F
330
5
100
AcDbSymbolTableRecord
100
AcDbLinetypeTableRecord
  2
CENTER
 70
     0
  3
____ _ ____ _ ____ _ ____ _ ____ _ ____ _ ____ 
 72
    65
 73
     4
 40
2.0
 49
1.25
 74
     0
 49
-0.25
 74
     0
 49
0.25
 74
     0
 49
-0.25
 74
     0
  0
ENDTAB
  0
TABLE
  2
LAYER
  5
2
102
{ACAD_XDICTIONARY
360
7EC4
102
}
330
0
100
AcDbSymbolTable
 70
     6
  0
LAYER
  5
F
102
{ACAD_XDICTIONARY
360
7F17
102
}
330
2
100
AcDbSymbolTableRecord
100
AcDbLayerTableRecord
  2
0
 70
     0
 62
     7
  6
CONTINUOUS
370
    -3
390
7D88
347
7E7E
348
0
  0
LAYER
  5
31
102
{ACAD_XDICTIONARY
360
7F19
102
}
330
2
100
AcDbSymbolTableRecord
100
AcDbLayerTableRecord
  2
3
 70
     0
 62
     2
  6
CONTINUOUS
370
    -3
390
7D88
347
7E7E
348
0
  0
LAYER
  5
76D0
102
{ACAD_XDICTIONARY
360
7F1B
102
}
330
2
100
AcDbSymbolTableRecord
100
AcDbLayerTableRecord
  2
2
 70
     0
 62
     3
  6
CENTER
370
    -3
390
7D88
347
7E7E
348
0
  0
LAYER
  5
76D1
102
{ACAD_XDICTIONARY
360
7F1D
102
}
330
2
100
AcDbSymbolTableRecord
100
AcDbLayerTableRecord
  2
1
 70
     0
 62
     4
  6
CONTINUOUS
370
    -3
390
7D88
347
7E7E
348
0
  0
LAYER
  5
76D2
102
{ACAD_XDICTIONARY
360
7F1F
102
}
330
2
100
AcDbSymbolTableRecord
100
AcDbLayerTableRecord
  2
4
 70
     0
 62
     7
  6
CONTINUOUS
370
    -3
390
7D88
347
7E7E
348
0
  0
LAYER
  5
7B51
330
2
100
AcDbSymbolTableRecord
100
AcDbLayerTableRecord
  2
DEFPOINTS
 70
     0
 62
     7
  6
CONTINUOUS
290
     0
370
    -3
390
7D88
347
7E7E
348
0
  0
ENDTAB
  0
TABLE
  2
STYLE
  5
3
330
0
100
AcDbSymbolTable
 70
     1
  0
STYLE
  5
10
330
3
100
AcDbSymbolTableRecord
100
AcDbTextStyleTableRecord
  2
STANDARD
 70
     0
 40
0.0
 41
1.0
 50
0.0
 71
     0
 42
180.0
  3
simplex.shx
  4
extfont.shx
  0
ENDTAB
  0
TABLE
  2
VIEW
  5
6
330
0
100
AcDbSymbolTable
 70
     0
  0
ENDTAB
  0
TABLE
  2
UCS
  5
7
330
0
100
AcDbSymbolTable
 70
     0
  0
ENDTAB
  0
TABLE
  2
APPID
  5
9
330
0
100
AcDbSymbolTable
 70
     4
  0
APPID
  5
11
330
9
100
AcDbSymbolTableRecord
100
AcDbRegAppTableRecord
  2
ACAD
 70
     0
  0
APPID
  5
7EC3
330
9
100
AcDbSymbolTableRecord
100
AcDbRegAppTableRecord
  2
ACAD_NAV_VCDISPLAY
 70
     0
  0
APPID
  5
7F3A
330
9
100
AcDbSymbolTableRecord
100
AcDbRegAppTableRecord
  2
AcadAnnoMonitorAlertIconDisabled
 70
     0
  0
APPID
  5
7F3B
330
9
100
AcDbSymbolTableRecord
100
AcDbRegAppTableRecord
  2
ACAD_EXEMPT_FROM_CAD_STANDARDS
 70
     0
  0
ENDTAB
  0
TABLE
  2
DIMSTYLE
  5
A
330
0
100
AcDbSymbolTable
 70
     1
100
AcDbDimStyleTable
 71
     0
  0
DIMSTYLE
105
1D
102
{ACAD_REACTORS
330
7B56
330
7B62
330
7B6F
330
7B7B
330
7B88
330
7B95
330
7BA2
330
7BAE
330
7C1B
330
7C28
330
7C3A
330
7C47
330
7C55
330
7C78
330
7C84
330
7C95
330
7D59
330
7D66
330
7D80
102
}
330
A
100
AcDbSymbolTableRecord
100
AcDbDimStyleTableRecord
  2
IGA
 70
     0
 40
2.0
 41
2.0
 42
0.5
 43
10.0
 44
1.0
 47
1.0
 48
1.0
 73
     0
 74
     0
 77
     1
 78
     8
140
3.0
141
0.0
143
0.03937
146
10.0
147
1.0
173
     1
271
     1
272
     0
279
     2
284
     8
340
10
341
7B43
343
7B43
344
7B43
  0
ENDTAB
  0
TABLE
  2
BLOCK_RECORD
  5
1
330
0
100
AcDbSymbolTable
 70
    22
  0
BLOCK_RECORD
  5
19
102
{ACAD_XDICTIONARY
360
7DB6
102
}
330
1
100
AcDbSymbolTableRecord
100
AcDbBlockTableRecord
  2
*MODEL_SPACE
340
7D8B
 70
     0
280
     1
281
     0
  0
BLOCK_RECORD
  5
16
102
{ACAD_XDICTIONARY
360
7DB4
102
}
330
1
100
AcDbSymbolTableRecord
100
AcDbBlockTableRecord
  2
*PAPER_SPACE
340
7D8C
 70
     0
280
     1
281
     0
  0
BLOCK_RECORD
  5
7B43
330
1
100
AcDbSymbolTableRecord
100
AcDbBlockTableRecord
  2
_OPEN
340
0
102
{BLKREFS
331
7DD0
331
7DD1
331
7DD8
331
7DD9
331
7DE1
331
7DE2
331
7DEA
331
7DEB
331
7DF3
331
7DF4
331
7DFB
331
7DFC
331
7E04
331
7E05
331
7E0D
331
7E0E
331
7E16
331
7E17
331
7E28
331
7E29
331
7E41
331
7E42
331
7ED2
331
7ED3
331
7EDA
331
7EDB
331
7EE3
331
7EE4
331
7EEB
331
7EEC
331
7EF7
331
7F08
331
7F09
331
7F13
331
7F49
331
7F4A
102
}
 70
     0
280
     1
281
     0
  0
BLOCK_RECORD
  5
7B49
330
1
100
AcDbSymbolTableRecord
100
AcDbBlockTableRecord
  2
*D1
340
0
 70
     0
280
     1
281
     0
  0
BLOCK_RECORD
  5
7B57
330
1
100
AcDbSymbolTableRecord
100
AcDbBlockTableRecord
  2
*D2
340
0
 70
     0
280
     1
281
     0
  0
BLOCK_RECORD
  5
7B63
330
1
100
AcDbSymbolTableRecord
100
AcDbBlockTableRecord
  2
*D3
340
0
 70
     0
280
     1
281
     0
  0
BLOCK_RECORD
  5
7B70
330
1
100
AcDbSymbolTableRecord
100
AcDbBlockTableRecord
  2
*D4
340
0
 70
     0
280
     1
281
     0
  0
BLOCK_RECORD
  5
7B7C
330
1
100
AcDbSymbolTableRecord
100
AcDbBlockTableRecord
  2
*D5
340
0
 70
     0
280
     1
281
     0
  0
BLOCK_RECORD
  5
7B89
330
1
100
AcDbSymbolTableRecord
100
AcDbBlockTableRecord
  2
*D6
340
0
 70
     0
280
     1
281
     0
  0
BLOCK_RECORD
  5
7B96
330
1
100
AcDbSymbolTableRecord
100
AcDbBlockTableRecord
  2
*D7
340
0
 70
     0
280
     1
281
     0
  0
BLOCK_RECORD
  5
7BA3
330
1
100
AcDbSymbolTableRecord
100
AcDbBlockTableRecord
  2
*D8
340
0
 70
     0
280
     1
281
     0
  0
BLOCK_RECORD
  5
7C0F
330
1
100
AcDbSymbolTableRecord
100
AcDbBlockTableRecord
  2
*D9
340
0
 70
     0
280
     1
281
     0
  0
BLOCK_RECORD
  5
7C1C
330
1
100
AcDbSymbolTableRecord
100
AcDbBlockTableRecord
  2
*D10
340
0
 70
     0
280
     1
281
     0
  0
BLOCK_RECORD
  5
7C2E
330
1
100
AcDbSymbolTableRecord
100
AcDbBlockTableRecord
  2
*D11
340
0
 70
     0
280
     1
281
     0
  0
BLOCK_RECORD
  5
7C3B
330
1
100
AcDbSymbolTableRecord
100
AcDbBlockTableRecord
  2
*D12
340
0
 70
     0
280
     1
281
     0
  0
BLOCK_RECORD
  5
7C48
330
1
100
AcDbSymbolTableRecord
100
AcDbBlockTableRecord
  2
*D13
340
0
 70
     0
280
     1
281
     0
  0
BLOCK_RECORD
  5
7C6C
330
1
100
AcDbSymbolTableRecord
100
AcDbBlockTableRecord
  2
*D14
340
0
 70
     0
280
     1
281
     0
  0
BLOCK_RECORD
  5
7C79
330
1
100
AcDbSymbolTableRecord
100
AcDbBlockTableRecord
  2
*D15
340
0
 70
     0
280
     1
281
     0
  0
BLOCK_RECORD
  5
7C89
330
1
100
AcDbSymbolTableRecord
100
AcDbBlockTableRecord
  2
*D16
340
0
 70
     0
280
     1
281
     0
  0
BLOCK_RECORD
  5
7D0E
330
1
100
AcDbSymbolTableRecord
100
AcDbBlockTableRecord
  2
_DOT
340
0
102
{BLKREFS
331
7EF6
331
7F12
102
}
 70
     0
280
     1
281
     0
  0
BLOCK_RECORD
  5
7D4B
330
1
100
AcDbSymbolTableRecord
100
AcDbBlockTableRecord
  2
*D18
340
0
 70
     0
280
     1
281
     0
  0
BLOCK_RECORD
  5
7D5A
330
1
100
AcDbSymbolTableRecord
100
AcDbBlockTableRecord
  2
*D19
340
0
 70
     0
280
     1
281
     0
  0
BLOCK_RECORD
  5
7D74
330
1
100
AcDbSymbolTableRecord
100
AcDbBlockTableRecord
  2
*D20
340
0
 70
     0
280
     1
281
     0
  0
BLOCK_RECORD
  5
7EBD
330
1
100
AcDbSymbolTableRecord
100
AcDbBlockTableRecord
  2
_CLOSED
340
0
 70
     0
280
     1
281
     0
  0
ENDTAB
  0
ENDSEC
  0
SECTION
  2
BLOCKS
  0
BLOCK
  5
1A
330
19
100
AcDbEntity
  8
0
100
AcDbBlockBegin
  2
*MODEL_SPACE
 70
     0
 10
0.0
 20
0.0
 30
0.0
  3
*MODEL_SPACE
  1

  0
ENDBLK
  5
1B
330
19
100
AcDbEntity
  8
0
100
AcDbBlockEnd
  0
BLOCK
  5
17
330
16
100
AcDbEntity
 67
     1
  8
0
100
AcDbBlockBegin
  2
*PAPER_SPACE
 70
     0
 10
0.0
 20
0.0
 30
0.0
  3
*PAPER_SPACE
  1

  0
ENDBLK
  5
18
330
16
100
AcDbEntity
 67
     1
  8
0
100
AcDbBlockEnd
  0
BLOCK
  5
7B44
330
7B43
100
AcDbEntity
  8
0
100
AcDbBlockBegin
  2
_OPEN
 70
     0
 10
0.0
 20
0.0
 30
0.0
  3
_OPEN
  1

  0
LINE
  5
7B45
330
7B43
100
AcDbEntity
  8
0
  6
ByBlock
 62
     0
100
AcDbLine
 10
-1.0
 20
0.166667
 30
0.0
 11
0.0
 21
0.0
 31
0.0
  0
LINE
  5
7B46
330
7B43
100
AcDbEntity
  8
0
  6
ByBlock
 62
     0
100
AcDbLine
 10
0.0
 20
0.0
 30
0.0
 11
-1.0
 21
-0.166667
 31
0.0
  0
LINE
  5
7B47
330
7B43
100
AcDbEntity
  8
0
  6
ByBlock
 62
     0
100
AcDbLine
 10
0.0
 20
0.0
 30
0.0
 11
-1.0
 21
0.0
 31
0.0
  0
ENDBLK
  5
7B48
330
7B43
100
AcDbEntity
  8
0
100
AcDbBlockEnd
  0
BLOCK
  5
7B4A
330
7B49
100
AcDbEntity
  8
0
100
AcDbBlockBegin
  2
*D1
 70
     1
 10
0.0
 20
0.0
 30
0.0
  3
*D1
  1

  0
LINE
  5
7ECF
330
7B49
100
AcDbEntity
  8
3
  6
Continuous
 62
     0
440
 16777216
370
    -2
100
AcDbLine
 10
505.0913015763542
 20
668.1958450535822
 30
0.0
 11
505.0913015763542
 21
613.5056160535822
 31
0.0
  0
LINE
  5
7ED0
330
7B49
100
AcDbEntity
  8
3
  6
Continuous
 62
     0
440
 16777216
370
    -2
100
AcDbLine
 10
690.0913015763541
 20
693.1958450535822
 30
0.0
 11
690.0913015763541
 21
613.5056160535822
 31
0.0
  0
LINE
  5
7ED1
330
7B49
100
AcDbEntity
  8
3
  6
Continuous
 62
     0
440
 16777216
370
    -2
100
AcDbLine
 10
525.0913015763542
 20
623.5056160535822
 30
0.0
 11
670.0913015763541
 21
623.5056160535822
 31
0.0
  0
INSERT
  5
7ED2
330
7B49
100
AcDbEntity
  8
3
  6
Continuous
 62
     0
440
 16777216
370
    -2
100
AcDbBlockReference
  2
_OPEN
 10
505.0913015763542
 20
623.5056160535822
 30
0.0
 41
20.0
 42
20.0
 43
20.0
 50
180.0
  0
INSERT
  5
7ED3
330
7B49
100
AcDbEntity
  8
3
  6
Continuous
 62
     0
440
 16777216
370
    -2
100
AcDbBlockReference
  2
_OPEN
 10
690.0913015763541
 20
623.5056160535822
 30
0.0
 41
20.0
 42
20.0
 43
20.0
  0
MTEXT
  5
7ED4
330
7B49
100
AcDbEntity
  8
3
  6
Continuous
 62
     0
440
 16777216
100
AcDbMText
 10
593.8208075763542
 20
648.5056160535822
 30
0.0
 40
30.0
 41
0.0
 46
0.0
 71
     5
 72
     1
  1
\A1;185
 73
     1
 44
1.0
  0
POINT
  5
7ED5
330
7B49
100
AcDbEntity
  8
DEFPOINTS
  6
Continuous
 62
     0
440
 16777216
100
AcDbPoint
 10
505.0913015763542
 20
673.1958450535822
 30
0.0
  0
POINT
  5
7ED6
330
7B49
100
AcDbEntity
  8
DEFPOINTS
  6
Continuous
 62
     0
440
 16777216
100
AcDbPoint
 10
690.0913015763541
 20
698.1958450535822
 30
0.0
  0
POINT
  5
7ED7
330
7B49
100
AcDbEntity
  8
DEFPOINTS
  6
Continuous
 62
     0
440
 16777216
100
AcDbPoint
 10
690.0913015763541
 20
623.5056160535822
 30
0.0
  0
ENDBLK
  5
7B55
330
7B49
100
AcDbEntity
  8
0
100
AcDbBlockEnd
  0
BLOCK
  5
7B58
330
7B57
100
AcDbEntity
  8
0
100
AcDbBlockBegin
  2
*D2
 70
     1
 10
0.0
 20
0.0
 30
0.0
  3
*D2
  1

  0
LINE
  5
7ED8
330
7B57
100
AcDbEntity
  8
3
  6
Continuous
 62
     0
440
 16777216
370
    -2
100
AcDbLine
 10
1185.091301576354
 20
668.1958450535822
 30
0.0
 11
1185.091301576354
 21
613.5056160535822
 31
0.0
  0
LINE
  5
7ED9
330
7B57
100
AcDbEntity
  8
3
  6
Continuous
 62
     0
440
 16777216
370
    -2
100
AcDbLine
 10
710.091301576354
 20
623.5056160535822
 30
0.0
 11
1165.091301576354
 21
623.5056160535822
 31
0.0
  0
INSERT
  5
7EDA
330
7B57
100
AcDbEntity
  8
3
  6
Continuous
 62
     0
440
 16777216
370
    -2
100
AcDbBlockReference
  2
_OPEN
 10
690.0913015763541
 20
623.5056160535822
 30
0.0
 41
20.0
 42
20.0
 43
20.0
 50
180.0
  0
INSERT
  5
7EDB
330
7B57
100
AcDbEntity
  8
3
  6
Continuous
 62
     0
440
 16777216
370
    -2
100
AcDbBlockReference
  2
_OPEN
 10
1185.091301576354
 20
623.5056160535822
 30
0.0
 41
20.0
 42
20.0
 43
20.0
  0
MTEXT
  5
7EDC
330
7B57
100
AcDbEntity
  8
3
  6
Continuous
 62
     0
440
 16777216
100
AcDbMText
 10
937.5913015763542
 20
648.5056160535822
 30
0.0
 40
30.0
 41
0.0
 46
0.0
 71
     5
 72
     1
  1
\A1;495
 73
     1
 44
1.0
  0
POINT
  5
7EDD
330
7B57
100
AcDbEntity
  8
DEFPOINTS
  6
Continuous
 62
     0
440
 16777216
100
AcDbPoint
 10
690.0913015763541
 20
698.1958450535822
 30
0.0
  0
POINT
  5
7EDE
330
7B57
100
AcDbEntity
  8
DEFPOINTS
  6
Continuous
 62
     0
440
 16777216
100
AcDbPoint
 10
1185.091301576354
 20
673.1958450535822
 30
0.0
  0
POINT
  5
7EDF
330
7B57
100
AcDbEntity
  8
DEFPOINTS
  6
Continuous
 62
     0
440
 16777216
100
AcDbPoint
 10
1185.091301576354
 20
623.5056160535822
 30
0.0
  0
ENDBLK
  5
7B61
330
7B57
100
AcDbEntity
  8
0
100
AcDbBlockEnd
  0
BLOCK
  5
7B64
330
7B63
100
AcDbEntity
  8
0
100
AcDbBlockBegin
  2
*D3
 70
     1
 10
0.0
 20
0.0
 30
0.0
  3
*D3
  1

  0
LINE
  5
7DCD
330
7B63
100
AcDbEntity
  8
3
  6
Continuous
 62
     0
440
 16777216
100
AcDbLine
 10
530.0913015763542
 20
1094.195845053582
 30
0.0
 11
530.0913015763542
 21
1266.156502053582
 31
0.0
  0
LINE
  5
7DCE
330
7B63
100
AcDbEntity
  8
3
  6
Continuous
 62
     0
440
 16777216
100
AcDbLine
 10
690.0913015763541
 20
1223.763034053582
 30
0.0
 11
690.0913015763541
 21
1266.156502053582
 31
0.0
  0
LINE
  5
7DCF
330
7B63
100
AcDbEntity
  8
3
  6
Continuous
 62
     0
440
 16777216
100
AcDbLine
 10
550.0913015763542
 20
1256.156502053582
 30
0.0
 11
670.0913015763541
 21
1256.156502053582
 31
0.0
  0
INSERT
  5
7DD0
330
7B63
100
AcDbEntity
  8
3
  6
Continuous
 62
     0
440
 16777216
100
AcDbBlockReference
  2
_OPEN
 10
530.0913015763542
 20
1256.156502053582
 30
0.0
 41
20.0
 42
20.0
 43
20.0
 50
180.0
  0
INSERT
  5
7DD1
330
7B63
100
AcDbEntity
  8
3
  6
Continuous
 62
     0
440
 16777216
100
AcDbBlockReference
  2
_OPEN
 10
690.0913015763541
 20
1256.156502053582
 30
0.0
 41
20.0
 42
20.0
 43
20.0
  0
MTEXT
  5
7DD2
330
7B63
100
AcDbEntity
  8
3
  6
Continuous
 62
     0
440
 16777216
100
AcDbMText
 10
610.6552775763542
 20
1281.156502053582
 30
0.0
 40
30.0
 41
0.0
 46
0.0
 71
     5
 72
     5
  1
\A1;160
 73
     1
 44
1.0
  0
POINT
  5
7DD3
330
7B63
100
AcDbEntity
  8
DEFPOINTS
  6
Continuous
 62
     0
440
 16777216
100
AcDbPoint
 10
530.0913015763542
 20
1089.195845053582
 30
0.0
  0
POINT
  5
7DD4
330
7B63
100
AcDbEntity
  8
DEFPOINTS
  6
Continuous
 62
     0
440
 16777216
100
AcDbPoint
 10
690.0913015763541
 20
1218.763034053582
 30
0.0
  0
POINT
  5
7DD5
330
7B63
100
AcDbEntity
  8
DEFPOINTS
  6
Continuous
 62
     0
440
 16777216
100
AcDbPoint
 10
690.0913015763541
 20
1256.156502053582
 30
0.0
  0
ENDBLK
  5
7B6E
330
7B63
100
AcDbEntity
  8
0
100
AcDbBlockEnd
  0
BLOCK
  5
7D39
330
7B70
100
AcDbEntity
  8
0
100
AcDbBlockBegin
  2
*D4
 70
     1
 10
0.0
 20
0.0
 30
0.0
  3
*D4
  1

  0
LINE
  5
7DD6
330
7B70
100
AcDbEntity
  8
3
  6
Continuous
 62
     0
440
 16777216
100
AcDbLine
 10
869.0913015763541
 20
1073.195845053582
 30
0.0
 11
869.0913015763541
 21
1266.156502053582
 31
0.0
  0
LINE
  5
7DD7
330
7B70
100
AcDbEntity
  8
3
  6
Continuous
 62
     0
440
 16777216
100
AcDbLine
 10
710.091301576354
 20
1256.156502053582
 30
0.0
 11
849.091301576354
 21
1256.156502053582
 31
0.0
  0
INSERT
  5
7DD8
330
7B70
100
AcDbEntity
  8
3
  6
Continuous
 62
     0
440
 16777216
100
AcDbBlockReference
  2
_OPEN
 10
690.0913015763541
 20
1256.156502053582
 30
0.0
 41
20.0
 42
20.0
 43
20.0
 50
180.0
  0
INSERT
  5
7DD9
330
7B70
100
AcDbEntity
  8
3
  6
Continuous
 62
     0
440
 16777216
100
AcDbBlockReference
  2
_OPEN
 10
869.0913015763541
 20
1256.156502053582
 30
0.0
 41
20.0
 42
20.0
 43
20.0
  0
MTEXT
  5
7DDA
330
7B70
100
AcDbEntity
  8
3
  6
Continuous
 62
     0
440
 16777216
100
AcDbMText
 10
779.5913015763541
 20
1281.156502053582
 30
0.0
 40
30.0
 41
0.0
 46
0.0
 71
     5
 72
     5
  1
\A1;179
 73
     1
 44
1.0
  0
POINT
  5
7DDB
330
7B70
100
AcDbEntity
  8
DEFPOINTS
  6
Continuous
 62
     0
440
 16777216
100
AcDbPoint
 10
690.0913015763541
 20
1218.763034053582
 30
0.0
  0
POINT
  5
7DDC
330
7B70
100
AcDbEntity
  8
DEFPOINTS
  6
Continuous
 62
     0
440
 16777216
100
AcDbPoint
 10
869.0913015763541
 20
1068.195845053582
 30
0.0
  0
POINT
  5
7DDD
330
7B70
100
AcDbEntity
  8
DEFPOINTS
  6
Continuous
 62
     0
440
 16777216
100
AcDbPoint
 10
869.0913015763541
 20
1256.156502053582
 30
0.0
  0
ENDBLK
  5
7D42
330
7B70
100
AcDbEntity
  8
0
100
AcDbBlockEnd
  0
BLOCK
  5
7B7D
330
7B7C
100
AcDbEntity
  8
0
100
AcDbBlockBegin
  2
*D5
 70
     1
 10
0.0
 20
0.0
 30
0.0
  3
*D5
  1

  0
LINE
  5
7DDE
330
7B7C
100
AcDbEntity
  8
3
  6
Continuous
 62
     0
440
 16777216
100
AcDbLine
 10
525.0913015763542
 20
1068.195845053582
 30
0.0
 11
459.0462045763543
 21
1068.195845053582
 31
0.0
  0
LINE
  5
7DDF
330
7B7C
100
AcDbEntity
  8
3
  6
Continuous
 62
     0
440
 16777216
100
AcDbLine
 10
525.0913015763542
 20
868.1958450535823
 30
0.0
 11
459.0462045763542
 21
868.1958450535823
 31
0.0
  0
LINE
  5
7DE0
330
7B7C
100
AcDbEntity
  8
3
  6
Continuous
 62
     0
440
 16777216
100
AcDbLine
 10
469.0462045763543
 20
1048.195845053582
 30
0.0
 11
469.0462045763543
 21
888.1958450535822
 31
0.0
  0
INSERT
  5
7DE1
330
7B7C
100
AcDbEntity
  8
3
  6
Continuous
 62
     0
440
 16777216
100
AcDbBlockReference
  2
_OPEN
 10
469.0462045763543
 20
1068.195845053582
 30
0.0
 41
20.0
 42
20.0
 43
20.0
 50
90.0
  0
INSERT
  5
7DE2
330
7B7C
100
AcDbEntity
  8
3
  6
Continuous
 62
     0
440
 16777216
100
AcDbBlockReference
  2
_OPEN
 10
469.0462045763543
 20
868.1958450535823
 30
0.0
 41
20.0
 42
20.0
 43
20.0
 50
270.0
  0
MTEXT
  5
7DE3
330
7B7C
100
AcDbEntity
  8
3
  6
Continuous
 62
     0
440
 16777216
100
AcDbMText
 10
444.0462045763541
 20
972.5340270535822
 30
0.0
 40
30.0
 41
0.0
 46
0.0
 71
     5
 72
     5
  1
\A1;200
 11
0.0000000000000001
 21
1.0
 31
0.0
 73
     1
 44
1.0
  0
POINT
  5
7DE4
330
7B7C
100
AcDbEntity
  8
DEFPOINTS
  6
Continuous
 62
     0
440
 16777216
100
AcDbPoint
 10
530.0913015763542
 20
1068.195845053582
 30
0.0
  0
POINT
  5
7DE5
330
7B7C
100
AcDbEntity
  8
DEFPOINTS
  6
Continuous
 62
     0
440
 16777216
100
AcDbPoint
 10
530.0913015763542
 20
868.1958450535823
 30
0.0
  0
POINT
  5
7DE6
330
7B7C
100
AcDbEntity
  8
DEFPOINTS
  6
Continuous
 62
     0
440
 16777216
100
AcDbPoint
 10
469.0462045763543
 20
868.1958450535823
 30
0.0
  0
ENDBLK
  5
7B87
330
7B7C
100
AcDbEntity
  8
0
100
AcDbBlockEnd
  0
BLOCK
  5
7B8A
330
7B89
100
AcDbEntity
  8
0
100
AcDbBlockBegin
  2
*D6
 70
     1
 10
0.0
 20
0.0
 30
0.0
  3
*D6
  1

  0
LINE
  5
7DE7
330
7B89
100
AcDbEntity
  8
3
  6
Continuous
 62
     0
440
 16777216
100
AcDbLine
 10
525.0913015763542
 20
1068.195845053582
 30
0.0
 11
402.9451195763543
 21
1068.195845053582
 31
0.0
  0
LINE
  5
7DE8
330
7B89
100
AcDbEntity
  8
3
  6
Continuous
 62
     0
440
 16777216
100
AcDbLine
 10
540.0913015763542
 20
857.1958450535822
 30
0.0
 11
402.9451195763543
 21
857.1958450535822
 31
0.0
  0
LINE
  5
7DE9
330
7B89
100
AcDbEntity
  8
3
  6
Continuous
 62
     0
440
 16777216
100
AcDbLine
 10
412.9451195763543
 20
1048.195845053582
 30
0.0
 11
412.9451195763542
 21
877.1958450535823
 31
0.0
  0
INSERT
  5
7DEA
330
7B89
100
AcDbEntity
  8
3
  6
Continuous
 62
     0
440
 16777216
100
AcDbBlockReference
  2
_OPEN
 10
412.9451195763543
 20
1068.195845053582
 30
0.0
 41
20.0
 42
20.0
 43
20.0
 50
90.0
  0
INSERT
  5
7DEB
330
7B89
100
AcDbEntity
  8
3
  6
Continuous
 62
     0
440
 16777216
100
AcDbBlockReference
  2
_OPEN
 10
412.9451195763542
 20
857.1958450535822
 30
0.0
 41
20.0
 42
20.0
 43
20.0
 50
270.0
  0
MTEXT
  5
7DEC
330
7B89
100
AcDbEntity
  8
3
  6
Continuous
 62
     0
440
 16777216
100
AcDbMText
 10
387.9451195763542
 20
966.6105600535823
 30
0.0
 40
30.0
 41
0.0
 46
0.0
 71
     5
 72
     5
  1
\A1;211
 11
0.0000000000000001
 21
1.0
 31
0.0
 73
     1
 44
1.0
  0
POINT
  5
7DED
330
7B89
100
AcDbEntity
  8
DEFPOINTS
  6
Continuous
 62
     0
440
 16777216
100
AcDbPoint
 10
530.0913015763542
 20
1068.195845053582
 30
0.0
  0
POINT
  5
7DEE
330
7B89
100
AcDbEntity
  8
DEFPOINTS
  6
Continuous
 62
     0
440
 16777216
100
AcDbPoint
 10
545.0913015763542
 20
857.1958450535822
 30
0.0
  0
POINT
  5
7DEF
330
7B89
100
AcDbEntity
  8
DEFPOINTS
  6
Continuous
 62
     0
440
 16777216
100
AcDbPoint
 10
412.9451195763542
 20
857.1958450535822
 30
0.0
  0
ENDBLK
  5
7B94
330
7B89
100
AcDbEntity
  8
0
100
AcDbBlockEnd
  0
BLOCK
  5
7B97
330
7B96
100
AcDbEntity
  8
0
100
AcDbBlockBegin
  2
*D7
 70
     1
 10
0.0
 20
0.0
 30
0.0
  3
*D7
  1

  0
LINE
  5
7DF0
330
7B96
100
AcDbEntity
  8
3
  6
Continuous
 62
     0
440
 16777216
100
AcDbLine
 10
685.091301576354
 20
1218.763034053582
 30
0.0
 11
342.7390695763544
 21
1218.763034053582
 31
0.0
  0
LINE
  5
7DF1
330
7B96
100
AcDbEntity
  8
3
  6
Continuous
 62
     0
440
 16777216
100
AcDbLine
 10
525.0913015763542
 20
1068.195845053582
 30
0.0
 11
342.7390695763543
 21
1068.195845053582
 31
0.0
  0
LINE
  5
7DF2
330
7B96
100
AcDbEntity
  8
3
  6
Continuous
 62
     0
440
 16777216
100
AcDbLine
 10
352.7390695763544
 20
1198.763034053582
 30
0.0
 11
352.7390695763543
 21
1088.195845053582
 31
0.0
  0
INSERT
  5
7DF3
330
7B96
100
AcDbEntity
  8
3
  6
Continuous
 62
     0
440
 16777216
100
AcDbBlockReference
  2
_OPEN
 10
352.7390695763544
 20
1218.763034053582
 30
0.0
 41
20.0
 42
20.0
 43
20.0
 50
90.0
  0
INSERT
  5
7DF4
330
7B96
100
AcDbEntity
  8
3
  6
Continuous
 62
     0
440
 16777216
100
AcDbBlockReference
  2
_OPEN
 10
352.7390695763543
 20
1068.195845053582
 30
0.0
 41
20.0
 42
20.0
 43
20.0
 50
270.0
  0
MTEXT
  5
7DF5
330
7B96
100
AcDbEntity
  8
3
  6
Continuous
 62
     0
440
 16777216
100
AcDbMText
 10
327.7390695763541
 20
1159.477319053582
 30
0.0
 40
30.0
 41
0.0
 46
0.0
 71
     5
 72
     5
  1
\A1;151
 11
0.0000000000000001
 21
1.0
 31
0.0
 73
     1
 44
1.0
  0
POINT
  5
7DF6
330
7B96
100
AcDbEntity
  8
DEFPOINTS
  6
Continuous
 62
     0
440
 16777216
100
AcDbPoint
 10
690.0913015763541
 20
1218.763034053582
 30
0.0
  0
POINT
  5
7DF7
330
7B96
100
AcDbEntity
  8
DEFPOINTS
  6
Continuous
 62
     0
440
 16777216
100
AcDbPoint
 10
530.0913015763542
 20
1068.195845053582
 30
0.0
  0
POINT
  5
7DF8
330
7B96
100
AcDbEntity
  8
DEFPOINTS
  6
Continuous
 62
     0
440
 16777216
100
AcDbPoint
 10
352.7390695763543
 20
1068.195845053582
 30
0.0
  0
ENDBLK
  5
7BA1
330
7B96
100
AcDbEntity
  8
0
100
AcDbBlockEnd
  0
BLOCK
  5
7BA4
330
7BA3
100
AcDbEntity
  8
0
100
AcDbBlockBegin
  2
*D8
 70
     1
 10
0.0
 20
0.0
 30
0.0
  3
*D8
  1

  0
LINE
  5
7DF9
330
7BA3
100
AcDbEntity
  8
3
  6
Continuous
 62
     0
440
 16777216
100
AcDbLine
 10
525.0913015763542
 20
793.1958450535822
 30
0.0
 11
342.7390695763542
 21
793.1958450535822
 31
0.0
  0
LINE
  5
7DFA
330
7BA3
100
AcDbEntity
  8
3
  6
Continuous
 62
     0
440
 16777216
100
AcDbLine
 10
352.7390695763542
 20
1048.195845053582
 30
0.0
 11
352.7390695763541
 21
813.1958450535822
 31
0.0
  0
INSERT
  5
7DFB
330
7BA3
100
AcDbEntity
  8
3
  6
Continuous
 62
     0
440
 16777216
100
AcDbBlockReference
  2
_OPEN
 10
352.7390695763542
 20
1068.195845053582
 30
0.0
 41
20.0
 42
20.0
 43
20.0
 50
90.0
  0
INSERT
  5
7DFC
330
7BA3
100
AcDbEntity
  8
3
  6
Continuous
 62
     0
440
 16777216
100
AcDbBlockReference
  2
_OPEN
 10
352.7390695763541
 20
793.1958450535822
 30
0.0
 41
20.0
 42
20.0
 43
20.0
 50
270.0
  0
MTEXT
  5
7DFD
330
7BA3
100
AcDbEntity
  8
3
  6
Continuous
 62
     0
440
 16777216
100
AcDbMText
 10
327.7390695763541
 20
930.6958450535823
 30
0.0
 40
30.0
 41
0.0
 46
0.0
 71
     5
 72
     5
  1
\A1;275
 11
0.0000000000000001
 21
1.0
 31
0.0
 73
     1
 44
1.0
  0
POINT
  5
7DFE
330
7BA3
100
AcDbEntity
  8
DEFPOINTS
  6
Continuous
 62
     0
440
 16777216
100
AcDbPoint
 10
530.0913015763542
 20
1068.195845053582
 30
0.0
  0
POINT
  5
7DFF
330
7BA3
100
AcDbEntity
  8
DEFPOINTS
  6
Continuous
 62
     0
440
 16777216
100
AcDbPoint
 10
530.0913015763542
 20
793.1958450535822
 30
0.0
  0
POINT
  5
7E00
330
7BA3
100
AcDbEntity
  8
DEFPOINTS
  6
Continuous
 62
     0
440
 16777216
100
AcDbPoint
 10
352.7390695763541
 20
793.1958450535822
 30
0.0
  0
ENDBLK
  5
7BAD
330
7BA3
100
AcDbEntity
  8
0
100
AcDbBlockEnd
  0
BLOCK
  5
7C10
330
7C0F
100
AcDbEntity
  8
0
100
AcDbBlockBegin
  2
*D9
 70
     1
 10
0.0
 20
0.0
 30
0.0
  3
*D9
  1

  0
LINE
  5
7E01
330
7C0F
100
AcDbEntity
  8
3
  6
Continuous
 62
     0
440
 16777216
100
AcDbLine
 10
505.0913015763542
 20
1736.050829874107
 30
0.0
 11
505.0913015763542
 21
1618.416783874107
 31
0.0
  0
LINE
  5
7E02
330
7C0F
100
AcDbEntity
  8
3
  6
Continuous
 62
     0
440
 16777216
100
AcDbLine
 10
1185.091301576354
 20
1736.050829874107
 30
0.0
 11
1185.091301576354
 21
1618.416783874107
 31
0.0
  0
LINE
  5
7E03
330
7C0F
100
AcDbEntity
  8
3
  6
Continuous
 62
     0
440
 16777216
100
AcDbLine
 10
525.0913015763542
 20
1628.416783874107
 30
0.0
 11
1165.091301576354
 21
1628.416783874107
 31
0.0
  0
INSERT
  5
7E04
330
7C0F
100
AcDbEntity
  8
3
  6
Continuous
 62
     0
440
 16777216
100
AcDbBlockReference
  2
_OPEN
 10
505.0913015763542
 20
1628.416783874107
 30
0.0
 41
20.0
 42
20.0
 43
20.0
 50
180.0
  0
INSERT
  5
7E05
330
7C0F
100
AcDbEntity
  8
3
  6
Continuous
 62
     0
440
 16777216
100
AcDbBlockReference
  2
_OPEN
 10
1185.091301576354
 20
1628.416783874107
 30
0.0
 41
20.0
 42
20.0
 43
20.0
  0
MTEXT
  5
7E06
330
7C0F
100
AcDbEntity
  8
3
  6
Continuous
 62
     0
440
 16777216
100
AcDbMText
 10
831.6508035763542
 20
1653.416783874108
 30
0.0
 40
30.0
 41
0.0
 46
0.0
 71
     5
 72
     5
  1
\A1;680
 73
     1
 44
1.0
  0
POINT
  5
7E07
330
7C0F
100
AcDbEntity
  8
DEFPOINTS
  6
Continuous
 62
     0
440
 16777216
100
AcDbPoint
 10
505.0913015763542
 20
1741.050829874108
 30
0.0
  0
POINT
  5
7E08
330
7C0F
100
AcDbEntity
  8
DEFPOINTS
  6
Continuous
 62
     0
440
 16777216
100
AcDbPoint
 10
1185.091301576354
 20
1741.050829874108
 30
0.0
  0
POINT
  5
7E09
330
7C0F
100
AcDbEntity
  8
DEFPOINTS
  6
Continuous
 62
     0
440
 16777216
100
AcDbPoint
 10
1185.091301576354
 20
1628.416783874107
 30
0.0
  0
ENDBLK
  5
7C1A
330
7C0F
100
AcDbEntity
  8
0
100
AcDbBlockEnd
  0
BLOCK
  5
7C1D
330
7C1C
100
AcDbEntity
  8
0
100
AcDbBlockBegin
  2
*D10
 70
     1
 10
0.0
 20
0.0
 30
0.0
  3
*D10
  1

  0
LINE
  5
7E0A
330
7C1C
100
AcDbEntity
  8
3
  6
Continuous
 62
     0
440
 16777216
100
AcDbLine
 10
1190.091301576354
 20
2171.050829874108
 30
0.0
 11
1290.459524576354
 21
2171.050829874108
 31
0.0
  0
LINE
  5
7E0B
330
7C1C
100
AcDbEntity
  8
3
  6
Continuous
 62
     0
440
 16777216
100
AcDbLine
 10
1190.091301576354
 20
1741.050829874108
 30
0.0
 11
1290.459524576354
 21
1741.050829874108
 31
0.0
  0
LINE
  5
7E0C
330
7C1C
100
AcDbEntity
  8
3
  6
Continuous
 62
     0
440
 16777216
100
AcDbLine
 10
1280.459524576354
 20
2151.050829874108
 30
0.0
 11
1280.459524576354
 21
1761.050829874108
 31
0.0
  0
INSERT
  5
7E0D
330
7C1C
100
AcDbEntity
  8
3
  6
Continuous
 62
     0
440
 16777216
100
AcDbBlockReference
  2
_OPEN
 10
1280.459524576354
 20
2171.050829874108
 30
0.0
 41
20.0
 42
20.0
 43
20.0
 50
90.0
  0
INSERT
  5
7E0E
330
7C1C
100
AcDbEntity
  8
3
  6
Continuous
 62
     0
440
 16777216
100
AcDbBlockReference
  2
_OPEN
 10
1280.459524576354
 20
1741.050829874108
 30
0.0
 41
20.0
 42
20.0
 43
20.0
 50
270.0
  0
MTEXT
  5
7E0F
330
7C1C
100
AcDbEntity
  8
3
  6
Continuous
 62
     0
440
 16777216
100
AcDbMText
 10
1255.459524576354
 20
1945.549961874107
 30
0.0
 40
30.0
 41
0.0
 46
0.0
 71
     5
 72
     5
  1
\A1;430
 11
0.0000000000000001
 21
1.0
 31
0.0
 73
     1
 44
1.0
  0
POINT
  5
7E10
330
7C1C
100
AcDbEntity
  8
DEFPOINTS
  6
Continuous
 62
     0
440
 16777216
100
AcDbPoint
 10
1185.091301576354
 20
2171.050829874108
 30
0.0
  0
POINT
  5
7E11
330
7C1C
100
AcDbEntity
  8
DEFPOINTS
  6
Continuous
 62
     0
440
 16777216
100
AcDbPoint
 10
1185.091301576354
 20
1741.050829874108
 30
0.0
  0
POINT
  5
7E12
330
7C1C
100
AcDbEntity
  8
DEFPOINTS
  6
Continuous
 62
     0
440
 16777216
100
AcDbPoint
 10
1280.459524576354
 20
1741.050829874108
 30
0.0
  0
ENDBLK
  5
7C27
330
7C1C
100
AcDbEntity
  8
0
100
AcDbBlockEnd
  0
BLOCK
  5
7C2F
330
7C2E
100
AcDbEntity
  8
0
100
AcDbBlockBegin
  2
*D11
 70
     1
 10
0.0
 20
0.0
 30
0.0
  3
*D11
  1

  0
LINE
  5
7E13
330
7C2E
100
AcDbEntity
  8
3
  6
Continuous
 62
     0
440
 16777216
100
AcDbLine
 10
1591.151083118181
 20
1212.195845053582
 30
0.0
 11
1591.151083118181
 21
1274.966443053582
 31
0.0
  0
LINE
  5
7E14
330
7C2E
100
AcDbEntity
  8
3
  6
Continuous
 62
     0
440
 16777216
100
AcDbLine
 10
1731.151083118181
 20
1212.195845053582
 30
0.0
 11
1731.151083118181
 21
1274.966443053582
 31
0.0
  0
LINE
  5
7E15
330
7C2E
100
AcDbEntity
  8
3
  6
Continuous
 62
     0
440
 16777216
100
AcDbLine
 10
1611.151083118181
 20
1264.966443053582
 30
0.0
 11
1711.151083118181
 21
1264.966443053582
 31
0.0
  0
INSERT
  5
7E16
330
7C2E
100
AcDbEntity
  8
3
  6
Continuous
 62
     0
440
 16777216
100
AcDbBlockReference
  2
_OPEN
 10
1591.151083118181
 20
1264.966443053582
 30
0.0
 41
20.0
 42
20.0
 43
20.0
 50
180.0
  0
INSERT
  5
7E17
330
7C2E
100
AcDbEntity
  8
3
  6
Continuous
 62
     0
440
 16777216
100
AcDbBlockReference
  2
_OPEN
 10
1731.151083118181
 20
1264.966443053582
 30
0.0
 41
20.0
 42
20.0
 43
20.0
  0
MTEXT
  5
7E18
330
7C2E
100
AcDbEntity
  8
3
  6
Continuous
 62
     0
440
 16777216
100
AcDbMText
 10
1656.865369118181
 20
1289.966443053582
 30
0.0
 40
30.0
 41
0.0
 46
0.0
 71
     5
 72
     5
  1
\A1;140
 73
     1
 44
1.0
  0
POINT
  5
7E19
330
7C2E
100
AcDbEntity
  8
DEFPOINTS
  6
Continuous
 62
     0
440
 16777216
100
AcDbPoint
 10
1591.151083118181
 20
1207.195845053582
 30
0.0
  0
POINT
  5
7E1A
330
7C2E
100
AcDbEntity
  8
DEFPOINTS
  6
Continuous
 62
     0
440
 16777216
100
AcDbPoint
 10
1731.151083118181
 20
1207.195845053582
 30
0.0
  0
POINT
  5
7E1B
330
7C2E
100
AcDbEntity
  8
DEFPOINTS
  6
Continuous
 62
     0
440
 16777216
100
AcDbPoint
 10
1731.151083118181
 20
1264.966443053582
 30
0.0
  0
ENDBLK
  5
7C39
330
7C2E
100
AcDbEntity
  8
0
100
AcDbBlockEnd
  0
BLOCK
  5
7CCA
330
7C3B
100
AcDbEntity
  8
0
100
AcDbBlockBegin
  2
*D12
 70
     1
 10
0.0
 20
0.0
 30
0.0
  3
*D12
  1

  0
LINE
  5
7F46
330
7C3B
100
AcDbEntity
  8
3
  6
Continuous
 62
     0
440
 16777216
370
    -2
100
AcDbLine
 10
1361.151083118181
 20
1183.195845053582
 30
0.0
 11
1361.151083118181
 21
1333.289789053582
 31
0.0
  0
LINE
  5
7F47
330
7C3B
100
AcDbEntity
  8
3
  6
Continuous
 62
     0
440
 16777216
370
    -2
100
AcDbLine
 10
1661.151083118181
 20
1313.769427053582
 30
0.0
 11
1661.151083118181
 21
1333.289789053582
 31
0.0
  0
LINE
  5
7F48
330
7C3B
100
AcDbEntity
  8
3
  6
Continuous
 62
     0
440
 16777216
370
    -2
100
AcDbLine
 10
1381.151083118181
 20
1323.289789053582
 30
0.0
 11
1641.151083118181
 21
1323.289789053582
 31
0.0
  0
INSERT
  5
7F49
330
7C3B
100
AcDbEntity
  8
3
  6
Continuous
 62
     0
440
 16777216
370
    -2
100
AcDbBlockReference
  2
_OPEN
 10
1361.151083118181
 20
1323.289789053582
 30
0.0
 41
20.0
 42
20.0
 43
20.0
 50
180.0
  0
INSERT
  5
7F4A
330
7C3B
100
AcDbEntity
  8
3
  6
Continuous
 62
     0
440
 16777216
370
    -2
100
AcDbBlockReference
  2
_OPEN
 10
1661.151083118181
 20
1323.289789053582
 30
0.0
 41
20.0
 42
20.0
 43
20.0
  0
MTEXT
  5
7F4B
330
7C3B
100
AcDbEntity
  8
3
  6
Continuous
 62
     0
440
 16777216
100
AcDbMText
 10
1513.814050118181
 20
1356.146931910725
 30
0.0
 40
30.0
 41
0.0
 46
0.0
 71
     5
 72
     1
  1
\A1;(300)
 73
     1
 44
1.0
  0
POINT
  5
7F4C
330
7C3B
100
AcDbEntity
  8
DEFPOINTS
  6
Continuous
 62
     0
440
 16777216
100
AcDbPoint
 10
1361.151083118181
 20
1178.195845053582
 30
0.0
  0
POINT
  5
7F4D
330
7C3B
100
AcDbEntity
  8
DEFPOINTS
  6
Continuous
 62
     0
440
 16777216
100
AcDbPoint
 10
1661.151083118181
 20
1308.769427053582
 30
0.0
  0
POINT
  5
7F4E
330
7C3B
100
AcDbEntity
  8
DEFPOINTS
  6
Continuous
 62
     0
440
 16777216
100
AcDbPoint
 10
1661.151083118181
 20
1323.289789053582
 30
0.0
  0
ENDBLK
  5
7CD4
330
7C3B
100
AcDbEntity
  8
0
100
AcDbBlockEnd
  0
BLOCK
  5
7CB1
330
7C48
100
AcDbEntity
  8
0
100
AcDbBlockBegin
  2
*D13
 70
     1
 10
0.0
 20
0.0
 30
0.0
  3
*D13
  1

  0
LINE
  5
7E25
330
7C48
100
AcDbEntity
  8
3
  6
Continuous
 62
     0
440
 16777216
100
AcDbLine
 10
1739.151083118181
 20
1193.195845053582
 30
0.0
 11
1739.151083118181
 21
1333.289789053582
 31
0.0
  0
LINE
  5
7E26
330
7C48
100
AcDbEntity
  8
3
  6
Continuous
 62
     0
440
 16777216
100
AcDbLine
 10
1681.151083118181
 20
1323.289789053582
 30
0.0
 11
1719.151083118181
 21
1323.289789053582
 31
0.0
  0
MTEXT
  5
7E27
330
7C48
100
AcDbEntity
  8
3
  6
Continuous
 62
     0
440
 16777216
100
AcDbMText
 10
1696.777867118181
 20
1348.495521053582
 30
0.0
 40
30.0
 41
0.0
 46
0.0
 71
     5
 72
     5
  1
\A1;78
 73
     1
 44
1.0
  0
INSERT
  5
7E28
330
7C48
100
AcDbEntity
  8
3
  6
Continuous
 62
     0
440
 16777216
100
AcDbBlockReference
  2
_OPEN
 10
1661.151083118181
 20
1323.289789053582
 30
0.0
 41
20.0
 42
20.0
 43
20.0
 50
180.0
  0
INSERT
  5
7E29
330
7C48
100
AcDbEntity
  8
3
  6
Continuous
 62
     0
440
 16777216
100
AcDbBlockReference
  2
_OPEN
 10
1739.151083118181
 20
1323.289789053582
 30
0.0
 41
20.0
 42
20.0
 43
20.0
  0
POINT
  5
7E2A
330
7C48
100
AcDbEntity
  8
DEFPOINTS
  6
Continuous
 62
     0
440
 16777216
100
AcDbPoint
 10
1661.151083118181
 20
1308.769427053582
 30
0.0
  0
POINT
  5
7E2B
330
7C48
100
AcDbEntity
  8
DEFPOINTS
  6
Continuous
 62
     0
440
 16777216
100
AcDbPoint
 10
1739.151083118181
 20
1188.195845053582
 30
0.0
  0
POINT
  5
7E2C
330
7C48
100
AcDbEntity
  8
DEFPOINTS
  6
Continuous
 62
     0
440
 16777216
100
AcDbPoint
 10
1739.151083118181
 20
1323.289789053582
 30
0.0
  0
ENDBLK
  5
7CBA
330
7C48
100
AcDbEntity
  8
0
100
AcDbBlockEnd
  0
BLOCK
  5
7C6D
330
7C6C
100
AcDbEntity
  8
0
100
AcDbBlockBegin
  2
*D14
 70
     1
 10
0.0
 20
0.0
 30
0.0
  3
*D14
  1

  0
LINE
  5
7EE0
330
7C6C
100
AcDbEntity
  8
3
  6
Continuous
 62
     0
440
 16777216
370
    -2
100
AcDbLine
 10
1363.151083118181
 20
668.1958450535822
 30
0.0
 11
1363.151083118181
 21
598.0172490535823
 31
0.0
  0
LINE
  5
7EE1
330
7C6C
100
AcDbEntity
  8
3
  6
Continuous
 62
     0
440
 16777216
370
    -2
100
AcDbLine
 10
1661.151083118181
 20
668.1958450535822
 30
0.0
 11
1661.151083118181
 21
598.0172490535823
 31
0.0
  0
LINE
  5
7EE2
330
7C6C
100
AcDbEntity
  8
3
  6
Continuous
 62
     0
440
 16777216
370
    -2
100
AcDbLine
 10
1383.151083118181
 20
608.0172490535822
 30
0.0
 11
1641.151083118181
 21
608.0172490535822
 31
0.0
  0
INSERT
  5
7EE3
330
7C6C
100
AcDbEntity
  8
3
  6
Continuous
 62
     0
440
 16777216
370
    -2
100
AcDbBlockReference
  2
_OPEN
 10
1363.151083118181
 20
608.0172490535822
 30
0.0
 41
20.0
 42
20.0
 43
20.0
 50
180.0
  0
INSERT
  5
7EE4
330
7C6C
100
AcDbEntity
  8
3
  6
Continuous
 62
     0
440
 16777216
370
    -2
100
AcDbBlockReference
  2
_OPEN
 10
1661.151083118181
 20
608.0172490535822
 30
0.0
 41
20.0
 42
20.0
 43
20.0
  0
MTEXT
  5
7EE5
330
7C6C
100
AcDbEntity
  8
3
  6
Continuous
 62
     0
440
 16777216
100
AcDbMText
 10
1511.833860118181
 20
633.0172490535822
 30
0.0
 40
30.0
 41
0.0
 46
0.0
 71
     5
 72
     1
  1
\A1;298
 73
     1
 44
1.0
  0
POINT
  5
7EE6
330
7C6C
100
AcDbEntity
  8
DEFPOINTS
  6
Continuous
 62
     0
440
 16777216
100
AcDbPoint
 10
1363.151083118181
 20
673.1958450535822
 30
0.0
  0
POINT
  5
7EE7
330
7C6C
100
AcDbEntity
  8
DEFPOINTS
  6
Continuous
 62
     0
440
 16777216
100
AcDbPoint
 10
1661.151083118181
 20
673.1958450535822
 30
0.0
  0
POINT
  5
7EE8
330
7C6C
100
AcDbEntity
  8
DEFPOINTS
  6
Continuous
 62
     0
440
 16777216
100
AcDbPoint
 10
1661.151083118181
 20
608.0172490535822
 30
0.0
  0
ENDBLK
  5
7C77
330
7C6C
100
AcDbEntity
  8
0
100
AcDbBlockEnd
  0
BLOCK
  5
7C7A
330
7C79
100
AcDbEntity
  8
0
100
AcDbBlockBegin
  2
*D15
 70
     1
 10
0.0
 20
0.0
 30
0.0
  3
*D15
  1

  0
LINE
  5
7EE9
330
7C79
100
AcDbEntity
  8
3
  6
Continuous
 62
     0
440
 16777216
370
    -2
100
AcDbLine
 10
1793.151083118181
 20
668.1958450535822
 30
0.0
 11
1793.151083118181
 21
598.0172490535823
 31
0.0
  0
LINE
  5
7EEA
330
7C79
100
AcDbEntity
  8
3
  6
Continuous
 62
     0
440
 16777216
370
    -2
100
AcDbLine
 10
1681.151083118181
 20
608.0172490535822
 30
0.0
 11
1773.151083118181
 21
608.0172490535822
 31
0.0
  0
INSERT
  5
7EEB
330
7C79
100
AcDbEntity
  8
3
  6
Continuous
 62
     0
440
 16777216
370
    -2
100
AcDbBlockReference
  2
_OPEN
 10
1661.151083118181
 20
608.0172490535822
 30
0.0
 41
20.0
 42
20.0
 43
20.0
 50
180.0
  0
INSERT
  5
7EEC
330
7C79
100
AcDbEntity
  8
3
  6
Continuous
 62
     0
440
 16777216
370
    -2
100
AcDbBlockReference
  2
_OPEN
 10
1793.151083118181
 20
608.0172490535822
 30
0.0
 41
20.0
 42
20.0
 43
20.0
  0
MTEXT
  5
7EED
330
7C79
100
AcDbEntity
  8
3
  6
Continuous
 62
     0
440
 16777216
100
AcDbMText
 10
1727.151083118181
 20
633.0172490535822
 30
0.0
 40
30.0
 41
0.0
 46
0.0
 71
     5
 72
     1
  1
\A1;132
 73
     1
 44
1.0
  0
POINT
  5
7EEE
330
7C79
100
AcDbEntity
  8
DEFPOINTS
  6
Continuous
 62
     0
440
 16777216
100
AcDbPoint
 10
1661.151083118181
 20
673.1958450535822
 30
0.0
  0
POINT
  5
7EEF
330
7C79
100
AcDbEntity
  8
DEFPOINTS
  6
Continuous
 62
     0
440
 16777216
100
AcDbPoint
 10
1793.151083118181
 20
673.1958450535822
 30
0.0
  0
POINT
  5
7EF0
330
7C79
100
AcDbEntity
  8
DEFPOINTS
  6
Continuous
 62
     0
440
 16777216
100
AcDbPoint
 10
1793.151083118181
 20
608.0172490535822
 30
0.0
  0
ENDBLK
  5
7C83
330
7C79
100
AcDbEntity
  8
0
100
AcDbBlockEnd
  0
BLOCK
  5
7CD5
330
7C89
100
AcDbEntity
  8
0
100
AcDbBlockBegin
  2
*D16
 70
     1
 10
0.0
 20
0.0
 30
0.0
  3
*D16
  1

  0
LINE
  5
7E3E
330
7C89
100
AcDbEntity
  8
3
  6
Continuous
 62
     0
440
 16777216
100
AcDbLine
 10
1744.151083118181
 20
1168.195845053582
 30
0.0
 11
1821.039696118181
 21
1168.195845053582
 31
0.0
  0
LINE
  5
7E3F
330
7C89
100
AcDbEntity
  8
3
  6
Continuous
 62
     0
440
 16777216
100
AcDbLine
 10
1744.151083118181
 20
968.1958450535821
 30
0.0
 11
1821.039696118181
 21
968.195845053582
 31
0.0
  0
LINE
  5
7E40
330
7C89
100
AcDbEntity
  8
3
  6
Continuous
 62
     0
440
 16777216
100
AcDbLine
 10
1811.039696118181
 20
1148.195845053582
 30
0.0
 11
1811.039696118181
 21
988.1958450535821
 31
0.0
  0
INSERT
  5
7E41
330
7C89
100
AcDbEntity
  8
3
  6
Continuous
 62
     0
440
 16777216
100
AcDbBlockReference
  2
_OPEN
 10
1811.039696118181
 20
1168.195845053582
 30
0.0
 41
20.0
 42
20.0
 43
20.0
 50
90.0
  0
INSERT
  5
7E42
330
7C89
100
AcDbEntity
  8
3
  6
Continuous
 62
     0
440
 16777216
100
AcDbBlockReference
  2
_OPEN
 10
1811.039696118181
 20
968.195845053582
 30
0.0
 41
20.0
 42
20.0
 43
20.0
 50
270.0
  0
MTEXT
  5
7E43
330
7C89
100
AcDbEntity
  8
3
  6
Continuous
 62
     0
440
 16777216
100
AcDbMText
 10
1786.039696118181
 20
1065.733602053582
 30
0.0
 40
30.0
 41
0.0
 46
0.0
 71
     5
 72
     5
  1
\A1;φ200
 11
0.0000000000000001
 21
1.0
 31
0.0
 73
     1
 44
1.0
  0
POINT
  5
7E44
330
7C89
100
AcDbEntity
  8
DEFPOINTS
  6
Continuous
 62
     0
440
 16777216
100
AcDbPoint
 10
1739.151083118181
 20
1168.195845053582
 30
0.0
  0
POINT
  5
7E45
330
7C89
100
AcDbEntity
  8
DEFPOINTS
  6
Continuous
 62
     0
440
 16777216
100
AcDbPoint
 10
1739.151083118181
 20
968.1958450535821
 30
0.0
  0
POINT
  5
7E46
330
7C89
100
AcDbEntity
  8
DEFPOINTS
  6
Continuous
 62
     0
440
 16777216
100
AcDbPoint
 10
1811.039696118181
 20
968.195845053582
 30
0.0
  0
ENDBLK
  5
7CDF
330
7C89
100
AcDbEntity
  8
0
100
AcDbBlockEnd
  0
BLOCK
  5
7D0F
330
7D0E
100
AcDbEntity
  8
0
100
AcDbBlockBegin
  2
_DOT
 70
     0
 10
0.0
 20
0.0
 30
0.0
  3
_DOT
  1

  0
LINE
  5
7D2F
330
7D0E
100
AcDbEntity
  8
0
  6
ByBlock
 62
     0
100
AcDbLine
 10
0.0
 20
0.0
 30
0.0
 11
-1.0
 21
-0.0000000000000284
 31
0.0
  0
LWPOLYLINE
  5
7D30
330
7D0E
100
AcDbEntity
  8
0
  6
ByBlock
 62
     0
100
AcDbPolyline
 90
        2
 70
     1
 43
0.1666666666666666
 10
-0.0833333333333286
 20
-0.0000000000000284
 42
1.0
 10
0.0833333333333286
 20
-0.0000000000000284
 42
1.0
  0
ENDBLK
  5
7D15
330
7D0E
100
AcDbEntity
  8
0
100
AcDbBlockEnd
  0
BLOCK
  5
7D4C
330
7D4B
100
AcDbEntity
  8
0
100
AcDbBlockBegin
  2
*D18
 70
     1
 10
0.0
 20
0.0
 30
0.0
  3
*D18
  1

  0
LINE
  5
7EF1
330
7D4B
100
AcDbEntity
  8
3
 62
     0
440
 16777216
370
    -2
100
AcDbLine
 10
500.0913015763542
 20
723.1958450535822
 30
0.0
 11
343.0729823480906
 21
723.1958450535822
 31
0.0
  0
LINE
  5
7EF2
330
7D4B
100
AcDbEntity
  8
3
 62
     0
440
 16777216
370
    -2
100
AcDbLine
 10
500.0913015763542
 20
673.1958450535822
 30
0.0
 11
343.0729823480906
 21
673.1958450535822
 31
0.0
  0
LINE
  5
7EF3
330
7D4B
100
AcDbEntity
  8
3
 62
     0
440
 16777216
370
    -2
100
AcDbLine
 10
353.0729823480906
 20
743.1958450535822
 30
0.0
 11
353.0729823480906
 21
763.1958450535822
 31
0.0
  0
LINE
  5
7EF4
330
7D4B
100
AcDbEntity
  8
3
 62
     0
440
 16777216
370
    -2
100
AcDbLine
 10
353.0729823480906
 20
653.1958450535823
 30
0.0
 11
353.0729823480905
 21
564.6244164821538
 31
0.0
  0
LINE
  5
7EF5
330
7D4B
100
AcDbEntity
  8
3
 62
     0
440
 16777216
370
    -2
100
AcDbLine
 10
353.0729823480906
 20
723.1958450535822
 30
0.0
 11
353.0729823480906
 21
673.1958450535822
 31
0.0
  0
INSERT
  5
7EF6
330
7D4B
100
AcDbEntity
  8
3
 62
     0
440
 16777216
370
    -2
100
AcDbBlockReference
  2
_DOT
 10
353.0729823480906
 20
723.1958450535822
 30
0.0
 41
20.0
 42
20.0
 43
20.0
 50
270.0
  0
INSERT
  5
7EF7
330
7D4B
100
AcDbEntity
  8
3
 62
     0
440
 16777216
370
    -2
100
AcDbBlockReference
  2
_OPEN
 10
353.0729823480906
 20
673.1958450535822
 30
0.0
 41
20.0
 42
20.0
 43
20.0
 50
90.0
  0
MTEXT
  5
7EF8
330
7D4B
100
AcDbEntity
  8
3
 62
     0
440
 16777216
100
AcDbMText
 10
328.0729823480905
 20
598.9101307678681
 30
0.0
 40
30.0
 41
0.0
 46
0.0
 71
     5
 72
     1
  1
\A1;50
 11
0.0000000000000001
 21
1.0
 31
0.0
 73
     1
 44
1.0
  0
POINT
  5
7EF9
330
7D4B
100
AcDbEntity
  8
DEFPOINTS
 62
     0
440
 16777216
100
AcDbPoint
 10
505.0913015763542
 20
723.1958450535822
 30
0.0
  0
POINT
  5
7EFA
330
7D4B
100
AcDbEntity
  8
DEFPOINTS
 62
     0
440
 16777216
100
AcDbPoint
 10
505.0913015763542
 20
673.1958450535822
 30
0.0
  0
POINT
  5
7EFB
330
7D4B
100
AcDbEntity
  8
DEFPOINTS
 62
     0
440
 16777216
100
AcDbPoint
 10
353.0729823480906
 20
673.1958450535822
 30
0.0
  0
ENDBLK
  5
7D58
330
7D4B
100
AcDbEntity
  8
0
100
AcDbBlockEnd
  0
BLOCK
  5
7D5B
330
7D5A
100
AcDbEntity
  8
0
100
AcDbBlockBegin
  2
*D19
 70
     1
 10
0.0
 20
0.0
 30
0.0
  3
*D19
  1

  0
LINE
  5
7F0E
330
7D5A
100
AcDbEntity
  8
3
 62
     0
440
 16777216
370
    -2
100
AcDbLine
 10
500.0913015763542
 20
723.1958450535822
 30
0.0
 11
343.0729823480906
 21
723.1958450535822
 31
0.0
  0
LINE
  5
7F0F
330
7D5A
100
AcDbEntity
  8
3
 62
     0
440
 16777216
370
    -2
100
AcDbLine
 10
525.0913015763542
 20
793.1958450535822
 30
0.0
 11
343.0729823480906
 21
793.1958450535822
 31
0.0
  0
LINE
  5
7F10
330
7D5A
100
AcDbEntity
  8
3
 62
     0
440
 16777216
370
    -2
100
AcDbLine
 10
353.0729823480906
 20
743.1958450535822
 30
0.0
 11
353.0729823480906
 21
773.1958450535822
 31
0.0
  0
MTEXT
  5
7F11
330
7D5A
100
AcDbEntity
  8
3
 62
     0
440
 16777216
100
AcDbMText
 10
319.2119834186506
 20
755.3779904000085
 30
0.0
 40
30.0
 41
0.0
 46
0.0
 71
     5
 72
     1
  1
\A1;(70)
 11
0.0000000000000001
 21
1.0
 31
0.0
 73
     1
 44
1.0
  0
INSERT
  5
7F12
330
7D5A
100
AcDbEntity
  8
3
 62
     0
440
 16777216
370
    -2
100
AcDbBlockReference
  2
_DOT
 10
353.0729823480906
 20
723.1958450535822
 30
0.0
 41
20.0
 42
20.0
 43
20.0
 50
270.0
  0
INSERT
  5
7F13
330
7D5A
100
AcDbEntity
  8
3
 62
     0
440
 16777216
370
    -2
100
AcDbBlockReference
  2
_OPEN
 10
353.0729823480906
 20
793.1958450535822
 30
0.0
 41
20.0
 42
20.0
 43
20.0
 50
90.0
  0
POINT
  5
7F14
330
7D5A
100
AcDbEntity
  8
DEFPOINTS
 62
     0
440
 16777216
100
AcDbPoint
 10
505.0913015763542
 20
723.1958450535822
 30
0.0
  0
POINT
  5
7F15
330
7D5A
100
AcDbEntity
  8
DEFPOINTS
 62
     0
440
 16777216
100
AcDbPoint
 10
530.0913015763542
 20
793.1958450535822
 30
0.0
  0
POINT
  5
7F16
330
7D5A
100
AcDbEntity
  8
DEFPOINTS
 62
     0
440
 16777216
100
AcDbPoint
 10
353.0729823480906
 20
793.1958450535822
 30
0.0
  0
ENDBLK
  5
7D65
330
7D5A
100
AcDbEntity
  8
0
100
AcDbBlockEnd
  0
BLOCK
  5
7D75
330
7D74
100
AcDbEntity
  8
0
100
AcDbBlockBegin
  2
*D20
 70
     1
 10
0.0
 20
0.0
 30
0.0
  3
*D20
  1

  0
LINE
  5
7F05
330
7D74
100
AcDbEntity
  8
3
 62
     0
440
 16777216
370
    -2
100
AcDbLine
 10
680.0913015763541
 20
1218.763034053582
 30
0.0
 11
244.7404973190607
 21
1218.763034053582
 31
0.0
  0
LINE
  5
7F06
330
7D74
100
AcDbEntity
  8
3
 62
     0
440
 16777216
370
    -2
100
AcDbLine
 10
500.0913015763542
 20
673.1958450535822
 30
0.0
 11
244.7404973190605
 21
673.1958450535824
 31
0.0
  0
LINE
  5
7F07
330
7D74
100
AcDbEntity
  8
3
 62
     0
440
 16777216
370
    -2
100
AcDbLine
 10
254.7404973190606
 20
1198.763034053582
 30
0.0
 11
254.7404973190605
 21
693.1958450535823
 31
0.0
  0
INSERT
  5
7F08
330
7D74
100
AcDbEntity
  8
3
 62
     0
440
 16777216
370
    -2
100
AcDbBlockReference
  2
_OPEN
 10
254.7404973190606
 20
1218.763034053582
 30
0.0
 41
20.0
 42
20.0
 43
20.0
 50
90.0
  0
INSERT
  5
7F09
330
7D74
100
AcDbEntity
  8
3
 62
     0
440
 16777216
370
    -2
100
AcDbBlockReference
  2
_OPEN
 10
254.7404973190605
 20
673.1958450535824
 30
0.0
 41
20.0
 42
20.0
 43
20.0
 50
270.0
  0
MTEXT
  5
7F0A
330
7D74
100
AcDbEntity
  8
3
 62
     0
440
 16777216
100
AcDbMText
 10
221.8833544619176
 20
945.9794395535825
 30
0.0
 40
30.0
 41
0.0
 46
0.0
 71
     5
 72
     1
  1
\A1;(546)
 11
0.0000000000000001
 21
1.0
 31
0.0
 73
     1
 44
1.0
  0
POINT
  5
7F0B
330
7D74
100
AcDbEntity
  8
DEFPOINTS
 62
     0
440
 16777216
100
AcDbPoint
 10
685.091301576354
 20
1218.763034053582
 30
0.0
  0
POINT
  5
7F0C
330
7D74
100
AcDbEntity
  8
DEFPOINTS
 62
     0
440
 16777216
100
AcDbPoint
 10
505.0913015763542
 20
673.1958450535822
 30
0.0
  0
POINT
  5
7F0D
330
7D74
100
AcDbEntity
  8
DEFPOINTS
 62
     0
440
 16777216
100
AcDbPoint
 10
254.7404973190605
 20
673.1958450535824
 30
0.0
  0
ENDBLK
  5
7D7F
330
7D74
100
AcDbEntity
  8
0
100
AcDbBlockEnd
  0
BLOCK
  5
7EBE
330
7EBD
100
AcDbEntity
  8
0
100
AcDbBlockBegin
  2
_CLOSED
 70
     0
 10
0.0
 20
0.0
 30
0.0
  3
_CLOSED
  1

  0
LINE
  5
7EBF
330
7EBD
100
AcDbEntity
  8
0
  6
ByBlock
 62
     0
100
AcDbLine
 10
-1.0
 20
0.1666666666666666
 30
0.0
 11
0.0
 21
0.0
 31
0.0
  0
LINE
  5
7EC0
330
7EBD
100
AcDbEntity
  8
0
  6
ByBlock
 62
     0
100
AcDbLine
 10
0.0
 20
0.0
 30
0.0
 11
-1.0
 21
-0.1666666666666666
 31
0.0
  0
LINE
  5
7EC1
330
7EBD
100
AcDbEntity
  8
0
  6
ByBlock
 62
     0
100
AcDbLine
 10
-1.0
 20
0.1666666666666666
 30
0.0
 11
-1.0
 21
-0.1666666666666666
 31
0.0
  0
ENDBLK
  5
7EC2
330
7EBD
100
AcDbEntity
  8
0
100
AcDbBlockEnd
  0
ENDSEC
  0
SECTION
  2
ENTITIES
  0
CIRCLE
  5
7A92
330
19
100
AcDbEntity
  8
1
  6
Continuous
100
AcDbCircle
 10
690.0913015763541
 20
1068.195845053582
 30
0.0
 40
120.0
  0
LINE
  5
7A93
330
19
100
AcDbEntity
  8
1
  6
Continuous
100
AcDbLine
 10
1185.091301576354
 20
698.1958450535822
 30
0.0
 11
505.0913015763542
 21
698.1958450535822
 31
0.0
  0
LINE
  5
7A94
330
19
100
AcDbEntity
  8
1
  6
Continuous
100
AcDbLine
 10
1185.091301576354
 20
723.1958450535822
 30
0.0
 11
505.0913015763542
 21
723.1958450535822
 31
0.0
  0
LINE
  5
7A95
330
19
100
AcDbEntity
  8
1
  6
Continuous
100
AcDbLine
 10
545.0913015763542
 20
857.1958450535822
 30
0.0
 11
674.0913015763541
 21
857.1958450535822
 31
0.0
  0
ARC
  5
7A96
330
19
100
AcDbEntity
  8
1
  6
Continuous
100
AcDbCircle
 10
701.0913015763541
 20
1079.195845053582
 30
0.0
 40
140.0
100
AcDbArc
 50
89.40000000000001
 51
180.4
  0
LINE
  5
7A97
330
19
100
AcDbEntity
  8
1
  6
Continuous
100
AcDbLine
 10
825.091301576354
 20
1101.495845053582
 30
0.0
 11
555.0913015763541
 21
1101.495845053582
 31
0.0
  0
LINE
  5
7A98
330
19
100
AcDbEntity
  8
1
  6
Continuous
100
AcDbLine
 10
638.491301576354
 20
1193.195845053582
 30
0.0
 11
555.0913015763541
 21
1121.895845053582
 31
0.0
  0
LINE
  5
7A99
330
19
100
AcDbEntity
  8
1
  6
Continuous
100
AcDbLine
 10
1160.091301576354
 20
793.1958450535822
 30
0.0
 11
530.0913015763542
 21
793.1958450535822
 31
0.0
  0
LINE
  5
7A9A
330
19
100
AcDbEntity
  8
1
  6
Continuous
100
AcDbLine
 10
1160.091301576354
 20
843.1958450535823
 30
0.0
 11
530.0913015763542
 21
843.1958450535823
 31
0.0
  0
LINE
  5
7A9B
330
19
100
AcDbEntity
  8
1
  6
Continuous
100
AcDbLine
 10
555.0913015763541
 20
843.1958450535823
 30
0.0
 11
555.0913015763541
 21
1121.895845053582
 31
0.0
  0
LINE
  5
7A9C
330
19
100
AcDbEntity
  8
1
  6
Continuous
100
AcDbLine
 10
505.0913015763542
 20
673.1958450535822
 30
0.0
 11
505.0913015763542
 21
723.1958450535822
 31
0.0
  0
LINE
  5
7A9D
330
19
100
AcDbEntity
  8
1
  6
Continuous
100
AcDbLine
 10
505.0913015763542
 20
673.1958450535822
 30
0.0
 11
530.0913015763542
 21
673.1958450535822
 31
0.0
  0
LINE
  5
7A9E
330
19
100
AcDbEntity
  8
1
  6
Continuous
100
AcDbLine
 10
530.0913015763542
 20
673.1958450535822
 30
0.0
 11
530.0913015763542
 21
698.1958450535822
 31
0.0
  0
LINE
  5
7A9F
330
19
100
AcDbEntity
  8
1
  6
Continuous
100
AcDbLine
 10
545.0913015763542
 20
1078.195845053582
 30
0.0
 11
561.0913015763541
 21
1078.195845053582
 31
0.0
  0
LINE
  5
7AA0
330
19
100
AcDbEntity
  8
1
  6
Continuous
100
AcDbLine
 10
530.0913015763542
 20
847.1958450535822
 30
0.0
 11
530.0913015763542
 21
1089.195845053582
 31
0.0
  0
LINE
  5
7AA1
330
19
100
AcDbEntity
  8
1
  6
Continuous
100
AcDbLine
 10
530.0913015763542
 20
1068.195845053582
 30
0.0
 11
545.0913015763542
 21
1068.195845053582
 31
0.0
  0
LINE
  5
7AA2
330
19
100
AcDbEntity
  8
1
  6
Continuous
100
AcDbLine
 10
530.0913015763542
 20
867.1958450535823
 30
0.0
 11
545.0913015763542
 21
882.1958450535822
 31
0.0
  0
LINE
  5
7AA3
330
19
100
AcDbEntity
  8
1
  6
Continuous
100
AcDbLine
 10
545.0913015763542
 20
882.1958450535822
 30
0.0
 11
545.0913015763542
 21
1054.195845053582
 31
0.0
  0
LINE
  5
7AA4
330
19
100
AcDbEntity
  8
1
  6
Continuous
100
AcDbLine
 10
530.0913015763542
 20
1069.195845053582
 30
0.0
 11
545.0913015763542
 21
1054.195845053582
 31
0.0
  0
LINE
  5
7AA5
330
19
100
AcDbEntity
  8
1
  6
Continuous
100
AcDbLine
 10
530.0913015763542
 20
868.1958450535823
 30
0.0
 11
545.0913015763542
 21
868.1958450535823
 31
0.0
  0
LINE
  5
7AA6
330
19
100
AcDbEntity
  8
1
  6
Continuous
100
AcDbLine
 10
545.0913015763542
 20
857.1958450535822
 30
0.0
 11
545.0913015763542
 21
868.1958450535823
 31
0.0
  0
LINE
  5
7AA7
330
19
100
AcDbEntity
  8
1
  6
Continuous
100
AcDbLine
 10
545.0913015763542
 20
1068.195845053582
 30
0.0
 11
545.0913015763542
 21
1078.195845053582
 31
0.0
  0
LINE
  5
7AA8
330
19
100
AcDbEntity
  8
1
  6
Continuous
100
AcDbLine
 10
530.0913015763542
 20
793.1958450535822
 30
0.0
 11
530.0913015763542
 21
843.1958450535823
 31
0.0
  0
LINE
  5
7AA9
330
19
100
AcDbEntity
  8
2
  6
CENTER
100
AcDbLine
 10
1025.291301576354
 20
944.2958450535822
 30
0.0
 11
955.2913015763543
 21
944.2958450535822
 31
0.0
  0
ARC
  5
7AAA
330
19
100
AcDbEntity
  8
1
  6
Continuous
100
AcDbCircle
 10
994.5913015763542
 20
943.8958450535821
 30
0.0
 40
85.0
100
AcDbArc
 50
324.7
 51
215.3
  0
CIRCLE
  5
7AAB
330
19
100
AcDbEntity
  8
1
  6
Continuous
100
AcDbCircle
 10
990.2913015763543
 20
944.2958450535822
 30
0.0
 40
35.0
  0
LINE
  5
7AAC
330
19
100
AcDbEntity
  8
1
  6
Continuous
100
AcDbLine
 10
1113.091301576354
 20
1178.195845053582
 30
0.0
 11
583.0913015763541
 21
1178.195845053582
 31
0.0
  0
LINE
  5
7AAD
330
19
100
AcDbEntity
  8
1
  6
Continuous
100
AcDbLine
 10
901.7913015763543
 20
863.8958450535822
 30
0.0
 11
1152.791301576354
 21
863.8958450535822
 31
0.0
  0
LINE
  5
7AAE
330
19
100
AcDbEntity
  8
1
  6
Continuous
100
AcDbLine
 10
711.2913015763541
 20
1113.495845053582
 30
0.0
 11
1005.091301576354
 21
975.9958450535823
 31
0.0
  0
CIRCLE
  5
7AAF
330
19
100
AcDbEntity
  8
1
  6
Continuous
100
AcDbCircle
 10
690.0913015763541
 20
1068.195845053582
 30
0.0
 40
100.0
  0
ARC
  5
7AB0
330
19
100
AcDbEntity
  8
1
  6
Continuous
100
AcDbCircle
 10
704.0913015763541
 20
1054.195845053582
 30
0.0
 40
165.0
100
AcDbArc
 50
359.7
 51
90.6
  0
LINE
  5
7AB1
330
19
100
AcDbEntity
  8
1
  6
Continuous
100
AcDbLine
 10
825.091301576354
 20
1121.895845053582
 30
0.0
 11
825.091301576354
 21
843.1958450535823
 31
0.0
  0
LINE
  5
7AB2
330
19
100
AcDbEntity
  8
1
  6
Continuous
100
AcDbLine
 10
583.0913015763541
 20
843.1958450535823
 30
0.0
 11
583.0913015763541
 21
1178.195845053582
 31
0.0
  0
LINE
  5
7AB3
330
19
100
AcDbEntity
  8
2
  6
CENTER
100
AcDbLine
 10
690.0913015763541
 20
698.1958450535822
 30
0.0
 11
690.0913015763541
 21
1237.244831053582
 31
0.0
  0
CIRCLE
  5
7AB4
330
19
100
AcDbEntity
  8
1
  6
Continuous
100
AcDbCircle
 10
690.0913015763541
 20
1068.195845053582
 30
0.0
 40
50.0
  0
ARC
  5
7AB5
330
19
100
AcDbEntity
  8
1
  6
Continuous
100
AcDbCircle
 10
674.0913015763541
 20
1052.195845053582
 30
0.0
 40
195.0
100
AcDbArc
 50
270.0
 51
0.3
  0
LINE
  5
7AB6
330
19
100
AcDbEntity
  8
1
  6
Continuous
100
AcDbLine
 10
673.1913015763541
 20
1021.195845053582
 30
0.0
 11
978.3913015763543
 21
911.3958450535823
 31
0.0
  0
LINE
  5
7AB7
330
19
100
AcDbEntity
  8
2
  6
CENTER
100
AcDbLine
 10
1749.419554118181
 20
1068.195845053582
 30
0.0
 11
1304.316796118181
 21
1068.195845053582
 31
0.0
  0
LINE
  5
7AB8
330
19
100
AcDbEntity
  8
1
  6
Continuous
100
AcDbLine
 10
917.0913015763542
 20
871.8958450535822
 30
0.0
 11
925.2913015763542
 21
894.6958450535822
 31
0.0
  0
LINE
  5
7AB9
330
19
100
AcDbEntity
  8
1
  6
Continuous
100
AcDbLine
 10
917.0913015763542
 20
863.8958450535822
 30
0.0
 11
917.0913015763542
 21
871.8958450535822
 31
0.0
  0
LINE
  5
7ABA
330
19
100
AcDbEntity
  8
1
  6
Continuous
100
AcDbLine
 10
901.7913015763543
 20
843.1958450535823
 30
0.0
 11
901.7913015763543
 21
863.8958450535822
 31
0.0
  0
LINE
  5
7ABB
330
19
100
AcDbEntity
  8
1
  6
Continuous
100
AcDbLine
 10
741.6913015763541
 20
1193.195845053582
 30
0.0
 11
825.091301576354
 21
1121.895845053582
 31
0.0
  0
LINE
  5
7ABC
330
19
100
AcDbEntity
  8
1
  6
Continuous
100
AcDbLine
 10
638.491301576354
 20
1193.195845053582
 30
0.0
 11
741.6913015763541
 21
1193.195845053582
 31
0.0
  0
LINE
  5
7ABD
330
19
100
AcDbEntity
  8
1
  6
Continuous
100
AcDbLine
 10
1113.091301576354
 20
843.1958450535823
 30
0.0
 11
1113.091301576354
 21
1178.195845053582
 31
0.0
  0
LINE
  5
7ABE
330
19
100
AcDbEntity
  8
1
  6
Continuous
100
AcDbLine
 10
1185.091301576354
 20
673.1958450535822
 30
0.0
 11
1160.091301576354
 21
673.1958450535822
 31
0.0
  0
LINE
  5
7ABF
330
19
100
AcDbEntity
  8
1
  6
Continuous
100
AcDbLine
 10
1160.091301576354
 20
673.1958450535822
 30
0.0
 11
1160.091301576354
 21
698.1958450535822
 31
0.0
  0
LINE
  5
7AC0
330
19
100
AcDbEntity
  8
2
  6
CENTER
100
AcDbLine
 10
990.2913015763543
 20
909.2958450535823
 30
0.0
 11
990.2913015763543
 21
979.2958450535822
 31
0.0
  0
LINE
  5
7AC1
330
19
100
AcDbEntity
  8
1
  6
Continuous
100
AcDbLine
 10
1072.091301576354
 20
863.8958450535822
 30
0.0
 11
1072.091301576354
 21
871.8958450535822
 31
0.0
  0
LINE
  5
7AC2
330
19
100
AcDbEntity
  8
1
  6
Continuous
100
AcDbLine
 10
1072.091301576354
 20
871.8958450535822
 30
0.0
 11
1063.991301576354
 21
894.6958450535822
 31
0.0
  0
LINE
  5
7AC3
330
19
100
AcDbEntity
  8
1
  6
Continuous
100
AcDbLine
 10
1152.791301576354
 20
863.8958450535822
 30
0.0
 11
1152.791301576354
 21
843.1958450535823
 31
0.0
  0
LINE
  5
7AC4
330
19
100
AcDbEntity
  8
1
  6
Continuous
100
AcDbLine
 10
1160.091301576354
 20
793.1958450535822
 30
0.0
 11
1160.091301576354
 21
843.1958450535823
 31
0.0
  0
LINE
  5
7AC5
330
19
100
AcDbEntity
  8
1
  6
Continuous
100
AcDbLine
 10
1185.091301576354
 20
673.1958450535822
 30
0.0
 11
1185.091301576354
 21
723.1958450535822
 31
0.0
  0
LINE
  5
7AC6
330
19
100
AcDbEntity
  8
1
  6
Continuous
100
AcDbLine
 10
530.0913015763542
 20
1825.050829874108
 30
0.0
 11
678.0913015763541
 21
1825.050829874108
 31
0.0
  0
LINE
  5
7AC7
330
19
100
AcDbEntity
  8
1
  6
Continuous
100
AcDbLine
 10
570.0913015763541
 20
1961.050829874107
 30
0.0
 11
810.0913015763541
 21
1961.050829874107
 31
0.0
  0
LINE
  5
7AC8
330
19
100
AcDbEntity
  8
1
  6
Continuous
100
AcDbLine
 10
530.0913015763542
 20
2109.050829874107
 30
0.0
 11
859.0913015763542
 21
2109.050829874107
 31
0.0
  0
LINE
  5
7AC9
330
19
100
AcDbEntity
  8
1
  6
Continuous
100
AcDbLine
 10
530.0913015763542
 20
1969.050829874107
 30
0.0
 11
859.0913015763542
 21
1969.050829874107
 31
0.0
  0
LINE
  5
7ACA
330
19
100
AcDbEntity
  8
1
  6
Continuous
100
AcDbLine
 10
570.0913015763541
 20
2117.050829874107
 30
0.0
 11
810.0913015763541
 21
2117.050829874107
 31
0.0
  0
LINE
  5
7ACB
330
19
100
AcDbEntity
  8
1
  6
Continuous
100
AcDbLine
 10
530.0913015763542
 20
1741.050829874108
 30
0.0
 11
530.0913015763542
 21
2171.050829874108
 31
0.0
  0
LINE
  5
7ACC
330
19
100
AcDbEntity
  8
1
  6
Continuous
100
AcDbLine
 10
505.0913015763542
 20
1741.050829874108
 30
0.0
 11
505.0913015763542
 21
2171.050829874108
 31
0.0
  0
LINE
  5
7ACD
330
19
100
AcDbEntity
  8
1
  6
Continuous
100
AcDbLine
 10
505.0913015763542
 20
1825.050829874108
 30
0.0
 11
505.0913015763542
 21
2049.050829874107
 31
0.0
  0
LINE
  5
7ACE
330
19
100
AcDbEntity
  8
1
  6
Continuous
100
AcDbLine
 10
505.0913015763542
 20
1741.050829874108
 30
0.0
 11
530.0913015763542
 21
1741.050829874108
 31
0.0
  0
LINE
  5
7ACF
330
19
100
AcDbEntity
  8
1
  6
Continuous
100
AcDbLine
 10
570.0913015763541
 20
1969.050829874107
 30
0.0
 11
570.0913015763541
 21
1961.050829874107
 31
0.0
  0
LINE
  5
7AD0
330
19
100
AcDbEntity
  8
1
  6
Continuous
100
AcDbLine
 10
530.0913015763542
 20
1968.050829874107
 30
0.0
 11
545.0913015763542
 21
1983.050829874107
 31
0.0
  0
LINE
  5
7AD1
330
19
100
AcDbEntity
  8
1
  6
Continuous
100
AcDbLine
 10
545.0913015763542
 20
2095.050829874107
 30
0.0
 11
545.0913015763542
 21
1983.050829874107
 31
0.0
  0
LINE
  5
7AD2
330
19
100
AcDbEntity
  8
1
  6
Continuous
100
AcDbLine
 10
530.0913015763542
 20
2110.050829874108
 30
0.0
 11
545.0913015763542
 21
2095.050829874107
 31
0.0
  0
LINE
  5
7AD3
330
19
100
AcDbEntity
  8
1
  6
Continuous
100
AcDbLine
 10
530.0913015763542
 20
2130.050829874107
 30
0.0
 11
530.0913015763542
 21
1948.050829874108
 31
0.0
  0
LINE
  5
7AD4
330
19
100
AcDbEntity
  8
1
  6
Continuous
100
AcDbLine
 10
570.0913015763541
 20
2109.050829874107
 30
0.0
 11
570.0913015763541
 21
2117.050829874107
 31
0.0
  0
LINE
  5
7AD5
330
19
100
AcDbEntity
  8
1
  6
Continuous
100
AcDbLine
 10
505.0913015763542
 20
2171.050829874108
 30
0.0
 11
530.0913015763542
 21
2171.050829874108
 31
0.0
  0
LINE
  5
7AD6
330
19
100
AcDbEntity
  8
1
  6
Continuous
100
AcDbLine
 10
869.0913015763541
 20
2049.050829874107
 30
0.0
 11
1160.091301576354
 21
2049.050829874107
 31
0.0
  0
LINE
  5
7AD7
330
19
100
AcDbEntity
  8
1
  6
Continuous
100
AcDbLine
 10
909.5913015763542
 20
1844.250829874107
 30
0.0
 11
1079.591301576354
 21
1844.250829874107
 31
0.0
  0
LINE
  5
7AD8
330
19
100
AcDbEntity
  8
1
  6
Continuous
100
AcDbLine
 10
909.5913015763542
 20
2035.150829874107
 30
0.0
 11
1079.591301576354
 21
2035.150829874107
 31
0.0
  0
LINE
  5
7AD9
330
19
100
AcDbEntity
  8
1
  6
Continuous
100
AcDbLine
 10
1025.291301576354
 20
1761.550829874108
 30
0.0
 11
955.2913015763543
 21
1761.550829874108
 31
0.0
  0
LINE
  5
7ADA
330
19
100
AcDbEntity
  8
1
  6
Continuous
100
AcDbLine
 10
1025.291301576354
 20
1791.550829874108
 30
0.0
 11
955.2913015763543
 21
1791.550829874108
 31
0.0
  0
LINE
  5
7ADB
330
19
100
AcDbEntity
  8
1
  6
Continuous
100
AcDbLine
 10
583.0913015763541
 20
1814.050829874108
 30
0.0
 11
1113.091301576354
 21
1814.050829874108
 31
0.0
  0
LINE
  5
7ADC
330
19
100
AcDbEntity
  8
1
  6
Continuous
100
AcDbLine
 10
583.0913015763541
 20
1739.050829874108
 30
0.0
 11
1113.091301576354
 21
1739.050829874108
 31
0.0
  0
LINE
  5
7ADD
330
19
100
AcDbEntity
  8
1
  6
Continuous
100
AcDbLine
 10
702.091301576354
 20
1825.050829874108
 30
0.0
 11
978.2913015763542
 21
1825.050829874108
 31
0.0
  0
LINE
  5
7ADE
330
19
100
AcDbEntity
  8
1
  6
Continuous
100
AcDbLine
 10
702.091301576354
 20
1961.050829874107
 30
0.0
 11
702.091301576354
 21
1791.550829874108
 31
0.0
  0
LINE
  5
7ADF
330
19
100
AcDbEntity
  8
1
  6
Continuous
100
AcDbLine
 10
678.0913015763541
 20
1961.050829874107
 30
0.0
 11
678.0913015763541
 21
1791.550829874108
 31
0.0
  0
LINE
  5
7AE0
330
19
100
AcDbEntity
  8
1
  6
Continuous
100
AcDbLine
 10
740.0913015763541
 20
1791.550829874108
 30
0.0
 11
640.0913015763541
 21
1791.550829874108
 31
0.0
  0
LINE
  5
7AE1
330
19
100
AcDbEntity
  8
1
  6
Continuous
100
AcDbLine
 10
740.0913015763541
 20
1761.550829874108
 30
0.0
 11
640.0913015763541
 21
1761.550829874108
 31
0.0
  0
LINE
  5
7AE2
330
19
100
AcDbEntity
  8
1
  6
Continuous
100
AcDbLine
 10
640.0913015763541
 20
1761.550829874108
 30
0.0
 11
640.0913015763541
 21
1791.550829874108
 31
0.0
  0
LINE
  5
7AE3
330
19
100
AcDbEntity
  8
1
  6
Continuous
100
AcDbLine
 10
583.0913015763541
 20
1739.050829874108
 30
0.0
 11
583.0913015763541
 21
1814.050829874108
 31
0.0
  0
LINE
  5
7AE4
330
19
100
AcDbEntity
  8
1
  6
Continuous
100
AcDbLine
 10
740.0913015763541
 20
1761.550829874108
 30
0.0
 11
740.0913015763541
 21
1791.550829874108
 31
0.0
  0
LINE
  5
7AE5
330
19
100
AcDbEntity
  8
1
  6
Continuous
100
AcDbLine
 10
978.2913015763542
 20
1791.550829874108
 30
0.0
 11
978.2913015763542
 21
1844.250829874107
 31
0.0
  0
LINE
  5
7AE6
330
19
100
AcDbEntity
  8
1
  6
Continuous
100
AcDbLine
 10
955.2913015763543
 20
1761.550829874108
 30
0.0
 11
955.2913015763543
 21
1791.550829874108
 31
0.0
  0
LINE
  5
7AE7
330
19
100
AcDbEntity
  8
1
  6
Continuous
100
AcDbLine
 10
810.0913015763541
 20
1969.050829874107
 30
0.0
 11
810.0913015763541
 21
1961.050829874107
 31
0.0
  0
ARC
  5
7AE8
330
19
100
AcDbEntity
  8
1
  6
Continuous
100
AcDbCircle
 10
859.0913015763542
 20
1979.050829874107
 30
0.0
 40
10.0
100
AcDbArc
 50
270.0
 51
0.0
  0
ARC
  5
7AE9
330
19
100
AcDbEntity
  8
1
  6
Continuous
100
AcDbCircle
 10
859.0913015763542
 20
2099.050829874107
 30
0.0
 40
10.0
100
AcDbArc
 50
0.0
 51
90.0
  0
LINE
  5
7AEA
330
19
100
AcDbEntity
  8
1
  6
Continuous
100
AcDbLine
 10
869.0913015763541
 20
2099.050829874107
 30
0.0
 11
869.0913015763541
 21
1979.050829874107
 31
0.0
  0
LINE
  5
7AEB
330
19
100
AcDbEntity
  8
1
  6
Continuous
100
AcDbLine
 10
810.0913015763541
 20
2109.050829874107
 30
0.0
 11
810.0913015763541
 21
2117.050829874107
 31
0.0
  0
LINE
  5
7AEC
330
19
100
AcDbEntity
  8
1
  6
Continuous
100
AcDbLine
 10
909.5913015763542
 20
1844.250829874107
 30
0.0
 11
909.5913015763542
 21
2035.150829874107
 31
0.0
  0
LINE
  5
7AED
330
19
100
AcDbEntity
  8
1
  6
Continuous
100
AcDbLine
 10
1160.091301576354
 20
1741.050829874108
 30
0.0
 11
1160.091301576354
 21
2171.050829874108
 31
0.0
  0
LINE
  5
7AEE
330
19
100
AcDbEntity
  8
1
  6
Continuous
100
AcDbLine
 10
1185.091301576354
 20
1741.050829874108
 30
0.0
 11
1185.091301576354
 21
2171.050829874108
 31
0.0
  0
LINE
  5
7AEF
330
19
100
AcDbEntity
  8
1
  6
Continuous
100
AcDbLine
 10
1185.091301576354
 20
1741.050829874108
 30
0.0
 11
1160.091301576354
 21
1741.050829874108
 31
0.0
  0
LINE
  5
7AF0
330
19
100
AcDbEntity
  8
1
  6
Continuous
100
AcDbLine
 10
1002.291301576354
 20
1791.550829874108
 30
0.0
 11
1002.291301576354
 21
1844.250829874107
 31
0.0
  0
LINE
  5
7AF1
330
19
100
AcDbEntity
  8
1
  6
Continuous
100
AcDbLine
 10
1002.291301576354
 20
1825.050829874108
 30
0.0
 11
1160.091301576354
 21
1825.050829874108
 31
0.0
  0
LINE
  5
7AF2
330
19
100
AcDbEntity
  8
1
  6
Continuous
100
AcDbLine
 10
1025.291301576354
 20
1761.550829874108
 30
0.0
 11
1025.291301576354
 21
1791.550829874108
 31
0.0
  0
LINE
  5
7AF3
330
19
100
AcDbEntity
  8
1
  6
Continuous
100
AcDbLine
 10
1113.091301576354
 20
1739.050829874108
 30
0.0
 11
1113.091301576354
 21
1814.050829874108
 31
0.0
  0
LINE
  5
7AF4
330
19
100
AcDbEntity
  8
1
  6
Continuous
100
AcDbLine
 10
1079.591301576354
 20
1844.250829874107
 30
0.0
 11
1079.591301576354
 21
2035.150829874107
 31
0.0
  0
LINE
  5
7AF5
330
19
100
AcDbEntity
  8
1
  6
Continuous
100
AcDbLine
 10
1185.091301576354
 20
1825.050829874108
 30
0.0
 11
1185.091301576354
 21
2049.050829874107
 31
0.0
  0
LINE
  5
7AF6
330
19
100
AcDbEntity
  8
1
  6
Continuous
100
AcDbLine
 10
1185.091301576354
 20
2171.050829874108
 30
0.0
 11
1160.091301576354
 21
2171.050829874108
 31
0.0
  0
LINE
  5
7AF7
330
19
100
AcDbEntity
  8
1
  6
Continuous
100
AcDbLine
 10
1363.151083118181
 20
673.1958450535822
 30
0.0
 11
1793.151083118181
 21
673.1958450535822
 31
0.0
  0
LINE
  5
7AF8
330
19
100
AcDbEntity
  8
1
  6
Continuous
100
AcDbLine
 10
1447.151083118181
 20
793.1958450535822
 30
0.0
 11
1671.151083118181
 21
793.1958450535822
 31
0.0
  0
LINE
  5
7AF9
330
19
100
AcDbEntity
  8
1
  6
Continuous
100
AcDbLine
 10
1361.151083118181
 20
843.1958450535823
 30
0.0
 11
1671.151083118181
 21
843.1958450535823
 31
0.0
  0
LINE
  5
7AFA
330
19
100
AcDbEntity
  8
1
  6
Continuous
100
AcDbLine
 10
1471.151083118181
 20
1034.895845053582
 30
0.0
 11
1583.151083118181
 21
1121.895845053582
 31
0.0
  0
LINE
  5
7AFB
330
19
100
AcDbEntity
  8
1
  6
Continuous
100
AcDbLine
 10
1447.151083118181
 20
723.1958450535822
 30
0.0
 11
1671.151083118181
 21
723.1958450535822
 31
0.0
  0
LINE
  5
7AFC
330
19
100
AcDbEntity
  8
1
  6
Continuous
100
AcDbLine
 10
1363.151083118181
 20
698.1958450535822
 30
0.0
 11
1793.151083118181
 21
698.1958450535822
 31
0.0
  0
LINE
  5
7AFD
330
19
100
AcDbEntity
  8
1
  6
Continuous
100
AcDbLine
 10
1361.151083118181
 20
1178.195845053582
 30
0.0
 11
1361.151083118181
 21
843.1958450535823
 31
0.0
  0
LINE
  5
7AFE
330
19
100
AcDbEntity
  8
1
  6
Continuous
100
AcDbLine
 10
1436.151083118181
 20
1178.195845053582
 30
0.0
 11
1436.151083118181
 21
843.1958450535823
 31
0.0
  0
LINE
  5
7AFF
330
19
100
AcDbEntity
  8
1
  6
Continuous
100
AcDbLine
 10
1383.651083118181
 20
1118.195845053582
 30
0.0
 11
1383.651083118181
 21
1018.195845053582
 31
0.0
  0
LINE
  5
7B00
330
19
100
AcDbEntity
  8
1
  6
Continuous
100
AcDbLine
 10
1413.651083118181
 20
1118.195845053582
 30
0.0
 11
1413.651083118181
 21
1018.195845053582
 31
0.0
  0
LINE
  5
7B03
330
19
100
AcDbEntity
  8
1
  6
Continuous
100
AcDbLine
 10
1363.151083118181
 20
698.1958450535822
 30
0.0
 11
1363.151083118181
 21
673.1958450535822
 31
0.0
  0
LINE
  5
7B04
330
19
100
AcDbEntity
  8
1
  6
Continuous
100
AcDbLine
 10
1447.151083118181
 20
723.1958450535822
 30
0.0
 11
1447.151083118181
 21
698.1958450535822
 31
0.0
  0
LINE
  5
7B05
330
19
100
AcDbEntity
  8
1
  6
Continuous
100
AcDbLine
 10
1413.651083118181
 20
956.2958450535822
 30
0.0
 11
1471.151083118181
 21
956.2958450535822
 31
0.0
  0
LINE
  5
7B06
330
19
100
AcDbEntity
  8
1
  6
Continuous
100
AcDbLine
 10
1413.651083118181
 20
932.2958450535821
 30
0.0
 11
1471.151083118181
 21
932.2958450535821
 31
0.0
  0
LINE
  5
7B07
330
19
100
AcDbEntity
  8
1
  6
Continuous
100
AcDbLine
 10
1413.651083118181
 20
1080.195845053582
 30
0.0
 11
1529.451083118181
 21
1080.195845053582
 31
0.0
  0
LINE
  5
7B08
330
19
100
AcDbEntity
  8
1
  6
Continuous
100
AcDbLine
 10
1413.651083118181
 20
1056.195845053582
 30
0.0
 11
1498.551083118181
 21
1056.195845053582
 31
0.0
  0
LINE
  5
7B09
330
19
100
AcDbEntity
  8
1
  6
Continuous
100
AcDbLine
 10
1383.651083118181
 20
1018.195845053582
 30
0.0
 11
1413.651083118181
 21
1018.195845053582
 31
0.0
  0
LINE
  5
7B0A
330
19
100
AcDbEntity
  8
1
  6
Continuous
100
AcDbLine
 10
1383.651083118181
 20
979.2958450535822
 30
0.0
 11
1383.651083118181
 21
909.2958450535823
 31
0.0
  0
LINE
  5
7B0B
330
19
100
AcDbEntity
  8
1
  6
Continuous
100
AcDbLine
 10
1413.651083118181
 20
979.2958450535822
 30
0.0
 11
1413.651083118181
 21
909.2958450535823
 31
0.0
  0
LINE
  5
7B0C
330
19
100
AcDbEntity
  8
1
  6
Continuous
100
AcDbLine
 10
1383.651083118181
 20
979.2958450535822
 30
0.0
 11
1413.651083118181
 21
979.2958450535822
 31
0.0
  0
LINE
  5
7B0D
330
19
100
AcDbEntity
  8
1
  6
Continuous
100
AcDbLine
 10
1383.651083118181
 20
909.2958450535823
 30
0.0
 11
1413.651083118181
 21
909.2958450535823
 31
0.0
  0
LINE
  5
7B0E
330
19
100
AcDbEntity
  8
1
  6
Continuous
100
AcDbLine
 10
1447.151083118181
 20
843.1958450535823
 30
0.0
 11
1447.151083118181
 21
793.1958450535822
 31
0.0
  0
LINE
  5
7B0F
330
19
100
AcDbEntity
  8
1
  6
Continuous
100
AcDbLine
 10
1471.151083118181
 20
1034.895845053582
 30
0.0
 11
1471.151083118181
 21
843.1958450535823
 31
0.0
  0
LINE
  5
7B10
330
19
100
AcDbEntity
  8
1
  6
Continuous
100
AcDbLine
 10
1361.151083118181
 20
1178.195845053582
 30
0.0
 11
1436.151083118181
 21
1178.195845053582
 31
0.0
  0
LINE
  5
7B11
330
19
100
AcDbEntity
  8
1
  6
Continuous
100
AcDbLine
 10
1383.651083118181
 20
1118.195845053582
 30
0.0
 11
1413.651083118181
 21
1118.195845053582
 31
0.0
  0
LINE
  5
7B12
330
19
100
AcDbEntity
  8
1
  6
Continuous
100
AcDbLine
 10
1739.151083118181
 20
948.1958450535822
 30
0.0
 11
1739.151083118181
 21
1188.195845053582
 31
0.0
  0
LINE
  5
7B13
330
19
100
AcDbEntity
  8
1
  6
Continuous
100
AcDbLine
 10
1731.151083118181
 20
1207.195845053582
 30
0.0
 11
1731.151083118181
 21
868.1958450535823
 31
0.0
  0
LINE
  5
7B14
330
19
100
AcDbEntity
  8
1
  6
Continuous
100
AcDbLine
 10
1591.151083118181
 20
868.1958450535823
 30
0.0
 11
1591.151083118181
 21
1207.195845053582
 31
0.0
  0
LINE
  5
7B15
330
19
100
AcDbEntity
  8
1
  6
Continuous
100
AcDbLine
 10
1583.351083118181
 20
843.1958450535823
 30
0.0
 11
1583.351083118181
 21
1188.195845053582
 31
0.0
  0
LINE
  5
7B16
330
19
100
AcDbEntity
  8
1
  6
Continuous
100
AcDbLine
 10
1671.151083118181
 20
723.1958450535822
 30
0.0
 11
1671.151083118181
 21
698.1958450535822
 31
0.0
  0
LINE
  5
7B18
330
19
100
AcDbEntity
  8
1
  6
Continuous
100
AcDbLine
 10
1731.151083118181
 20
868.1958450535823
 30
0.0
 11
1591.151083118181
 21
868.1958450535823
 31
0.0
  0
LINE
  5
7B1B
330
19
100
AcDbEntity
  8
1
  6
Continuous
100
AcDbLine
 10
1591.351083118181
 20
948.1958450535822
 30
0.0
 11
1583.351083118181
 21
948.1958450535822
 31
0.0
  0
LINE
  5
7B1C
330
19
100
AcDbEntity
  8
1
  6
Continuous
100
AcDbLine
 10
1730.951083118181
 20
948.1958450535822
 30
0.0
 11
1739.151083118181
 21
948.1958450535822
 31
0.0
  0
LINE
  5
7B1D
330
19
100
AcDbEntity
  8
1
  6
Continuous
100
AcDbLine
 10
1671.151083118181
 20
843.1958450535823
 30
0.0
 11
1671.151083118181
 21
793.1958450535822
 31
0.0
  0
LINE
  5
7B1E
330
19
100
AcDbEntity
  8
1
  6
Continuous
100
AcDbLine
 10
1793.151083118181
 20
698.1958450535822
 30
0.0
 11
1793.151083118181
 21
673.1958450535822
 31
0.0
  0
LINE
  5
7B1F
330
19
100
AcDbEntity
  8
1
  6
Continuous
100
AcDbLine
 10
1603.151083118181
 20
1219.195845053582
 30
0.0
 11
1719.151083118181
 21
1219.195845053582
 31
0.0
  0
LINE
  5
7B20
330
19
100
AcDbEntity
  8
1
  6
Continuous
100
AcDbLine
 10
1591.351083118181
 20
1188.195845053582
 30
0.0
 11
1583.351083118181
 21
1188.195845053582
 31
0.0
  0
ARC
  5
7B21
330
19
100
AcDbEntity
  8
1
  6
Continuous
100
AcDbCircle
 10
1603.151083118181
 20
1207.195845053582
 30
0.0
 40
12.0
100
AcDbArc
 50
90.0
 51
180.0
  0
LINE
  5
7B22
330
19
100
AcDbEntity
  8
1
  6
Continuous
100
AcDbLine
 10
1730.951083118181
 20
1188.195845053582
 30
0.0
 11
1739.151083118181
 21
1188.195845053582
 31
0.0
  0
ARC
  5
7B23
330
19
100
AcDbEntity
  8
1
  6
Continuous
100
AcDbCircle
 10
1719.151083118181
 20
1207.195845053582
 30
0.0
 40
12.0
100
AcDbArc
 50
0.0
 51
90.0
  0
LINE
  5
7B24
330
19
100
AcDbEntity
  8
4
  6
Continuous
100
AcDbLine
 10
1850.0
 20
500.0
 30
0.0
 11
1850.0
 21
300.0
 31
0.0
  0
LINE
  5
7B25
330
19
100
AcDbEntity
  8
4
  6
Continuous
100
AcDbLine
 10
1150.0
 20
500.0
 30
0.0
 11
1150.0
 21
300.0
 31
0.0
  0
LINE
  5
7B26
330
19
100
AcDbEntity
  8
4
  6
Continuous
100
AcDbLine
 10
650.0
 20
500.0
 30
0.0
 11
650.0
 21
300.0
 31
0.0
  0
LINE
  5
7B29
330
19
100
AcDbEntity
  8
4
  6
Continuous
100
AcDbLine
 10
650.0
 20
300.0
 30
0.0
 11
1850.0
 21
300.0
 31
0.0
  0
LINE
  5
7B2A
330
19
100
AcDbEntity
  8
4
  6
Continuous
100
AcDbLine
 10
650.0
 20
400.0
 30
0.0
 11
1850.0
 21
400.0
 31
0.0
  0
TEXT
  5
7B2B
330
19
100
AcDbEntity
  8
4
  6
Continuous
100
AcDbText
 10
688.502081
 20
431.543026
 30
0.0
 40
50.0
  1
機器名称
100
AcDbText
  0
TEXT
  5
7B2C
330
19
100
AcDbEntity
  8
4
  6
Continuous
100
AcDbText
 10
686.258106
 20
321.645157
 30
0.0
 40
50.0
  1
機器型番
100
AcDbText
  0
TEXT
  5
7B2D
330
19
100
AcDbEntity
  8
4
  6
Continuous
100
AcDbText
 10
1177.678745
 20
422.571769
 30
0.0
 40
45.0
  1
ミツヤニューマルチファン
100
AcDbText
  0
TEXT
  5
7B2E
330
19
100
AcDbEntity
  8
4
  6
Continuous
100
AcDbText
 10
1186.654496
 20
317.159584
 30
0.0
 40
50.0
  1
NM#1 1/4-1
100
AcDbText
  0
TEXT
  5
7B30
330
19
100
AcDbEntity
  8
4
  6
Continuous
100
AcDbText
 10
708.407469
 20
2383.428841
 30
0.0
 40
54.0
  1
天井吊防振ベット
100
AcDbText
  0
TEXT
  5
7B31
330
19
100
AcDbEntity
  8
4
  6
Continuous
100
AcDbText
 10
316.167593
 20
2533.880976000001
 30
0.0
 40
72.0
  1
ベルト駆動式片吸込片持多翼ファン
100
AcDbText
  0
LINE
  5
7B32
330
19
100
AcDbEntity
  8
4
  6
Continuous
100
AcDbLine
 10
250.0
 20
2469.408754
 30
0.0
 11
1850.0
 21
2469.408754
 31
0.0
  0
LINE
  5
7B33
330
19
100
AcDbEntity
  8
4
  6
Continuous
100
AcDbLine
 10
250.0
 20
2669.408754
 30
0.0
 11
1850.0
 21
2669.408754
 31
0.0
  0
LINE
  5
7B34
330
19
100
AcDbEntity
  8
4
  6
Continuous
100
AcDbLine
 10
650.0
 20
500.0
 30
0.0
 11
1850.0
 21
500.0
 31
0.0
  0
LINE
  5
7B35
330
19
100
AcDbEntity
  8
4
  6
Continuous
100
AcDbLine
 10
250.0
 20
2669.408754
 30
0.0
 11
250.0
 21
2469.408754
 31
0.0
  0
TEXT
  5
7B36
330
19
100
AcDbEntity
  8
4
  6
Continuous
100
AcDbText
 10
272.548636
 20
2382.319478000001
 30
0.0
 40
54.0
  1
右回転左横向
100
AcDbText
  0
TEXT
  5
7B37
330
19
100
AcDbEntity
  8
4
  6
Continuous
100
AcDbText
 10
1468.969559
 20
2706.061081
 30
0.0
 40
56.0
  1
No.
100
AcDbText
  0
TEXT
  5
7B38
330
19
100
AcDbEntity
  8
4
  6
Continuous
100
AcDbText
 10
1391.302029
 20
2383.428841
 30
0.0
 40
54.0
  1
縮尺：1/10
100
AcDbText
  0
LINE
  5
7B39
330
19
100
AcDbEntity
  8
4
  6
Continuous
100
AcDbLine
 10
1850.0
 20
2669.408754
 30
0.0
 11
1850.0
 21
2469.408754
 31
0.0
  0
LINE
  5
7B3B
330
19
100
AcDbEntity
  8
4
  6
Continuous
100
AcDbLine
 10
1440.617422
 20
2681.263583
 30
0.0
 11
1440.617422
 21
2786.652262
 31
0.0
  0
LINE
  5
7B3C
330
19
100
AcDbEntity
  8
4
  6
Continuous
100
AcDbLine
 10
1440.617422
 20
2786.652262
 30
0.0
 11
1850.0
 21
2786.652262
 31
0.0
  0
LINE
  5
7B3D
330
19
100
AcDbEntity
  8
4
  6
Continuous
100
AcDbLine
 10
1850.0
 20
2786.652262
 30
0.0
 11
1850.0
 21
2681.263583
 31
0.0
  0
LINE
  5
7B3E
330
19
100
AcDbEntity
  8
4
  6
Continuous
100
AcDbLine
 10
1850.0
 20
2681.263583
 30
0.0
 11
1440.617422
 21
2681.263583
 31
0.0
  0
DIMENSION
  5
7B56
330
19
100
AcDbEntity
  8
3
  6
Continuous
100
AcDbDimension
280
     0
  2
*D1
 10
690.0913015763541
 20
623.5056160535822
 30
0.0
 11
593.8208075763542
 21
623.5056160535822
 31
0.0
 70
   160
 71
     5
 42
184.9999999999999
 73
     0
 74
     0
 75
     0
  3
IGA
100
AcDbAlignedDimension
 13
505.0913015763542
 23
673.1958450535822
 33
0.0
 14
690.0913015763541
 24
698.1958450535822
 34
0.0
100
AcDbRotatedDimension
1001
ACAD
1000
DSTYLE
1002
{
1070
   287
1070
     3
1070
    40
1040
10.0
1070
   143
1040
0.039
1070
   172
1070
     1
1070
   271
1070
     0
1070
   279
1070
     0
1070
   288
1070
     1
1002
}
  0
DIMENSION
  5
7B62
330
19
100
AcDbEntity
  8
3
  6
Continuous
100
AcDbDimension
280
     0
  2
*D2
 10
1185.091301576354
 20
623.5056160535822
 30
0.0
 11
937.5913015763542
 21
648.5056160535822
 31
0.0
 70
    32
 71
     5
 42
495.0000000000001
 73
     0
 74
     0
 75
     0
  3
IGA
100
AcDbAlignedDimension
 13
690.0913015763541
 23
698.1958450535822
 33
0.0
 14
1185.091301576354
 24
673.1958450535822
 34
0.0
100
AcDbRotatedDimension
1001
ACAD
1000
DSTYLE
1002
{
1070
   287
1070
     4
1070
    40
1040
10.0
1070
    75
1070
     1
1070
   143
1040
0.039
1070
   172
1070
     1
1070
   271
1070
     0
1070
   279
1070
     1
1070
   288
1070
     1
1002
}
  0
DIMENSION
  5
7B6F
330
19
100
AcDbEntity
  8
3
  6
Continuous
100
AcDbDimension
280
     0
  2
*D3
 10
690.0913015763541
 20
1256.156502053582
 30
0.0
 11
610.6552775763542
 21
1256.156502053582
 31
0.0
 70
   160
 71
     5
 42
-1.0
 73
     0
 74
     0
 75
     0
  3
IGA
100
AcDbAlignedDimension
 13
530.0913015763542
 23
1089.195845053582
 33
0.0
 14
690.0913015763541
 24
1218.763034053582
 34
0.0
100
AcDbRotatedDimension
1001
ACAD
1000
DSTYLE
1002
{
1070
   287
1070
     3
1070
    40
1040
10.0
1070
   143
1040
0.039
1070
   172
1070
     1
1070
   271
1070
     0
1070
   279
1070
     0
1070
   288
1070
     1
1002
}
  0
DIMENSION
  5
7B7B
330
19
100
AcDbEntity
  8
3
  6
Continuous
100
AcDbDimension
280
     0
  2
*D4
 10
869.0913015763541
 20
1256.156502053582
 30
0.0
 11
779.5913015763541
 21
1281.156502053582
 31
0.0
 70
    32
 71
     5
 42
-1.0
 73
     0
 74
     0
 75
     0
  3
IGA
100
AcDbAlignedDimension
 13
690.0913015763541
 23
1218.763034053582
 33
0.0
 14
869.0913015763541
 24
1068.195845053582
 34
0.0
100
AcDbRotatedDimension
1001
ACAD
1000
DSTYLE
1002
{
1070
   287
1070
     4
1070
    40
1040
10.0
1070
    75
1070
     1
1070
   143
1040
0.039
1070
   172
1070
     1
1070
   271
1070
     0
1070
   279
1070
     1
1070
   288
1070
     1
1002
}
  0
DIMENSION
  5
7B88
330
19
100
AcDbEntity
  8
3
  6
Continuous
100
AcDbDimension
280
     0
  2
*D5
 10
469.0462045763543
 20
868.1958450535823
 30
0.0
 11
469.0462045763541
 21
972.5340270535822
 31
0.0
 70
   160
 71
     5
 42
-1.0
 73
     0
 74
     0
 75
     0
  3
IGA
100
AcDbAlignedDimension
 13
530.0913015763542
 23
1068.195845053582
 33
0.0
 14
530.0913015763542
 24
868.1958450535823
 34
0.0
 50
90.0
100
AcDbRotatedDimension
1001
ACAD
1000
DSTYLE
1002
{
1070
   287
1070
     3
1070
    40
1040
10.0
1070
   143
1040
0.039
1070
   172
1070
     1
1070
   271
1070
     0
1070
   279
1070
     0
1070
   288
1070
     1
1002
}
  0
DIMENSION
  5
7B95
330
19
100
AcDbEntity
  8
3
  6
Continuous
100
AcDbDimension
280
     0
  2
*D6
 10
412.9451195763542
 20
857.1958450535822
 30
0.0
 11
412.9451195763541
 21
966.6105600535823
 31
0.0
 70
   160
 71
     5
 42
-1.0
 73
     0
 74
     0
 75
     0
  3
IGA
100
AcDbAlignedDimension
 13
530.0913015763542
 23
1068.195845053582
 33
0.0
 14
545.0913015763542
 24
857.1958450535822
 34
0.0
 50
90.0
100
AcDbRotatedDimension
1001
ACAD
1000
DSTYLE
1002
{
1070
   287
1070
     3
1070
    40
1040
10.0
1070
   143
1040
0.039
1070
   172
1070
     1
1070
   271
1070
     0
1070
   279
1070
     0
1070
   288
1070
     1
1002
}
  0
DIMENSION
  5
7BA2
330
19
100
AcDbEntity
  8
3
  6
Continuous
100
AcDbDimension
280
     0
  2
*D7
 10
352.7390695763543
 20
1068.195845053582
 30
0.0
 11
352.7390695763541
 21
1159.477319053582
 31
0.0
 70
   160
 71
     5
 42
-1.0
 73
     0
 74
     0
 75
     0
  3
IGA
100
AcDbAlignedDimension
 13
690.0913015763541
 23
1218.763034053582
 33
0.0
 14
530.0913015763542
 24
1068.195845053582
 34
0.0
 50
90.0
100
AcDbRotatedDimension
1001
ACAD
1000
DSTYLE
1002
{
1070
   287
1070
     3
1070
    40
1040
10.0
1070
   143
1040
0.039
1070
   172
1070
     1
1070
   271
1070
     0
1070
   279
1070
     0
1070
   288
1070
     1
1002
}
  0
DIMENSION
  5
7BAE
330
19
100
AcDbEntity
  8
3
  6
Continuous
100
AcDbDimension
280
     0
  2
*D8
 10
352.7390695763541
 20
793.1958450535822
 30
0.0
 11
327.7390695763541
 21
930.6958450535823
 31
0.0
 70
    32
 71
     5
 42
-1.0
 73
     0
 74
     0
 75
     0
  3
IGA
100
AcDbAlignedDimension
 13
530.0913015763542
 23
1068.195845053582
 33
0.0
 14
530.0913015763542
 24
793.1958450535822
 34
0.0
 50
90.0
100
AcDbRotatedDimension
1001
ACAD
1000
DSTYLE
1002
{
1070
   287
1070
     4
1070
    40
1040
10.0
1070
    75
1070
     1
1070
   143
1040
0.039
1070
   172
1070
     1
1070
   271
1070
     0
1070
   279
1070
     1
1070
   288
1070
     1
1002
}
  0
DIMENSION
  5
7C1B
330
19
100
AcDbEntity
  8
3
  6
Continuous
100
AcDbDimension
280
     0
  2
*D9
 10
1185.091301576354
 20
1628.416783874107
 30
0.0
 11
831.6508035763542
 21
1628.416783874107
 31
0.0
 70
   160
 71
     5
 42
-1.0
 73
     0
 74
     0
 75
     0
  3
IGA
100
AcDbAlignedDimension
 13
505.0913015763542
 23
1741.050829874108
 33
0.0
 14
1185.091301576354
 24
1741.050829874108
 34
0.0
100
AcDbRotatedDimension
1001
ACAD
1000
DSTYLE
1002
{
1070
   287
1070
     3
1070
    40
1040
10.0
1070
   143
1040
0.039
1070
   172
1070
     1
1070
   271
1070
     0
1070
   279
1070
     0
1070
   288
1070
     1
1002
}
  0
DIMENSION
  5
7C28
330
19
100
AcDbEntity
  8
3
  6
Continuous
100
AcDbDimension
280
     0
  2
*D10
 10
1280.459524576354
 20
1741.050829874108
 30
0.0
 11
1280.459524576354
 21
1945.549961874107
 31
0.0
 70
   160
 71
     5
 42
-1.0
 73
     0
 74
     0
 75
     0
  3
IGA
100
AcDbAlignedDimension
 13
1185.091301576354
 23
2171.050829874108
 33
0.0
 14
1185.091301576354
 24
1741.050829874108
 34
0.0
 50
90.0
100
AcDbRotatedDimension
1001
ACAD
1000
DSTYLE
1002
{
1070
   287
1070
     3
1070
    40
1040
10.0
1070
   143
1040
0.039
1070
   172
1070
     1
1070
   271
1070
     0
1070
   279
1070
     0
1070
   288
1070
     1
1002
}
  0
LINE
  5
7C29
330
19
100
AcDbEntity
  8
2
  6
CENTER
100
AcDbLine
 10
923.8240755763543
 20
2039.050829874108
 30
0.0
 11
488.6587805763541
 21
2039.050829874108
 31
0.0
  0
LINE
  5
7C2A
330
19
100
AcDbEntity
  8
2
  6
CENTER
100
AcDbLine
 10
690.0913015763541
 20
1694.030544874107
 30
0.0
 11
690.0913015763541
 21
2156.067683874107
 31
0.0
  0
LINE
  5
7C2B
330
19
100
AcDbEntity
  8
2
  6
CENTER
100
AcDbLine
 10
1661.151083118181
 20
673.1958450535822
 30
0.0
 11
1661.151083118181
 21
1268.363763053582
 31
0.0
  0
DIMENSION
  5
7C3A
330
19
100
AcDbEntity
  8
3
  6
Continuous
100
AcDbDimension
280
     0
  2
*D11
 10
1731.151083118181
 20
1264.966443053582
 30
0.0
 11
1656.865369118181
 21
1264.966443053582
 31
0.0
 70
   160
 71
     5
 42
-1.0
 73
     0
 74
     0
 75
     0
  3
IGA
100
AcDbAlignedDimension
 13
1591.151083118181
 23
1207.195845053582
 33
0.0
 14
1731.151083118181
 24
1207.195845053582
 34
0.0
100
AcDbRotatedDimension
1001
ACAD
1000
DSTYLE
1002
{
1070
   287
1070
     3
1070
    40
1040
10.0
1070
   143
1040
0.039
1070
   172
1070
     1
1070
   271
1070
     0
1070
   279
1070
     0
1070
   288
1070
     1
1002
}
  0
DIMENSION
  5
7C47
330
19
100
AcDbEntity
  8
3
  6
Continuous
100
AcDbDimension
280
     0
  2
*D12
 10
1661.151083118181
 20
1323.289789053582
 30
0.0
 11
1513.814050118181
 21
1323.289789053582
 31
0.0
 70
   160
  1
(300)
 71
     5
 42
300.0
 73
     0
 74
     0
 75
     0
  3
IGA
100
AcDbAlignedDimension
 13
1361.151083118181
 23
1178.195845053582
 33
0.0
 14
1661.151083118181
 24
1308.769427053582
 34
0.0
100
AcDbRotatedDimension
1001
ACAD
1000
DSTYLE
1002
{
1070
   287
1070
     3
1070
    40
1040
10.0
1070
   143
1040
0.039
1070
   172
1070
     1
1070
   271
1070
     0
1070
   279
1070
     0
1070
   288
1070
     1
1002
}
  0
DIMENSION
  5
7C55
330
19
100
AcDbEntity
  8
3
  6
Continuous
100
AcDbDimension
280
     0
  2
*D13
 10
1739.151083118181
 20
1323.289789053582
 30
0.0
 11
1696.777867118181
 21
1323.495521053582
 31
0.0
 70
   160
 71
     5
 42
-1.0
 73
     0
 74
     0
 75
     0
  3
IGA
100
AcDbAlignedDimension
 13
1661.151083118181
 23
1308.769427053582
 33
0.0
 14
1739.151083118181
 24
1188.195845053582
 34
0.0
100
AcDbRotatedDimension
1001
ACAD
1000
DSTYLE
1002
{
1070
   287
1070
     4
1070
    40
1040
10.0
1070
    75
1070
     1
1070
   143
1040
0.039
1070
   172
1070
     1
1070
   271
1070
     0
1070
   279
1070
     1
1070
   288
1070
     1
1002
}
  0
DIMENSION
  5
7C78
330
19
100
AcDbEntity
  8
3
  6
Continuous
100
AcDbDimension
280
     0
  2
*D14
 10
1661.151083118181
 20
608.0172490535822
 30
0.0
 11
1511.833860118181
 21
608.0172490535822
 31
0.0
 70
   160
 71
     5
 42
298.0
 73
     0
 74
     0
 75
     0
  3
IGA
100
AcDbAlignedDimension
 13
1363.151083118181
 23
673.1958450535822
 33
0.0
 14
1661.151083118181
 24
673.1958450535822
 34
0.0
100
AcDbRotatedDimension
1001
ACAD
1000
DSTYLE
1002
{
1070
   287
1070
     3
1070
    40
1040
10.0
1070
   143
1040
0.039
1070
   172
1070
     1
1070
   271
1070
     0
1070
   279
1070
     0
1070
   288
1070
     1
1002
}
  0
DIMENSION
  5
7C84
330
19
100
AcDbEntity
  8
3
  6
Continuous
100
AcDbDimension
280
     0
  2
*D15
 10
1793.151083118181
 20
608.0172490535822
 30
0.0
 11
1727.151083118181
 21
633.0172490535822
 31
0.0
 70
    32
 71
     5
 42
132.0
 73
     0
 74
     0
 75
     0
  3
IGA
100
AcDbAlignedDimension
 13
1661.151083118181
 23
673.1958450535822
 33
0.0
 14
1793.151083118181
 24
673.1958450535822
 34
0.0
100
AcDbRotatedDimension
1001
ACAD
1000
DSTYLE
1002
{
1070
   287
1070
     4
1070
    40
1040
10.0
1070
    75
1070
     1
1070
   143
1040
0.039
1070
   172
1070
     1
1070
   271
1070
     0
1070
   279
1070
     1
1070
   288
1070
     1
1002
}
  0
LINE
  5
7C86
330
19
100
AcDbEntity
  8
3
  6
Continuous
100
AcDbLine
 10
1739.151083118181
 20
1168.195845053582
 30
0.0
 11
1752.658072118181
 21
1168.195845053582
 31
0.0
  0
LINE
  5
7C88
330
19
100
AcDbEntity
  8
3
  6
Continuous
100
AcDbLine
 10
1739.151083118181
 20
968.1958450535821
 30
0.0
 11
1750.573014118181
 21
968.1958450535821
 31
0.0
  0
DIMENSION
  5
7C95
330
19
100
AcDbEntity
  8
3
  6
Continuous
100
AcDbDimension
280
     0
  2
*D16
 10
1811.039696118181
 20
968.195845053582
 30
0.0
 11
1811.039696118181
 21
1065.733602053582
 31
0.0
 70
   160
 71
     5
 42
-1.0
 73
     0
 74
     0
 75
     0
  3
IGA
100
AcDbAlignedDimension
 13
1739.151083118181
 23
1168.195845053582
 33
0.0
 14
1739.151083118181
 24
968.1958450535821
 34
0.0
 50
90.0
100
AcDbRotatedDimension
1001
ACAD
1000
DSTYLE
1002
{
1070
   287
1070
     3
1070
     3
1000
φ<>
1070
    40
1040
10.0
1070
   143
1040
0.039
1070
   172
1070
     1
1070
   271
1070
     0
1070
   279
1070
     0
1070
   288
1070
     1
1002
}
  0
LINE
  5
7C96
330
19
100
AcDbEntity
  8
2
  6
CENTER
100
AcDbLine
 10
1131.074321576354
 20
1068.195845053582
 30
0.0
 11
534.8400335763542
 21
1068.195845053582
 31
0.0
  0
DIMENSION
  5
7D59
330
19
100
AcDbEntity
  8
3
100
AcDbDimension
280
     0
  2
*D18
 10
353.0729823480906
 20
673.1958450535822
 30
0.0
 11
328.0729823480905
 21
598.9101307678681
 31
0.0
 70
    32
 71
     5
 42
50.0
 73
     0
 74
     0
 75
     0
  3
IGA
100
AcDbAlignedDimension
 13
505.0913015763542
 23
723.1958450535822
 33
0.0
 14
505.0913015763542
 24
673.1958450535822
 34
0.0
 50
90.0
100
AcDbRotatedDimension
1001
ACAD
1000
DSTYLE
1002
{
1070
   287
1070
     3
1070
    40
1040
10.0
1070
   143
1040
0.039
1070
   172
1070
     1
1070
   271
1070
     0
1070
   279
1070
     0
1070
     6
1000
DOT
1002
}
  0
DIMENSION
  5
7D66
330
19
100
AcDbEntity
  8
3
100
AcDbDimension
280
     0
  2
*D19
 10
353.0729823480906
 20
793.1958450535822
 30
0.0
 11
319.2119834186506
 21
755.3779904000085
 31
0.0
 70
   160
 71
     5
 42
70.0
 73
     0
 74
     0
 75
     0
  3
IGA
100
AcDbAlignedDimension
 13
505.0913015763542
 23
723.1958450535822
 33
0.0
 14
530.0913015763542
 24
793.1958450535822
 34
0.0
 50
90.0
100
AcDbRotatedDimension
1001
ACAD
1000
DSTYLE
1002
{
1070
     3
1000
(<>)
1070
    40
1040
10.0
1070
   143
1040
0.039
1070
   172
1070
     1
1070
   271
1070
     0
1070
   343
1005
7D0E
1002
}
  0
DIMENSION
  5
7D80
330
19
100
AcDbEntity
  8
3
100
AcDbDimension
280
     0
  2
*D20
 10
254.7404973190605
 20
673.1958450535824
 30
0.0
 11
221.8833544619176
 21
945.9794395535825
 31
0.0
 70
    32
 71
     5
 42
545.5671890000001
 73
     0
 74
     0
 75
     0
  3
IGA
100
AcDbAlignedDimension
 13
685.091301576354
 23
1218.763034053582
 33
0.0
 14
505.0913015763542
 24
673.1958450535822
 34
0.0
 50
90.0
100
AcDbRotatedDimension
1001
ACAD
1000
DSTYLE
1002
{
1070
   287
1070
     3
1070
     3
1000
(<>)
1070
    40
1040
10.0
1070
   143
1040
0.039
1070
   172
1070
     1
1070
   271
1070
     0
1070
   279
1070
     0
1002
}
  0
ENDSEC
  0
SECTION
  2
OBJECTS
  0
DICTIONARY
  5
C
330
0
100
AcDbDictionary
281
     1
  3
ACAD_CIP_PREVIOUS_PRODUCT_INFO
350
7EBC
  3
ACAD_COLOR
350
7E9F
  3
ACAD_DETAILVIEWSTYLE
350
7EB8
  3
ACAD_GROUP
350
D
  3
ACAD_LAYOUT
350
7D89
  3
ACAD_MATERIAL
350
7E6D
  3
ACAD_MLEADERSTYLE
350
7EB4
  3
ACAD_MLINESTYLE
350
E
  3
ACAD_PLOTSETTINGS
350
7D8A
  3
ACAD_PLOTSTYLENAME
350
7D87
  3
ACAD_SCALELIST
350
7EA2
  3
ACAD_SECTIONVIEWSTYLE
350
7EB6
  3
ACAD_TABLESTYLE
350
7EA0
  3
ACAD_VISUALSTYLE
350
7E86
  3
ACDB_RECOMPOSE_DATA
350
7F61
  3
AcDbVariableDictionary
350
7E60
  0
DICTIONARY
  5
7EC4
330
2
100
AcDbDictionary
280
     1
281
     1
  3
ACAD_LAYERSTATES
360
7EC5
  0
DICTIONARY
  5
7F17
330
F
100
AcDbDictionary
280
     1
281
     1
  3
ADSK_XREC_LAYER_RECONCILED
360
7F18
  0
DICTIONARY
  5
7F19
330
31
100
AcDbDictionary
280
     1
281
     1
  3
ADSK_XREC_LAYER_RECONCILED
360
7F1A
  0
DICTIONARY
  5
7F1B
330
76D0
100
AcDbDictionary
280
     1
281
     1
  3
ADSK_XREC_LAYER_RECONCILED
360
7F1C
  0
DICTIONARY
  5
7F1D
330
76D1
100
AcDbDictionary
280
     1
281
     1
  3
ADSK_XREC_LAYER_RECONCILED
360
7F1E
  0
DICTIONARY
  5
7F1F
330
76D2
100
AcDbDictionary
280
     1
281
     1
  3
ADSK_XREC_LAYER_RECONCILED
360
7F20
  0
DICTIONARY
  5
7DB6
330
19
100
AcDbDictionary
280
     1
281
     1
  3
ACAD_LAYOUTSELFREF
360
7DB7
  0
DICTIONARY
  5
7DB4
330
16
100
AcDbDictionary
280
     1
281
     1
  3
ACAD_LAYOUTSELFREF
360
7DB5
  0
XRECORD
  5
7EBC
102
{ACAD_REACTORS
330
C
102
}
330
C
100
AcDbXrecord
280
     1
300
ACDLT
300
2015
300
INVLTS_F_S
  0
DICTIONARY
  5
7E9F
102
{ACAD_REACTORS
330
C
102
}
330
C
100
AcDbDictionary
281
     1
  0
DICTIONARY
  5
7EB8
102
{ACAD_REACTORS
330
C
102
}
330
C
100
AcDbDictionary
281
     1
  3
Imperial24
350
7EB9
  0
DICTIONARY
  5
D
102
{ACAD_REACTORS
330
C
102
}
330
0
100
AcDbDictionary
281
     1
  0
DICTIONARY
  5
7D89
102
{ACAD_REACTORS
330
C
102
}
330
C
100
AcDbDictionary
281
     1
  3
Model
350
7D8B
  3
ﾚｲｱｳﾄ1
350
7D8C
  0
DICTIONARY
  5
7E6D
102
{ACAD_REACTORS
330
C
102
}
330
C
100
AcDbDictionary
281
     1
  3
ByBlock
350
7E76
  3
ByLayer
350
7E6E
  3
Global
350
7E7E
  0
DICTIONARY
  5
7EB4
102
{ACAD_REACTORS
330
C
102
}
330
C
100
AcDbDictionary
281
     1
  3
Standard
350
7EB5
  0
DICTIONARY
  5
E
102
{ACAD_REACTORS
330
C
102
}
330
0
100
AcDbDictionary
281
     1
  3
STANDARD
350
1C
  0
DICTIONARY
  5
7D8A
102
{ACAD_REACTORS
330
C
102
}
330
C
100
AcDbDictionary
281
     1
  0
ACDBDICTIONARYWDFLT
  5
7D87
102
{ACAD_REACTORS
330
C
102
}
330
C
100
AcDbDictionary
281
     1
  3
Normal
350
7D88
100
AcDbDictionaryWithDefault
340
7D88
1001
ACAD
1000
TREAT_AS_HARD
1070
     0
  0
DICTIONARY
  5
7EA2
102
{ACAD_REACTORS
330
C
102
}
330
C
100
AcDbDictionary
281
     1
  3
A0
350
7EA3
  3
A1
350
7EA4
  3
A2
350
7EA5
  3
A3
350
7EA6
  3
A4
350
7EA7
  3
A5
350
7EA8
  3
A6
350
7EA9
  3
A7
350
7EAA
  3
A8
350
7EAB
  3
A9
350
7EAC
  3
B0
350
7EAD
  3
B1
350
7EAE
  3
B2
350
7EAF
  3
B3
350
7EB0
  3
B4
350
7EB1
  3
B5
350
7EB2
  3
B6
350
7EB3
  0
DICTIONARY
  5
7EB6
102
{ACAD_REACTORS
330
C
102
}
330
C
100
AcDbDictionary
281
     1
  3
Imperial24
350
7EB7
  0
DICTIONARY
  5
7EA0
102
{ACAD_REACTORS
330
C
102
}
330
C
100
AcDbDictionary
281
     1
  3
Standard
350
7EA1
  0
DICTIONARY
  5
7E86
102
{ACAD_REACTORS
330
C
102
}
330
C
100
AcDbDictionary
281
     1
  3
2dWireframe
350
7E8C
  3
Basic
350
7E8B
  3
Brighten
350
7E92
  3
ColorChange
350
7E96
  3
Conceptual
350
7E8F
  3
Dim
350
7E91
  3
EdgeColorOff
350
7E9E
  3
Facepattern
350
7E95
  3
Flat
350
7E87
  3
FlatWithEdges
350
7E88
  3
Gouraud
350
7E89
  3
GouraudWithEdges
350
7E8A
  3
Hidden
350
7E8E
  3
JitterOff
350
7E9C
  3
Linepattern
350
7E94
  3
OverhangOff
350
7E9D
  3
Realistic
350
7E90
  3
Shaded
350
7E9B
  3
Shaded with edges
350
7E9A
  3
Shades of Gray
350
7E97
  3
Sketchy
350
7E98
  3
Thicken
350
7E93
  3
Wireframe
350
7E8D
  3
X-Ray
350
7E99
  0
XRECORD
  5
7F61
102
{ACAD_REACTORS
330
C
102
}
330
C
100
AcDbXrecord
280
     1
 90
        1
330
7EA1
330
7EB7
330
7EB9
  0
DICTIONARY
  5
7E60
102
{ACAD_REACTORS
330
C
102
}
330
C
100
AcDbDictionary
281
     1
  3
CANNOSCALE
350
7F32
  3
CMLEADERSTYLE
350
7F2E
  3
CTABLESTYLE
350
7F2D
  3
CVIEWDETAILSTYLE
350
7F2F
  3
CVIEWSECTIONSTYLE
350
7F30
  3
DIMASSOC
350
7E61
  3
LAYEREVAL
350
7F34
  3
LAYERNOTIFY
350
7F35
  3
LIGHTINGUNITS
350
7F33
  3
MSLTSCALE
350
7F31
  0
DICTIONARY
  5
7EC5
102
{ACAD_REACTORS
330
7EC4
102
}
330
7EC4
100
AcDbDictionary
281
     1
  0
XRECORD
  5
7F18
102
{ACAD_REACTORS
330
7F17
102
}
330
7F17
100
AcDbXrecord
280
     1
290
     1
  0
XRECORD
  5
7F1A
102
{ACAD_REACTORS
330
7F19
102
}
330
7F19
100
AcDbXrecord
280
     1
290
     1
  0
XRECORD
  5
7F1C
102
{ACAD_REACTORS
330
7F1B
102
}
330
7F1B
100
AcDbXrecord
280
     1
290
     1
  0
XRECORD
  5
7F1E
102
{ACAD_REACTORS
330
7F1D
102
}
330
7F1D
100
AcDbXrecord
280
     1
290
     1
  0
XRECORD
  5
7F20
102
{ACAD_REACTORS
330
7F1F
102
}
330
7F1F
100
AcDbXrecord
280
     1
290
     1
  0
XRECORD
  5
7DB7
102
{ACAD_REACTORS
330
7DB6
102
}
330
7DB6
100
AcDbXrecord
280
     1
340
19
  0
XRECORD
  5
7DB5
102
{ACAD_REACTORS
330
7DB4
102
}
330
7DB4
100
AcDbXrecord
280
     1
340
16
  0
ACDBDETAILVIEWSTYLE
  5
7EB9
102
{ACAD_XDICTIONARY
360
7F2A
102
}
102
{ACAD_REACTORS
330
7EB8
102
}
330
7EB8
100
AcDbModelDocViewStyle
 70
     0
  3
Imperial24
290
     0
100
AcDbDetailViewStyle
 70
     0
 71
     0
 90
        3
 71
     1
340
10
 62
   256
 40
0.24
340
0
 62
   256
 40
0.24
300

 40
0.36
280
     3
 71
     2
340
15
 90
       25
 62
   256
 71
     3
340
10
 62
   256
 40
0.24
 90
        1
 40
0.75
 90
        1
300
%<\AcVar ViewType \f "%tc1">% %<\AcVar ViewDetailId>%\PSCALE %<\AcVar ViewScale \f "%sn">%
 71
     4
340
15
 90
       25
 62
   256
340
15
 90
       25
 62
   256
280
     0
  0
LAYOUT
  5
7D8B
102
{ACAD_REACTORS
330
7D89
102
}
330
7D89
100
AcDbPlotSettings
  1

  2
\\Txbo34x8944cqyd\EPSON LP-6100
  4

  6

 40
0.0
 41
0.0
 42
0.0
 43
0.0
 44
0.0
 45
0.0
 46
0.0
 47
0.0
 48
0.0
 49
0.0
140
0.0
141
0.0
142
1.0
143
1.0
 70
  1712
 72
     0
 73
     0
 74
     0
  7
GOD2000TABLE.ctb
 75
     0
147
1.0
 76
     0
 77
     2
 78
   300
148
0.0
149
0.0
100
AcDbLayout
  1
Model
 70
     1
 71
     0
 10
0.0
 20
0.0
 11
12.0
 21
9.0
 12
0.0
 22
0.0
 32
0.0
 14
0.0
 24
0.0
 34
0.0
 15
0.0
 25
0.0
 35
0.0
146
0.0
 13
0.0
 23
0.0
 33
0.0
 16
1.0
 26
0.0
 36
0.0
 17
0.0
 27
1.0
 37
0.0
 76
     0
330
19
331
7E6B
  0
LAYOUT
  5
7D8C
102
{ACAD_REACTORS
330
7D89
102
}
330
7D89
100
AcDbPlotSettings
  1

  2
\\Txbo34x8944cqyd\EPSON LP-6100
  4

  6

 40
0.0
 41
0.0
 42
0.0
 43
0.0
 44
0.0
 45
0.0
 46
0.0
 47
0.0
 48
0.0
 49
0.0
140
0.0
141
0.0
142
1.0
143
1.0
 70
   688
 72
     0
 73
     0
 74
     5
  7
GOD2000TABLE.ctb
 75
    16
147
1.0
 76
     0
 77
     2
 78
   300
148
0.0
149
0.0
100
AcDbLayout
  1
ﾚｲｱｳﾄ1
 70
     1
 71
     1
 10
0.0
 20
0.0
 11
12.0
 21
9.0
 12
0.0
 22
0.0
 32
0.0
 14
1.000000000000000E+20
 24
1.000000000000000E+20
 34
1.000000000000000E+20
 15
-1.000000000000000E+20
 25
-1.000000000000000E+20
 35
-1.000000000000000E+20
146
0.0
 13
0.0
 23
0.0
 33
0.0
 16
1.0
 26
0.0
 36
0.0
 17
0.0
 27
1.0
 37
0.0
 76
     0
330
16
  0
MATERIAL
  5
7E76
102
{ACAD_XDICTIONARY
360
7E77
102
}
102
{ACAD_REACTORS
330
7E6D
102
}
330
7E6D
100
AcDbMaterial
  1
ByBlock
 72
     0
 43
0.0208333333333333
 43
0.0
 43
0.0
 43
0.0
 43
0.0
 43
0.0208333333333333
 43
0.0
 43
0.0
 43
0.0
 43
0.0
 43
1.0
 43
0.0
 43
0.0
 43
0.0
 43
0.0
 43
1.0
 77
     0
 47
0.0208333333333333
 47
0.0
 47
0.0
 47
0.0
 47
0.0
 47
0.0208333333333333
 47
0.0
 47
0.0
 47
0.0
 47
0.0
 47
1.0
 47
0.0
 47
0.0
 47
0.0
 47
0.0
 47
1.0
171
     0
 49
0.0208333333333333
 49
0.0
 49
0.0
 49
0.0
 49
0.0
 49
0.0208333333333333
 49
0.0
 49
0.0
 49
0.0
 49
0.0
 49
1.0
 49
0.0
 49
0.0
 49
0.0
 49
0.0
 49
1.0
175
     0
142
0.0208333333333333
142
0.0
142
0.0
142
0.0
142
0.0
142
0.0208333333333333
142
0.0
142
0.0
142
0.0
142
0.0
142
1.0
142
0.0
142
0.0
142
0.0
142
0.0
142
1.0
179
     0
144
0.0208333333333333
144
0.0
144
0.0
144
0.0
144
0.0
144
0.0208333333333333
144
0.0
144
0.0
144
0.0
144
0.0
144
1.0
144
0.0
144
0.0
144
0.0
144
0.0
144
1.0
147
0.0208333333333333
147
0.0
147
0.0
147
0.0
147
0.0
147
0.0208333333333333
147
0.0
147
0.0
147
0.0
147
0.0
147
1.0
147
0.0
147
0.0
147
0.0
147
0.0
147
1.0
  0
MATERIAL
  5
7E6E
102
{ACAD_XDICTIONARY
360
7E6F
102
}
102
{ACAD_REACTORS
330
7E6D
102
}
330
7E6D
100
AcDbMaterial
  1
ByLayer
 72
     0
 43
0.0208333333333333
 43
0.0
 43
0.0
 43
0.0
 43
0.0
 43
0.0208333333333333
 43
0.0
 43
0.0
 43
0.0
 43
0.0
 43
1.0
 43
0.0
 43
0.0
 43
0.0
 43
0.0
 43
1.0
 77
     0
 47
0.0208333333333333
 47
0.0
 47
0.0
 47
0.0
 47
0.0
 47
0.0208333333333333
 47
0.0
 47
0.0
 47
0.0
 47
0.0
 47
1.0
 47
0.0
 47
0.0
 47
0.0
 47
0.0
 47
1.0
171
     0
 49
0.0208333333333333
 49
0.0
 49
0.0
 49
0.0
 49
0.0
 49
0.0208333333333333
 49
0.0
 49
0.0
 49
0.0
 49
0.0
 49
1.0
 49
0.0
 49
0.0
 49
0.0
 49
0.0
 49
1.0
175
     0
142
0.0208333333333333
142
0.0
142
0.0
142
0.0
142
0.0
142
0.0208333333333333
142
0.0
142
0.0
142
0.0
142
0.0
142
1.0
142
0.0
142
0.0
142
0.0
142
0.0
142
1.0
179
     0
144
0.0208333333333333
144
0.0
144
0.0
144
0.0
144
0.0
144
0.0208333333333333
144
0.0
144
0.0
144
0.0
144
0.0
144
1.0
144
0.0
144
0.0
144
0.0
144
0.0
144
1.0
147
0.0208333333333333
147
0.0
147
0.0
147
0.0
147
0.0
147
0.0208333333333333
147
0.0
147
0.0
147
0.0
147
0.0
147
1.0
147
0.0
147
0.0
147
0.0
147
0.0
147
1.0
  0
MATERIAL
  5
7E7E
102
{ACAD_XDICTIONARY
360
7E7F
102
}
102
{ACAD_REACTORS
330
7E6D
102
}
330
7E6D
100
AcDbMaterial
  1
Global
 72
     0
 43
0.0208333333333333
 43
0.0
 43
0.0
 43
0.0
 43
0.0
 43
0.0208333333333333
 43
0.0
 43
0.0
 43
0.0
 43
0.0
 43
1.0
 43
0.0
 43
0.0
 43
0.0
 43
0.0
 43
1.0
 77
     0
 47
0.0208333333333333
 47
0.0
 47
0.0
 47
0.0
 47
0.0
 47
0.0208333333333333
 47
0.0
 47
0.0
 47
0.0
 47
0.0
 47
1.0
 47
0.0
 47
0.0
 47
0.0
 47
0.0
 47
1.0
171
     0
 49
0.0208333333333333
 49
0.0
 49
0.0
 49
0.0
 49
0.0
 49
0.0208333333333333
 49
0.0
 49
0.0
 49
0.0
 49
0.0
 49
1.0
 49
0.0
 49
0.0
 49
0.0
 49
0.0
 49
1.0
175
     0
142
0.0208333333333333
142
0.0
142
0.0
142
0.0
142
0.0
142
0.0208333333333333
142
0.0
142
0.0
142
0.0
142
0.0
142
1.0
142
0.0
142
0.0
142
0.0
142
0.0
142
1.0
179
     0
144
0.0208333333333333
144
0.0
144
0.0
144
0.0
144
0.0
144
0.0208333333333333
144
0.0
144
0.0
144
0.0
144
0.0
144
1.0
144
0.0
144
0.0
144
0.0
144
0.0
144
1.0
147
0.0208333333333333
147
0.0
147
0.0
147
0.0
147
0.0
147
0.0208333333333333
147
0.0
147
0.0
147
0.0
147
0.0
147
1.0
147
0.0
147
0.0
147
0.0
147
0.0
147
1.0
  0
MLEADERSTYLE
  5
7EB5
102
{ACAD_REACTORS
330
7EB4
102
}
330
7EB4
100
AcDbMLeaderStyle
179
     2
170
     2
171
     1
172
     0
 90
        2
 40
0.0
 41
0.0
173
     1
 91
-1056964608
340
13
 92
       -2
290
     1
 42
0.09
291
     1
 43
0.36
  3
Standard
 44
0.18
300

342
10
174
     1
178
     6
175
     1
176
     0
 93
-1056964608
 45
0.18
292
     0
297
     0
 46
0.18
 94
-1056964608
 47
1.0
 49
1.0
140
1.0
293
     1
141
0.0
294
     1
177
     0
142
1.0
295
     1
296
     0
143
0.125
271
     0
272
     9
273
     9
298
     1
  0
MLINESTYLE
  5
1C
102
{ACAD_REACTORS
330
E
102
}
330
0
100
AcDbMlineStyle
  2
STANDARD
 70
     0
  3

 62
     0
 51
90.0
 52
90.0
 71
     2
 49
0.5
 62
   256
  6
BYLAYER
 49
-0.5
 62
   256
  6
BYLAYER
  0
ACDBPLACEHOLDER
  5
7D88
102
{ACAD_REACTORS
330
7D87
102
}
330
7D87
  0
SCALE
  5
7EA3
102
{ACAD_REACTORS
330
7EA2
102
}
330
7EA2
100
AcDbScale
 70
     0
300
1:1
140
1.0
141
1.0
290
     1
  0
SCALE
  5
7EA4
102
{ACAD_REACTORS
330
7EA2
102
}
330
7EA2
100
AcDbScale
 70
     0
300
1/128" = 1'-0"
140
0.0078125
141
12.0
290
     0
  0
SCALE
  5
7EA5
102
{ACAD_REACTORS
330
7EA2
102
}
330
7EA2
100
AcDbScale
 70
     0
300
1/64" = 1'-0"
140
0.015625
141
12.0
290
     0
  0
SCALE
  5
7EA6
102
{ACAD_REACTORS
330
7EA2
102
}
330
7EA2
100
AcDbScale
 70
     0
300
1/32" = 1'-0"
140
0.03125
141
12.0
290
     0
  0
SCALE
  5
7EA7
102
{ACAD_REACTORS
330
7EA2
102
}
330
7EA2
100
AcDbScale
 70
     0
300
1/16" = 1'-0"
140
0.0625
141
12.0
290
     0
  0
SCALE
  5
7EA8
102
{ACAD_REACTORS
330
7EA2
102
}
330
7EA2
100
AcDbScale
 70
     0
300
3/32" = 1'-0"
140
0.09375
141
12.0
290
     0
  0
SCALE
  5
7EA9
102
{ACAD_REACTORS
330
7EA2
102
}
330
7EA2
100
AcDbScale
 70
     0
300
1/8" = 1'-0"
140
0.125
141
12.0
290
     0
  0
SCALE
  5
7EAA
102
{ACAD_REACTORS
330
7EA2
102
}
330
7EA2
100
AcDbScale
 70
     0
300
3/16" = 1'-0"
140
0.1875
141
12.0
290
     0
  0
SCALE
  5
7EAB
102
{ACAD_REACTORS
330
7EA2
102
}
330
7EA2
100
AcDbScale
 70
     0
300
1/4" = 1'-0"
140
0.25
141
12.0
290
     0
  0
SCALE
  5
7EAC
102
{ACAD_REACTORS
330
7EA2
102
}
330
7EA2
100
AcDbScale
 70
     0
300
3/8" = 1'-0"
140
0.375
141
12.0
290
     0
  0
SCALE
  5
7EAD
102
{ACAD_REACTORS
330
7EA2
102
}
330
7EA2
100
AcDbScale
 70
     0
300
1/2" = 1'-0"
140
0.5
141
12.0
290
     0
  0
SCALE
  5
7EAE
102
{ACAD_REACTORS
330
7EA2
102
}
330
7EA2
100
AcDbScale
 70
     0
300
3/4" = 1'-0"
140
0.75
141
12.0
290
     0
  0
SCALE
  5
7EAF
102
{ACAD_REACTORS
330
7EA2
102
}
330
7EA2
100
AcDbScale
 70
     0
300
1" = 1'-0"
140
1.0
141
12.0
290
     0
  0
SCALE
  5
7EB0
102
{ACAD_REACTORS
330
7EA2
102
}
330
7EA2
100
AcDbScale
 70
     0
300
1-1/2" = 1'-0"
140
1.5
141
12.0
290
     0
  0
SCALE
  5
7EB1
102
{ACAD_REACTORS
330
7EA2
102
}
330
7EA2
100
AcDbScale
 70
     0
300
3" = 1'-0"
140
3.0
141
12.0
290
     0
  0
SCALE
  5
7EB2
102
{ACAD_REACTORS
330
7EA2
102
}
330
7EA2
100
AcDbScale
 70
     0
300
6" = 1'-0"
140
6.0
141
12.0
290
     0
  0
SCALE
  5
7EB3
102
{ACAD_REACTORS
330
7EA2
102
}
330
7EA2
100
AcDbScale
 70
     0
300
1'-0" = 1'-0"
140
12.0
141
12.0
290
     0
  0
ACDBSECTIONVIEWSTYLE
  5
7EB7
102
{ACAD_XDICTIONARY
360
7F28
102
}
102
{ACAD_REACTORS
330
7EB6
102
}
330
7EB6
100
AcDbModelDocViewStyle
 70
     0
  3
Imperial24
290
     0
100
AcDbSectionViewStyle
 70
     0
 71
     0
 90
       78
 71
     1
340
10
 62
   256
 40
0.24
340
0
340
0
 62
   256
 40
0.24
300
I, O, Q, S, X, Z
 40
0.48
 90
        3
 40
0.18
 90
        1
 71
     2
340
15
 90
       25
 62
   256
340
15
 90
       50
 62
   256
 40
0.24
 40
0.0
 40
0.24
 71
     3
340
10
 62
   256
 40
0.24
 90
        1
 40
0.75
 90
        1
300
%<\AcVar ViewType \f "%tc1">% %<\AcVar ViewSectionStartId>%-%<\AcVar ViewSectionEndId>%\PSCALE %<\AcVar ViewScale \f "%sn">%
 71
     4
 62
   256
 62
   257
300
ANSI31
 40
1.0
 90
        0
290
     0
290
     0
 90
        6
 40
0.0
 40
1.570796326794896
 40
0.2617993877991494
 40
1.308996938995747
 40
-0.2617993877991494
 40
1.832595714594046
  0
TABLESTYLE
  5
7EA1
102
{ACAD_XDICTIONARY
360
7F5D
102
}
102
{ACAD_REACTORS
330
7EA0
102
}
330
7EA0
100
AcDbTableStyle
280
     0
  3
Standard
 70
     0
 71
     0
 40
0.06
 41
0.06
280
     0
281
     0
  7
STANDARD
140
0.18
170
     2
 62
     0
 63
     7
283
     0
 90
      512
 91
        0
  1

274
    -2
284
     1
 64
     0
275
    -2
285
     1
 65
     0
276
    -2
286
     1
 66
     0
277
    -2
287
     1
 67
     0
278
    -2
288
     1
 68
     0
279
    -2
289
     1
 69
     0
  7
STANDARD
140
0.25
170
     5
 62
     0
 63
     7
283
     0
 90
      512
 91
        0
  1

274
    -2
284
     1
 64
     0
275
    -2
285
     1
 65
     0
276
    -2
286
     1
 66
     0
277
    -2
287
     1
 67
     0
278
    -2
288
     1
 68
     0
279
    -2
289
     1
 69
     0
  7
STANDARD
140
0.18
170
     5
 62
     0
 63
     7
283
     0
 90
      512
 91
        0
  1

274
    -2
284
     1
 64
     0
275
    -2
285
     1
 65
     0
276
    -2
286
     1
 66
     0
277
    -2
287
     1
 67
     0
278
    -2
288
     1
 68
     0
279
    -2
289
     1
 69
     0
  0
VISUALSTYLE
  5
7E8C
102
{ACAD_REACTORS
330
7E86
102
}
330
7E86
100
AcDbVisualStyle
  2
2dWireframe
 70
     4
177
     3
291
     0
 70
    58
 90
        0
176
     1
 90
        2
176
     1
 90
        0
176
     1
 90
        0
176
     1
 40
0.6
176
     1
 40
30.0
176
     1
 62
     7
420
 16777215
176
     1
 90
        1
176
     1
 90
        4
176
     1
 62
     7
176
     1
 62
   257
176
     1
 90
        1
176
     1
 90
        1
176
     1
 40
1.0
176
     1
 90
        0
176
     1
 62
   257
176
     1
 40
1.0
176
     1
 90
        1
176
     1
 90
        6
176
     1
 90
        2
176
     1
 62
     7
176
     1
 90
        5
176
     1
 90
        0
176
     1
 90
        0
176
     1
290
     0
176
     1
 90
        1
176
     1
 40
0.0
176
     1
 90
        0
176
     1
290
     1
176
     1
290
     1
176
     1
290
     0
176
     1
290
     0
176
     1
290
     0
176
     1
290
     0
176
     1
290
     0
176
     1
290
     0
176
     1
290
     0
176
     1
 90
       50
176
     1
 40
0.0
176
     1
 40
1.0
176
     1
 90
        0
176
     1
 62
    18
420
        0
176
     1
 90
       50
176
     1
 90
        3
176
     1
 62
     5
420
      255
176
     1
290
     0
176
     1
 90
       50
176
     1
 90
       50
176
     1
 90
       50
176
     1
290
     0
176
     1
 90
       50
176
     1
 62
   256
176
     0
 40
1.0
176
     0
 90
        2
176
     1
  1
strokes_ogs.tif
176
     1
290
     0
176
     1
 40
1.0
176
     1
 40
1.0
176
     1
  0
VISUALSTYLE
  5
7E8B
102
{ACAD_REACTORS
330
7E86
102
}
330
7E86
100
AcDbVisualStyle
  2
Basic
 70
     7
177
     3
291
     1
 70
    58
 90
        1
176
     1
 90
        0
176
     1
 90
        1
176
     1
 90
        0
176
     1
 40
0.6
176
     1
 40
30.0
176
     1
 62
     7
420
 16777215
176
     1
 90
        0
176
     1
 90
        4
176
     1
 62
     7
176
     1
 62
   257
176
     1
 90
        1
176
     1
 90
        1
176
     1
 40
1.0
176
     1
 90
        8
176
     1
 62
     7
176
     1
 40
1.0
176
     1
 90
        1
176
     1
 90
        6
176
     1
 90
        2
176
     1
 62
     7
176
     1
 90
        5
176
     1
 90
        0
176
     1
 90
        0
176
     1
290
     0
176
     1
 90
        1
176
     1
 40
0.0
176
     1
 90
        0
176
     1
290
     0
176
     1
290
     1
176
     1
290
     1
176
     1
290
     0
176
     1
290
     0
176
     1
290
     0
176
     1
290
     0
176
     1
290
     0
176
     1
290
     0
176
     1
 90
       50
176
     1
 40
0.0
176
     1
 40
1.0
176
     1
 90
        0
176
     1
 62
    18
420
        0
176
     1
 90
       50
176
     1
 90
        3
176
     1
 62
     5
420
      255
176
     1
290
     0
176
     1
 90
       50
176
     1
 90
       50
176
     1
 90
       50
176
     1
290
     0
176
     1
 90
       50
176
     1
 62
   256
176
     0
 40
1.0
176
     0
 90
        2
176
     1
  1
strokes_ogs.tif
176
     1
290
     0
176
     1
 40
1.0
176
     1
 40
1.0
176
     1
  0
VISUALSTYLE
  5
7E92
102
{ACAD_REACTORS
330
7E86
102
}
330
7E86
100
AcDbVisualStyle
  2
Brighten
 70
    12
177
     3
291
     1
 70
    58
 90
        2
176
     1
 90
        2
176
     1
 90
        0
176
     1
 90
        0
176
     1
 40
0.6
176
     1
 40
30.0
176
     1
 62
     7
420
 16777215
176
     1
 90
        1
176
     1
 90
        4
176
     1
 62
     7
176
     1
 62
   257
176
     1
 90
        1
176
     1
 90
        1
176
     1
 40
1.0
176
     1
 90
        8
176
     1
 62
     7
176
     1
 40
1.0
176
     1
 90
        1
176
     1
 90
        6
176
     1
 90
        2
176
     1
 62
     7
176
     1
 90
        5
176
     1
 90
        0
176
     1
 90
        0
176
     1
290
     0
176
     1
 90
        1
176
     1
 40
50.0
176
     1
 90
        0
176
     1
290
     0
176
     1
290
     1
176
     1
290
     1
176
     1
290
     0
176
     1
290
     0
176
     1
290
     0
176
     1
290
     0
176
     1
290
     0
176
     1
290
     0
176
     1
 90
       50
176
     1
 40
0.0
176
     1
 40
1.0
176
     1
 90
        0
176
     1
 62
    18
420
        0
176
     1
 90
       50
176
     1
 90
        3
176
     1
 62
     5
420
      255
176
     1
290
     0
176
     1
 90
       50
176
     1
 90
       50
176
     1
 90
       50
176
     1
290
     0
176
     1
 90
       50
176
     1
 62
   256
176
     0
 40
1.0
176
     0
 90
        2
176
     1
  1
strokes_ogs.tif
176
     1
290
     0
176
     1
 40
1.0
176
     1
 40
1.0
176
     1
  0
VISUALSTYLE
  5
7E96
102
{ACAD_REACTORS
330
7E86
102
}
330
7E86
100
AcDbVisualStyle
  2
ColorChange
 70
    16
177
     3
291
     1
 70
    58
 90
        2
176
     1
 90
        2
176
     1
 90
        3
176
     1
 90
        0
176
     1
 40
0.6
176
     1
 40
30.0
176
     1
 62
     8
420
  8421504
176
     1
 90
        1
176
     1
 90
        4
176
     1
 62
     7
176
     1
 62
   257
176
     1
 90
        1
176
     1
 90
        1
176
     1
 40
1.0
176
     1
 90
        8
176
     1
 62
     8
420
  8421504
176
     1
 40
1.0
176
     1
 90
        1
176
     1
 90
        6
176
     1
 90
        2
176
     1
 62
     7
176
     1
 90
        5
176
     1
 90
        0
176
     1
 90
        0
176
     1
290
     0
176
     1
 90
        1
176
     1
 40
0.0
176
     1
 90
        0
176
     1
290
     0
176
     1
290
     1
176
     1
290
     1
176
     1
290
     0
176
     1
290
     0
176
     1
290
     0
176
     1
290
     0
176
     1
290
     0
176
     1
290
     0
176
     1
 90
       50
176
     1
 40
0.0
176
     1
 40
1.0
176
     1
 90
        0
176
     1
 62
    18
420
        0
176
     1
 90
       50
176
     1
 90
        3
176
     1
 62
     5
420
      255
176
     1
290
     0
176
     1
 90
       50
176
     1
 90
       50
176
     1
 90
       50
176
     1
290
     0
176
     1
 90
       50
176
     1
 62
   256
176
     0
 40
1.0
176
     0
 90
        2
176
     1
  1
strokes_ogs.tif
176
     1
290
     0
176
     1
 40
1.0
176
     1
 40
1.0
176
     1
  0
VISUALSTYLE
  5
7E8F
102
{ACAD_REACTORS
330
7E86
102
}
330
7E86
100
AcDbVisualStyle
  2
Conceptual
 70
     9
177
     3
291
     0
 70
    58
 90
        3
176
     1
 90
        2
176
     1
 90
        0
176
     1
 90
        0
176
     1
 40
0.6
176
     1
 40
30.0
176
     1
 62
     7
420
 16777215
176
     1
 90
        2
176
     1
 90
        2
176
     1
 62
     7
176
     1
 62
   257
176
     1
 90
        1
176
     1
 90
        1
176
     1
 40
179.0
176
     1
 90
        8
176
     1
 62
     7
176
     1
 40
1.0
176
     1
 90
        1
176
     1
 90
        6
176
     1
 90
        2
176
     1
 62
     7
176
     1
 90
        3
176
     1
 90
        0
176
     1
 90
        0
176
     1
290
     0
176
     1
 90
        1
176
     1
 40
0.0
176
     1
 90
        0
176
     1
290
     0
176
     1
290
     1
176
     1
290
     1
176
     1
290
     0
176
     1
290
     0
176
     1
290
     0
176
     1
290
     0
176
     1
290
     0
176
     1
290
     0
176
     1
 90
       50
176
     1
 40
0.0
176
     1
 40
1.0
176
     1
 90
        0
176
     1
 62
    18
420
        0
176
     1
 90
       50
176
     1
 90
        3
176
     1
 62
     5
420
      255
176
     1
290
     0
176
     1
 90
       50
176
     1
 90
       50
176
     1
 90
       50
176
     1
290
     0
176
     1
 90
       50
176
     1
 62
   256
176
     0
 40
1.0
176
     0
 90
        2
176
     1
  1
strokes_ogs.tif
176
     1
290
     0
176
     1
 40
1.0
176
     1
 40
1.0
176
     1
  0
VISUALSTYLE
  5
7E91
102
{ACAD_REACTORS
330
7E86
102
}
330
7E86
100
AcDbVisualStyle
  2
Dim
 70
    11
177
     3
291
     1
 70
    58
 90
        2
176
     1
 90
        2
176
     1
 90
        0
176
     1
 90
        0
176
     1
 40
0.6
176
     1
 40
30.0
176
     1
 62
     7
420
 16777215
176
     1
 90
        1
176
     1
 90
        4
176
     1
 62
     7
176
     1
 62
   257
176
     1
 90
        1
176
     1
 90
        1
176
     1
 40
1.0
176
     1
 90
        8
176
     1
 62
     7
176
     1
 40
1.0
176
     1
 90
        1
176
     1
 90
        6
176
     1
 90
        2
176
     1
 62
     7
176
     1
 90
        5
176
     1
 90
        0
176
     1
 90
        0
176
     1
290
     0
176
     1
 90
        1
176
     1
 40
-50.0
176
     1
 90
        0
176
     1
290
     0
176
     1
290
     1
176
     1
290
     1
176
     1
290
     0
176
     1
290
     0
176
     1
290
     0
176
     1
290
     0
176
     1
290
     0
176
     1
290
     0
176
     1
 90
       50
176
     1
 40
0.0
176
     1
 40
1.0
176
     1
 90
        0
176
     1
 62
    18
420
        0
176
     1
 90
       50
176
     1
 90
        3
176
     1
 62
     5
420
      255
176
     1
290
     0
176
     1
 90
       50
176
     1
 90
       50
176
     1
 90
       50
176
     1
290
     0
176
     1
 90
       50
176
     1
 62
   256
176
     0
 40
1.0
176
     0
 90
        2
176
     1
  1
strokes_ogs.tif
176
     1
290
     0
176
     1
 40
1.0
176
     1
 40
1.0
176
     1
  0
VISUALSTYLE
  5
7E9E
102
{ACAD_REACTORS
330
7E86
102
}
330
7E86
100
AcDbVisualStyle
  2
EdgeColorOff
 70
    22
177
     3
291
     1
 70
    58
 90
        2
176
     0
 90
        2
176
     0
 90
        0
176
     0
 90
        0
176
     0
 40
0.6
176
     0
 40
30.0
176
     0
 62
     7
420
 16777215
176
     0
 90
        1
176
     0
 90
        4
176
     0
 62
     7
176
     0
 62
   257
176
     0
 90
        1
176
     0
 90
        1
176
     0
 40
1.0
176
     0
 90
        8
176
     2
 62
     7
176
     0
 40
1.0
176
     0
 90
        1
176
     0
 90
        6
176
     0
 90
        2
176
     0
 62
     7
176
     0
 90
        5
176
     0
 90
        0
176
     0
 90
        0
176
     0
290
     0
176
     0
 90
        1
176
     0
 40
0.0
176
     0
 90
        0
176
     0
290
     0
176
     0
290
     1
176
     0
290
     1
176
     0
290
     0
176
     0
290
     0
176
     0
290
     0
176
     0
290
     0
176
     0
290
     0
176
     0
290
     0
176
     0
 90
       50
176
     0
 40
0.0
176
     0
 40
1.0
176
     0
 90
        0
176
     0
 62
    18
420
        0
176
     0
 90
       50
176
     0
 90
        3
176
     0
 62
     5
420
      255
176
     0
290
     0
176
     0
 90
       50
176
     0
 90
       50
176
     0
 90
       50
176
     0
290
     0
176
     0
 90
       50
176
     0
 62
   256
176
     0
 40
1.0
176
     0
 90
        2
176
     0
  1
strokes_ogs.tif
176
     0
290
     0
176
     0
 40
1.0
176
     0
 40
1.0
176
     0
  0
VISUALSTYLE
  5
7E95
102
{ACAD_REACTORS
330
7E86
102
}
330
7E86
100
AcDbVisualStyle
  2
Facepattern
 70
    15
177
     3
291
     1
 70
    58
 90
        2
176
     1
 90
        2
176
     1
 90
        0
176
     1
 90
        0
176
     1
 40
0.6
176
     1
 40
30.0
176
     1
 62
     7
420
 16777215
176
     1
 90
        1
176
     1
 90
        4
176
     1
 62
     7
176
     1
 62
   257
176
     1
 90
        1
176
     1
 90
        1
176
     1
 40
1.0
176
     1
 90
        8
176
     1
 62
     7
176
     1
 40
1.0
176
     1
 90
        1
176
     1
 90
        6
176
     1
 90
        2
176
     1
 62
     7
176
     1
 90
        5
176
     1
 90
        0
176
     1
 90
        0
176
     1
290
     0
176
     1
 90
        1
176
     1
 40
0.0
176
     1
 90
        0
176
     1
290
     0
176
     1
290
     1
176
     1
290
     1
176
     1
290
     0
176
     1
290
     0
176
     1
290
     0
176
     1
290
     0
176
     1
290
     0
176
     1
290
     0
176
     1
 90
       50
176
     1
 40
0.0
176
     1
 40
1.0
176
     1
 90
        0
176
     1
 62
    18
420
        0
176
     1
 90
       50
176
     1
 90
        3
176
     1
 62
     5
420
      255
176
     1
290
     0
176
     1
 90
       50
176
     1
 90
       50
176
     1
 90
       50
176
     1
290
     0
176
     1
 90
       50
176
     1
 62
   256
176
     0
 40
1.0
176
     0
 90
        2
176
     1
  1
strokes_ogs.tif
176
     1
290
     0
176
     1
 40
1.0
176
     1
 40
1.0
176
     1
  0
VISUALSTYLE
  5
7E87
102
{ACAD_REACTORS
330
7E86
102
}
330
7E86
100
AcDbVisualStyle
  2
Flat
 70
     0
177
     3
291
     1
 70
    58
 90
        2
176
     1
 90
        1
176
     1
 90
        1
176
     1
 90
        2
176
     1
 40
0.6
176
     1
 40
30.0
176
     1
 62
     7
420
 16777215
176
     1
 90
        0
176
     1
 90
        0
176
     1
 62
     7
176
     1
 62
   257
176
     1
 90
        1
176
     1
 90
        1
176
     1
 40
1.0
176
     1
 90
        8
176
     1
 62
     7
176
     1
 40
1.0
176
     1
 90
        1
176
     1
 90
        6
176
     1
 90
        2
176
     1
 62
     7
176
     1
 90
        5
176
     1
 90
        0
176
     1
 90
        0
176
     1
290
     0
176
     1
 90
       13
176
     1
 40
0.0
176
     1
 90
        0
176
     1
290
     0
176
     1
290
     1
176
     1
290
     1
176
     1
290
     0
176
     1
290
     0
176
     1
290
     0
176
     1
290
     0
176
     1
290
     0
176
     1
290
     0
176
     1
 90
       50
176
     1
 40
0.0
176
     1
 40
1.0
176
     1
 90
        0
176
     1
 62
    18
420
        0
176
     1
 90
       50
176
     1
 90
        3
176
     1
 62
     5
420
      255
176
     1
290
     0
176
     1
 90
       50
176
     1
 90
       50
176
     1
 90
       50
176
     1
290
     0
176
     1
 90
       50
176
     1
 62
   256
176
     0
 40
1.0
176
     0
 90
        2
176
     1
  1
strokes_ogs.tif
176
     1
290
     0
176
     1
 40
1.0
176
     1
 40
1.0
176
     1
  0
VISUALSTYLE
  5
7E88
102
{ACAD_REACTORS
330
7E86
102
}
330
7E86
100
AcDbVisualStyle
  2
FlatWithEdges
 70
     1
177
     3
291
     1
 70
    58
 90
        2
176
     1
 90
        1
176
     1
 90
        1
176
     1
 90
        2
176
     1
 40
0.6
176
     1
 40
30.0
176
     1
 62
     7
420
 16777215
176
     1
 90
        1
176
     1
 90
        0
176
     1
 62
     7
176
     1
 62
   257
176
     1
 90
        1
176
     1
 90
        1
176
     1
 40
1.0
176
     1
 90
        0
176
     1
 62
   257
176
     1
 40
1.0
176
     1
 90
        1
176
     1
 90
        6
176
     1
 90
        2
176
     1
 62
     7
176
     1
 90
        5
176
     1
 90
        0
176
     1
 90
        0
176
     1
290
     0
176
     1
 90
       13
176
     1
 40
0.0
176
     1
 90
        0
176
     1
290
     0
176
     1
290
     1
176
     1
290
     1
176
     1
290
     0
176
     1
290
     0
176
     1
290
     0
176
     1
290
     0
176
     1
290
     0
176
     1
290
     0
176
     1
 90
       50
176
     1
 40
0.0
176
     1
 40
1.0
176
     1
 90
        0
176
     1
 62
    18
420
        0
176
     1
 90
       50
176
     1
 90
        3
176
     1
 62
     5
420
      255
176
     1
290
     0
176
     1
 90
       50
176
     1
 90
       50
176
     1
 90
       50
176
     1
290
     0
176
     1
 90
       50
176
     1
 62
   256
176
     0
 40
1.0
176
     0
 90
        2
176
     1
  1
strokes_ogs.tif
176
     1
290
     0
176
     1
 40
1.0
176
     1
 40
1.0
176
     1
  0
VISUALSTYLE
  5
7E89
102
{ACAD_REACTORS
330
7E86
102
}
330
7E86
100
AcDbVisualStyle
  2
Gouraud
 70
     2
177
     3
291
     1
 70
    58
 90
        2
176
     1
 90
        2
176
     1
 90
        1
176
     1
 90
        2
176
     1
 40
0.6
176
     1
 40
30.0
176
     1
 62
     7
420
 16777215
176
     1
 90
        0
176
     1
 90
        0
176
     1
 62
     7
176
     1
 62
   257
176
     1
 90
        1
176
     1
 90
        1
176
     1
 40
1.0
176
     1
 90
        0
176
     1
 62
     7
176
     1
 40
1.0
176
     1
 90
        1
176
     1
 90
        6
176
     1
 90
        2
176
     1
 62
     7
176
     1
 90
        5
176
     1
 90
        0
176
     1
 90
        0
176
     1
290
     0
176
     1
 90
       13
176
     1
 40
0.0
176
     1
 90
        0
176
     1
290
     0
176
     1
290
     1
176
     1
290
     1
176
     1
290
     0
176
     1
290
     0
176
     1
290
     0
176
     1
290
     0
176
     1
290
     0
176
     1
290
     0
176
     1
 90
       50
176
     1
 40
0.0
176
     1
 40
1.0
176
     1
 90
        0
176
     1
 62
    18
420
        0
176
     1
 90
       50
176
     1
 90
        3
176
     1
 62
     5
420
      255
176
     1
290
     0
176
     1
 90
       50
176
     1
 90
       50
176
     1
 90
       50
176
     1
290
     0
176
     1
 90
       50
176
     1
 62
   256
176
     0
 40
1.0
176
     0
 90
        2
176
     1
  1
strokes_ogs.tif
176
     1
290
     0
176
     1
 40
1.0
176
     1
 40
1.0
176
     1
  0
VISUALSTYLE
  5
7E8A
102
{ACAD_REACTORS
330
7E86
102
}
330
7E86
100
AcDbVisualStyle
  2
GouraudWithEdges
 70
     3
177
     3
291
     1
 70
    58
 90
        2
176
     1
 90
        2
176
     1
 90
        1
176
     1
 90
        2
176
     1
 40
0.6
176
     1
 40
30.0
176
     1
 62
     7
420
 16777215
176
     1
 90
        1
176
     1
 90
        0
176
     1
 62
     7
176
     1
 62
   257
176
     1
 90
        1
176
     1
 90
        1
176
     1
 40
1.0
176
     1
 90
        0
176
     1
 62
   257
176
     1
 40
1.0
176
     1
 90
        1
176
     1
 90
        6
176
     1
 90
        2
176
     1
 62
     7
176
     1
 90
        5
176
     1
 90
        0
176
     1
 90
        0
176
     1
290
     0
176
     1
 90
       13
176
     1
 40
0.0
176
     1
 90
        0
176
     1
290
     0
176
     1
290
     1
176
     1
290
     1
176
     1
290
     0
176
     1
290
     0
176
     1
290
     0
176
     1
290
     0
176
     1
290
     0
176
     1
290
     0
176
     1
 90
       50
176
     1
 40
0.0
176
     1
 40
1.0
176
     1
 90
        0
176
     1
 62
    18
420
        0
176
     1
 90
       50
176
     1
 90
        3
176
     1
 62
     5
420
      255
176
     1
290
     0
176
     1
 90
       50
176
     1
 90
       50
176
     1
 90
       50
176
     1
290
     0
176
     1
 90
       50
176
     1
 62
   256
176
     0
 40
1.0
176
     0
 90
        2
176
     1
  1
strokes_ogs.tif
176
     1
290
     0
176
     1
 40
1.0
176
     1
 40
1.0
176
     1
  0
VISUALSTYLE
  5
7E8E
102
{ACAD_REACTORS
330
7E86
102
}
330
7E86
100
AcDbVisualStyle
  2
Hidden
 70
     6
177
     3
291
     0
 70
    58
 90
        1
176
     1
 90
        2
176
     1
 90
        2
176
     1
 90
        0
176
     1
 40
0.6
176
     1
 40
30.0
176
     1
 62
     7
420
 16777215
176
     1
 90
        2
176
     1
 90
        2
176
     1
 62
     7
176
     1
 62
   257
176
     1
 90
        2
176
     1
 90
        1
176
     1
 40
40.0
176
     1
 90
        0
176
     1
 62
   257
176
     1
 40
1.0
176
     1
 90
        1
176
     1
 90
        6
176
     1
 90
        2
176
     1
 62
     7
176
     1
 90
        3
176
     1
 90
        0
176
     1
 90
        0
176
     1
290
     0
176
     1
 90
        1
176
     1
 40
0.0
176
     1
 90
        0
176
     1
290
     0
176
     1
290
     1
176
     1
290
     1
176
     1
290
     0
176
     1
290
     0
176
     1
290
     0
176
     1
290
     0
176
     1
290
     0
176
     1
290
     0
176
     1
 90
       50
176
     1
 40
0.0
176
     1
 40
1.0
176
     1
 90
        0
176
     1
 62
    18
420
        0
176
     1
 90
       50
176
     1
 90
        3
176
     1
 62
     5
420
      255
176
     1
290
     0
176
     1
 90
       50
176
     1
 90
       50
176
     1
 90
       50
176
     1
290
     0
176
     1
 90
       50
176
     1
 62
   256
176
     0
 40
1.0
176
     0
 90
        2
176
     1
  1
strokes_ogs.tif
176
     1
290
     0
176
     1
 40
1.0
176
     1
 40
1.0
176
     1
  0
VISUALSTYLE
  5
7E9C
102
{ACAD_REACTORS
330
7E86
102
}
330
7E86
100
AcDbVisualStyle
  2
JitterOff
 70
    20
177
     3
291
     1
 70
    58
 90
        2
176
     0
 90
        2
176
     0
 90
        0
176
     0
 90
        0
176
     0
 40
0.6
176
     0
 40
30.0
176
     0
 62
     7
420
 16777215
176
     0
 90
        1
176
     0
 90
        4
176
     0
 62
     7
176
     0
 62
   257
176
     0
 90
        1
176
     0
 90
        1
176
     0
 40
1.0
176
     0
 90
       10
176
     2
 62
     7
176
     0
 40
1.0
176
     0
 90
        1
176
     0
 90
        6
176
     0
 90
        2
176
     0
 62
     7
176
     0
 90
        5
176
     0
 90
        0
176
     0
 90
        0
176
     0
290
     0
176
     0
 90
        1
176
     0
 40
0.0
176
     0
 90
        0
176
     0
290
     0
176
     0
290
     1
176
     0
290
     1
176
     0
290
     0
176
     0
290
     0
176
     0
290
     0
176
     0
290
     0
176
     0
290
     0
176
     0
290
     0
176
     0
 90
       50
176
     0
 40
0.0
176
     0
 40
1.0
176
     0
 90
        0
176
     0
 62
    18
420
        0
176
     0
 90
       50
176
     0
 90
        3
176
     0
 62
     5
420
      255
176
     0
290
     0
176
     0
 90
       50
176
     0
 90
       50
176
     0
 90
       50
176
     0
290
     0
176
     0
 90
       50
176
     0
 62
   256
176
     0
 40
1.0
176
     0
 90
        2
176
     0
  1
strokes_ogs.tif
176
     0
290
     0
176
     0
 40
1.0
176
     0
 40
1.0
176
     0
  0
VISUALSTYLE
  5
7E94
102
{ACAD_REACTORS
330
7E86
102
}
330
7E86
100
AcDbVisualStyle
  2
Linepattern
 70
    14
177
     3
291
     1
 70
    58
 90
        2
176
     1
 90
        2
176
     1
 90
        0
176
     1
 90
        0
176
     1
 40
0.6
176
     1
 40
30.0
176
     1
 62
     7
420
 16777215
176
     1
 90
        1
176
     1
 90
        4
176
     1
 62
     7
176
     1
 62
   257
176
     1
 90
        7
176
     1
 90
        7
176
     1
 40
1.0
176
     1
 90
        8
176
     1
 62
     7
176
     1
 40
1.0
176
     1
 90
        1
176
     1
 90
        6
176
     1
 90
        2
176
     1
 62
     7
176
     1
 90
        5
176
     1
 90
        0
176
     1
 90
        0
176
     1
290
     0
176
     1
 90
        1
176
     1
 40
0.0
176
     1
 90
        0
176
     1
290
     0
176
     1
290
     1
176
     1
290
     1
176
     1
290
     0
176
     1
290
     0
176
     1
290
     0
176
     1
290
     0
176
     1
290
     0
176
     1
290
     0
176
     1
 90
       50
176
     1
 40
0.0
176
     1
 40
1.0
176
     1
 90
        0
176
     1
 62
    18
420
        0
176
     1
 90
       50
176
     1
 90
        3
176
     1
 62
     5
420
      255
176
     1
290
     0
176
     1
 90
       50
176
     1
 90
       50
176
     1
 90
       50
176
     1
290
     0
176
     1
 90
       50
176
     1
 62
   256
176
     0
 40
1.0
176
     0
 90
        2
176
     1
  1
strokes_ogs.tif
176
     1
290
     0
176
     1
 40
1.0
176
     1
 40
1.0
176
     1
  0
VISUALSTYLE
  5
7E9D
102
{ACAD_REACTORS
330
7E86
102
}
330
7E86
100
AcDbVisualStyle
  2
OverhangOff
 70
    21
177
     3
291
     1
 70
    58
 90
        2
176
     0
 90
        2
176
     0
 90
        0
176
     0
 90
        0
176
     0
 40
0.6
176
     0
 40
30.0
176
     0
 62
     7
420
 16777215
176
     0
 90
        1
176
     0
 90
        4
176
     0
 62
     7
176
     0
 62
   257
176
     0
 90
        1
176
     0
 90
        1
176
     0
 40
1.0
176
     0
 90
        9
176
     2
 62
     7
176
     0
 40
1.0
176
     0
 90
        1
176
     0
 90
        6
176
     0
 90
        2
176
     0
 62
     7
176
     0
 90
        5
176
     0
 90
        0
176
     0
 90
        0
176
     0
290
     0
176
     0
 90
        1
176
     0
 40
0.0
176
     0
 90
        0
176
     0
290
     0
176
     0
290
     1
176
     0
290
     1
176
     0
290
     0
176
     0
290
     0
176
     0
290
     0
176
     0
290
     0
176
     0
290
     0
176
     0
290
     0
176
     0
 90
       50
176
     0
 40
0.0
176
     0
 40
1.0
176
     0
 90
        0
176
     0
 62
    18
420
        0
176
     0
 90
       50
176
     0
 90
        3
176
     0
 62
     5
420
      255
176
     0
290
     0
176
     0
 90
       50
176
     0
 90
       50
176
     0
 90
       50
176
     0
290
     0
176
     0
 90
       50
176
     0
 62
   256
176
     0
 40
1.0
176
     0
 90
        2
176
     0
  1
strokes_ogs.tif
176
     0
290
     0
176
     0
 40
1.0
176
     0
 40
1.0
176
     0
  0
VISUALSTYLE
  5
7E90
102
{ACAD_REACTORS
330
7E86
102
}
330
7E86
100
AcDbVisualStyle
  2
Realistic
 70
     8
177
     3
291
     0
 70
    58
 90
        2
176
     1
 90
        3
176
     1
 90
        0
176
     1
 90
        2
176
     1
 40
0.6
176
     1
 40
30.0
176
     1
 62
     7
420
 16777215
176
     1
 90
        0
176
     1
 90
        0
176
     1
 62
     7
176
     1
 62
   257
176
     1
 90
        1
176
     1
 90
        1
176
     1
 40
1.0
176
     1
 90
        8
176
     1
 62
   257
176
     1
 40
1.0
176
     1
 90
        1
176
     1
 90
        6
176
     1
 90
        2
176
     1
 62
     7
176
     1
 90
        3
176
     1
 90
        0
176
     1
 90
        0
176
     1
290
     0
176
     1
 90
       13
176
     1
 40
0.0
176
     1
 90
        0
176
     1
290
     0
176
     1
290
     1
176
     1
290
     1
176
     1
290
     0
176
     1
290
     0
176
     1
290
     0
176
     1
290
     0
176
     1
290
     0
176
     1
290
     0
176
     1
 90
       50
176
     1
 40
0.0
176
     1
 40
1.0
176
     1
 90
        0
176
     1
 62
    18
420
        0
176
     1
 90
       50
176
     1
 90
        3
176
     1
 62
     5
420
      255
176
     1
290
     0
176
     1
 90
       50
176
     1
 90
       50
176
     1
 90
       50
176
     1
290
     0
176
     1
 90
       50
176
     1
 62
   256
176
     0
 40
1.0
176
     0
 90
        2
176
     1
  1
strokes_ogs.tif
176
     1
290
     0
176
     1
 40
1.0
176
     1
 40
1.0
176
     1
  0
VISUALSTYLE
  5
7E9B
102
{ACAD_REACTORS
330
7E86
102
}
330
7E86
100
AcDbVisualStyle
  2
Shaded
 70
    27
177
     3
291
     0
 70
    58
 90
        2
176
     1
 90
        2
176
     1
 90
        1
176
     1
 90
        2
176
     1
 40
0.6
176
     1
 40
30.0
176
     1
 62
     7
420
 16777215
176
     1
 90
        0
176
     1
 90
        4
176
     1
 62
     7
176
     1
 62
   257
176
     1
 90
        1
176
     1
 90
        1
176
     1
 40
1.0
176
     1
 90
        8
176
     1
 62
   257
176
     1
 40
1.0
176
     1
 90
        1
176
     1
 90
        6
176
     1
 90
        2
176
     1
 62
     8
420
  7895160
176
     1
 90
        3
176
     1
 90
        0
176
     1
 90
        0
176
     1
290
     0
176
     1
 90
        5
176
     1
 40
0.0
176
     1
 90
        0
176
     1
290
     0
176
     1
290
     1
176
     1
290
     1
176
     1
290
     0
176
     1
290
     0
176
     1
290
     0
176
     1
290
     0
176
     1
290
     0
176
     1
290
     0
176
     1
 90
       50
176
     1
 40
0.0
176
     1
 40
1.0
176
     1
 90
        0
176
     1
 62
    18
420
        0
176
     1
 90
       50
176
     1
 90
        3
176
     1
 62
     5
420
      255
176
     1
290
     0
176
     1
 90
       50
176
     1
 90
       50
176
     1
 90
       50
176
     1
290
     0
176
     1
 90
       50
176
     1
 62
   256
176
     0
 40
1.0
176
     0
 90
        2
176
     1
  1
strokes_ogs.tif
176
     1
290
     0
176
     1
 40
1.0
176
     1
 40
1.0
176
     1
  0
VISUALSTYLE
  5
7E9A
102
{ACAD_REACTORS
330
7E86
102
}
330
7E86
100
AcDbVisualStyle
  2
Shaded with edges
 70
    26
177
     3
291
     0
 70
    58
 90
        2
176
     1
 90
        2
176
     1
 90
        1
176
     1
 90
        2
176
     1
 40
0.6
176
     1
 40
30.0
176
     1
 62
     7
420
 16777215
176
     1
 90
        1
176
     1
 90
       10
176
     1
 62
     7
176
     1
 62
   257
176
     1
 90
        2
176
     1
 90
        1
176
     1
 40
1.0
176
     1
 90
        8
176
     1
 62
   257
176
     1
 40
1.0
176
     1
 90
        1
176
     1
 90
        6
176
     1
 90
        2
176
     1
 62
     7
176
     1
 90
        3
176
     1
 90
        0
176
     1
 90
        0
176
     1
290
     0
176
     1
 90
        5
176
     1
 40
0.0
176
     1
 90
        0
176
     1
290
     0
176
     1
290
     1
176
     1
290
     1
176
     1
290
     0
176
     1
290
     0
176
     1
290
     0
176
     1
290
     0
176
     1
290
     0
176
     1
290
     0
176
     1
 90
       50
176
     1
 40
0.0
176
     1
 40
1.0
176
     1
 90
        0
176
     1
 62
    18
420
        0
176
     1
 90
       50
176
     1
 90
        3
176
     1
 62
     5
420
      255
176
     1
290
     0
176
     1
 90
       50
176
     1
 90
       50
176
     1
 90
       50
176
     1
290
     0
176
     1
 90
       50
176
     1
 62
   256
176
     0
 40
1.0
176
     0
 90
        2
176
     1
  1
strokes_ogs.tif
176
     1
290
     0
176
     1
 40
1.0
176
     1
 40
1.0
176
     1
  0
VISUALSTYLE
  5
7E97
102
{ACAD_REACTORS
330
7E86
102
}
330
7E86
100
AcDbVisualStyle
  2
Shades of Gray
 70
    23
177
     3
291
     0
 70
    58
 90
        2
176
     1
 90
        2
176
     1
 90
        3
176
     1
 90
        0
176
     1
 40
0.6
176
     1
 40
30.0
176
     1
 62
     7
420
 16777215
176
     1
 90
        2
176
     1
 90
        2
176
     1
 62
     7
176
     1
 62
     7
176
     1
 90
        1
176
     1
 90
        1
176
     1
 40
40.0
176
     1
 90
        8
176
     1
 62
     7
176
     1
 40
1.0
176
     1
 90
        1
176
     1
 90
        6
176
     1
 90
        2
176
     1
 62
     7
176
     1
 90
        3
176
     1
 90
        0
176
     1
 90
        0
176
     1
290
     0
176
     1
 90
        1
176
     1
 40
0.0
176
     1
 90
        0
176
     1
290
     0
176
     1
290
     1
176
     1
290
     1
176
     1
290
     0
176
     1
290
     0
176
     1
290
     0
176
     1
290
     0
176
     1
290
     0
176
     1
290
     0
176
     1
 90
       50
176
     1
 40
0.0
176
     1
 40
1.0
176
     1
 90
        0
176
     1
 62
    18
420
        0
176
     1
 90
       50
176
     1
 90
        3
176
     1
 62
     5
420
      255
176
     1
290
     0
176
     1
 90
       50
176
     1
 90
       50
176
     1
 90
       50
176
     1
290
     0
176
     1
 90
       50
176
     1
 62
   256
176
     0
 40
1.0
176
     0
 90
        2
176
     1
  1
strokes_ogs.tif
176
     1
290
     0
176
     1
 40
1.0
176
     1
 40
1.0
176
     1
  0
VISUALSTYLE
  5
7E98
102
{ACAD_REACTORS
330
7E86
102
}
330
7E86
100
AcDbVisualStyle
  2
Sketchy
 70
    24
177
     3
291
     0
 70
    58
 90
        1
176
     1
 90
        2
176
     1
 90
        2
176
     1
 90
        0
176
     1
 40
0.6
176
     1
 40
30.0
176
     1
 62
     7
420
 16777215
176
     1
 90
        2
176
     1
 90
        2
176
     1
 62
     7
176
     1
 62
     7
176
     1
 90
        1
176
     1
 90
        1
176
     1
 40
40.0
176
     1
 90
       11
176
     1
 62
     7
176
     1
 40
1.0
176
     1
 90
        1
176
     1
 90
        6
176
     1
 90
        2
176
     1
 62
     7
176
     1
 90
        6
176
     1
 90
        0
176
     1
 90
        0
176
     1
290
     0
176
     1
 90
        1
176
     1
 40
0.0
176
     1
 90
        0
176
     1
290
     0
176
     1
290
     1
176
     1
290
     1
176
     1
290
     0
176
     1
290
     0
176
     1
290
     0
176
     1
290
     0
176
     1
290
     0
176
     1
290
     0
176
     1
 90
       50
176
     1
 40
0.0
176
     1
 40
1.0
176
     1
 90
        0
176
     1
 62
    18
420
        0
176
     1
 90
       50
176
     1
 90
        3
176
     1
 62
     5
420
      255
176
     1
290
     0
176
     1
 90
       50
176
     1
 90
       50
176
     1
 90
       50
176
     1
290
     0
176
     1
 90
       50
176
     1
 62
   256
176
     0
 40
1.0
176
     0
 90
        2
176
     1
  1
strokes_ogs.tif
176
     1
290
     0
176
     1
 40
1.0
176
     1
 40
1.0
176
     1
  0
VISUALSTYLE
  5
7E93
102
{ACAD_REACTORS
330
7E86
102
}
330
7E86
100
AcDbVisualStyle
  2
Thicken
 70
    13
177
     3
291
     1
 70
    58
 90
        2
176
     1
 90
        2
176
     1
 90
        0
176
     1
 90
        0
176
     1
 40
0.6
176
     1
 40
30.0
176
     1
 62
     7
420
 16777215
176
     1
 90
        1
176
     1
 90
        4
176
     1
 62
     7
176
     1
 62
   257
176
     1
 90
        1
176
     1
 90
        1
176
     1
 40
1.0
176
     1
 90
       12
176
     1
 62
     7
176
     1
 40
1.0
176
     1
 90
        1
176
     1
 90
        6
176
     1
 90
        2
176
     1
 62
     7
176
     1
 90
        5
176
     1
 90
        0
176
     1
 90
        0
176
     1
290
     0
176
     1
 90
        1
176
     1
 40
0.0
176
     1
 90
        0
176
     1
290
     0
176
     1
290
     1
176
     1
290
     1
176
     1
290
     0
176
     1
290
     0
176
     1
290
     0
176
     1
290
     0
176
     1
290
     0
176
     1
290
     0
176
     1
 90
       50
176
     1
 40
0.0
176
     1
 40
1.0
176
     1
 90
        0
176
     1
 62
    18
420
        0
176
     1
 90
       50
176
     1
 90
        3
176
     1
 62
     5
420
      255
176
     1
290
     0
176
     1
 90
       50
176
     1
 90
       50
176
     1
 90
       50
176
     1
290
     0
176
     1
 90
       50
176
     1
 62
   256
176
     0
 40
1.0
176
     0
 90
        2
176
     1
  1
strokes_ogs.tif
176
     1
290
     0
176
     1
 40
1.0
176
     1
 40
1.0
176
     1
  0
VISUALSTYLE
  5
7E8D
102
{ACAD_REACTORS
330
7E86
102
}
330
7E86
100
AcDbVisualStyle
  2
Wireframe
 70
     5
177
     3
291
     0
 70
    58
 90
        0
176
     1
 90
        2
176
     1
 90
        0
176
     1
 90
        0
176
     1
 40
0.6
176
     1
 40
30.0
176
     1
 62
     7
420
 16777215
176
     1
 90
        1
176
     1
 90
        4
176
     1
 62
     7
176
     1
 62
   257
176
     1
 90
        1
176
     1
 90
        1
176
     1
 40
1.0
176
     1
 90
        0
176
     1
 62
   257
176
     1
 40
1.0
176
     1
 90
        1
176
     1
 90
        6
176
     1
 90
        2
176
     1
 62
     7
176
     1
 90
        3
176
     1
 90
        0
176
     1
 90
        0
176
     1
290
     0
176
     1
 90
        1
176
     1
 40
0.0
176
     1
 90
        0
176
     1
290
     0
176
     1
290
     1
176
     1
290
     1
176
     1
290
     0
176
     1
290
     0
176
     1
290
     0
176
     1
290
     0
176
     1
290
     0
176
     1
290
     0
176
     1
 90
       50
176
     1
 40
0.0
176
     1
 40
1.0
176
     1
 90
        0
176
     1
 62
    18
420
        0
176
     1
 90
       50
176
     1
 90
        3
176
     1
 62
     5
420
      255
176
     1
290
     0
176
     1
 90
       50
176
     1
 90
       50
176
     1
 90
       50
176
     1
290
     0
176
     1
 90
       50
176
     1
 62
   256
176
     0
 40
1.0
176
     0
 90
        2
176
     1
  1
strokes_ogs.tif
176
     1
290
     0
176
     1
 40
1.0
176
     1
 40
1.0
176
     1
  0
VISUALSTYLE
  5
7E99
102
{ACAD_REACTORS
330
7E86
102
}
330
7E86
100
AcDbVisualStyle
  2
X-Ray
 70
    25
177
     3
291
     0
 70
    58
 90
        2
176
     1
 90
        2
176
     1
 90
        1
176
     1
 90
        1
176
     1
 40
0.5
176
     1
 40
30.0
176
     1
 62
     7
420
 16777215
176
     1
 90
        1
176
     1
 90
        0
176
     1
 62
     7
176
     1
 62
   257
176
     1
 90
        1
176
     1
 90
        1
176
     1
 40
1.0
176
     1
 90
        8
176
     1
 62
     7
176
     1
 40
1.0
176
     1
 90
        1
176
     1
 90
        6
176
     1
 90
        2
176
     1
 62
     7
176
     1
 90
        3
176
     1
 90
        0
176
     1
 90
        0
176
     1
290
     0
176
     1
 90
       13
176
     1
 40
0.0
176
     1
 90
        0
176
     1
290
     0
176
     1
290
     1
176
     1
290
     1
176
     1
290
     0
176
     1
290
     0
176
     1
290
     0
176
     1
290
     0
176
     1
290
     0
176
     1
290
     0
176
     1
 90
       50
176
     1
 40
0.0
176
     1
 40
1.0
176
     1
 90
        0
176
     1
 62
    18
420
        0
176
     1
 90
       50
176
     1
 90
        3
176
     1
 62
     5
420
      255
176
     1
290
     0
176
     1
 90
       50
176
     1
 90
       50
176
     1
 90
       50
176
     1
290
     0
176
     1
 90
       50
176
     1
 62
   256
176
     0
 40
1.0
176
     0
 90
        2
176
     1
  1
strokes_ogs.tif
176
     1
290
     0
176
     1
 40
1.0
176
     1
 40
1.0
176
     1
  0
DICTIONARYVAR
  5
7F32
102
{ACAD_REACTORS
330
7E60
102
}
330
7E60
100
DictionaryVariables
280
     0
  1
1:1
  0
DICTIONARYVAR
  5
7F2E
102
{ACAD_REACTORS
330
7E60
102
}
330
7E60
100
DictionaryVariables
280
     0
  1
STANDARD
  0
DICTIONARYVAR
  5
7F2D
102
{ACAD_REACTORS
330
7E60
102
}
330
7E60
100
DictionaryVariables
280
     0
  1
STANDARD
  0
DICTIONARYVAR
  5
7F2F
102
{ACAD_REACTORS
330
7E60
102
}
330
7E60
100
DictionaryVariables
280
     0
  1
Imperial24
  0
DICTIONARYVAR
  5
7F30
102
{ACAD_REACTORS
330
7E60
102
}
330
7E60
100
DictionaryVariables
280
     0
  1
Imperial24
  0
DICTIONARYVAR
  5
7E61
102
{ACAD_REACTORS
330
7E60
102
}
330
7E60
100
DictionaryVariables
280
     0
  1
1
  0
DICTIONARYVAR
  5
7F34
102
{ACAD_REACTORS
330
7E60
102
}
330
7E60
100
DictionaryVariables
280
     0
  1
1
  0
DICTIONARYVAR
  5
7F35
102
{ACAD_REACTORS
330
7E60
102
}
330
7E60
100
DictionaryVariables
280
     0
  1
15
  0
DICTIONARYVAR
  5
7F33
102
{ACAD_REACTORS
330
7E60
102
}
330
7E60
100
DictionaryVariables
280
     0
  1
0
  0
DICTIONARYVAR
  5
7F31
102
{ACAD_REACTORS
330
7E60
102
}
330
7E60
100
DictionaryVariables
280
     0
  1
0
  0
DICTIONARY
  5
7F2A
330
7EB9
100
AcDbDictionary
280
     1
281
     1
  3
ACAD_XREC_ROUNDTRIP
360
7F60
  0
DICTIONARY
  5
7E77
330
7E76
100
AcDbDictionary
280
     1
281
     1
  3
BUMPTILE
360
7E79
  3
DIFFUSETILE
360
7E78
  3
OPACITYTILE
360
7E7C
  3
REFLECTIONTILE
360
7E7B
  3
REFRACTIONTILE
360
7E7D
  3
SPECULARTILE
360
7E7A
  0
DICTIONARY
  5
7E6F
330
7E6E
100
AcDbDictionary
280
     1
281
     1
  3
BUMPTILE
360
7E71
  3
DIFFUSETILE
360
7E70
  3
OPACITYTILE
360
7E74
  3
REFLECTIONTILE
360
7E73
  3
REFRACTIONTILE
360
7E75
  3
SPECULARTILE
360
7E72
  0
DICTIONARY
  5
7E7F
330
7E7E
100
AcDbDictionary
280
     1
281
     1
  3
BUMPTILE
360
7E81
  3
DIFFUSETILE
360
7E80
  3
OPACITYTILE
360
7E84
  3
REFLECTIONTILE
360
7E83
  3
REFRACTIONTILE
360
7E85
  3
SPECULARTILE
360
7E82
  0
DICTIONARY
  5
7F28
330
7EB7
100
AcDbDictionary
280
     1
281
     1
  3
ACAD_XREC_ROUNDTRIP
360
7F5F
  0
DICTIONARY
  5
7F5D
330
7EA1
100
AcDbDictionary
280
     1
281
     1
  3
ACAD_ROUNDTRIP_2008_TABLESTYLE_CELLSTYLEMAP
360
7F5E
  0
XRECORD
  5
7F60
102
{ACAD_REACTORS
330
7F2A
102
}
330
7F2A
100
AcDbXrecord
280
     1
102
DISPLAYNAME
  1
Imperial24
102
FLAGS
 90
        0
  0
XRECORD
  5
7E79
102
{ACAD_REACTORS
330
7E77
102
}
330
7E77
100
AcDbXrecord
280
     1
270
     1
271
     1
  0
XRECORD
  5
7E78
102
{ACAD_REACTORS
330
7E77
102
}
330
7E77
100
AcDbXrecord
280
     1
270
     1
271
     1
  0
XRECORD
  5
7E7C
102
{ACAD_REACTORS
330
7E77
102
}
330
7E77
100
AcDbXrecord
280
     1
270
     1
271
     1
  0
XRECORD
  5
7E7B
102
{ACAD_REACTORS
330
7E77
102
}
330
7E77
100
AcDbXrecord
280
     1
270
     1
271
     1
  0
XRECORD
  5
7E7D
102
{ACAD_REACTORS
330
7E77
102
}
330
7E77
100
AcDbXrecord
280
     1
270
     1
271
     1
  0
XRECORD
  5
7E7A
102
{ACAD_REACTORS
330
7E77
102
}
330
7E77
100
AcDbXrecord
280
     1
270
     1
271
     1
  0
XRECORD
  5
7E71
102
{ACAD_REACTORS
330
7E6F
102
}
330
7E6F
100
AcDbXrecord
280
     1
270
     1
271
     1
  0
XRECORD
  5
7E70
102
{ACAD_REACTORS
330
7E6F
102
}
330
7E6F
100
AcDbXrecord
280
     1
270
     1
271
     1
  0
XRECORD
  5
7E74
102
{ACAD_REACTORS
330
7E6F
102
}
330
7E6F
100
AcDbXrecord
280
     1
270
     1
271
     1
  0
XRECORD
  5
7E73
102
{ACAD_REACTORS
330
7E6F
102
}
330
7E6F
100
AcDbXrecord
280
     1
270
     1
271
     1
  0
XRECORD
  5
7E75
102
{ACAD_REACTORS
330
7E6F
102
}
330
7E6F
100
AcDbXrecord
280
     1
270
     1
271
     1
  0
XRECORD
  5
7E72
102
{ACAD_REACTORS
330
7E6F
102
}
330
7E6F
100
AcDbXrecord
280
     1
270
     1
271
     1
  0
XRECORD
  5
7E81
102
{ACAD_REACTORS
330
7E7F
102
}
330
7E7F
100
AcDbXrecord
280
     1
270
     1
271
     1
  0
XRECORD
  5
7E80
102
{ACAD_REACTORS
330
7E7F
102
}
330
7E7F
100
AcDbXrecord
280
     1
270
     1
271
     1
  0
XRECORD
  5
7E84
102
{ACAD_REACTORS
330
7E7F
102
}
330
7E7F
100
AcDbXrecord
280
     1
270
     1
271
     1
  0
XRECORD
  5
7E83
102
{ACAD_REACTORS
330
7E7F
102
}
330
7E7F
100
AcDbXrecord
280
     1
270
     1
271
     1
  0
XRECORD
  5
7E85
102
{ACAD_REACTORS
330
7E7F
102
}
330
7E7F
100
AcDbXrecord
280
     1
270
     1
271
     1
  0
XRECORD
  5
7E82
102
{ACAD_REACTORS
330
7E7F
102
}
330
7E7F
100
AcDbXrecord
280
     1
270
     1
271
     1
  0
XRECORD
  5
7F5F
102
{ACAD_REACTORS
330
7F28
102
}
330
7F28
100
AcDbXrecord
280
     1
102
DISPLAYNAME
  1
Imperial24
102
FLAGS
 90
        0
  0
CELLSTYLEMAP
  5
7F5E
102
{ACAD_REACTORS
330
7F5D
102
}
330
7F5D
100
AcDbCellStyleMap
 90
        3
300
CELLSTYLE
  1
TABLEFORMAT_BEGIN
 90
        5
170
     1
 91
        0
 92
    32768
 62
   257
 93
        1
300
CONTENTFORMAT
  1
CONTENTFORMAT_BEGIN
 90
        0
 91
        0
 92
      512
 93
        0
300

 40
0.0
140
1.0
 94
        5
 62
     0
340
10
144
0.25
309
CONTENTFORMAT_END
171
     0
 94
        0
309
TABLEFORMAT_END
  1
CELLSTYLE_BEGIN
 90
        1
 91
        1
300
_TITLE
309
CELLSTYLE_END
300
CELLSTYLE
  1
TABLEFORMAT_BEGIN
 90
        5
170
     1
 91
        0
 92
        0
 62
   257
 93
        1
300
CONTENTFORMAT
  1
CONTENTFORMAT_BEGIN
 90
        0
 91
        0
 92
      512
 93
        0
300

 40
0.0
140
1.0
 94
        5
 62
     0
340
10
144
0.18
309
CONTENTFORMAT_END
171
     0
 94
        0
309
TABLEFORMAT_END
  1
CELLSTYLE_BEGIN
 90
        2
 91
        1
300
_HEADER
309
CELLSTYLE_END
300
CELLSTYLE
  1
TABLEFORMAT_BEGIN
 90
        5
170
     1
 91
        0
 92
        0
 62
   257
 93
        1
300
CONTENTFORMAT
  1
CONTENTFORMAT_BEGIN
 90
        0
 91
        0
 92
      512
 93
        0
300

 40
0.0
140
1.0
 94
        2
 62
     0
340
10
144
0.18
309
CONTENTFORMAT_END
171
     0
 94
        0
309
TABLEFORMAT_END
  1
CELLSTYLE_BEGIN
 90
        3
 91
        2
300
_DATA
309
CELLSTYLE_END
  0
ENDSEC
  0
SECTION
  2
ACDSDATA
 70
     2
 71
     8
  0
ACDSSCHEMA
 90
        0
  1
AcDb_Thumbnail_Schema
  2
AcDbDs::ID
280
    10
 91
        8
  2
Thumbnail_Data
280
    15
 91
        0
101
ACDSRECORD
 95
        0
 90
        1
  2
AcDbDs::TreatedAsObjectData
280
     1
291
     1
101
ACDSRECORD
 95
        0
 90
        2
  2
AcDbDs::Legacy
280
     1
291
     1
101
ACDSRECORD
  1
AcDbDs::ID
 90
        3
  2
AcDs:Indexable
280
     1
291
     1
101
ACDSRECORD
  1
AcDbDs::ID
 90
        4
  2
AcDbDs::HandleAttribute
280
     7
282
     1
  0
ACDSSCHEMA
 90
        1
  1
AcDbDs::TreatedAsObjectDataSchema
  2
AcDbDs::TreatedAsObjectData
280
     1
 91
        0
  0
ACDSSCHEMA
 90
        2
  1
AcDbDs::LegacySchema
  2
AcDbDs::Legacy
280
     1
 91
        0
  0
ACDSSCHEMA
 90
        3
  1
AcDbDs::IndexedPropertySchema
  2
AcDs:Indexable
280
     1
 91
        0
  0
ACDSSCHEMA
 90
        4
  1
AcDbDs::HandleAttributeSchema
  2
AcDbDs::HandleAttribute
280
     7
 91
        1
284
     1
  0
ACDSRECORD
 90
        0
  2
AcDbDs::ID
280
    10
320
7D8B
  2
Thumbnail_Data
280
    15
 94
     1836
310
89504E470D0A1A0A0000000D49484452000001000000008208030000009EA3E63300000300504C5445000000000000C8C8C80000000000000000000000000000000000000000000000000000330000660000990000CC0000FF0033000033330033660033990033CC0033FF0066000066330066660066990066CC0066FF0099
310
000099330099660099990099CC0099FF00CC0000CC3300CC6600CC9900CCCC00CCFF00FF0000FF3300FF6600FF9900FFCC00FFFF3300003300333300663300993300CC3300FF3333003333333333663333993333CC3333FF3366003366333366663366993366CC3366FF3399003399333399663399993399CC3399FF33CC00
310
33CC3333CC6633CC9933CCCC33CCFF33FF0033FF3333FF6633FF9933FFCC33FFFF6600006600336600666600996600CC6600FF6633006633336633666633996633CC6633FF6666006666336666666666996666CC6666FF6699006699336699666699996699CC6699FF66CC0066CC3366CC6666CC9966CCCC66CCFF66FF0066
310
FF3366FF6666FF9966FFCC66FFFF9900009900339900669900999900CC9900FF9933009933339933669933999933CC9933FF9966009966339966669966999966CC9966FF9999009999339999669999999999CC9999FF99CC0099CC3399CC6699CC9999CCCC99CCFF99FF0099FF3399FF6699FF9999FFCC99FFFFCC0000CC00
310
33CC0066CC0099CC00CCCC00FFCC3300CC3333CC3366CC3399CC33CCCC33FFCC6600CC6633CC6666CC6699CC66CCCC66FFCC9900CC9933CC9966CC9999CC99CCCC99FFCCCC00CCCC33CCCC66CCCC99CCCCCCCCCCFFCCFF00CCFF33CCFF66CCFF99CCFFCCCCFFFFFF0000FF0033FF0066FF0099FF00CCFF00FFFF3300FF3333
310
FF3366FF3399FF33CCFF33FFFF6600FF6633FF6666FF6699FF66CCFF66FFFF9900FF9933FF9966FF9999FF99CCFF99FFFFCC00FFCC33FFCC66FFCC99FFCCCCFFCCFFFFFF00FFFF33FFFF66FFFF99FFFFCCFFFFFF0000000D0D0D1A1A1A2828283535354343435050505D5D5D6B6B6B787878868686939393A1A1A1AEAEAEBB
310
BBBBC9C9C9D6D6D6E4E4E4F1F1F1FFFFFF00000000000000000000000000000000000000000000000000000000000008F1915C000003D34944415478DAED9D578EE3300C40791CFFE8FE97D135F4BF635592A24B663140588849E23A089FD82CCB11C0374A9105DC48F960AB51004550D71700C1E4FD016008BCB940E16EE0
310
0980FE2C50FE42F427B2EFFB9F01E06F0194B5564DB899712923CAF52D05EFBFB6757D009A3E14C0E6D785060C4CAAE703B5008672ADCD3100A09A6E6C609E099A01F48A6659006D78AA6F19E68216A0BF45100C0001401F00EF95E03D9C3DC549FB572E292AB5149B50A8030AB7EF99061A00AD8DCF6A9B95F26506484702
310
A05711C62C60AB01B80594512FCF22D2ABF8D53C24242424242424C486A4F47844AE621EC0717F4400B00BA0CB3197DC0160161000DC03D8C43280A309FFC4AA7B748184BDC10B00F00EE0D6024C5782421DE00BC008878978410008002408BA070001C017005F95204F83AEAE056AFBDE0170E10255CB8314C5A3E5038079
310
00F9D9056CF70A4FC58EE743024000B00CA0AF0ADEEE0E40F605E08578B2007F312024242424242424242424E4A3ABA70070D17960FFCA9101C80E1BDF5C67C1EB16CD6CED3CD81600780F20B70860C0023E30EA2C9D6623B261ED5E0280DA93AE11C055D7E7F38D7002A0DD4DD3090070CBD585D46F8C240F16707EF74C00
310
D0DBA1791B1C815B1D8F9E39CE3BA76600FCD8731B244A544A7C6503A0301072004DF3539BBAF81980A4D00D6AF992B95DB7D7E902D7000417480AC340A6598F0D92BA7381340795A50920EB0490098053D103DE01E847E90730E438D8D3226C659C559F2339FF7E3EFBAB6E526C0179A6806E01D4CBAF2D00ED500B001800
310
58EF785D8A01497710CC7901A88D37225B73EC5E0CF42D6216D00D805EFB4F0029356D2A835E10B4B4B8D70149771DD02C005DCC76A55B1A9C11E18C773B00C102D455823280365274285979FC44F81D00CC20892C00C00080394C2E0D08A205EC00402D80950536009FB880D2FE3F01C05011C815CF631054DB099647BF66
310
5E1630F25EBAE8112000121F60AE0E00E90B23151ED139DD5A0068B600E4D8B78FCC003F749EA218C0CADDCFBF2172B9AA17C0D61BFCCE02B819E806C0B7FE421BCD0020003807B08580A707270DC5804CD2E0C5FD1011C09606E55F5E52510D230BC0D5819806B70E64C62CEB3583E50FFBBD6F5638498CF203BAEF2F0771
310
D75816BA8D44006B6FBFA256797B7059C007CF0CB181349AC748FCEE5B1B7AA8CAF54847CD912B24E4AFC4FD242B05F0FC6274CFABD3AD00D81BB44DA921CCB159D08C630E00A039D8D00628DB3424EA5D807BF4B280B56B6E181E63004004C1FF8A6FD66200DB333D00CDD6082C50D80E822B3694355363F16301780ED219
310
2EC01A801B34B8485A69DF18802FCC02FF006C1AB112B4CD211A0000000049454E44AE426082ED38B67647826E490000000049454E44AE426082
  0
ENDSEC
  0
EOF
