  0
SECTION
  2
HEADER
  9
$ACADVER
  1
AC1027
  9
$ACADMAINTVER
 70
    81
  9
$DWGCODEPAGE
  3
ANSI_932
  9
$LASTSAVEDBY
  1
reiko.miyawaki
  9
$REQUIREDVERSIONS
160
                 0
  9
$INSBASE
 10
0.0
 20
0.0
 30
0.0
  9
$EXTMIN
 10
250.0
 20
300.0
 30
0.0
  9
$EXTMAX
 10
1850.0
 20
2786.652262
 30
0.0
  9
$LIMMIN
 10
0.0
 20
0.0
  9
$LIMMAX
 10
297.0
 20
210.0
  9
$ORTHOMODE
 70
     0
  9
$REGENMODE
 70
     1
  9
$FILLMODE
 70
     0
  9
$QTEXTMODE
 70
     0
  9
$MIRRTEXT
 70
     1
  9
$LTSCALE
 40
100.0
  9
$ATTMODE
 70
     1
  9
$TEXTSIZE
 40
180.0
  9
$TRACEWID
 40
0.05
  9
$TEXTSTYLE
  7
STANDARD
  9
$CLAYER
  8
3
  9
$CELTYPE
  6
BYLAYER
  9
$CECOLOR
 62
   256
  9
$CELTSCALE
 40
1.0
  9
$DISPSILH
 70
     0
  9
$DIMSCALE
 40
10.0
  9
$DIMASZ
 40
2.0
  9
$DIMEXO
 40
0.5
  9
$DIMDLI
 40
10.0
  9
$DIMRND
 40
0.0
  9
$DIMDLE
 40
0.0
  9
$DIMEXE
 40
1.0
  9
$DIMTP
 40
1.0
  9
$DIMTM
 40
1.0
  9
$DIMTXT
 40
3.0
  9
$DIMCEN
 40
0.0
  9
$DIMTSZ
 40
0.0
  9
$DIMTOL
 70
     0
  9
$DIMLIM
 70
     0
  9
$DIMTIH
 70
     0
  9
$DIMTOH
 70
     0
  9
$DIMSE1
 70
     0
  9
$DIMSE2
 70
     0
  9
$DIMTAD
 70
     1
  9
$DIMZIN
 70
     8
  9
$DIMBLK
  1

  9
$DIMASO
 70
     1
  9
$DIMSHO
 70
     1
  9
$DIMPOST
  1
(<>)
  9
$DIMAPOST
  1

  9
$DIMALT
 70
     0
  9
$DIMALTD
 70
     2
  9
$DIMALTF
 40
0.039
  9
$DIMLFAC
 40
1.0
  9
$DIMTOFL
 70
     1
  9
$DIMTVP
 40
0.0
  9
$DIMTIX
 70
     0
  9
$DIMSOXD
 70
     0
  9
$DIMSAH
 70
     1
  9
$DIMBLK1
  1
OPEN
  9
$DIMBLK2
  1
OPEN
  9
$DIMSTYLE
  2
IGA
  9
$DIMCLRD
 70
     0
  9
$DIMCLRE
 70
     0
  9
$DIMCLRT
 70
     0
  9
$DIMTFAC
 40
10.0
  9
$DIMGAP
 40
1.0
  9
$DIMJUST
 70
     0
  9
$DIMSD1
 70
     0
  9
$DIMSD2
 70
     0
  9
$DIMTOLJ
 70
     1
  9
$DIMTZIN
 70
     8
  9
$DIMALTZ
 70
     0
  9
$DIMALTTZ
 70
     0
  9
$DIMUPT
 70
     0
  9
$DIMDEC
 70
     0
  9
$DIMTDEC
 70
     0
  9
$DIMALTU
 70
     2
  9
$DIMALTTD
 70
     2
  9
$DIMTXSTY
  7
STANDARD
  9
$DIMAUNIT
 70
     0
  9
$DIMADEC
 70
     0
  9
$DIMALTRND
 40
0.0
  9
$DIMAZIN
 70
     0
  9
$DIMDSEP
 70
    46
  9
$DIMATFIT
 70
     3
  9
$DIMFRAC
 70
     0
  9
$DIMLDRBLK
  1
OPEN
  9
$DIMLUNIT
 70
     2
  9
$DIMLWD
 70
    -2
  9
$DIMLWE
 70
    -2
  9
$DIMTMOVE
 70
     0
  9
$DIMFXL
 40
1.0
  9
$DIMFXLON
 70
     0
  9
$DIMJOGANG
 40
0.7853981633974483
  9
$DIMTFILL
 70
     0
  9
$DIMTFILLCLR
 70
     0
  9
$DIMARCSYM
 70
     0
  9
$DIMLTYPE
  6

  9
$DIMLTEX1
  6

  9
$DIMLTEX2
  6

  9
$DIMTXTDIRECTION
 70
     0
  9
$LUNITS
 70
     2
  9
$LUPREC
 70
     3
  9
$SKETCHINC
 40
0.1
  9
$FILLETRAD
 40
50.0
  9
$AUNITS
 70
     0
  9
$AUPREC
 70
     0
  9
$MENU
  1
acad
  9
$ELEVATION
 40
0.0
  9
$PELEVATION
 40
0.0
  9
$THICKNESS
 40
0.0
  9
$LIMCHECK
 70
     0
  9
$CHAMFERA
 40
0.5
  9
$CHAMFERB
 40
0.5
  9
$CHAMFERC
 40
20.0
  9
$CHAMFERD
 40
0.0
  9
$SKPOLY
 70
     0
  9
$TDCREATE
 40
2450738.632798148
  9
$TDUCREATE
 40
2450738.257798148
  9
$TDUPDATE
 40
2459024.539346088
  9
$TDUUPDATE
 40
2459024.164346088
  9
$TDINDWG
 40
0.0093720255
  9
$TDUSRTIMER
 40
0.0093720255
  9
$USRTIMER
 70
     1
  9
$ANGBASE
 50
0.0
  9
$ANGDIR
 70
     0
  9
$PDMODE
 70
     0
  9
$PDSIZE
 40
0.0
  9
$PLINEWID
 40
0.0
  9
$SPLFRAME
 70
     0
  9
$SPLINETYPE
 70
     6
  9
$SPLINESEGS
 70
     8
  9
$HANDSEED
  5
7FCA
  9
$SURFTAB1
 70
     6
  9
$SURFTAB2
 70
     6
  9
$SURFTYPE
 70
     6
  9
$SURFU
 70
     6
  9
$SURFV
 70
     6
  9
$UCSBASE
  2

  9
$UCSNAME
  2

  9
$UCSORG
 10
0.0
 20
0.0
 30
0.0
  9
$UCSXDIR
 10
1.0
 20
0.0
 30
0.0
  9
$UCSYDIR
 10
0.0
 20
1.0
 30
0.0
  9
$UCSORTHOREF
  2

  9
$UCSORTHOVIEW
 70
     0
  9
$UCSORGTOP
 10
0.0
 20
0.0
 30
0.0
  9
$UCSORGBOTTOM
 10
0.0
 20
0.0
 30
0.0
  9
$UCSORGLEFT
 10
0.0
 20
0.0
 30
0.0
  9
$UCSORGRIGHT
 10
0.0
 20
0.0
 30
0.0
  9
$UCSORGFRONT
 10
0.0
 20
0.0
 30
0.0
  9
$UCSORGBACK
 10
0.0
 20
0.0
 30
0.0
  9
$PUCSBASE
  2

  9
$PUCSNAME
  2

  9
$PUCSORG
 10
0.0
 20
0.0
 30
0.0
  9
$PUCSXDIR
 10
1.0
 20
0.0
 30
0.0
  9
$PUCSYDIR
 10
0.0
 20
1.0
 30
0.0
  9
$PUCSORTHOREF
  2

  9
$PUCSORTHOVIEW
 70
     0
  9
$PUCSORGTOP
 10
0.0
 20
0.0
 30
0.0
  9
$PUCSORGBOTTOM
 10
0.0
 20
0.0
 30
0.0
  9
$PUCSORGLEFT
 10
0.0
 20
0.0
 30
0.0
  9
$PUCSORGRIGHT
 10
0.0
 20
0.0
 30
0.0
  9
$PUCSORGFRONT
 10
0.0
 20
0.0
 30
0.0
  9
$PUCSORGBACK
 10
0.0
 20
0.0
 30
0.0
  9
$USERI1
 70
     0
  9
$USERI2
 70
     0
  9
$USERI3
 70
     0
  9
$USERI4
 70
     0
  9
$USERI5
 70
     0
  9
$USERR1
 40
0.0
  9
$USERR2
 40
0.0
  9
$USERR3
 40
0.0
  9
$USERR4
 40
0.0
  9
$USERR5
 40
0.0
  9
$WORLDVIEW
 70
     1
  9
$SHADEDGE
 70
     3
  9
$SHADEDIF
 70
    70
  9
$TILEMODE
 70
     1
  9
$MAXACTVP
 70
    16
  9
$PINSBASE
 10
0.0
 20
0.0
 30
0.0
  9
$PLIMCHECK
 70
     0
  9
$PEXTMIN
 10
1.000000000000000E+20
 20
1.000000000000000E+20
 30
1.000000000000000E+20
  9
$PEXTMAX
 10
-1.000000000000000E+20
 20
-1.000000000000000E+20
 30
-1.000000000000000E+20
  9
$PLIMMIN
 10
0.0
 20
0.0
  9
$PLIMMAX
 10
12.0
 20
9.0
  9
$UNITMODE
 70
     0
  9
$VISRETAIN
 70
     0
  9
$PLINEGEN
 70
     0
  9
$PSLTSCALE
 70
     1
  9
$TREEDEPTH
 70
  3020
  9
$CMLSTYLE
  2
STANDARD
  9
$CMLJUST
 70
     0
  9
$CMLSCALE
 40
20.0
  9
$PROXYGRAPHICS
 70
     1
  9
$MEASUREMENT
 70
     0
  9
$CELWEIGHT
370
    -1
  9
$ENDCAPS
280
     0
  9
$JOINSTYLE
280
     0
  9
$LWDISPLAY
290
     0
  9
$INSUNITS
 70
     0
  9
$HYPERLINKBASE
  1

  9
$STYLESHEET
  1

  9
$XEDIT
290
     1
  9
$CEPSNTYPE
380
     0
  9
$PSTYLEMODE
290
     1
  9
$FINGERPRINTGUID
  2
{977906EE-8F2F-4B2C-B1F2-54C2366DB446}
  9
$VERSIONGUID
  2
{22F4DAE6-5A9F-42BD-83F1-A9787B869845}
  9
$EXTNAMES
290
     1
  9
$PSVPSCALE
 40
0.0
  9
$OLESTARTUP
290
     0
  9
$SORTENTS
280
   127
  9
$INDEXCTL
280
     0
  9
$HIDETEXT
280
     0
  9
$XCLIPFRAME
280
     2
  9
$HALOGAP
280
     0
  9
$OBSCOLOR
 70
   257
  9
$OBSLTYPE
280
     0
  9
$INTERSECTIONDISPLAY
280
     0
  9
$INTERSECTIONCOLOR
 70
   257
  9
$DIMASSOC
280
     1
  9
$PROJECTNAME
  1

  9
$CAMERADISPLAY
290
     0
  9
$LENSLENGTH
 40
50.0
  9
$CAMERAHEIGHT
 40
0.0
  9
$STEPSPERSEC
 40
2.0
  9
$STEPSIZE
 40
6.0
  9
$3DDWFPREC
 40
2.0
  9
$PSOLWIDTH
 40
0.25
  9
$PSOLHEIGHT
 40
4.0
  9
$LOFTANG1
 40
1.570796326794896
  9
$LOFTANG2
 40
1.570796326794896
  9
$LOFTMAG1
 40
0.0
  9
$LOFTMAG2
 40
0.0
  9
$LOFTPARAM
 70
     7
  9
$LOFTNORMALS
280
     1
  9
$LATITUDE
 40
37.795
  9
$LONGITUDE
 40
-122.394
  9
$NORTHDIRECTION
 40
0.0
  9
$TIMEZONE
 70
 -8000
  9
$LIGHTGLYPHDISPLAY
280
     1
  9
$TILEMODELIGHTSYNCH
280
     1
  9
$CMATERIAL
347
7ED6
  9
$SOLIDHIST
280
     0
  9
$SHOWHIST
280
     1
  9
$DWFFRAME
280
     2
  9
$DGNFRAME
280
     0
  9
$REALWORLDSCALE
290
     1
  9
$INTERFERECOLOR
 62
     1
  9
$INTERFEREOBJVS
345
7EF8
  9
$INTERFEREVPVS
346
7EF5
  9
$CSHADOW
280
     0
  9
$SHADOWPLANELOCATION
 40
0.0
  0
ENDSEC
  0
SECTION
  2
CLASSES
  0
CLASS
  1
ACDBDICTIONARYWDFLT
  2
AcDbDictionaryWithDefault
  3
ObjectDBX Classes
 90
        0
 91
        1
280
     0
281
     0
  0
CLASS
  1
DICTIONARYVAR
  2
AcDbDictionaryVar
  3
ObjectDBX Classes
 90
        0
 91
       10
280
     0
281
     0
  0
CLASS
  1
MATERIAL
  2
AcDbMaterial
  3
ObjectDBX Classes
 90
     1153
 91
        3
280
     0
281
     0
  0
CLASS
  1
VISUALSTYLE
  2
AcDbVisualStyle
  3
ObjectDBX Classes
 90
     4095
 91
       24
280
     0
281
     0
  0
CLASS
  1
TABLESTYLE
  2
AcDbTableStyle
  3
ObjectDBX Classes
 90
     4095
 91
        1
280
     0
281
     0
  0
CLASS
  1
SCALE
  2
AcDbScale
  3
ObjectDBX Classes
 90
     1153
 91
       17
280
     0
281
     0
  0
CLASS
  1
MLEADERSTYLE
  2
AcDbMLeaderStyle
  3
ACDB_MLEADERSTYLE_CLASS
 90
     4095
 91
        1
280
     0
281
     0
  0
CLASS
  1
ACDBSECTIONVIEWSTYLE
  2
AcDbSectionViewStyle
  3
ObjectDBX Classes
 90
     1025
 91
        1
280
     0
281
     0
  0
CLASS
  1
ACDBDETAILVIEWSTYLE
  2
AcDbDetailViewStyle
  3
ObjectDBX Classes
 90
     1025
 91
        1
280
     0
281
     0
  0
CLASS
  1
CELLSTYLEMAP
  2
AcDbCellStyleMap
  3
ObjectDBX Classes
 90
     1152
 91
        1
280
     0
281
     0
  0
ENDSEC
  0
SECTION
  2
TABLES
  0
TABLE
  2
VPORT
  5
8
330
0
100
AcDbSymbolTable
 70
     1
  0
VPORT
  5
7ED3
330
8
100
AcDbSymbolTableRecord
100
AcDbViewportTableRecord
  2
*Active
 70
     0
 10
0.0
 20
0.0
 11
1.0
 21
1.0
 12
1049.982838315171
 22
1543.318750184234
 13
0.0
 23
0.0
 14
10.0
 24
10.0
 15
10.0
 25
10.0
 16
0.0
 26
0.0
 36
1.0
 17
0.0
 27
0.0
 37
0.0
 40
2505.100306070788
 41
1.957107843137254
 42
50.0
 43
0.0
 44
0.0
 50
0.0
 51
0.0
 71
     0
 72
   100
 73
     1
 74
     0
 75
     0
 76
     0
 77
     0
 78
     0
281
     0
 65
     1
110
0.0
120
0.0
130
0.0
111
1.0
121
0.0
131
0.0
112
0.0
122
1.0
132
0.0
 79
     0
146
0.0
348
7EF4
 60
     3
 61
     5
292
     1
282
     1
141
0.0
142
0.0
 63
   250
421
  3355443
1001
ACAD_NAV_VCDISPLAY
1070
     3
  0
ENDTAB
  0
TABLE
  2
LTYPE
  5
5
330
0
100
AcDbSymbolTable
 70
     2
  0
LTYPE
  5
13
330
5
100
AcDbSymbolTableRecord
100
AcDbLinetypeTableRecord
  2
BYBLOCK
 70
     0
  3

 72
    65
 73
     0
 40
0.0
  0
LTYPE
  5
14
330
5
100
AcDbSymbolTableRecord
100
AcDbLinetypeTableRecord
  2
BYLAYER
 70
     0
  3

 72
    65
 73
     0
 40
0.0
  0
LTYPE
  5
15
330
5
100
AcDbSymbolTableRecord
100
AcDbLinetypeTableRecord
  2
CONTINUOUS
 70
     0
  3
Solid line
 72
    65
 73
     0
 40
0.0
  0
LTYPE
  5
1F
330
5
100
AcDbSymbolTableRecord
100
AcDbLinetypeTableRecord
  2
CENTER
 70
     0
  3
____ _ ____ _ ____ _ ____ _ ____ _ ____ _ ____ 
 72
    65
 73
     4
 40
2.0
 49
1.25
 74
     0
 49
-0.25
 74
     0
 49
0.25
 74
     0
 49
-0.25
 74
     0
  0
ENDTAB
  0
TABLE
  2
LAYER
  5
2
102
{ACAD_XDICTIONARY
360
7F2C
102
}
330
0
100
AcDbSymbolTable
 70
     6
  0
LAYER
  5
F
102
{ACAD_XDICTIONARY
360
7F7F
102
}
330
2
100
AcDbSymbolTableRecord
100
AcDbLayerTableRecord
  2
0
 70
     0
 62
     7
  6
CONTINUOUS
370
    -3
390
7DF9
347
7EE6
348
0
  0
LAYER
  5
31
102
{ACAD_XDICTIONARY
360
7F81
102
}
330
2
100
AcDbSymbolTableRecord
100
AcDbLayerTableRecord
  2
3
 70
     0
 62
     2
  6
CONTINUOUS
370
    -3
390
7DF9
347
7EE6
348
0
  0
LAYER
  5
76D0
102
{ACAD_XDICTIONARY
360
7F83
102
}
330
2
100
AcDbSymbolTableRecord
100
AcDbLayerTableRecord
  2
2
 70
     0
 62
     3
  6
CENTER
370
    -3
390
7DF9
347
7EE6
348
0
  0
LAYER
  5
76D1
102
{ACAD_XDICTIONARY
360
7F85
102
}
330
2
100
AcDbSymbolTableRecord
100
AcDbLayerTableRecord
  2
1
 70
     0
 62
     4
  6
CONTINUOUS
370
    -3
390
7DF9
347
7EE6
348
0
  0
LAYER
  5
76D2
102
{ACAD_XDICTIONARY
360
7F87
102
}
330
2
100
AcDbSymbolTableRecord
100
AcDbLayerTableRecord
  2
4
 70
     0
 62
     7
  6
CONTINUOUS
370
    -3
390
7DF9
347
7EE6
348
0
  0
LAYER
  5
7B53
330
2
100
AcDbSymbolTableRecord
100
AcDbLayerTableRecord
  2
DEFPOINTS
 70
     0
 62
     7
  6
CONTINUOUS
290
     0
370
    -3
390
7DF9
347
7EE6
348
0
  0
ENDTAB
  0
TABLE
  2
STYLE
  5
3
330
0
100
AcDbSymbolTable
 70
     1
  0
STYLE
  5
10
330
3
100
AcDbSymbolTableRecord
100
AcDbTextStyleTableRecord
  2
STANDARD
 70
     0
 40
0.0
 41
1.0
 50
0.0
 71
     0
 42
180.0
  3
simplex.shx
  4
extfont.shx
  0
ENDTAB
  0
TABLE
  2
VIEW
  5
6
330
0
100
AcDbSymbolTable
 70
     0
  0
ENDTAB
  0
TABLE
  2
UCS
  5
7
330
0
100
AcDbSymbolTable
 70
     0
  0
ENDTAB
  0
TABLE
  2
APPID
  5
9
330
0
100
AcDbSymbolTable
 70
     4
  0
APPID
  5
11
330
9
100
AcDbSymbolTableRecord
100
AcDbRegAppTableRecord
  2
ACAD
 70
     0
  0
APPID
  5
7F2B
330
9
100
AcDbSymbolTableRecord
100
AcDbRegAppTableRecord
  2
ACAD_NAV_VCDISPLAY
 70
     0
  0
APPID
  5
7FA2
330
9
100
AcDbSymbolTableRecord
100
AcDbRegAppTableRecord
  2
AcadAnnoMonitorAlertIconDisabled
 70
     0
  0
APPID
  5
7FA3
330
9
100
AcDbSymbolTableRecord
100
AcDbRegAppTableRecord
  2
ACAD_EXEMPT_FROM_CAD_STANDARDS
 70
     0
  0
ENDTAB
  0
TABLE
  2
DIMSTYLE
  5
A
330
0
100
AcDbSymbolTable
 70
     1
100
AcDbDimStyleTable
 71
     0
  0
DIMSTYLE
105
1D
102
{ACAD_REACTORS
330
7B58
330
7B64
330
7B71
330
7B7E
330
7B8A
330
7BA3
330
7C2D
330
7C3A
330
7C4B
330
7C57
330
7C64
330
7C71
330
7C7F
330
7CA6
330
7DC0
330
7DD7
330
7DE4
330
7DF1
102
}
330
A
100
AcDbSymbolTableRecord
100
AcDbDimStyleTableRecord
  2
IGA
 70
     0
 40
2.0
 41
2.0
 42
0.5
 43
10.0
 44
1.0
 47
1.0
 48
1.0
 73
     0
 74
     0
 77
     1
 78
     8
140
3.0
141
0.0
143
0.03937
146
10.0
147
1.0
173
     1
271
     1
272
     0
279
     2
284
     8
340
10
341
7B45
343
7B45
344
7B45
  0
ENDTAB
  0
TABLE
  2
BLOCK_RECORD
  5
1
330
0
100
AcDbSymbolTable
 70
    21
  0
BLOCK_RECORD
  5
19
102
{ACAD_XDICTIONARY
360
7E27
102
}
330
1
100
AcDbSymbolTableRecord
100
AcDbBlockTableRecord
  2
*MODEL_SPACE
340
7DFC
 70
     0
280
     1
281
     0
  0
BLOCK_RECORD
  5
16
102
{ACAD_XDICTIONARY
360
7E25
102
}
330
1
100
AcDbSymbolTableRecord
100
AcDbBlockTableRecord
  2
*PAPER_SPACE
340
7DFD
 70
     0
280
     1
281
     0
  0
BLOCK_RECORD
  5
7B45
330
1
100
AcDbSymbolTableRecord
100
AcDbBlockTableRecord
  2
_OPEN
340
0
102
{BLKREFS
331
7E5B
331
7E5C
331
7E64
331
7E65
331
7E6D
331
7E6E
331
7E87
331
7E88
331
7E99
331
7E9A
331
7EA1
331
7EA2
331
7EAC
331
7EAD
331
7F3D
331
7F4E
331
7F4F
331
7F57
331
7F58
331
7F5F
331
7E41
331
7E42
331
7E4A
331
7E4B
331
7E52
331
7E53
331
7F60
331
7F68
331
7F69
331
7F70
331
7F71
331
7F7B
331
7FB1
331
7FB2
102
}
 70
     0
280
     1
281
     0
  0
BLOCK_RECORD
  5
7B4B
330
1
100
AcDbSymbolTableRecord
100
AcDbBlockTableRecord
  2
*D1
340
0
 70
     0
280
     1
281
     0
  0
BLOCK_RECORD
  5
7B59
330
1
100
AcDbSymbolTableRecord
100
AcDbBlockTableRecord
  2
*D2
340
0
 70
     0
280
     1
281
     0
  0
BLOCK_RECORD
  5
7B65
330
1
100
AcDbSymbolTableRecord
100
AcDbBlockTableRecord
  2
*D3
340
0
 70
     0
280
     1
281
     0
  0
BLOCK_RECORD
  5
7B72
330
1
100
AcDbSymbolTableRecord
100
AcDbBlockTableRecord
  2
*D4
340
0
 70
     0
280
     1
281
     0
  0
BLOCK_RECORD
  5
7B7F
330
1
100
AcDbSymbolTableRecord
100
AcDbBlockTableRecord
  2
*D5
340
0
 70
     0
280
     1
281
     0
  0
BLOCK_RECORD
  5
7B98
330
1
100
AcDbSymbolTableRecord
100
AcDbBlockTableRecord
  2
*D6
340
0
 70
     0
280
     1
281
     0
  0
BLOCK_RECORD
  5
7C21
330
1
100
AcDbSymbolTableRecord
100
AcDbBlockTableRecord
  2
*D7
340
0
 70
     0
280
     1
281
     0
  0
BLOCK_RECORD
  5
7C2E
330
1
100
AcDbSymbolTableRecord
100
AcDbBlockTableRecord
  2
*D8
340
0
 70
     0
280
     1
281
     0
  0
BLOCK_RECORD
  5
7C3F
330
1
100
AcDbSymbolTableRecord
100
AcDbBlockTableRecord
  2
*D9
340
0
 70
     0
280
     1
281
     0
  0
BLOCK_RECORD
  5
7C4C
330
1
100
AcDbSymbolTableRecord
100
AcDbBlockTableRecord
  2
*D10
340
0
 70
     0
280
     1
281
     0
  0
BLOCK_RECORD
  5
7C58
330
1
100
AcDbSymbolTableRecord
100
AcDbBlockTableRecord
  2
*D11
340
0
 70
     0
280
     1
281
     0
  0
BLOCK_RECORD
  5
7C65
330
1
100
AcDbSymbolTableRecord
100
AcDbBlockTableRecord
  2
*D12
340
0
 70
     0
280
     1
281
     0
  0
BLOCK_RECORD
  5
7C72
330
1
100
AcDbSymbolTableRecord
100
AcDbBlockTableRecord
  2
*D13
340
0
 70
     0
280
     1
281
     0
  0
BLOCK_RECORD
  5
7C9A
330
1
100
AcDbSymbolTableRecord
100
AcDbBlockTableRecord
  2
*D14
340
0
 70
     0
280
     1
281
     0
  0
BLOCK_RECORD
  5
7D30
330
1
100
AcDbSymbolTableRecord
100
AcDbBlockTableRecord
  2
_DOT
340
0
102
{BLKREFS
331
7F3C
331
7F7A
102
}
 70
     0
280
     1
281
     0
  0
BLOCK_RECORD
  5
7DB5
330
1
100
AcDbSymbolTableRecord
100
AcDbBlockTableRecord
  2
*D16
340
0
 70
     0
280
     1
281
     0
  0
BLOCK_RECORD
  5
7DC9
330
1
100
AcDbSymbolTableRecord
100
AcDbBlockTableRecord
  2
*D17
340
0
 70
     0
280
     1
281
     0
  0
BLOCK_RECORD
  5
7DD8
330
1
100
AcDbSymbolTableRecord
100
AcDbBlockTableRecord
  2
*D18
340
0
 70
     0
280
     1
281
     0
  0
BLOCK_RECORD
  5
7DE5
330
1
100
AcDbSymbolTableRecord
100
AcDbBlockTableRecord
  2
*D19
340
0
 70
     0
280
     1
281
     0
  0
BLOCK_RECORD
  5
7F25
330
1
100
AcDbSymbolTableRecord
100
AcDbBlockTableRecord
  2
_CLOSED
340
0
 70
     0
280
     1
281
     0
  0
ENDTAB
  0
ENDSEC
  0
SECTION
  2
BLOCKS
  0
BLOCK
  5
1A
330
19
100
AcDbEntity
  8
0
100
AcDbBlockBegin
  2
*MODEL_SPACE
 70
     0
 10
0.0
 20
0.0
 30
0.0
  3
*MODEL_SPACE
  1

  0
ENDBLK
  5
1B
330
19
100
AcDbEntity
  8
0
100
AcDbBlockEnd
  0
BLOCK
  5
17
330
16
100
AcDbEntity
 67
     1
  8
0
100
AcDbBlockBegin
  2
*PAPER_SPACE
 70
     0
 10
0.0
 20
0.0
 30
0.0
  3
*PAPER_SPACE
  1

  0
ENDBLK
  5
18
330
16
100
AcDbEntity
 67
     1
  8
0
100
AcDbBlockEnd
  0
BLOCK
  5
7B46
330
7B45
100
AcDbEntity
  8
0
100
AcDbBlockBegin
  2
_OPEN
 70
     0
 10
0.0
 20
0.0
 30
0.0
  3
_OPEN
  1

  0
LINE
  5
7B47
330
7B45
100
AcDbEntity
  8
0
  6
ByBlock
 62
     0
100
AcDbLine
 10
-1.0
 20
0.166667
 30
0.0
 11
0.0
 21
0.0
 31
0.0
  0
LINE
  5
7B48
330
7B45
100
AcDbEntity
  8
0
  6
ByBlock
 62
     0
100
AcDbLine
 10
0.0
 20
0.0
 30
0.0
 11
-1.0
 21
-0.166667
 31
0.0
  0
LINE
  5
7B49
330
7B45
100
AcDbEntity
  8
0
  6
ByBlock
 62
     0
100
AcDbLine
 10
0.0
 20
0.0
 30
0.0
 11
-1.0
 21
0.0
 31
0.0
  0
ENDBLK
  5
7B4A
330
7B45
100
AcDbEntity
  8
0
100
AcDbBlockEnd
  0
BLOCK
  5
7B4C
330
7B4B
100
AcDbEntity
  8
0
100
AcDbBlockBegin
  2
*D1
 70
     1
 10
0.0
 20
0.0
 30
0.0
  3
*D1
  1

  0
LINE
  5
7F54
330
7B4B
100
AcDbEntity
  8
3
  6
Continuous
 62
     0
440
 16777216
370
    -2
100
AcDbLine
 10
368.3646197636863
 20
714.9349611258925
 30
0.0
 11
368.3646197636863
 21
644.0851611258925
 31
0.0
  0
LINE
  5
7F55
330
7B4B
100
AcDbEntity
  8
3
  6
Continuous
 62
     0
440
 16777216
370
    -2
100
AcDbLine
 10
863.3646197636862
 20
739.9349611258925
 30
0.0
 11
863.3646197636862
 21
644.0851611258925
 31
0.0
  0
LINE
  5
7F56
330
7B4B
100
AcDbEntity
  8
3
  6
Continuous
 62
     0
440
 16777216
370
    -2
100
AcDbLine
 10
388.3646197636863
 20
654.0851611258926
 30
0.0
 11
843.3646197636861
 21
654.0851611258926
 31
0.0
  0
INSERT
  5
7F57
330
7B4B
100
AcDbEntity
  8
3
  6
Continuous
 62
     0
440
 16777216
370
    -2
100
AcDbBlockReference
  2
_OPEN
 10
368.3646197636863
 20
654.0851611258926
 30
0.0
 41
20.0
 42
20.0
 43
20.0
 50
180.0
  0
INSERT
  5
7F58
330
7B4B
100
AcDbEntity
  8
3
  6
Continuous
 62
     0
440
 16777216
370
    -2
100
AcDbBlockReference
  2
_OPEN
 10
863.3646197636862
 20
654.0851611258926
 30
0.0
 41
20.0
 42
20.0
 43
20.0
  0
MTEXT
  5
7F59
330
7B4B
100
AcDbEntity
  8
3
  6
Continuous
 62
     0
440
 16777216
100
AcDbMText
 10
617.3100567636861
 20
679.0851611258926
 30
0.0
 40
30.0
 41
0.0
 46
0.0
 71
     5
 72
     1
  1
\A1;495
 73
     1
 44
1.0
  0
POINT
  5
7F5A
330
7B4B
100
AcDbEntity
  8
DEFPOINTS
  6
Continuous
 62
     0
440
 16777216
100
AcDbPoint
 10
368.3646197636863
 20
719.9349611258925
 30
0.0
  0
POINT
  5
7F5B
330
7B4B
100
AcDbEntity
  8
DEFPOINTS
  6
Continuous
 62
     0
440
 16777216
100
AcDbPoint
 10
863.3646197636862
 20
744.9349611258925
 30
0.0
  0
POINT
  5
7F5C
330
7B4B
100
AcDbEntity
  8
DEFPOINTS
  6
Continuous
 62
     0
440
 16777216
100
AcDbPoint
 10
863.3646197636862
 20
654.0851611258926
 30
0.0
  0
ENDBLK
  5
7B57
330
7B4B
100
AcDbEntity
  8
0
100
AcDbBlockEnd
  0
BLOCK
  5
7B5A
330
7B59
100
AcDbEntity
  8
0
100
AcDbBlockBegin
  2
*D2
 70
     1
 10
0.0
 20
0.0
 30
0.0
  3
*D2
  1

  0
LINE
  5
7F5D
330
7B59
100
AcDbEntity
  8
3
  6
Continuous
 62
     0
440
 16777216
370
    -2
100
AcDbLine
 10
1048.364619763686
 20
714.9349611258925
 30
0.0
 11
1048.364619763686
 21
644.0851611258925
 31
0.0
  0
LINE
  5
7F5E
330
7B59
100
AcDbEntity
  8
3
  6
Continuous
 62
     0
440
 16777216
370
    -2
100
AcDbLine
 10
883.3646197636861
 20
654.0851611258926
 30
0.0
 11
1028.364619763686
 21
654.0851611258926
 31
0.0
  0
INSERT
  5
7F5F
330
7B59
100
AcDbEntity
  8
3
  6
Continuous
 62
     0
440
 16777216
370
    -2
100
AcDbBlockReference
  2
_OPEN
 10
863.3646197636862
 20
654.0851611258926
 30
0.0
 41
20.0
 42
20.0
 43
20.0
 50
180.0
  0
INSERT
  5
7F60
330
7B59
100
AcDbEntity
  8
3
  6
Continuous
 62
     0
440
 16777216
370
    -2
100
AcDbBlockReference
  2
_OPEN
 10
1048.364619763686
 20
654.0851611258926
 30
0.0
 41
20.0
 42
20.0
 43
20.0
  0
MTEXT
  5
7F61
330
7B59
100
AcDbEntity
  8
3
  6
Continuous
 62
     0
440
 16777216
100
AcDbMText
 10
955.8646197636862
 20
679.0851611258926
 30
0.0
 40
30.0
 41
0.0
 46
0.0
 71
     5
 72
     1
  1
\A1;185
 73
     1
 44
1.0
  0
POINT
  5
7F62
330
7B59
100
AcDbEntity
  8
DEFPOINTS
  6
Continuous
 62
     0
440
 16777216
100
AcDbPoint
 10
863.3646197636862
 20
744.9349611258925
 30
0.0
  0
POINT
  5
7F63
330
7B59
100
AcDbEntity
  8
DEFPOINTS
  6
Continuous
 62
     0
440
 16777216
100
AcDbPoint
 10
1048.364619763686
 20
719.9349611258925
 30
0.0
  0
POINT
  5
7F64
330
7B59
100
AcDbEntity
  8
DEFPOINTS
  6
Continuous
 62
     0
440
 16777216
100
AcDbPoint
 10
1048.364619763686
 20
654.0851611258926
 30
0.0
  0
ENDBLK
  5
7B63
330
7B59
100
AcDbEntity
  8
0
100
AcDbBlockEnd
  0
BLOCK
  5
7B66
330
7B65
100
AcDbEntity
  8
0
100
AcDbBlockBegin
  2
*D3
 70
     1
 10
0.0
 20
0.0
 30
0.0
  3
*D3
  1

  0
LINE
  5
7E3E
330
7B65
100
AcDbEntity
  8
3
  6
Continuous
 62
     0
440
 16777216
100
AcDbLine
 10
663.3646197636862
 20
1279.934961125893
 30
0.0
 11
663.3646197636862
 21
1324.151604125892
 31
0.0
  0
LINE
  5
7E3F
330
7B65
100
AcDbEntity
  8
3
  6
Continuous
 62
     0
440
 16777216
100
AcDbLine
 10
863.3646197636862
 20
1279.934961125893
 30
0.0
 11
863.3646197636862
 21
1324.151604125892
 31
0.0
  0
LINE
  5
7E40
330
7B65
100
AcDbEntity
  8
3
  6
Continuous
 62
     0
440
 16777216
100
AcDbLine
 10
683.3646197636861
 20
1314.151604125892
 30
0.0
 11
843.3646197636861
 21
1314.151604125892
 31
0.0
  0
INSERT
  5
7E41
330
7B65
100
AcDbEntity
  8
3
  6
Continuous
 62
     0
440
 16777216
100
AcDbBlockReference
  2
_OPEN
 10
663.3646197636862
 20
1314.151604125892
 30
0.0
 41
20.0
 42
20.0
 43
20.0
 50
180.0
  0
INSERT
  5
7E42
330
7B65
100
AcDbEntity
  8
3
  6
Continuous
 62
     0
440
 16777216
100
AcDbBlockReference
  2
_OPEN
 10
863.3646197636862
 20
1314.151604125892
 30
0.0
 41
20.0
 42
20.0
 43
20.0
  0
MTEXT
  5
7E43
330
7B65
100
AcDbEntity
  8
3
  6
Continuous
 62
     0
440
 16777216
100
AcDbMText
 10
762.8959217636862
 20
1339.151604125892
 30
0.0
 40
30.0
 41
0.0
 46
0.0
 71
     5
 72
     5
  1
\A1;200
 73
     1
 44
1.0
  0
POINT
  5
7E44
330
7B65
100
AcDbEntity
  8
DEFPOINTS
  6
Continuous
 62
     0
440
 16777216
100
AcDbPoint
 10
663.3646197636862
 20
1274.934961125892
 30
0.0
  0
POINT
  5
7E45
330
7B65
100
AcDbEntity
  8
DEFPOINTS
  6
Continuous
 62
     0
440
 16777216
100
AcDbPoint
 10
863.3646197636862
 20
1274.934961125892
 30
0.0
  0
POINT
  5
7E46
330
7B65
100
AcDbEntity
  8
DEFPOINTS
  6
Continuous
 62
     0
440
 16777216
100
AcDbPoint
 10
863.3646197636862
 20
1314.151604125892
 30
0.0
  0
ENDBLK
  5
7B70
330
7B65
100
AcDbEntity
  8
0
100
AcDbBlockEnd
  0
BLOCK
  5
7B73
330
7B72
100
AcDbEntity
  8
0
100
AcDbBlockBegin
  2
*D4
 70
     1
 10
0.0
 20
0.0
 30
0.0
  3
*D4
  1

  0
LINE
  5
7E47
330
7B72
100
AcDbEntity
  8
3
  6
Continuous
 62
     0
440
 16777216
100
AcDbLine
 10
652.3646197636861
 20
1264.934961125893
 30
0.0
 11
652.3646197636861
 21
1375.635699125892
 31
0.0
  0
LINE
  5
7E48
330
7B72
100
AcDbEntity
  8
3
  6
Continuous
 62
     0
440
 16777216
100
AcDbLine
 10
863.3646197636862
 20
1279.934961125893
 30
0.0
 11
863.3646197636862
 21
1375.635699125892
 31
0.0
  0
LINE
  5
7E49
330
7B72
100
AcDbEntity
  8
3
  6
Continuous
 62
     0
440
 16777216
100
AcDbLine
 10
672.3646197636861
 20
1365.635699125892
 30
0.0
 11
843.3646197636861
 21
1365.635699125892
 31
0.0
  0
INSERT
  5
7E4A
330
7B72
100
AcDbEntity
  8
3
  6
Continuous
 62
     0
440
 16777216
100
AcDbBlockReference
  2
_OPEN
 10
652.3646197636861
 20
1365.635699125892
 30
0.0
 41
20.0
 42
20.0
 43
20.0
 50
180.0
  0
INSERT
  5
7E4B
330
7B72
100
AcDbEntity
  8
3
  6
Continuous
 62
     0
440
 16777216
100
AcDbBlockReference
  2
_OPEN
 10
863.3646197636862
 20
1365.635699125892
 30
0.0
 41
20.0
 42
20.0
 43
20.0
  0
MTEXT
  5
7E4C
330
7B72
100
AcDbEntity
  8
3
  6
Continuous
 62
     0
440
 16777216
100
AcDbMText
 10
763.9225247636861
 20
1390.635699125893
 30
0.0
 40
30.0
 41
0.0
 46
0.0
 71
     5
 72
     5
  1
\A1;211
 73
     1
 44
1.0
  0
POINT
  5
7E4D
330
7B72
100
AcDbEntity
  8
DEFPOINTS
  6
Continuous
 62
     0
440
 16777216
100
AcDbPoint
 10
652.3646197636861
 20
1259.934961125892
 30
0.0
  0
POINT
  5
7E4E
330
7B72
100
AcDbEntity
  8
DEFPOINTS
  6
Continuous
 62
     0
440
 16777216
100
AcDbPoint
 10
863.3646197636862
 20
1274.934961125892
 30
0.0
  0
POINT
  5
7E4F
330
7B72
100
AcDbEntity
  8
DEFPOINTS
  6
Continuous
 62
     0
440
 16777216
100
AcDbPoint
 10
863.3646197636862
 20
1365.635699125892
 30
0.0
  0
ENDBLK
  5
7B7D
330
7B72
100
AcDbEntity
  8
0
100
AcDbBlockEnd
  0
BLOCK
  5
7B80
330
7B7F
100
AcDbEntity
  8
0
100
AcDbBlockBegin
  2
*D5
 70
     1
 10
0.0
 20
0.0
 30
0.0
  3
*D5
  1

  0
LINE
  5
7E50
330
7B7F
100
AcDbEntity
  8
3
  6
Continuous
 62
     0
440
 16777216
100
AcDbLine
 10
1013.931808763686
 20
1119.934961125892
 30
0.0
 11
1013.931808763686
 21
1375.635699125892
 31
0.0
  0
LINE
  5
7E51
330
7B7F
100
AcDbEntity
  8
3
  6
Continuous
 62
     0
440
 16777216
100
AcDbLine
 10
883.3646197636861
 20
1365.635699125892
 30
0.0
 11
993.9318087636861
 21
1365.635699125892
 31
0.0
  0
INSERT
  5
7E52
330
7B7F
100
AcDbEntity
  8
3
  6
Continuous
 62
     0
440
 16777216
100
AcDbBlockReference
  2
_OPEN
 10
863.3646197636862
 20
1365.635699125892
 30
0.0
 41
20.0
 42
20.0
 43
20.0
 50
180.0
  0
INSERT
  5
7E53
330
7B7F
100
AcDbEntity
  8
3
  6
Continuous
 62
     0
440
 16777216
100
AcDbBlockReference
  2
_OPEN
 10
1013.931808763686
 20
1365.635699125892
 30
0.0
 41
20.0
 42
20.0
 43
20.0
  0
MTEXT
  5
7E54
330
7B7F
100
AcDbEntity
  8
3
  6
Continuous
 62
     0
440
 16777216
100
AcDbMText
 10
938.6482142636863
 20
1390.635699125893
 30
0.0
 40
30.0
 41
0.0
 46
0.0
 71
     5
 72
     5
  1
\A1;151
 73
     1
 44
1.0
  0
POINT
  5
7E55
330
7B7F
100
AcDbEntity
  8
DEFPOINTS
  6
Continuous
 62
     0
440
 16777216
100
AcDbPoint
 10
863.3646197636862
 20
1274.934961125892
 30
0.0
  0
POINT
  5
7E56
330
7B7F
100
AcDbEntity
  8
DEFPOINTS
  6
Continuous
 62
     0
440
 16777216
100
AcDbPoint
 10
1013.931808763686
 20
1114.934961125892
 30
0.0
  0
POINT
  5
7E57
330
7B7F
100
AcDbEntity
  8
DEFPOINTS
  6
Continuous
 62
     0
440
 16777216
100
AcDbPoint
 10
1013.931808763686
 20
1365.635699125892
 30
0.0
  0
ENDBLK
  5
7B89
330
7B7F
100
AcDbEntity
  8
0
100
AcDbBlockEnd
  0
BLOCK
  5
7D66
330
7B98
100
AcDbEntity
  8
0
100
AcDbBlockBegin
  2
*D6
 70
     1
 10
0.0
 20
0.0
 30
0.0
  3
*D6
  1

  0
LINE
  5
7E58
330
7B98
100
AcDbEntity
  8
3
  6
Continuous
 62
     0
440
 16777216
100
AcDbLine
 10
1018.931808763686
 20
1114.934961125892
 30
0.0
 11
1150.061727124102
 21
1114.934961125892
 31
0.0
  0
LINE
  5
7E59
330
7B98
100
AcDbEntity
  8
3
  6
Continuous
 62
     0
440
 16777216
100
AcDbLine
 10
1028.364619763686
 20
839.9349611258925
 30
0.0
 11
1150.061727124102
 21
839.9349611258925
 31
0.0
  0
LINE
  5
7E5A
330
7B98
100
AcDbEntity
  8
3
  6
Continuous
 62
     0
440
 16777216
100
AcDbLine
 10
1140.061727124102
 20
1094.934961125892
 30
0.0
 11
1140.061727124102
 21
859.9349611258926
 31
0.0
  0
INSERT
  5
7E5B
330
7B98
100
AcDbEntity
  8
3
  6
Continuous
 62
     0
440
 16777216
100
AcDbBlockReference
  2
_OPEN
 10
1140.061727124102
 20
1114.934961125892
 30
0.0
 41
20.0
 42
20.0
 43
20.0
 50
90.0
  0
INSERT
  5
7E5C
330
7B98
100
AcDbEntity
  8
3
  6
Continuous
 62
     0
440
 16777216
100
AcDbBlockReference
  2
_OPEN
 10
1140.061727124102
 20
839.9349611258925
 30
0.0
 41
20.0
 42
20.0
 43
20.0
 50
270.0
  0
MTEXT
  5
7E5D
330
7B98
100
AcDbEntity
  8
3
  6
Continuous
 62
     0
440
 16777216
100
AcDbMText
 10
1115.061727124102
 20
977.4349611258926
 30
0.0
 40
30.0
 41
0.0
 46
0.0
 71
     5
 72
     5
  1
\A1;275
 11
0.0000000000000001
 21
1.0
 31
0.0
 73
     1
 44
1.0
  0
POINT
  5
7E5E
330
7B98
100
AcDbEntity
  8
DEFPOINTS
  6
Continuous
 62
     0
440
 16777216
100
AcDbPoint
 10
1013.931808763686
 20
1114.934961125892
 30
0.0
  0
POINT
  5
7E5F
330
7B98
100
AcDbEntity
  8
DEFPOINTS
  6
Continuous
 62
     0
440
 16777216
100
AcDbPoint
 10
1023.364619763686
 20
839.9349611258925
 30
0.0
  0
POINT
  5
7E60
330
7B98
100
AcDbEntity
  8
DEFPOINTS
  6
Continuous
 62
     0
440
 16777216
100
AcDbPoint
 10
1140.061727124102
 20
839.9349611258925
 30
0.0
  0
ENDBLK
  5
7D70
330
7B98
100
AcDbEntity
  8
0
100
AcDbBlockEnd
  0
BLOCK
  5
7C22
330
7C21
100
AcDbEntity
  8
0
100
AcDbBlockBegin
  2
*D7
 70
     1
 10
0.0
 20
0.0
 30
0.0
  3
*D7
  1

  0
LINE
  5
7E61
330
7C21
100
AcDbEntity
  8
3
  6
Continuous
 62
     0
440
 16777216
100
AcDbLine
 10
368.3646197636863
 20
1735.949159109764
 30
0.0
 11
368.3646197636863
 21
1644.682605109764
 31
0.0
  0
LINE
  5
7E62
330
7C21
100
AcDbEntity
  8
3
  6
Continuous
 62
     0
440
 16777216
100
AcDbLine
 10
1048.364619763686
 20
1735.949159109764
 30
0.0
 11
1048.364619763686
 21
1644.682605109764
 31
0.0
  0
LINE
  5
7E63
330
7C21
100
AcDbEntity
  8
3
  6
Continuous
 62
     0
440
 16777216
100
AcDbLine
 10
388.3646197636863
 20
1654.682605109763
 30
0.0
 11
1028.364619763686
 21
1654.682605109763
 31
0.0
  0
INSERT
  5
7E64
330
7C21
100
AcDbEntity
  8
3
  6
Continuous
 62
     0
440
 16777216
100
AcDbBlockReference
  2
_OPEN
 10
368.3646197636863
 20
1654.682605109763
 30
0.0
 41
20.0
 42
20.0
 43
20.0
 50
180.0
  0
INSERT
  5
7E65
330
7C21
100
AcDbEntity
  8
3
  6
Continuous
 62
     0
440
 16777216
100
AcDbBlockReference
  2
_OPEN
 10
1048.364619763686
 20
1654.682605109763
 30
0.0
 41
20.0
 42
20.0
 43
20.0
  0
MTEXT
  5
7E66
330
7C21
100
AcDbEntity
  8
3
  6
Continuous
 62
     0
440
 16777216
100
AcDbMText
 10
714.3168837636862
 20
1679.682605109763
 30
0.0
 40
30.0
 41
0.0
 46
0.0
 71
     5
 72
     5
  1
\A1;680
 73
     1
 44
1.0
  0
POINT
  5
7E67
330
7C21
100
AcDbEntity
  8
DEFPOINTS
  6
Continuous
 62
     0
440
 16777216
100
AcDbPoint
 10
368.3646197636863
 20
1740.949159109764
 30
0.0
  0
POINT
  5
7E68
330
7C21
100
AcDbEntity
  8
DEFPOINTS
  6
Continuous
 62
     0
440
 16777216
100
AcDbPoint
 10
1048.364619763686
 20
1740.949159109764
 30
0.0
  0
POINT
  5
7E69
330
7C21
100
AcDbEntity
  8
DEFPOINTS
  6
Continuous
 62
     0
440
 16777216
100
AcDbPoint
 10
1048.364619763686
 20
1654.682605109763
 30
0.0
  0
ENDBLK
  5
7C2C
330
7C21
100
AcDbEntity
  8
0
100
AcDbBlockEnd
  0
BLOCK
  5
7C2F
330
7C2E
100
AcDbEntity
  8
0
100
AcDbBlockBegin
  2
*D8
 70
     1
 10
0.0
 20
0.0
 30
0.0
  3
*D8
  1

  0
LINE
  5
7E6A
330
7C2E
100
AcDbEntity
  8
3
  6
Continuous
 62
     0
440
 16777216
100
AcDbLine
 10
1053.364619763686
 20
2170.949159109763
 30
0.0
 11
1138.243771763686
 21
2170.949159109763
 31
0.0
  0
LINE
  5
7E6B
330
7C2E
100
AcDbEntity
  8
3
  6
Continuous
 62
     0
440
 16777216
100
AcDbLine
 10
1053.364619763686
 20
1740.949159109764
 30
0.0
 11
1138.243771763686
 21
1740.949159109764
 31
0.0
  0
LINE
  5
7E6C
330
7C2E
100
AcDbEntity
  8
3
  6
Continuous
 62
     0
440
 16777216
100
AcDbLine
 10
1128.243771763686
 20
2150.949159109764
 30
0.0
 11
1128.243771763686
 21
1760.949159109763
 31
0.0
  0
INSERT
  5
7E6D
330
7C2E
100
AcDbEntity
  8
3
  6
Continuous
 62
     0
440
 16777216
100
AcDbBlockReference
  2
_OPEN
 10
1128.243771763686
 20
2170.949159109763
 30
0.0
 41
20.0
 42
20.0
 43
20.0
 50
90.0
  0
INSERT
  5
7E6E
330
7C2E
100
AcDbEntity
  8
3
  6
Continuous
 62
     0
440
 16777216
100
AcDbBlockReference
  2
_OPEN
 10
1128.243771763686
 20
1740.949159109764
 30
0.0
 41
20.0
 42
20.0
 43
20.0
 50
270.0
  0
MTEXT
  5
7E6F
330
7C2E
100
AcDbEntity
  8
3
  6
Continuous
 62
     0
440
 16777216
100
AcDbMText
 10
1103.243771763686
 20
1943.485814109764
 30
0.0
 40
30.0
 41
0.0
 46
0.0
 71
     5
 72
     5
  1
\A1;430
 11
0.0000000000000001
 21
1.0
 31
0.0
 73
     1
 44
1.0
  0
POINT
  5
7E70
330
7C2E
100
AcDbEntity
  8
DEFPOINTS
  6
Continuous
 62
     0
440
 16777216
100
AcDbPoint
 10
1048.364619763686
 20
2170.949159109763
 30
0.0
  0
POINT
  5
7E71
330
7C2E
100
AcDbEntity
  8
DEFPOINTS
  6
Continuous
 62
     0
440
 16777216
100
AcDbPoint
 10
1048.364619763686
 20
1740.949159109764
 30
0.0
  0
POINT
  5
7E72
330
7C2E
100
AcDbEntity
  8
DEFPOINTS
  6
Continuous
 62
     0
440
 16777216
100
AcDbPoint
 10
1128.243771763686
 20
1740.949159109764
 30
0.0
  0
ENDBLK
  5
7C39
330
7C2E
100
AcDbEntity
  8
0
100
AcDbBlockEnd
  0
BLOCK
  5
7C40
330
7C3F
100
AcDbEntity
  8
0
100
AcDbBlockBegin
  2
*D9
 70
     1
 10
0.0
 20
0.0
 30
0.0
  3
*D9
  1

  0
LINE
  5
7F65
330
7C3F
100
AcDbEntity
  8
3
  6
Continuous
 62
     0
440
 16777216
370
    -2
100
AcDbLine
 10
1375.927835965424
 20
714.9349611258925
 30
0.0
 11
1375.927835965424
 21
643.3893471258926
 31
0.0
  0
LINE
  5
7F66
330
7C3F
100
AcDbEntity
  8
3
  6
Continuous
 62
     0
440
 16777216
370
    -2
100
AcDbLine
 10
1673.927835965424
 20
714.9349611258925
 30
0.0
 11
1673.927835965424
 21
643.3893471258926
 31
0.0
  0
LINE
  5
7F67
330
7C3F
100
AcDbEntity
  8
3
  6
Continuous
 62
     0
440
 16777216
370
    -2
100
AcDbLine
 10
1395.927835965424
 20
653.3893471258926
 30
0.0
 11
1653.927835965424
 21
653.3893471258926
 31
0.0
  0
INSERT
  5
7F68
330
7C3F
100
AcDbEntity
  8
3
  6
Continuous
 62
     0
440
 16777216
370
    -2
100
AcDbBlockReference
  2
_OPEN
 10
1375.927835965424
 20
653.3893471258926
 30
0.0
 41
20.0
 42
20.0
 43
20.0
 50
180.0
  0
INSERT
  5
7F69
330
7C3F
100
AcDbEntity
  8
3
  6
Continuous
 62
     0
440
 16777216
370
    -2
100
AcDbBlockReference
  2
_OPEN
 10
1673.927835965424
 20
653.3893471258926
 30
0.0
 41
20.0
 42
20.0
 43
20.0
  0
MTEXT
  5
7F6A
330
7C3F
100
AcDbEntity
  8
3
  6
Continuous
 62
     0
440
 16777216
100
AcDbMText
 10
1536.377337965424
 20
678.3893471258926
 30
0.0
 40
30.0
 41
0.0
 46
0.0
 71
     5
 72
     1
  1
\A1;298
 73
     1
 44
1.0
  0
POINT
  5
7F6B
330
7C3F
100
AcDbEntity
  8
DEFPOINTS
  6
Continuous
 62
     0
440
 16777216
100
AcDbPoint
 10
1375.927835965424
 20
719.9349611258925
 30
0.0
  0
POINT
  5
7F6C
330
7C3F
100
AcDbEntity
  8
DEFPOINTS
  6
Continuous
 62
     0
440
 16777216
100
AcDbPoint
 10
1673.927835965424
 20
719.9349611258925
 30
0.0
  0
POINT
  5
7F6D
330
7C3F
100
AcDbEntity
  8
DEFPOINTS
  6
Continuous
 62
     0
440
 16777216
100
AcDbPoint
 10
1673.927835965424
 20
653.3893471258926
 30
0.0
  0
ENDBLK
  5
7C4A
330
7C3F
100
AcDbEntity
  8
0
100
AcDbBlockEnd
  0
BLOCK
  5
7C4D
330
7C4C
100
AcDbEntity
  8
0
100
AcDbBlockBegin
  2
*D10
 70
     1
 10
0.0
 20
0.0
 30
0.0
  3
*D10
  1

  0
LINE
  5
7F6E
330
7C4C
100
AcDbEntity
  8
3
  6
Continuous
 62
     0
440
 16777216
370
    -2
100
AcDbLine
 10
1805.927835965424
 20
714.9349611258925
 30
0.0
 11
1805.927835965424
 21
643.3893471258926
 31
0.0
  0
LINE
  5
7F6F
330
7C4C
100
AcDbEntity
  8
3
  6
Continuous
 62
     0
440
 16777216
370
    -2
100
AcDbLine
 10
1693.927835965424
 20
653.3893471258926
 30
0.0
 11
1785.927835965424
 21
653.3893471258926
 31
0.0
  0
INSERT
  5
7F70
330
7C4C
100
AcDbEntity
  8
3
  6
Continuous
 62
     0
440
 16777216
370
    -2
100
AcDbBlockReference
  2
_OPEN
 10
1673.927835965424
 20
653.3893471258926
 30
0.0
 41
20.0
 42
20.0
 43
20.0
 50
180.0
  0
INSERT
  5
7F71
330
7C4C
100
AcDbEntity
  8
3
  6
Continuous
 62
     0
440
 16777216
370
    -2
100
AcDbBlockReference
  2
_OPEN
 10
1805.927835965424
 20
653.3893471258926
 30
0.0
 41
20.0
 42
20.0
 43
20.0
  0
MTEXT
  5
7F72
330
7C4C
100
AcDbEntity
  8
3
  6
Continuous
 62
     0
440
 16777216
100
AcDbMText
 10
1739.927835965424
 20
678.3893471258926
 30
0.0
 40
30.0
 41
0.0
 46
0.0
 71
     5
 72
     1
  1
\A1;132
 73
     1
 44
1.0
  0
POINT
  5
7F73
330
7C4C
100
AcDbEntity
  8
DEFPOINTS
  6
Continuous
 62
     0
440
 16777216
100
AcDbPoint
 10
1673.927835965424
 20
719.9349611258925
 30
0.0
  0
POINT
  5
7F74
330
7C4C
100
AcDbEntity
  8
DEFPOINTS
  6
Continuous
 62
     0
440
 16777216
100
AcDbPoint
 10
1805.927835965424
 20
719.9349611258925
 30
0.0
  0
POINT
  5
7F75
330
7C4C
100
AcDbEntity
  8
DEFPOINTS
  6
Continuous
 62
     0
440
 16777216
100
AcDbPoint
 10
1805.927835965424
 20
653.3893471258926
 30
0.0
  0
ENDBLK
  5
7C56
330
7C4C
100
AcDbEntity
  8
0
100
AcDbBlockEnd
  0
BLOCK
  5
7C59
330
7C58
100
AcDbEntity
  8
0
100
AcDbBlockBegin
  2
*D11
 70
     1
 10
0.0
 20
0.0
 30
0.0
  3
*D11
  1

  0
LINE
  5
7E84
330
7C58
100
AcDbEntity
  8
3
  6
Continuous
 62
     0
440
 16777216
100
AcDbLine
 10
1603.927835965424
 20
1278.934961125893
 30
0.0
 11
1603.927835965424
 21
1321.814314125893
 31
0.0
  0
LINE
  5
7E85
330
7C58
100
AcDbEntity
  8
3
  6
Continuous
 62
     0
440
 16777216
100
AcDbLine
 10
1743.927835965424
 20
1278.934961125893
 30
0.0
 11
1743.927835965424
 21
1321.814314125893
 31
0.0
  0
LINE
  5
7E86
330
7C58
100
AcDbEntity
  8
3
  6
Continuous
 62
     0
440
 16777216
100
AcDbLine
 10
1623.927835965424
 20
1311.814314125892
 30
0.0
 11
1723.927835965424
 21
1311.814314125892
 31
0.0
  0
INSERT
  5
7E87
330
7C58
100
AcDbEntity
  8
3
  6
Continuous
 62
     0
440
 16777216
100
AcDbBlockReference
  2
_OPEN
 10
1603.927835965424
 20
1311.814314125892
 30
0.0
 41
20.0
 42
20.0
 43
20.0
 50
180.0
  0
INSERT
  5
7E88
330
7C58
100
AcDbEntity
  8
3
  6
Continuous
 62
     0
440
 16777216
100
AcDbBlockReference
  2
_OPEN
 10
1743.927835965424
 20
1311.814314125892
 30
0.0
 41
20.0
 42
20.0
 43
20.0
  0
MTEXT
  5
7E89
330
7C58
100
AcDbEntity
  8
3
  6
Continuous
 62
     0
440
 16777216
100
AcDbMText
 10
1678.213550965424
 20
1336.814314125893
 30
0.0
 40
30.0
 41
0.0
 46
0.0
 71
     5
 72
     5
  1
\A1;140
 73
     1
 44
1.0
  0
POINT
  5
7E8A
330
7C58
100
AcDbEntity
  8
DEFPOINTS
  6
Continuous
 62
     0
440
 16777216
100
AcDbPoint
 10
1603.927835965424
 20
1273.934961125892
 30
0.0
  0
POINT
  5
7E8B
330
7C58
100
AcDbEntity
  8
DEFPOINTS
  6
Continuous
 62
     0
440
 16777216
100
AcDbPoint
 10
1743.927835965424
 20
1273.934961125892
 30
0.0
  0
POINT
  5
7E8C
330
7C58
100
AcDbEntity
  8
DEFPOINTS
  6
Continuous
 62
     0
440
 16777216
100
AcDbPoint
 10
1743.927835965424
 20
1311.814314125892
 30
0.0
  0
ENDBLK
  5
7C63
330
7C58
100
AcDbEntity
  8
0
100
AcDbBlockEnd
  0
BLOCK
  5
7D96
330
7C65
100
AcDbEntity
  8
0
100
AcDbBlockBegin
  2
*D12
 70
     1
 10
0.0
 20
0.0
 30
0.0
  3
*D12
  1

  0
LINE
  5
7FAE
330
7C65
100
AcDbEntity
  8
3
  6
Continuous
 62
     0
440
 16777216
370
    -2
100
AcDbLine
 10
1373.927835965424
 20
1229.934961125892
 30
0.0
 11
1373.927835965424
 21
1384.169554125892
 31
0.0
  0
LINE
  5
7FAF
330
7C65
100
AcDbEntity
  8
3
  6
Continuous
 62
     0
440
 16777216
370
    -2
100
AcDbLine
 10
1673.927835965424
 20
1363.299278125893
 30
0.0
 11
1673.927835965424
 21
1384.169554125892
 31
0.0
  0
LINE
  5
7FB0
330
7C65
100
AcDbEntity
  8
3
  6
Continuous
 62
     0
440
 16777216
370
    -2
100
AcDbLine
 10
1393.927835965424
 20
1374.169554125892
 30
0.0
 11
1653.927835965424
 21
1374.169554125892
 31
0.0
  0
INSERT
  5
7FB1
330
7C65
100
AcDbEntity
  8
3
  6
Continuous
 62
     0
440
 16777216
370
    -2
100
AcDbBlockReference
  2
_OPEN
 10
1373.927835965424
 20
1374.169554125892
 30
0.0
 41
20.0
 42
20.0
 43
20.0
 50
180.0
  0
INSERT
  5
7FB2
330
7C65
100
AcDbEntity
  8
3
  6
Continuous
 62
     0
440
 16777216
370
    -2
100
AcDbBlockReference
  2
_OPEN
 10
1673.927835965424
 20
1374.169554125892
 30
0.0
 41
20.0
 42
20.0
 43
20.0
  0
MTEXT
  5
7FB3
330
7C65
100
AcDbEntity
  8
3
  6
Continuous
 62
     0
440
 16777216
100
AcDbMText
 10
1516.666523965424
 20
1407.026696983035
 30
0.0
 40
30.0
 41
0.0
 46
0.0
 71
     5
 72
     1
  1
\A1;(300)
 73
     1
 44
1.0
  0
POINT
  5
7FB4
330
7C65
100
AcDbEntity
  8
DEFPOINTS
  6
Continuous
 62
     0
440
 16777216
100
AcDbPoint
 10
1373.927835965424
 20
1224.934961125893
 30
0.0
  0
POINT
  5
7FB5
330
7C65
100
AcDbEntity
  8
DEFPOINTS
  6
Continuous
 62
     0
440
 16777216
100
AcDbPoint
 10
1673.927835965424
 20
1358.299278125892
 30
0.0
  0
POINT
  5
7FB6
330
7C65
100
AcDbEntity
  8
DEFPOINTS
  6
Continuous
 62
     0
440
 16777216
100
AcDbPoint
 10
1673.927835965424
 20
1374.169554125892
 30
0.0
  0
ENDBLK
  5
7DA0
330
7C65
100
AcDbEntity
  8
0
100
AcDbBlockEnd
  0
BLOCK
  5
7CC1
330
7C72
100
AcDbEntity
  8
0
100
AcDbBlockBegin
  2
*D13
 70
     1
 10
0.0
 20
0.0
 30
0.0
  3
*D13
  1

  0
LINE
  5
7E96
330
7C72
100
AcDbEntity
  8
3
  6
Continuous
 62
     0
440
 16777216
100
AcDbLine
 10
1751.927835965424
 20
1239.934961125892
 30
0.0
 11
1751.927835965424
 21
1384.169554125892
 31
0.0
  0
LINE
  5
7E97
330
7C72
100
AcDbEntity
  8
3
  6
Continuous
 62
     0
440
 16777216
100
AcDbLine
 10
1693.927835965424
 20
1374.169554125892
 30
0.0
 11
1731.927835965424
 21
1374.169554125892
 31
0.0
  0
MTEXT
  5
7E98
330
7C72
100
AcDbEntity
  8
3
  6
Continuous
 62
     0
440
 16777216
100
AcDbMText
 10
1713.774571965424
 20
1399.169554125892
 30
0.0
 40
30.0
 41
0.0
 46
0.0
 71
     5
 72
     5
  1
\A1;78
 73
     1
 44
1.0
  0
INSERT
  5
7E99
330
7C72
100
AcDbEntity
  8
3
  6
Continuous
 62
     0
440
 16777216
100
AcDbBlockReference
  2
_OPEN
 10
1673.927835965424
 20
1374.169554125892
 30
0.0
 41
20.0
 42
20.0
 43
20.0
 50
180.0
  0
INSERT
  5
7E9A
330
7C72
100
AcDbEntity
  8
3
  6
Continuous
 62
     0
440
 16777216
100
AcDbBlockReference
  2
_OPEN
 10
1751.927835965424
 20
1374.169554125892
 30
0.0
 41
20.0
 42
20.0
 43
20.0
  0
POINT
  5
7E9B
330
7C72
100
AcDbEntity
  8
DEFPOINTS
  6
Continuous
 62
     0
440
 16777216
100
AcDbPoint
 10
1673.927835965424
 20
1358.299278125892
 30
0.0
  0
POINT
  5
7E9C
330
7C72
100
AcDbEntity
  8
DEFPOINTS
  6
Continuous
 62
     0
440
 16777216
100
AcDbPoint
 10
1751.927835965424
 20
1234.934961125892
 30
0.0
  0
POINT
  5
7E9D
330
7C72
100
AcDbEntity
  8
DEFPOINTS
  6
Continuous
 62
     0
440
 16777216
100
AcDbPoint
 10
1751.927835965424
 20
1374.169554125892
 30
0.0
  0
ENDBLK
  5
7CCA
330
7C72
100
AcDbEntity
  8
0
100
AcDbBlockEnd
  0
BLOCK
  5
7DA1
330
7C9A
100
AcDbEntity
  8
0
100
AcDbBlockBegin
  2
*D14
 70
     1
 10
0.0
 20
0.0
 30
0.0
  3
*D14
  1

  0
LINE
  5
7E9E
330
7C9A
100
AcDbEntity
  8
3
  6
Continuous
 62
     0
440
 16777216
100
AcDbLine
 10
1756.927835965424
 20
1214.934961125893
 30
0.0
 11
1832.434824965424
 21
1214.934961125893
 31
0.0
  0
LINE
  5
7E9F
330
7C9A
100
AcDbEntity
  8
3
  6
Continuous
 62
     0
440
 16777216
100
AcDbLine
 10
1756.927835965424
 20
1014.934961125892
 30
0.0
 11
1832.434824965424
 21
1014.934961125892
 31
0.0
  0
LINE
  5
7EA0
330
7C9A
100
AcDbEntity
  8
3
  6
Continuous
 62
     0
440
 16777216
100
AcDbLine
 10
1822.434824965424
 20
1194.934961125892
 30
0.0
 11
1822.434824965424
 21
1034.934961125892
 31
0.0
  0
INSERT
  5
7EA1
330
7C9A
100
AcDbEntity
  8
3
  6
Continuous
 62
     0
440
 16777216
100
AcDbBlockReference
  2
_OPEN
 10
1822.434824965424
 20
1214.934961125893
 30
0.0
 41
20.0
 42
20.0
 43
20.0
 50
90.0
  0
INSERT
  5
7EA2
330
7C9A
100
AcDbEntity
  8
3
  6
Continuous
 62
     0
440
 16777216
100
AcDbBlockReference
  2
_OPEN
 10
1822.434824965424
 20
1014.934961125892
 30
0.0
 41
20.0
 42
20.0
 43
20.0
 50
270.0
  0
MTEXT
  5
7EA3
330
7C9A
100
AcDbEntity
  8
3
  6
Continuous
 62
     0
440
 16777216
100
AcDbMText
 10
1797.434824965424
 20
1113.456109125892
 30
0.0
 40
30.0
 41
0.0
 46
0.0
 71
     5
 72
     5
  1
\A1;φ200
 11
0.0000000000000001
 21
1.0
 31
0.0
 73
     1
 44
1.0
  0
POINT
  5
7EA4
330
7C9A
100
AcDbEntity
  8
DEFPOINTS
  6
Continuous
 62
     0
440
 16777216
100
AcDbPoint
 10
1751.927835965424
 20
1214.934961125893
 30
0.0
  0
POINT
  5
7EA5
330
7C9A
100
AcDbEntity
  8
DEFPOINTS
  6
Continuous
 62
     0
440
 16777216
100
AcDbPoint
 10
1751.927835965424
 20
1014.934961125892
 30
0.0
  0
POINT
  5
7EA6
330
7C9A
100
AcDbEntity
  8
DEFPOINTS
  6
Continuous
 62
     0
440
 16777216
100
AcDbPoint
 10
1822.434824965424
 20
1014.934961125892
 30
0.0
  0
ENDBLK
  5
7DAB
330
7C9A
100
AcDbEntity
  8
0
100
AcDbBlockEnd
  0
BLOCK
  5
7D31
330
7D30
100
AcDbEntity
  8
0
100
AcDbBlockBegin
  2
_DOT
 70
     0
 10
0.0
 20
0.0
 30
0.0
  3
_DOT
  1

  0
LINE
  5
7DAC
330
7D30
100
AcDbEntity
  8
0
  6
ByBlock
 62
     0
100
AcDbLine
 10
0.0
 20
0.0
 30
0.0
 11
-1.0
 21
-0.0000000000000284
 31
0.0
  0
LWPOLYLINE
  5
7DAD
330
7D30
100
AcDbEntity
  8
0
  6
ByBlock
 62
     0
100
AcDbPolyline
 90
        2
 70
     1
 43
0.1666666666666666
 10
-0.0833333333333286
 20
-0.0000000000000284
 42
1.0
 10
0.0833333333333286
 20
-0.0000000000000284
 42
1.0
  0
ENDBLK
  5
7D37
330
7D30
100
AcDbEntity
  8
0
100
AcDbBlockEnd
  0
BLOCK
  5
7DB6
330
7DB5
100
AcDbEntity
  8
0
100
AcDbBlockBegin
  2
*D16
 70
     1
 10
0.0
 20
0.0
 30
0.0
  3
*D16
  1

  0
LINE
  5
7EAA
330
7DB5
100
AcDbEntity
  8
3
 62
     0
440
 16777216
100
AcDbLine
 10
889.3646197636861
 20
1274.934961125892
 30
0.0
 11
1150.061727124102
 21
1274.934961125892
 31
0.0
  0
LINE
  5
7EAB
330
7DB5
100
AcDbEntity
  8
3
 62
     0
440
 16777216
100
AcDbLine
 10
1140.061727124102
 20
1134.934961125892
 30
0.0
 11
1140.061727124102
 21
1254.934961125893
 31
0.0
  0
INSERT
  5
7EAC
330
7DB5
100
AcDbEntity
  8
3
 62
     0
440
 16777216
100
AcDbBlockReference
  2
_OPEN
 10
1140.061727124102
 20
1114.934961125892
 30
0.0
 41
20.0
 42
20.0
 43
20.0
 50
270.0
  0
INSERT
  5
7EAD
330
7DB5
100
AcDbEntity
  8
3
 62
     0
440
 16777216
100
AcDbBlockReference
  2
_OPEN
 10
1140.061727124102
 20
1274.934961125892
 30
0.0
 41
20.0
 42
20.0
 43
20.0
 50
90.0
  0
MTEXT
  5
7EAE
330
7DB5
100
AcDbEntity
  8
3
 62
     0
440
 16777216
100
AcDbMText
 10
1115.061727124102
 20
1194.934961125893
 30
0.0
 40
30.0
 41
0.0
 46
0.0
 71
     5
 72
     5
  1
\A1;160
 11
0.0000000000000001
 21
1.0
 31
0.0
 73
     1
 44
1.0
  0
POINT
  5
7EAF
330
7DB5
100
AcDbEntity
  8
DEFPOINTS
 62
     0
440
 16777216
100
AcDbPoint
 10
1013.931808763686
 20
1114.934961125892
 30
0.0
  0
POINT
  5
7EB0
330
7DB5
100
AcDbEntity
  8
DEFPOINTS
 62
     0
440
 16777216
100
AcDbPoint
 10
884.3646197636861
 20
1274.934961125892
 30
0.0
  0
POINT
  5
7EB1
330
7DB5
100
AcDbEntity
  8
DEFPOINTS
 62
     0
440
 16777216
100
AcDbPoint
 10
1140.061727124102
 20
1274.934961125892
 30
0.0
  0
ENDBLK
  5
7DBF
330
7DB5
100
AcDbEntity
  8
0
100
AcDbBlockEnd
  0
BLOCK
  5
7DCA
330
7DC9
100
AcDbEntity
  8
0
100
AcDbBlockBegin
  2
*D17
 70
     1
 10
0.0
 20
0.0
 30
0.0
  3
*D17
  1

  0
LINE
  5
7F37
330
7DC9
100
AcDbEntity
  8
3
 62
     0
440
 16777216
370
    -2
100
AcDbLine
 10
1053.364619763686
 20
769.9349611258925
 30
0.0
 11
1149.912843738562
 21
769.9349611258925
 31
0.0
  0
LINE
  5
7F38
330
7DC9
100
AcDbEntity
  8
3
 62
     0
440
 16777216
370
    -2
100
AcDbLine
 10
1053.364619763686
 20
719.9349611258925
 30
0.0
 11
1149.912843738562
 21
719.9349611258925
 31
0.0
  0
LINE
  5
7F39
330
7DC9
100
AcDbEntity
  8
3
 62
     0
440
 16777216
370
    -2
100
AcDbLine
 10
1139.912843738562
 20
789.9349611258925
 30
0.0
 11
1139.912843738562
 21
809.9349611258926
 31
0.0
  0
LINE
  5
7F3A
330
7DC9
100
AcDbEntity
  8
3
 62
     0
440
 16777216
370
    -2
100
AcDbLine
 10
1139.912843738562
 20
699.9349611258925
 30
0.0
 11
1139.912843738562
 21
611.3635325544639
 31
0.0
  0
LINE
  5
7F3B
330
7DC9
100
AcDbEntity
  8
3
 62
     0
440
 16777216
370
    -2
100
AcDbLine
 10
1139.912843738562
 20
769.9349611258925
 30
0.0
 11
1139.912843738562
 21
719.9349611258925
 31
0.0
  0
INSERT
  5
7F3C
330
7DC9
100
AcDbEntity
  8
3
 62
     0
440
 16777216
370
    -2
100
AcDbBlockReference
  2
_DOT
 10
1139.912843738562
 20
769.9349611258925
 30
0.0
 41
20.0
 42
20.0
 43
20.0
 50
270.0
  0
INSERT
  5
7F3D
330
7DC9
100
AcDbEntity
  8
3
 62
     0
440
 16777216
370
    -2
100
AcDbBlockReference
  2
_OPEN
 10
1139.912843738562
 20
719.9349611258925
 30
0.0
 41
20.0
 42
20.0
 43
20.0
 50
90.0
  0
MTEXT
  5
7F3E
330
7DC9
100
AcDbEntity
  8
3
 62
     0
440
 16777216
100
AcDbMText
 10
1114.912843738562
 20
645.6492468401783
 30
0.0
 40
30.0
 41
0.0
 46
0.0
 71
     5
 72
     1
  1
\A1;50
 11
0.0000000000000001
 21
1.0
 31
0.0
 73
     1
 44
1.0
  0
POINT
  5
7F3F
330
7DC9
100
AcDbEntity
  8
DEFPOINTS
 62
     0
440
 16777216
100
AcDbPoint
 10
1048.364619763686
 20
769.9349611258925
 30
0.0
  0
POINT
  5
7F40
330
7DC9
100
AcDbEntity
  8
DEFPOINTS
 62
     0
440
 16777216
100
AcDbPoint
 10
1048.364619763686
 20
719.9349611258925
 30
0.0
  0
POINT
  5
7F41
330
7DC9
100
AcDbEntity
  8
DEFPOINTS
 62
     0
440
 16777216
100
AcDbPoint
 10
1139.912843738562
 20
719.9349611258925
 30
0.0
  0
ENDBLK
  5
7DD6
330
7DC9
100
AcDbEntity
  8
0
100
AcDbBlockEnd
  0
BLOCK
  5
7DD9
330
7DD8
100
AcDbEntity
  8
0
100
AcDbBlockBegin
  2
*D18
 70
     1
 10
0.0
 20
0.0
 30
0.0
  3
*D18
  1

  0
LINE
  5
7F76
330
7DD8
100
AcDbEntity
  8
3
 62
     0
440
 16777216
370
    -2
100
AcDbLine
 10
1053.364619763686
 20
769.9349611258925
 30
0.0
 11
1149.912843738562
 21
769.9349611258925
 31
0.0
  0
LINE
  5
7F77
330
7DD8
100
AcDbEntity
  8
3
 62
     0
440
 16777216
370
    -2
100
AcDbLine
 10
1028.364619763686
 20
839.9349611258925
 30
0.0
 11
1149.912843738562
 21
839.9349611258925
 31
0.0
  0
LINE
  5
7F78
330
7DD8
100
AcDbEntity
  8
3
 62
     0
440
 16777216
370
    -2
100
AcDbLine
 10
1139.912843738562
 20
789.9349611258925
 30
0.0
 11
1139.912843738562
 21
819.9349611258925
 31
0.0
  0
MTEXT
  5
7F79
330
7DD8
100
AcDbEntity
  8
3
 62
     0
440
 16777216
100
AcDbMText
 10
1189.640883236166
 20
799.3410828645519
 30
0.0
 40
30.0
 41
0.0
 46
0.0
 71
     5
 72
     1
  1
\A1;(70)
 11
0.0000000000000001
 21
1.0
 31
0.0
 73
     1
 44
1.0
  0
INSERT
  5
7F7A
330
7DD8
100
AcDbEntity
  8
3
 62
     0
440
 16777216
370
    -2
100
AcDbBlockReference
  2
_DOT
 10
1139.912843738562
 20
769.9349611258925
 30
0.0
 41
20.0
 42
20.0
 43
20.0
 50
270.0
  0
INSERT
  5
7F7B
330
7DD8
100
AcDbEntity
  8
3
 62
     0
440
 16777216
370
    -2
100
AcDbBlockReference
  2
_OPEN
 10
1139.912843738562
 20
839.9349611258925
 30
0.0
 41
20.0
 42
20.0
 43
20.0
 50
90.0
  0
POINT
  5
7F7C
330
7DD8
100
AcDbEntity
  8
DEFPOINTS
 62
     0
440
 16777216
100
AcDbPoint
 10
1048.364619763686
 20
769.9349611258925
 30
0.0
  0
POINT
  5
7F7D
330
7DD8
100
AcDbEntity
  8
DEFPOINTS
 62
     0
440
 16777216
100
AcDbPoint
 10
1023.364619763686
 20
839.9349611258925
 30
0.0
  0
POINT
  5
7F7E
330
7DD8
100
AcDbEntity
  8
DEFPOINTS
 62
     0
440
 16777216
100
AcDbPoint
 10
1139.912843738562
 20
839.9349611258925
 30
0.0
  0
ENDBLK
  5
7DE3
330
7DD8
100
AcDbEntity
  8
0
100
AcDbBlockEnd
  0
BLOCK
  5
7DE6
330
7DE5
100
AcDbEntity
  8
0
100
AcDbBlockBegin
  2
*D19
 70
     1
 10
0.0
 20
0.0
 30
0.0
  3
*D19
  1

  0
LINE
  5
7F4B
330
7DE5
100
AcDbEntity
  8
3
 62
     0
440
 16777216
370
    -2
100
AcDbLine
 10
889.3646197636861
 20
1274.934961125892
 30
0.0
 11
1240.758473990936
 21
1274.934961125892
 31
0.0
  0
LINE
  5
7F4C
330
7DE5
100
AcDbEntity
  8
3
 62
     0
440
 16777216
370
    -2
100
AcDbLine
 10
1053.364619763686
 20
719.9349611258925
 30
0.0
 11
1240.758473990936
 21
719.9349611258925
 31
0.0
  0
LINE
  5
7F4D
330
7DE5
100
AcDbEntity
  8
3
 62
     0
440
 16777216
370
    -2
100
AcDbLine
 10
1230.758473990936
 20
1254.934961125893
 30
0.0
 11
1230.758473990936
 21
739.9349611258925
 31
0.0
  0
INSERT
  5
7F4E
330
7DE5
100
AcDbEntity
  8
3
 62
     0
440
 16777216
370
    -2
100
AcDbBlockReference
  2
_OPEN
 10
1230.758473990936
 20
1274.934961125892
 30
0.0
 41
20.0
 42
20.0
 43
20.0
 50
90.0
  0
INSERT
  5
7F4F
330
7DE5
100
AcDbEntity
  8
3
 62
     0
440
 16777216
370
    -2
100
AcDbBlockReference
  2
_OPEN
 10
1230.758473990936
 20
719.9349611258925
 30
0.0
 41
20.0
 42
20.0
 43
20.0
 50
270.0
  0
MTEXT
  5
7F50
330
7DE5
100
AcDbEntity
  8
3
 62
     0
440
 16777216
100
AcDbMText
 10
1197.901331133793
 20
997.4349611258928
 30
0.0
 40
30.0
 41
0.0
 46
0.0
 71
     5
 72
     1
  1
\A1;(555)
 11
0.0000000000000001
 21
1.0
 31
0.0
 73
     1
 44
1.0
  0
POINT
  5
7F51
330
7DE5
100
AcDbEntity
  8
DEFPOINTS
 62
     0
440
 16777216
100
AcDbPoint
 10
884.3646197636861
 20
1274.934961125892
 30
0.0
  0
POINT
  5
7F52
330
7DE5
100
AcDbEntity
  8
DEFPOINTS
 62
     0
440
 16777216
100
AcDbPoint
 10
1048.364619763686
 20
719.9349611258925
 30
0.0
  0
POINT
  5
7F53
330
7DE5
100
AcDbEntity
  8
DEFPOINTS
 62
     0
440
 16777216
100
AcDbPoint
 10
1230.758473990936
 20
719.9349611258925
 30
0.0
  0
ENDBLK
  5
7DF0
330
7DE5
100
AcDbEntity
  8
0
100
AcDbBlockEnd
  0
BLOCK
  5
7F26
330
7F25
100
AcDbEntity
  8
0
100
AcDbBlockBegin
  2
_CLOSED
 70
     0
 10
0.0
 20
0.0
 30
0.0
  3
_CLOSED
  1

  0
LINE
  5
7F27
330
7F25
100
AcDbEntity
  8
0
  6
ByBlock
 62
     0
100
AcDbLine
 10
-1.0
 20
0.1666666666666666
 30
0.0
 11
0.0
 21
0.0
 31
0.0
  0
LINE
  5
7F28
330
7F25
100
AcDbEntity
  8
0
  6
ByBlock
 62
     0
100
AcDbLine
 10
0.0
 20
0.0
 30
0.0
 11
-1.0
 21
-0.1666666666666666
 31
0.0
  0
LINE
  5
7F29
330
7F25
100
AcDbEntity
  8
0
  6
ByBlock
 62
     0
100
AcDbLine
 10
-1.0
 20
0.1666666666666666
 30
0.0
 11
-1.0
 21
-0.1666666666666666
 31
0.0
  0
ENDBLK
  5
7F2A
330
7F25
100
AcDbEntity
  8
0
100
AcDbBlockEnd
  0
ENDSEC
  0
SECTION
  2
ENTITIES
  0
LINE
  5
7A93
330
19
100
AcDbEntity
  8
1
  6
Continuous
100
AcDbLine
 10
1048.364619763686
 20
719.9349611258925
 30
0.0
 11
1023.364619763686
 21
719.9349611258925
 31
0.0
  0
ARC
  5
7A94
330
19
100
AcDbEntity
  8
1
  6
Continuous
100
AcDbCircle
 10
849.3646197636861
 20
1100.934961125892
 30
0.0
 40
165.0
100
AcDbArc
 50
269.7
 51
0.6
  0
LINE
  5
7A95
330
19
100
AcDbEntity
  8
1
  6
Continuous
100
AcDbLine
 10
368.3646197636863
 20
744.9349611258925
 30
0.0
 11
1048.364619763686
 21
744.9349611258925
 31
0.0
  0
LINE
  5
7A96
330
19
100
AcDbEntity
  8
1
  6
Continuous
100
AcDbLine
 10
368.3646197636863
 20
769.9349611258925
 30
0.0
 11
1048.364619763686
 21
769.9349611258925
 31
0.0
  0
LINE
  5
7A97
330
19
100
AcDbEntity
  8
1
  6
Continuous
100
AcDbLine
 10
393.3646197636863
 20
889.9349611258925
 30
0.0
 11
1023.364619763686
 21
889.9349611258925
 31
0.0
  0
LINE
  5
7A98
330
19
100
AcDbEntity
  8
1
  6
Continuous
100
AcDbLine
 10
393.3646197636863
 20
839.9349611258925
 30
0.0
 11
1023.364619763686
 21
839.9349611258925
 31
0.0
  0
LINE
  5
7A99
330
19
100
AcDbEntity
  8
1
  6
Continuous
100
AcDbLine
 10
651.6646197636861
 20
910.6349611258925
 30
0.0
 11
400.6646197636862
 21
910.6349611258925
 31
0.0
  0
LINE
  5
7A9A
330
19
100
AcDbEntity
  8
1
  6
Continuous
100
AcDbLine
 10
440.3646197636862
 20
1224.934961125893
 30
0.0
 11
970.3646197636862
 21
1224.934961125893
 31
0.0
  0
ARC
  5
7A9B
330
19
100
AcDbEntity
  8
1
  6
Continuous
100
AcDbCircle
 10
558.7646197636861
 20
990.6349611258926
 30
0.0
 40
85.0
100
AcDbArc
 50
324.7
 51
215.3
  0
ARC
  5
7A9C
330
19
100
AcDbEntity
  8
1
  6
Continuous
100
AcDbCircle
 10
847.3646197636861
 20
1130.934961125892
 30
0.0
 40
195.0
100
AcDbArc
 50
180.0
 51
270.3
  0
LINE
  5
7A9D
330
19
100
AcDbEntity
  8
1
  6
Continuous
100
AcDbLine
 10
548.3646197636861
 20
1022.734961125893
 30
0.0
 11
842.164619763686
 21
1160.234961125892
 31
0.0
  0
LINE
  5
7A9E
330
19
100
AcDbEntity
  8
1
  6
Continuous
100
AcDbLine
 10
575.0646197636861
 20
958.1349611258927
 30
0.0
 11
880.264619763686
 21
1067.934961125892
 31
0.0
  0
LINE
  5
7A9F
330
19
100
AcDbEntity
  8
1
  6
Continuous
100
AcDbLine
 10
440.3646197636862
 20
889.9349611258925
 30
0.0
 11
440.3646197636862
 21
1224.934961125893
 31
0.0
  0
LINE
  5
7AA0
330
19
100
AcDbEntity
  8
1
  6
Continuous
100
AcDbLine
 10
368.3646197636863
 20
719.9349611258925
 30
0.0
 11
393.3646197636863
 21
719.9349611258925
 31
0.0
  0
LINE
  5
7AA1
330
19
100
AcDbEntity
  8
1
  6
Continuous
100
AcDbLine
 10
393.3646197636863
 20
719.9349611258925
 30
0.0
 11
393.3646197636863
 21
744.9349611258925
 31
0.0
  0
LINE
  5
7AA2
330
19
100
AcDbEntity
  8
1
  6
Continuous
100
AcDbLine
 10
368.3646197636863
 20
719.9349611258925
 30
0.0
 11
368.3646197636863
 21
769.9349611258925
 31
0.0
  0
LINE
  5
7AA3
330
19
100
AcDbEntity
  8
1
  6
Continuous
100
AcDbLine
 10
393.3646197636863
 20
839.9349611258925
 30
0.0
 11
393.3646197636863
 21
889.9349611258925
 31
0.0
  0
LINE
  5
7AA4
330
19
100
AcDbEntity
  8
1
  6
Continuous
100
AcDbLine
 10
400.6646197636862
 20
910.6349611258925
 30
0.0
 11
400.6646197636862
 21
889.9349611258925
 31
0.0
  0
CIRCLE
  5
7AA5
330
19
100
AcDbEntity
  8
1
  6
Continuous
100
AcDbCircle
 10
563.1646197636862
 20
991.0349611258926
 30
0.0
 40
35.0
  0
LINE
  5
7AA6
330
19
100
AcDbEntity
  8
2
  6
CENTER
100
AcDbLine
 10
528.1646197636862
 20
991.0349611258926
 30
0.0
 11
598.1646197636861
 21
991.0349611258926
 31
0.0
  0
LINE
  5
7AA7
330
19
100
AcDbEntity
  8
1
  6
Continuous
100
AcDbLine
 10
481.2646197636861
 20
918.6349611258926
 30
0.0
 11
489.4646197636862
 21
941.4349611258925
 31
0.0
  0
LINE
  5
7AA8
330
19
100
AcDbEntity
  8
1
  6
Continuous
100
AcDbLine
 10
481.2646197636861
 20
910.6349611258925
 30
0.0
 11
481.2646197636861
 21
918.6349611258926
 31
0.0
  0
LINE
  5
7AA9
330
19
100
AcDbEntity
  8
1
  6
Continuous
100
AcDbLine
 10
636.2646197636861
 20
910.6349611258925
 30
0.0
 11
636.2646197636861
 21
918.6349611258926
 31
0.0
  0
LINE
  5
7AAA
330
19
100
AcDbEntity
  8
1
  6
Continuous
100
AcDbLine
 10
636.2646197636861
 20
918.6349611258926
 30
0.0
 11
628.164619763686
 21
941.4349611258925
 31
0.0
  0
LINE
  5
7AAB
330
19
100
AcDbEntity
  8
2
  6
CENTER
100
AcDbLine
 10
563.1646197636862
 20
956.0349611258926
 30
0.0
 11
563.1646197636862
 21
1026.034961125892
 31
0.0
  0
CIRCLE
  5
7AAC
330
19
100
AcDbEntity
  8
1
  6
Continuous
100
AcDbCircle
 10
863.3646197636862
 20
1114.934961125892
 30
0.0
 40
100.0
  0
CIRCLE
  5
7AAD
330
19
100
AcDbEntity
  8
1
  6
Continuous
100
AcDbCircle
 10
863.3646197636862
 20
1114.934961125892
 30
0.0
 40
120.0
  0
LINE
  5
7AAE
330
19
100
AcDbEntity
  8
1
  6
Continuous
100
AcDbLine
 10
970.3646197636862
 20
889.9349611258925
 30
0.0
 11
970.3646197636862
 21
1224.934961125893
 31
0.0
  0
LINE
  5
7AAF
330
19
100
AcDbEntity
  8
1
  6
Continuous
100
AcDbLine
 10
998.3646197636863
 20
889.9349611258925
 30
0.0
 11
998.3646197636863
 21
1168.634961125893
 31
0.0
  0
LINE
  5
7AB0
330
19
100
AcDbEntity
  8
1
  6
Continuous
100
AcDbLine
 10
728.3646197636861
 20
1168.634961125893
 30
0.0
 11
728.3646197636861
 21
889.9349611258925
 31
0.0
  0
ARC
  5
7AB1
330
19
100
AcDbEntity
  8
1
  6
Continuous
100
AcDbCircle
 10
874.3646197636861
 20
1103.934961125892
 30
0.0
 40
140.0
100
AcDbArc
 50
359.4
 51
90.40000000000002
  0
LINE
  5
7AB2
330
19
100
AcDbEntity
  8
1
  6
Continuous
100
AcDbLine
 10
652.3646197636861
 20
1259.934961125892
 30
0.0
 11
652.3646197636861
 21
1130.934961125892
 31
0.0
  0
CIRCLE
  5
7AB3
330
19
100
AcDbEntity
  8
1
  6
Continuous
100
AcDbCircle
 10
863.3646197636862
 20
1114.934961125892
 30
0.0
 40
50.0
  0
LINE
  5
7AB4
330
19
100
AcDbEntity
  8
2
  6
CENTER
100
AcDbLine
 10
863.3646197636862
 20
744.9349611258925
 30
0.0
 11
863.3646197636862
 21
1297.025697125892
 31
0.0
  0
LINE
  5
7AB5
330
19
100
AcDbEntity
  8
1
  6
Continuous
100
AcDbLine
 10
728.3646197636861
 20
1081.634961125892
 30
0.0
 11
998.3646197636863
 21
1081.634961125892
 31
0.0
  0
LINE
  5
7AB6
330
19
100
AcDbEntity
  8
2
  6
CENTER
100
AcDbLine
 10
419.9813057636861
 20
1114.934961125892
 30
0.0
 11
1059.912007763686
 21
1114.934961125892
 31
0.0
  0
LINE
  5
7AB7
330
19
100
AcDbEntity
  8
1
  6
Continuous
100
AcDbLine
 10
651.6646197636861
 20
889.9349611258925
 30
0.0
 11
651.6646197636861
 21
910.6349611258925
 31
0.0
  0
LINE
  5
7AB8
330
19
100
AcDbEntity
  8
1
  6
Continuous
100
AcDbLine
 10
1023.364619763686
 20
719.9349611258925
 30
0.0
 11
1023.364619763686
 21
744.9349611258925
 31
0.0
  0
LINE
  5
7AB9
330
19
100
AcDbEntity
  8
1
  6
Continuous
100
AcDbLine
 10
1023.364619763686
 20
839.9349611258925
 30
0.0
 11
1023.364619763686
 21
889.9349611258925
 31
0.0
  0
LINE
  5
7ABA
330
19
100
AcDbEntity
  8
1
  6
Continuous
100
AcDbLine
 10
914.9646197636862
 20
1239.934961125892
 30
0.0
 11
811.7646197636862
 21
1239.934961125892
 31
0.0
  0
LINE
  5
7ABB
330
19
100
AcDbEntity
  8
1
  6
Continuous
100
AcDbLine
 10
677.3646197636861
 20
1259.934961125892
 30
0.0
 11
849.3646197636861
 21
1259.934961125892
 31
0.0
  0
LINE
  5
7ABC
330
19
100
AcDbEntity
  8
1
  6
Continuous
100
AcDbLine
 10
642.3646197636862
 20
1274.934961125892
 30
0.0
 11
884.3646197636861
 21
1274.934961125892
 31
0.0
  0
LINE
  5
7ABD
330
19
100
AcDbEntity
  8
1
  6
Continuous
100
AcDbLine
 10
811.7646197636862
 20
1239.934961125892
 30
0.0
 11
728.3646197636861
 21
1168.634961125893
 31
0.0
  0
LINE
  5
7ABE
330
19
100
AcDbEntity
  8
1
  6
Continuous
100
AcDbLine
 10
652.3646197636861
 20
1259.934961125892
 30
0.0
 11
663.3646197636862
 21
1259.934961125892
 31
0.0
  0
LINE
  5
7ABF
330
19
100
AcDbEntity
  8
1
  6
Continuous
100
AcDbLine
 10
663.3646197636862
 20
1274.934961125892
 30
0.0
 11
663.3646197636862
 21
1259.934961125892
 31
0.0
  0
LINE
  5
7AC0
330
19
100
AcDbEntity
  8
1
  6
Continuous
100
AcDbLine
 10
662.3646197636861
 20
1274.934961125892
 30
0.0
 11
677.3646197636861
 21
1259.934961125892
 31
0.0
  0
LINE
  5
7AC1
330
19
100
AcDbEntity
  8
1
  6
Continuous
100
AcDbLine
 10
914.9646197636862
 20
1239.934961125892
 30
0.0
 11
998.3646197636863
 21
1168.634961125893
 31
0.0
  0
LINE
  5
7AC2
330
19
100
AcDbEntity
  8
1
  6
Continuous
100
AcDbLine
 10
863.3646197636862
 20
1259.934961125892
 30
0.0
 11
873.3646197636861
 21
1259.934961125892
 31
0.0
  0
LINE
  5
7AC3
330
19
100
AcDbEntity
  8
1
  6
Continuous
100
AcDbLine
 10
864.3646197636861
 20
1274.934961125892
 30
0.0
 11
849.3646197636861
 21
1259.934961125892
 31
0.0
  0
LINE
  5
7AC4
330
19
100
AcDbEntity
  8
1
  6
Continuous
100
AcDbLine
 10
863.3646197636862
 20
1274.934961125892
 30
0.0
 11
863.3646197636862
 21
1259.934961125892
 31
0.0
  0
LINE
  5
7AC5
330
19
100
AcDbEntity
  8
1
  6
Continuous
100
AcDbLine
 10
873.3646197636861
 20
1259.934961125892
 30
0.0
 11
873.3646197636861
 21
1243.934961125892
 31
0.0
  0
LINE
  5
7AC6
330
19
100
AcDbEntity
  8
1
  6
Continuous
100
AcDbLine
 10
1375.927835965424
 20
719.9349611258925
 30
0.0
 11
1805.927835965424
 21
719.9349611258925
 31
0.0
  0
LINE
  5
7AC7
330
19
100
AcDbEntity
  8
1
  6
Continuous
100
AcDbLine
 10
1459.927835965424
 20
839.9349611258925
 30
0.0
 11
1683.927835965424
 21
839.9349611258925
 31
0.0
  0
LINE
  5
7AC8
330
19
100
AcDbEntity
  8
1
  6
Continuous
100
AcDbLine
 10
1373.927835965424
 20
889.9349611258925
 30
0.0
 11
1683.927835965424
 21
889.9349611258925
 31
0.0
  0
LINE
  5
7AC9
330
19
100
AcDbEntity
  8
1
  6
Continuous
100
AcDbLine
 10
1426.427835965424
 20
1003.034961125893
 30
0.0
 11
1483.927835965424
 21
1003.034961125893
 31
0.0
  0
LINE
  5
7ACA
330
19
100
AcDbEntity
  8
1
  6
Continuous
100
AcDbLine
 10
1426.427835965424
 20
979.0349611258926
 30
0.0
 11
1483.927835965424
 21
979.0349611258926
 31
0.0
  0
LINE
  5
7ACB
330
19
100
AcDbEntity
  8
1
  6
Continuous
100
AcDbLine
 10
1426.427835965424
 20
1126.934961125892
 30
0.0
 11
1542.227835965424
 21
1126.934961125892
 31
0.0
  0
LINE
  5
7ACC
330
19
100
AcDbEntity
  8
1
  6
Continuous
100
AcDbLine
 10
1426.427835965424
 20
1102.934961125892
 30
0.0
 11
1511.327835965424
 21
1102.934961125892
 31
0.0
  0
LINE
  5
7ACD
330
19
100
AcDbEntity
  8
1
  6
Continuous
100
AcDbLine
 10
1375.927835965424
 20
744.9349611258925
 30
0.0
 11
1805.927835965424
 21
744.9349611258925
 31
0.0
  0
LINE
  5
7ACE
330
19
100
AcDbEntity
  8
1
  6
Continuous
100
AcDbLine
 10
1459.927835965424
 20
769.9349611258925
 30
0.0
 11
1683.927835965424
 21
769.9349611258925
 31
0.0
  0
LINE
  5
7ACF
330
19
100
AcDbEntity
  8
1
  6
Continuous
100
AcDbLine
 10
1373.927835965424
 20
1224.934961125893
 30
0.0
 11
1373.927835965424
 21
889.9349611258925
 31
0.0
  0
LINE
  5
7AD0
330
19
100
AcDbEntity
  8
1
  6
Continuous
100
AcDbLine
 10
1448.927835965424
 20
1224.934961125893
 30
0.0
 11
1448.927835965424
 21
889.9349611258925
 31
0.0
  0
LINE
  5
7AD1
330
19
100
AcDbEntity
  8
1
  6
Continuous
100
AcDbLine
 10
1396.427835965424
 20
1164.934961125893
 30
0.0
 11
1396.427835965424
 21
1064.934961125892
 31
0.0
  0
LINE
  5
7AD2
330
19
100
AcDbEntity
  8
1
  6
Continuous
100
AcDbLine
 10
1426.427835965424
 20
1164.934961125893
 30
0.0
 11
1426.427835965424
 21
1064.934961125892
 31
0.0
  0
LINE
  5
7AD3
330
19
100
AcDbEntity
  8
1
  6
Continuous
100
AcDbLine
 10
1048.364619763686
 20
719.9349611258925
 30
0.0
 11
1048.364619763686
 21
769.9349611258925
 31
0.0
  0
LINE
  5
7AD6
330
19
100
AcDbEntity
  8
1
  6
Continuous
100
AcDbLine
 10
1375.927835965424
 20
744.9349611258925
 30
0.0
 11
1375.927835965424
 21
719.9349611258925
 31
0.0
  0
LINE
  5
7AD7
330
19
100
AcDbEntity
  8
1
  6
Continuous
100
AcDbLine
 10
1459.927835965424
 20
769.9349611258925
 30
0.0
 11
1459.927835965424
 21
744.9349611258925
 31
0.0
  0
LINE
  5
7AD9
330
19
100
AcDbEntity
  8
1
  6
Continuous
100
AcDbLine
 10
1459.927835965424
 20
889.9349611258925
 30
0.0
 11
1459.927835965424
 21
839.9349611258925
 31
0.0
  0
LINE
  5
7ADA
330
19
100
AcDbEntity
  8
1
  6
Continuous
100
AcDbLine
 10
1396.427835965424
 20
1064.934961125892
 30
0.0
 11
1426.427835965424
 21
1064.934961125892
 31
0.0
  0
LINE
  5
7ADB
330
19
100
AcDbEntity
  8
1
  6
Continuous
100
AcDbLine
 10
1396.427835965424
 20
1026.034961125892
 30
0.0
 11
1396.427835965424
 21
956.0349611258926
 31
0.0
  0
LINE
  5
7ADC
330
19
100
AcDbEntity
  8
1
  6
Continuous
100
AcDbLine
 10
1426.427835965424
 20
1026.034961125892
 30
0.0
 11
1426.427835965424
 21
956.0349611258926
 31
0.0
  0
LINE
  5
7ADD
330
19
100
AcDbEntity
  8
1
  6
Continuous
100
AcDbLine
 10
1396.427835965424
 20
1026.034961125892
 30
0.0
 11
1426.427835965424
 21
1026.034961125892
 31
0.0
  0
LINE
  5
7ADE
330
19
100
AcDbEntity
  8
1
  6
Continuous
100
AcDbLine
 10
1396.427835965424
 20
956.0349611258926
 30
0.0
 11
1426.427835965424
 21
956.0349611258926
 31
0.0
  0
LINE
  5
7ADF
330
19
100
AcDbEntity
  8
1
  6
Continuous
100
AcDbLine
 10
1373.927835965424
 20
1224.934961125893
 30
0.0
 11
1448.927835965424
 21
1224.934961125893
 31
0.0
  0
LINE
  5
7AE0
330
19
100
AcDbEntity
  8
1
  6
Continuous
100
AcDbLine
 10
1396.427835965424
 20
1164.934961125893
 30
0.0
 11
1426.427835965424
 21
1164.934961125893
 31
0.0
  0
LINE
  5
7AE1
330
19
100
AcDbEntity
  8
1
  6
Continuous
100
AcDbLine
 10
1751.927835965424
 20
1234.934961125892
 30
0.0
 11
1751.927835965424
 21
994.9349611258925
 31
0.0
  0
LINE
  5
7AE2
330
19
100
AcDbEntity
  8
1
  6
Continuous
100
AcDbLine
 10
1603.927835965424
 20
1274.934961125892
 30
0.0
 11
1603.927835965424
 21
945.9349611258927
 31
0.0
  0
LINE
  5
7AE3
330
19
100
AcDbEntity
  8
1
  6
Continuous
100
AcDbLine
 10
1743.927835965424
 20
1274.934961125892
 30
0.0
 11
1743.927835965424
 21
945.9349611258927
 31
0.0
  0
LINE
  5
7AE4
330
19
100
AcDbEntity
  8
1
  6
Continuous
100
AcDbLine
 10
1483.927835965424
 20
1081.634961125892
 30
0.0
 11
1595.927835965424
 21
1168.634961125893
 31
0.0
  0
LINE
  5
7AE5
330
19
100
AcDbEntity
  8
1
  6
Continuous
100
AcDbLine
 10
1595.927835965424
 20
1234.934961125892
 30
0.0
 11
1595.927835965424
 21
889.9349611258925
 31
0.0
  0
LINE
  5
7AE6
330
19
100
AcDbEntity
  8
1
  6
Continuous
100
AcDbLine
 10
1613.927835965424
 20
935.9349611258926
 30
0.0
 11
1733.927835965424
 21
935.9349611258926
 31
0.0
  0
LINE
  5
7AE7
330
19
100
AcDbEntity
  8
1
  6
Continuous
100
AcDbLine
 10
1483.927835965424
 20
1081.634961125892
 30
0.0
 11
1483.927835965424
 21
889.9349611258925
 31
0.0
  0
ARC
  5
7AE8
330
19
100
AcDbEntity
  8
1
  6
Continuous
100
AcDbCircle
 10
1613.927835965424
 20
945.9349611258927
 30
0.0
 40
10.0
100
AcDbArc
 50
180.0
 51
270.0
  0
LINE
  5
7AE9
330
19
100
AcDbEntity
  8
1
  6
Continuous
100
AcDbLine
 10
1603.927835965424
 20
994.9349611258925
 30
0.0
 11
1595.927835965424
 21
994.9349611258925
 31
0.0
  0
LINE
  5
7AEA
330
19
100
AcDbEntity
  8
1
  6
Continuous
100
AcDbLine
 10
1683.927835965424
 20
769.9349611258925
 30
0.0
 11
1683.927835965424
 21
744.9349611258925
 31
0.0
  0
LINE
  5
7AEB
330
19
100
AcDbEntity
  8
1
  6
Continuous
100
AcDbLine
 10
1805.927835965424
 20
744.9349611258925
 30
0.0
 11
1805.927835965424
 21
719.9349611258925
 31
0.0
  0
LINE
  5
7AEC
330
19
100
AcDbEntity
  8
1
  6
Continuous
100
AcDbLine
 10
1743.927835965424
 20
994.9349611258925
 30
0.0
 11
1751.927835965424
 21
994.9349611258925
 31
0.0
  0
ARC
  5
7AED
330
19
100
AcDbEntity
  8
1
  6
Continuous
100
AcDbCircle
 10
1733.927835965424
 20
945.9349611258927
 30
0.0
 40
10.0
100
AcDbArc
 50
270.0
 51
0.0
  0
LINE
  5
7AEE
330
19
100
AcDbEntity
  8
1
  6
Continuous
100
AcDbLine
 10
1683.927835965424
 20
889.9349611258925
 30
0.0
 11
1683.927835965424
 21
839.9349611258925
 31
0.0
  0
LINE
  5
7AEF
330
19
100
AcDbEntity
  8
1
  6
Continuous
100
AcDbLine
 10
1617.927835965424
 20
1259.934961125892
 30
0.0
 11
1729.927835965424
 21
1259.934961125892
 31
0.0
  0
LINE
  5
7AF0
330
19
100
AcDbEntity
  8
1
  6
Continuous
100
AcDbLine
 10
1582.927835965424
 20
1274.934961125892
 30
0.0
 11
1764.927835965424
 21
1274.934961125892
 31
0.0
  0
LINE
  5
7AF1
330
19
100
AcDbEntity
  8
1
  6
Continuous
100
AcDbLine
 10
1602.927835965424
 20
1274.934961125892
 30
0.0
 11
1617.927835965424
 21
1259.934961125892
 31
0.0
  0
LINE
  5
7AF2
330
19
100
AcDbEntity
  8
1
  6
Continuous
100
AcDbLine
 10
1603.927835965424
 20
1234.934961125892
 30
0.0
 11
1595.927835965424
 21
1234.934961125892
 31
0.0
  0
LINE
  5
7AF3
330
19
100
AcDbEntity
  8
1
  6
Continuous
100
AcDbLine
 10
1743.927835965424
 20
1234.934961125892
 30
0.0
 11
1751.927835965424
 21
1234.934961125892
 31
0.0
  0
LINE
  5
7AF4
330
19
100
AcDbEntity
  8
1
  6
Continuous
100
AcDbLine
 10
1744.927835965424
 20
1274.934961125892
 30
0.0
 11
1729.927835965424
 21
1259.934961125892
 31
0.0
  0
LINE
  5
7AF5
330
19
100
AcDbEntity
  8
1
  6
Continuous
100
AcDbLine
 10
1048.364619763686
 20
2170.949159109763
 30
0.0
 11
1023.364619763686
 21
2170.949159109763
 31
0.0
  0
LINE
  5
7AF6
330
19
100
AcDbEntity
  8
1
  6
Continuous
100
AcDbLine
 10
1048.364619763686
 20
1740.949159109764
 30
0.0
 11
1023.364619763686
 21
1740.949159109764
 31
0.0
  0
LINE
  5
7AF7
330
19
100
AcDbEntity
  8
1
  6
Continuous
100
AcDbLine
 10
851.3646197636861
 20
1824.949159109763
 30
0.0
 11
575.1646197636862
 21
1824.949159109763
 31
0.0
  0
LINE
  5
7AF8
330
19
100
AcDbEntity
  8
1
  6
Continuous
100
AcDbLine
 10
970.3646197636862
 20
1738.949159109764
 30
0.0
 11
440.3646197636862
 21
1738.949159109764
 31
0.0
  0
LINE
  5
7AF9
330
19
100
AcDbEntity
  8
1
  6
Continuous
100
AcDbLine
 10
970.3646197636862
 20
1813.949159109764
 30
0.0
 11
440.3646197636862
 21
1813.949159109764
 31
0.0
  0
LINE
  5
7AFA
330
19
100
AcDbEntity
  8
1
  6
Continuous
100
AcDbLine
 10
643.7646197636861
 20
2035.049159109764
 30
0.0
 11
473.7646197636861
 21
2035.049159109764
 31
0.0
  0
LINE
  5
7AFB
330
19
100
AcDbEntity
  8
1
  6
Continuous
100
AcDbLine
 10
643.7646197636861
 20
1844.149159109764
 30
0.0
 11
473.7646197636861
 21
1844.149159109764
 31
0.0
  0
LINE
  5
7AFC
330
19
100
AcDbEntity
  8
1
  6
Continuous
100
AcDbLine
 10
663.3646197636862
 20
2048.949159109763
 30
0.0
 11
393.3646197636863
 21
2048.949159109763
 31
0.0
  0
LINE
  5
7AFD
330
19
100
AcDbEntity
  8
1
  6
Continuous
100
AcDbLine
 10
368.3646197636863
 20
1740.949159109764
 30
0.0
 11
368.3646197636863
 21
2170.949159109763
 31
0.0
  0
LINE
  5
7AFE
330
19
100
AcDbEntity
  8
1
  6
Continuous
100
AcDbLine
 10
393.3646197636863
 20
1740.949159109764
 30
0.0
 11
393.3646197636863
 21
2170.949159109763
 31
0.0
  0
LINE
  5
7AFF
330
19
100
AcDbEntity
  8
1
  6
Continuous
100
AcDbLine
 10
551.1646197636862
 20
1824.949159109763
 30
0.0
 11
393.3646197636863
 21
1824.949159109763
 31
0.0
  0
LINE
  5
7B00
330
19
100
AcDbEntity
  8
1
  6
Continuous
100
AcDbLine
 10
368.3646197636863
 20
1824.949159109763
 30
0.0
 11
368.3646197636863
 21
2048.949159109763
 31
0.0
  0
LINE
  5
7B01
330
19
100
AcDbEntity
  8
1
  6
Continuous
100
AcDbLine
 10
368.3646197636863
 20
1740.949159109764
 30
0.0
 11
393.3646197636863
 21
1740.949159109764
 31
0.0
  0
LINE
  5
7B02
330
19
100
AcDbEntity
  8
1
  6
Continuous
100
AcDbLine
 10
551.1646197636862
 20
1791.449159109763
 30
0.0
 11
551.1646197636862
 21
1844.149159109764
 31
0.0
  0
LINE
  5
7B03
330
19
100
AcDbEntity
  8
1
  6
Continuous
100
AcDbLine
 10
575.1646197636862
 20
1791.449159109763
 30
0.0
 11
575.1646197636862
 21
1844.149159109764
 31
0.0
  0
LINE
  5
7B04
330
19
100
AcDbEntity
  8
1
  6
Continuous
100
AcDbLine
 10
528.1646197636862
 20
1791.449159109763
 30
0.0
 11
598.1646197636861
 21
1791.449159109763
 31
0.0
  0
LINE
  5
7B05
330
19
100
AcDbEntity
  8
1
  6
Continuous
100
AcDbLine
 10
528.1646197636862
 20
1761.449159109764
 30
0.0
 11
598.1646197636861
 21
1761.449159109764
 31
0.0
  0
LINE
  5
7B06
330
19
100
AcDbEntity
  8
1
  6
Continuous
100
AcDbLine
 10
440.3646197636862
 20
1738.949159109764
 30
0.0
 11
440.3646197636862
 21
1813.949159109764
 31
0.0
  0
LINE
  5
7B07
330
19
100
AcDbEntity
  8
1
  6
Continuous
100
AcDbLine
 10
528.1646197636862
 20
1761.449159109764
 30
0.0
 11
528.1646197636862
 21
1791.449159109763
 31
0.0
  0
LINE
  5
7B08
330
19
100
AcDbEntity
  8
1
  6
Continuous
100
AcDbLine
 10
598.1646197636861
 20
1761.449159109764
 30
0.0
 11
598.1646197636861
 21
1791.449159109763
 31
0.0
  0
LINE
  5
7B09
330
19
100
AcDbEntity
  8
1
  6
Continuous
100
AcDbLine
 10
473.7646197636861
 20
1844.149159109764
 30
0.0
 11
473.7646197636861
 21
2035.049159109764
 31
0.0
  0
LINE
  5
7B0A
330
19
100
AcDbEntity
  8
1
  6
Continuous
100
AcDbLine
 10
368.3646197636863
 20
2170.949159109763
 30
0.0
 11
393.3646197636863
 21
2170.949159109763
 31
0.0
  0
LINE
  5
7B0B
330
19
100
AcDbEntity
  8
1
  6
Continuous
100
AcDbLine
 10
1023.364619763686
 20
1740.949159109764
 30
0.0
 11
1023.364619763686
 21
2170.949159109763
 31
0.0
  0
LINE
  5
7B0C
330
19
100
AcDbEntity
  8
1
  6
Continuous
100
AcDbLine
 10
813.3646197636862
 20
1761.449159109764
 30
0.0
 11
913.3646197636862
 21
1761.449159109764
 31
0.0
  0
LINE
  5
7B0D
330
19
100
AcDbEntity
  8
1
  6
Continuous
100
AcDbLine
 10
813.3646197636862
 20
1791.449159109763
 30
0.0
 11
913.3646197636862
 21
1791.449159109763
 31
0.0
  0
LINE
  5
7B0E
330
19
100
AcDbEntity
  8
1
  6
Continuous
100
AcDbLine
 10
743.3646197636861
 20
2116.749159109764
 30
0.0
 11
983.3646197636863
 21
2116.749159109764
 31
0.0
  0
LINE
  5
7B0F
330
19
100
AcDbEntity
  8
1
  6
Continuous
100
AcDbLine
 10
743.3646197636861
 20
1961.149159109764
 30
0.0
 11
983.3646197636863
 21
1961.149159109764
 31
0.0
  0
LINE
  5
7B10
330
19
100
AcDbEntity
  8
1
  6
Continuous
100
AcDbLine
 10
1002.364619763686
 20
2108.949159109764
 30
0.0
 11
663.3646197636862
 21
2108.949159109764
 31
0.0
  0
LINE
  5
7B11
330
19
100
AcDbEntity
  8
1
  6
Continuous
100
AcDbLine
 10
663.3646197636862
 20
1968.949159109763
 30
0.0
 11
1002.364619763686
 21
1968.949159109763
 31
0.0
  0
LINE
  5
7B12
330
19
100
AcDbEntity
  8
1
  6
Continuous
100
AcDbLine
 10
663.3646197636862
 20
1968.949159109763
 30
0.0
 11
863.3646197636862
 21
2108.949159109764
 31
0.0
  0
LINE
  5
7B13
330
19
100
AcDbEntity
  8
1
  6
Continuous
100
AcDbLine
 10
663.3646197636862
 20
2108.949159109764
 30
0.0
 11
863.3646197636862
 21
1968.949159109763
 31
0.0
  0
LINE
  5
7B14
330
19
100
AcDbEntity
  8
1
  6
Continuous
100
AcDbLine
 10
813.3646197636862
 20
1761.449159109764
 30
0.0
 11
813.3646197636862
 21
1791.449159109763
 31
0.0
  0
LINE
  5
7B15
330
19
100
AcDbEntity
  8
1
  6
Continuous
100
AcDbLine
 10
643.7646197636861
 20
1844.149159109764
 30
0.0
 11
643.7646197636861
 21
2035.049159109764
 31
0.0
  0
LINE
  5
7B16
330
19
100
AcDbEntity
  8
1
  6
Continuous
100
AcDbLine
 10
663.3646197636862
 20
2108.949159109764
 30
0.0
 11
663.3646197636862
 21
1968.949159109763
 31
0.0
  0
LINE
  5
7B17
330
19
100
AcDbEntity
  8
1
  6
Continuous
100
AcDbLine
 10
743.3646197636861
 20
2108.749159109764
 30
0.0
 11
743.3646197636861
 21
2116.749159109764
 31
0.0
  0
LINE
  5
7B18
330
19
100
AcDbEntity
  8
1
  6
Continuous
100
AcDbLine
 10
743.3646197636861
 20
1969.149159109764
 30
0.0
 11
743.3646197636861
 21
1961.149159109764
 31
0.0
  0
LINE
  5
7B19
330
19
100
AcDbEntity
  8
1
  6
Continuous
100
AcDbLine
 10
875.3646197636861
 20
1791.449159109763
 30
0.0
 11
875.3646197636861
 21
1961.149159109764
 31
0.0
  0
LINE
  5
7B1A
330
19
100
AcDbEntity
  8
1
  6
Continuous
100
AcDbLine
 10
851.3646197636861
 20
1791.449159109763
 30
0.0
 11
851.3646197636861
 21
1961.149159109764
 31
0.0
  0
LINE
  5
7B1B
330
19
100
AcDbEntity
  8
1
  6
Continuous
100
AcDbLine
 10
1023.364619763686
 20
1824.949159109763
 30
0.0
 11
875.3646197636861
 21
1824.949159109763
 31
0.0
  0
LINE
  5
7B1C
330
19
100
AcDbEntity
  8
1
  6
Continuous
100
AcDbLine
 10
913.3646197636862
 20
1761.449159109764
 30
0.0
 11
913.3646197636862
 21
1791.449159109763
 31
0.0
  0
LINE
  5
7B1D
330
19
100
AcDbEntity
  8
1
  6
Continuous
100
AcDbLine
 10
970.3646197636862
 20
1738.949159109764
 30
0.0
 11
970.3646197636862
 21
1813.949159109764
 31
0.0
  0
LINE
  5
7B1E
330
19
100
AcDbEntity
  8
1
  6
Continuous
100
AcDbLine
 10
863.3646197636862
 20
1968.949159109763
 30
0.0
 11
863.3646197636862
 21
2108.949159109764
 31
0.0
  0
LINE
  5
7B1F
330
19
100
AcDbEntity
  8
1
  6
Continuous
100
AcDbLine
 10
1023.364619763686
 20
2048.949159109763
 30
0.0
 11
1014.364619763686
 21
2048.949159109763
 31
0.0
  0
LINE
  5
7B20
330
19
100
AcDbEntity
  8
1
  6
Continuous
100
AcDbLine
 10
1014.364619763686
 20
1980.949159109763
 30
0.0
 11
1014.364619763686
 21
2096.949159109763
 31
0.0
  0
LINE
  5
7B21
330
19
100
AcDbEntity
  8
1
  6
Continuous
100
AcDbLine
 10
983.3646197636863
 20
2108.749159109764
 30
0.0
 11
983.3646197636863
 21
2116.749159109764
 31
0.0
  0
LINE
  5
7B22
330
19
100
AcDbEntity
  8
1
  6
Continuous
100
AcDbLine
 10
983.3646197636863
 20
1969.149159109764
 30
0.0
 11
983.3646197636863
 21
1961.149159109764
 31
0.0
  0
ARC
  5
7B23
330
19
100
AcDbEntity
  8
1
  6
Continuous
100
AcDbCircle
 10
1002.364619763686
 20
1980.949159109763
 30
0.0
 40
12.0
100
AcDbArc
 50
270.0
 51
0.0
  0
ARC
  5
7B24
330
19
100
AcDbEntity
  8
1
  6
Continuous
100
AcDbCircle
 10
1002.364619763686
 20
2096.949159109763
 30
0.0
 40
12.0
100
AcDbArc
 50
0.0
 51
90.0
  0
LINE
  5
7B25
330
19
100
AcDbEntity
  8
1
  6
Continuous
100
AcDbLine
 10
1048.364619763686
 20
1740.949159109764
 30
0.0
 11
1048.364619763686
 21
2170.949159109763
 31
0.0
  0
LINE
  5
7B26
330
19
100
AcDbEntity
  8
4
  6
Continuous
100
AcDbLine
 10
1850.0
 20
500.0
 30
0.0
 11
1850.0
 21
300.0
 31
0.0
  0
LINE
  5
7B27
330
19
100
AcDbEntity
  8
4
  6
Continuous
100
AcDbLine
 10
1150.0
 20
500.0
 30
0.0
 11
1150.0
 21
300.0
 31
0.0
  0
LINE
  5
7B28
330
19
100
AcDbEntity
  8
4
  6
Continuous
100
AcDbLine
 10
650.0
 20
500.0
 30
0.0
 11
650.0
 21
300.0
 31
0.0
  0
LINE
  5
7B2B
330
19
100
AcDbEntity
  8
4
  6
Continuous
100
AcDbLine
 10
650.0
 20
300.0
 30
0.0
 11
1850.0
 21
300.0
 31
0.0
  0
LINE
  5
7B2C
330
19
100
AcDbEntity
  8
4
  6
Continuous
100
AcDbLine
 10
650.0
 20
400.0
 30
0.0
 11
1850.0
 21
400.0
 31
0.0
  0
TEXT
  5
7B2D
330
19
100
AcDbEntity
  8
4
  6
Continuous
100
AcDbText
 10
688.502081
 20
431.543026
 30
0.0
 40
50.0
  1
機器名称
100
AcDbText
  0
TEXT
  5
7B2E
330
19
100
AcDbEntity
  8
4
  6
Continuous
100
AcDbText
 10
686.258106
 20
321.645157
 30
0.0
 40
50.0
  1
機器型番
100
AcDbText
  0
TEXT
  5
7B2F
330
19
100
AcDbEntity
  8
4
  6
Continuous
100
AcDbText
 10
1177.678745
 20
422.571769
 30
0.0
 40
45.0
  1
ミツヤニューマルチファン
100
AcDbText
  0
TEXT
  5
7B30
330
19
100
AcDbEntity
  8
4
  6
Continuous
100
AcDbText
 10
1186.654496
 20
317.159584
 30
0.0
 40
50.0
  1
NM#1 1/4-1
100
AcDbText
  0
TEXT
  5
7B32
330
19
100
AcDbEntity
  8
4
  6
Continuous
100
AcDbText
 10
742.061742
 20
2383.428841
 30
0.0
 40
54.0
  1
天井吊防振ベット
100
AcDbText
  0
TEXT
  5
7B33
330
19
100
AcDbEntity
  8
4
  6
Continuous
100
AcDbText
 10
316.167593
 20
2533.880976000001
 30
0.0
 40
72.0
  1
ベルト駆動式片吸込片持多翼ファン
100
AcDbText
  0
LINE
  5
7B34
330
19
100
AcDbEntity
  8
4
  6
Continuous
100
AcDbLine
 10
250.0
 20
2469.408754
 30
0.0
 11
1850.0
 21
2469.408754
 31
0.0
  0
LINE
  5
7B35
330
19
100
AcDbEntity
  8
4
  6
Continuous
100
AcDbLine
 10
250.0
 20
2669.408754
 30
0.0
 11
1850.0
 21
2669.408754
 31
0.0
  0
LINE
  5
7B36
330
19
100
AcDbEntity
  8
4
  6
Continuous
100
AcDbLine
 10
650.0
 20
500.0
 30
0.0
 11
1850.0
 21
500.0
 31
0.0
  0
LINE
  5
7B37
330
19
100
AcDbEntity
  8
4
  6
Continuous
100
AcDbLine
 10
250.0
 20
2669.408754
 30
0.0
 11
250.0
 21
2469.408754
 31
0.0
  0
TEXT
  5
7B38
330
19
100
AcDbEntity
  8
4
  6
Continuous
100
AcDbText
 10
306.202909
 20
2382.319478000001
 30
0.0
 40
54.0
  1
右回転上向
100
AcDbText
  0
TEXT
  5
7B39
330
19
100
AcDbEntity
  8
4
  6
Continuous
100
AcDbText
 10
1468.969559
 20
2706.061081
 30
0.0
 40
56.0
  1
No.
100
AcDbText
  0
TEXT
  5
7B3A
330
19
100
AcDbEntity
  8
4
  6
Continuous
100
AcDbText
 10
1365.537404
 20
2383.428841
 30
0.0
 40
54.0
  1
縮尺：1/10
100
AcDbText
  0
LINE
  5
7B3B
330
19
100
AcDbEntity
  8
4
  6
Continuous
100
AcDbLine
 10
1850.0
 20
2669.408754
 30
0.0
 11
1850.0
 21
2469.408754
 31
0.0
  0
LINE
  5
7B3D
330
19
100
AcDbEntity
  8
4
  6
Continuous
100
AcDbLine
 10
1440.617422
 20
2681.263583
 30
0.0
 11
1440.617422
 21
2786.652262
 31
0.0
  0
LINE
  5
7B3E
330
19
100
AcDbEntity
  8
4
  6
Continuous
100
AcDbLine
 10
1440.617422
 20
2786.652262
 30
0.0
 11
1850.0
 21
2786.652262
 31
0.0
  0
LINE
  5
7B3F
330
19
100
AcDbEntity
  8
4
  6
Continuous
100
AcDbLine
 10
1850.0
 20
2786.652262
 30
0.0
 11
1850.0
 21
2681.263583
 31
0.0
  0
LINE
  5
7B40
330
19
100
AcDbEntity
  8
4
  6
Continuous
100
AcDbLine
 10
1850.0
 20
2681.263583
 30
0.0
 11
1440.617422
 21
2681.263583
 31
0.0
  0
DIMENSION
  5
7B58
330
19
100
AcDbEntity
  8
3
  6
Continuous
100
AcDbDimension
280
     0
  2
*D1
 10
863.3646197636862
 20
654.0851611258926
 30
0.0
 11
617.3100567636861
 21
654.0851611258926
 31
0.0
 70
   160
 71
     5
 42
494.9999999999999
 73
     0
 74
     0
 75
     0
  3
IGA
100
AcDbAlignedDimension
 13
368.3646197636863
 23
719.9349611258925
 33
0.0
 14
863.3646197636862
 24
744.9349611258925
 34
0.0
100
AcDbRotatedDimension
1001
ACAD
1000
DSTYLE
1002
{
1070
   287
1070
     3
1070
    40
1040
10.0
1070
   143
1040
0.039
1070
   172
1070
     1
1070
   271
1070
     0
1070
   279
1070
     0
1070
   288
1070
     1
1002
}
  0
DIMENSION
  5
7B64
330
19
100
AcDbEntity
  8
3
  6
Continuous
100
AcDbDimension
280
     0
  2
*D2
 10
1048.364619763686
 20
654.0851611258926
 30
0.0
 11
955.8646197636862
 21
679.0851611258926
 31
0.0
 70
    32
 71
     5
 42
185.0000000000001
 73
     0
 74
     0
 75
     0
  3
IGA
100
AcDbAlignedDimension
 13
863.3646197636862
 23
744.9349611258925
 33
0.0
 14
1048.364619763686
 24
719.9349611258925
 34
0.0
100
AcDbRotatedDimension
1001
ACAD
1000
DSTYLE
1002
{
1070
   287
1070
     4
1070
    40
1040
10.0
1070
    75
1070
     1
1070
   143
1040
0.039
1070
   172
1070
     1
1070
   271
1070
     0
1070
   279
1070
     1
1070
   288
1070
     1
1002
}
  0
DIMENSION
  5
7B71
330
19
100
AcDbEntity
  8
3
  6
Continuous
100
AcDbDimension
280
     0
  2
*D3
 10
863.3646197636862
 20
1314.151604125892
 30
0.0
 11
762.8959217636862
 21
1314.151604125892
 31
0.0
 70
   160
 71
     5
 42
-1.0
 73
     0
 74
     0
 75
     0
  3
IGA
100
AcDbAlignedDimension
 13
663.3646197636862
 23
1274.934961125892
 33
0.0
 14
863.3646197636862
 24
1274.934961125892
 34
0.0
100
AcDbRotatedDimension
1001
ACAD
1000
DSTYLE
1002
{
1070
   287
1070
     3
1070
    40
1040
10.0
1070
   143
1040
0.039
1070
   172
1070
     1
1070
   271
1070
     0
1070
   279
1070
     0
1070
   288
1070
     1
1002
}
  0
DIMENSION
  5
7B7E
330
19
100
AcDbEntity
  8
3
  6
Continuous
100
AcDbDimension
280
     0
  2
*D4
 10
863.3646197636862
 20
1365.635699125892
 30
0.0
 11
763.9225247636861
 21
1365.635699125892
 31
0.0
 70
   160
 71
     5
 42
-1.0
 73
     0
 74
     0
 75
     0
  3
IGA
100
AcDbAlignedDimension
 13
652.3646197636861
 23
1259.934961125892
 33
0.0
 14
863.3646197636862
 24
1274.934961125892
 34
0.0
100
AcDbRotatedDimension
1001
ACAD
1000
DSTYLE
1002
{
1070
   287
1070
     3
1070
    40
1040
10.0
1070
   143
1040
0.039
1070
   172
1070
     1
1070
   271
1070
     0
1070
   279
1070
     0
1070
   288
1070
     1
1002
}
  0
DIMENSION
  5
7B8A
330
19
100
AcDbEntity
  8
3
  6
Continuous
100
AcDbDimension
280
     0
  2
*D5
 10
1013.931808763686
 20
1365.635699125892
 30
0.0
 11
938.6482142636863
 21
1390.635699125893
 31
0.0
 70
    32
 71
     5
 42
-1.0
 73
     0
 74
     0
 75
     0
  3
IGA
100
AcDbAlignedDimension
 13
863.3646197636862
 23
1274.934961125892
 33
0.0
 14
1013.931808763686
 24
1114.934961125892
 34
0.0
100
AcDbRotatedDimension
1001
ACAD
1000
DSTYLE
1002
{
1070
   287
1070
     4
1070
    40
1040
10.0
1070
    75
1070
     1
1070
   143
1040
0.039
1070
   172
1070
     1
1070
   271
1070
     0
1070
   279
1070
     1
1070
   288
1070
     1
1002
}
  0
DIMENSION
  5
7BA3
330
19
100
AcDbEntity
  8
3
  6
Continuous
100
AcDbDimension
280
     0
  2
*D6
 10
1140.061727124102
 20
839.9349611258925
 30
0.0
 11
1115.061727124102
 21
977.4349611258926
 31
0.0
 70
    32
 71
     5
 42
-1.0
 73
     0
 74
     0
 75
     0
  3
IGA
100
AcDbAlignedDimension
 13
1013.931808763686
 23
1114.934961125892
 33
0.0
 14
1023.364619763686
 24
839.9349611258925
 34
0.0
 50
90.0
100
AcDbRotatedDimension
1001
ACAD
1000
DSTYLE
1002
{
1070
   287
1070
     3
1070
    40
1040
10.0
1070
   143
1040
0.039
1070
   172
1070
     1
1070
   271
1070
     0
1070
   279
1070
     0
1070
   288
1070
     1
1002
}
  0
DIMENSION
  5
7C2D
330
19
100
AcDbEntity
  8
3
  6
Continuous
100
AcDbDimension
280
     0
  2
*D7
 10
1048.364619763686
 20
1654.682605109763
 30
0.0
 11
714.3168837636862
 21
1654.682605109763
 31
0.0
 70
   160
 71
     5
 42
-1.0
 73
     0
 74
     0
 75
     0
  3
IGA
100
AcDbAlignedDimension
 13
368.3646197636863
 23
1740.949159109764
 33
0.0
 14
1048.364619763686
 24
1740.949159109764
 34
0.0
100
AcDbRotatedDimension
1001
ACAD
1000
DSTYLE
1002
{
1070
   287
1070
     3
1070
    40
1040
10.0
1070
   143
1040
0.039
1070
   172
1070
     1
1070
   271
1070
     0
1070
   279
1070
     0
1070
   288
1070
     1
1002
}
  0
DIMENSION
  5
7C3A
330
19
100
AcDbEntity
  8
3
  6
Continuous
100
AcDbDimension
280
     0
  2
*D8
 10
1128.243771763686
 20
1740.949159109764
 30
0.0
 11
1128.243771763686
 21
1943.485814109764
 31
0.0
 70
   160
 71
     5
 42
-1.0
 73
     0
 74
     0
 75
     0
  3
IGA
100
AcDbAlignedDimension
 13
1048.364619763686
 23
2170.949159109763
 33
0.0
 14
1048.364619763686
 24
1740.949159109764
 34
0.0
 50
90.0
100
AcDbRotatedDimension
1001
ACAD
1000
DSTYLE
1002
{
1070
   287
1070
     3
1070
    40
1040
10.0
1070
   143
1040
0.039
1070
   172
1070
     1
1070
   271
1070
     0
1070
   279
1070
     0
1070
   288
1070
     1
1002
}
  0
LINE
  5
7C3B
330
19
100
AcDbEntity
  8
2
  6
CENTER
100
AcDbLine
 10
863.3646197636862
 20
1694.064863109764
 30
0.0
 11
863.3646197636862
 21
2149.751198109764
 31
0.0
  0
LINE
  5
7C3C
330
19
100
AcDbEntity
  8
2
  6
CENTER
100
AcDbLine
 10
630.5132747636861
 20
2038.949159109764
 30
0.0
 11
1075.681623763686
 21
2038.949159109764
 31
0.0
  0
LINE
  5
7C3D
330
19
100
AcDbEntity
  8
2
  6
CENTER
100
AcDbLine
 10
1673.927835965424
 20
719.9349611258925
 30
0.0
 11
1673.927835965424
 21
1317.650441125892
 31
0.0
  0
LINE
  5
7C3E
330
19
100
AcDbEntity
  8
2
  6
CENTER
100
AcDbLine
 10
1352.409831965424
 20
1114.934961125892
 30
0.0
 11
1775.655288965424
 21
1114.934961125892
 31
0.0
  0
DIMENSION
  5
7C4B
330
19
100
AcDbEntity
  8
3
  6
Continuous
100
AcDbDimension
280
     0
  2
*D9
 10
1673.927835965424
 20
653.3893471258926
 30
0.0
 11
1536.377337965424
 21
653.3893471258926
 31
0.0
 70
   160
 71
     5
 42
298.0
 73
     0
 74
     0
 75
     0
  3
IGA
100
AcDbAlignedDimension
 13
1375.927835965424
 23
719.9349611258925
 33
0.0
 14
1673.927835965424
 24
719.9349611258925
 34
0.0
100
AcDbRotatedDimension
1001
ACAD
1000
DSTYLE
1002
{
1070
   287
1070
     3
1070
    40
1040
10.0
1070
   143
1040
0.039
1070
   172
1070
     1
1070
   271
1070
     0
1070
   279
1070
     0
1070
   288
1070
     1
1002
}
  0
DIMENSION
  5
7C57
330
19
100
AcDbEntity
  8
3
  6
Continuous
100
AcDbDimension
280
     0
  2
*D10
 10
1805.927835965424
 20
653.3893471258926
 30
0.0
 11
1739.927835965424
 21
678.3893471258926
 31
0.0
 70
    32
 71
     5
 42
132.0
 73
     0
 74
     0
 75
     0
  3
IGA
100
AcDbAlignedDimension
 13
1673.927835965424
 23
719.9349611258925
 33
0.0
 14
1805.927835965424
 24
719.9349611258925
 34
0.0
100
AcDbRotatedDimension
1001
ACAD
1000
DSTYLE
1002
{
1070
   287
1070
     4
1070
    40
1040
10.0
1070
    75
1070
     1
1070
   143
1040
0.039
1070
   172
1070
     1
1070
   271
1070
     0
1070
   279
1070
     1
1070
   288
1070
     1
1002
}
  0
DIMENSION
  5
7C64
330
19
100
AcDbEntity
  8
3
  6
Continuous
100
AcDbDimension
280
     0
  2
*D11
 10
1743.927835965424
 20
1311.814314125892
 30
0.0
 11
1678.213550965424
 21
1311.814314125892
 31
0.0
 70
   160
 71
     5
 42
-1.0
 73
     0
 74
     0
 75
     0
  3
IGA
100
AcDbAlignedDimension
 13
1603.927835965424
 23
1273.934961125892
 33
0.0
 14
1743.927835965424
 24
1273.934961125892
 34
0.0
100
AcDbRotatedDimension
1001
ACAD
1000
DSTYLE
1002
{
1070
   287
1070
     3
1070
    40
1040
10.0
1070
   143
1040
0.039
1070
   172
1070
     1
1070
   271
1070
     0
1070
   279
1070
     0
1070
   288
1070
     1
1002
}
  0
DIMENSION
  5
7C71
330
19
100
AcDbEntity
  8
3
  6
Continuous
100
AcDbDimension
280
     0
  2
*D12
 10
1673.927835965424
 20
1374.169554125892
 30
0.0
 11
1516.666523965424
 21
1374.169554125892
 31
0.0
 70
   160
  1
(300)
 71
     5
 42
300.0
 73
     0
 74
     0
 75
     0
  3
IGA
100
AcDbAlignedDimension
 13
1373.927835965424
 23
1224.934961125893
 33
0.0
 14
1673.927835965424
 24
1358.299278125892
 34
0.0
100
AcDbRotatedDimension
1001
ACAD
1000
DSTYLE
1002
{
1070
   287
1070
     3
1070
    40
1040
10.0
1070
   143
1040
0.039
1070
   172
1070
     1
1070
   271
1070
     0
1070
   279
1070
     0
1070
   288
1070
     1
1002
}
  0
DIMENSION
  5
7C7F
330
19
100
AcDbEntity
  8
3
  6
Continuous
100
AcDbDimension
280
     0
  2
*D13
 10
1751.927835965424
 20
1374.169554125892
 30
0.0
 11
1713.774571965424
 21
1374.169554125892
 31
0.0
 70
   160
 71
     5
 42
-1.0
 73
     0
 74
     0
 75
     0
  3
IGA
100
AcDbAlignedDimension
 13
1673.927835965424
 23
1358.299278125892
 33
0.0
 14
1751.927835965424
 24
1234.934961125892
 34
0.0
100
AcDbRotatedDimension
1001
ACAD
1000
DSTYLE
1002
{
1070
   287
1070
     4
1070
    40
1040
10.0
1070
    75
1070
     1
1070
   143
1040
0.039
1070
   172
1070
     1
1070
   271
1070
     0
1070
   279
1070
     1
1070
   288
1070
     1
1002
}
  0
LINE
  5
7C97
330
19
100
AcDbEntity
  8
3
  6
Continuous
100
AcDbLine
 10
1751.927835965424
 20
1214.934961125893
 30
0.0
 11
1763.399511965424
 21
1214.934961125893
 31
0.0
  0
LINE
  5
7C99
330
19
100
AcDbEntity
  8
3
  6
Continuous
100
AcDbLine
 10
1751.927835965424
 20
1014.934961125892
 30
0.0
 11
1765.244367965424
 21
1014.934961125892
 31
0.0
  0
DIMENSION
  5
7CA6
330
19
100
AcDbEntity
  8
3
  6
Continuous
100
AcDbDimension
280
     0
  2
*D14
 10
1822.434824965424
 20
1014.934961125892
 30
0.0
 11
1822.434824965424
 21
1113.456109125892
 31
0.0
 70
   160
 71
     5
 42
-1.0
 73
     0
 74
     0
 75
     0
  3
IGA
100
AcDbAlignedDimension
 13
1751.927835965424
 23
1214.934961125893
 33
0.0
 14
1751.927835965424
 24
1014.934961125892
 34
0.0
 50
90.0
100
AcDbRotatedDimension
1001
ACAD
1000
DSTYLE
1002
{
1070
   287
1070
     3
1070
     3
1000
φ<>
1070
    40
1040
10.0
1070
   143
1040
0.039
1070
   172
1070
     1
1070
   271
1070
     0
1070
   279
1070
     0
1070
   288
1070
     1
1002
}
  0
DIMENSION
  5
7DC0
330
19
100
AcDbEntity
  8
3
100
AcDbDimension
280
     0
  2
*D16
 10
1140.061727124102
 20
1274.934961125892
 30
0.0
 11
1115.061727124102
 21
1194.934961125893
 31
0.0
 70
    32
 71
     5
 42
-1.0
 73
     0
 74
     0
 75
     0
  3
IGA
100
AcDbAlignedDimension
 13
1013.931808763686
 23
1114.934961125892
 33
0.0
 14
884.3646197636861
 24
1274.934961125892
 34
0.0
 50
90.0
100
AcDbRotatedDimension
1001
ACAD
1000
DSTYLE
1002
{
1070
   287
1070
     4
1070
    40
1040
10.0
1070
    75
1070
     1
1070
   143
1040
0.039
1070
   172
1070
     1
1070
   271
1070
     0
1070
   279
1070
     1
1070
   288
1070
     1
1002
}
  0
DIMENSION
  5
7DD7
330
19
100
AcDbEntity
  8
3
100
AcDbDimension
280
     0
  2
*D17
 10
1139.912843738562
 20
719.9349611258925
 30
0.0
 11
1114.912843738562
 21
645.6492468401783
 31
0.0
 70
    32
 71
     5
 42
50.0
 73
     0
 74
     0
 75
     0
  3
IGA
100
AcDbAlignedDimension
 13
1048.364619763686
 23
769.9349611258925
 33
0.0
 14
1048.364619763686
 24
719.9349611258925
 34
0.0
 50
90.0
100
AcDbRotatedDimension
1001
ACAD
1000
DSTYLE
1002
{
1070
   287
1070
     3
1070
    40
1040
10.0
1070
   143
1040
0.039
1070
   172
1070
     1
1070
   271
1070
     0
1070
   279
1070
     0
1070
     6
1000
DOT
1002
}
  0
DIMENSION
  5
7DE4
330
19
100
AcDbEntity
  8
3
100
AcDbDimension
280
     0
  2
*D18
 10
1139.912843738562
 20
839.9349611258925
 30
0.0
 11
1189.640883236166
 21
799.3410828645519
 31
0.0
 70
   160
 71
     5
 42
70.0
 73
     0
 74
     0
 75
     0
  3
IGA
100
AcDbAlignedDimension
 13
1048.364619763686
 23
769.9349611258925
 33
0.0
 14
1023.364619763686
 24
839.9349611258925
 34
0.0
 50
90.0
100
AcDbRotatedDimension
1001
ACAD
1000
DSTYLE
1002
{
1070
     3
1000
(<>)
1070
    40
1040
10.0
1070
   143
1040
0.039
1070
   172
1070
     1
1070
   271
1070
     0
1070
   343
1005
7D30
1002
}
  0
DIMENSION
  5
7DF1
330
19
100
AcDbEntity
  8
3
100
AcDbDimension
280
     0
  2
*D19
 10
1230.758473990936
 20
719.9349611258925
 30
0.0
 11
1197.901331133793
 21
997.4349611258928
 31
0.0
 70
    32
 71
     5
 42
555.0000000000001
 73
     0
 74
     0
 75
     0
  3
IGA
100
AcDbAlignedDimension
 13
884.3646197636861
 23
1274.934961125892
 33
0.0
 14
1048.364619763686
 24
719.9349611258925
 34
0.0
 50
90.0
100
AcDbRotatedDimension
1001
ACAD
1000
DSTYLE
1002
{
1070
   287
1070
     3
1070
     3
1000
(<>)
1070
    40
1040
10.0
1070
   143
1040
0.039
1070
   172
1070
     1
1070
   271
1070
     0
1070
   279
1070
     0
1002
}
  0
ENDSEC
  0
SECTION
  2
OBJECTS
  0
DICTIONARY
  5
C
330
0
100
AcDbDictionary
281
     1
  3
ACAD_CIP_PREVIOUS_PRODUCT_INFO
350
7F24
  3
ACAD_COLOR
350
7F07
  3
ACAD_DETAILVIEWSTYLE
350
7F20
  3
ACAD_GROUP
350
D
  3
ACAD_LAYOUT
350
7DFA
  3
ACAD_MATERIAL
350
7ED5
  3
ACAD_MLEADERSTYLE
350
7F1C
  3
ACAD_MLINESTYLE
350
E
  3
ACAD_PLOTSETTINGS
350
7DFB
  3
ACAD_PLOTSTYLENAME
350
7DF8
  3
ACAD_SCALELIST
350
7F0A
  3
ACAD_SECTIONVIEWSTYLE
350
7F1E
  3
ACAD_TABLESTYLE
350
7F08
  3
ACAD_VISUALSTYLE
350
7EEE
  3
ACDB_RECOMPOSE_DATA
350
7FC9
  3
AcDbVariableDictionary
350
7EC8
  0
DICTIONARY
  5
7F2C
330
2
100
AcDbDictionary
280
     1
281
     1
  3
ACAD_LAYERSTATES
360
7F2D
  0
DICTIONARY
  5
7F7F
330
F
100
AcDbDictionary
280
     1
281
     1
  3
ADSK_XREC_LAYER_RECONCILED
360
7F80
  0
DICTIONARY
  5
7F81
330
31
100
AcDbDictionary
280
     1
281
     1
  3
ADSK_XREC_LAYER_RECONCILED
360
7F82
  0
DICTIONARY
  5
7F83
330
76D0
100
AcDbDictionary
280
     1
281
     1
  3
ADSK_XREC_LAYER_RECONCILED
360
7F84
  0
DICTIONARY
  5
7F85
330
76D1
100
AcDbDictionary
280
     1
281
     1
  3
ADSK_XREC_LAYER_RECONCILED
360
7F86
  0
DICTIONARY
  5
7F87
330
76D2
100
AcDbDictionary
280
     1
281
     1
  3
ADSK_XREC_LAYER_RECONCILED
360
7F88
  0
DICTIONARY
  5
7E27
330
19
100
AcDbDictionary
280
     1
281
     1
  3
ACAD_LAYOUTSELFREF
360
7E28
  0
DICTIONARY
  5
7E25
330
16
100
AcDbDictionary
280
     1
281
     1
  3
ACAD_LAYOUTSELFREF
360
7E26
  0
XRECORD
  5
7F24
102
{ACAD_REACTORS
330
C
102
}
330
C
100
AcDbXrecord
280
     1
300
ACDLT
300
2015
300
INVLTS_F_S
  0
DICTIONARY
  5
7F07
102
{ACAD_REACTORS
330
C
102
}
330
C
100
AcDbDictionary
281
     1
  0
DICTIONARY
  5
7F20
102
{ACAD_REACTORS
330
C
102
}
330
C
100
AcDbDictionary
281
     1
  3
Imperial24
350
7F21
  0
DICTIONARY
  5
D
102
{ACAD_REACTORS
330
C
102
}
330
0
100
AcDbDictionary
281
     1
  0
DICTIONARY
  5
7DFA
102
{ACAD_REACTORS
330
C
102
}
330
C
100
AcDbDictionary
281
     1
  3
Model
350
7DFC
  3
ﾚｲｱｳﾄ1
350
7DFD
  0
DICTIONARY
  5
7ED5
102
{ACAD_REACTORS
330
C
102
}
330
C
100
AcDbDictionary
281
     1
  3
ByBlock
350
7EDE
  3
ByLayer
350
7ED6
  3
Global
350
7EE6
  0
DICTIONARY
  5
7F1C
102
{ACAD_REACTORS
330
C
102
}
330
C
100
AcDbDictionary
281
     1
  3
Standard
350
7F1D
  0
DICTIONARY
  5
E
102
{ACAD_REACTORS
330
C
102
}
330
0
100
AcDbDictionary
281
     1
  3
STANDARD
350
1C
  0
DICTIONARY
  5
7DFB
102
{ACAD_REACTORS
330
C
102
}
330
C
100
AcDbDictionary
281
     1
  0
ACDBDICTIONARYWDFLT
  5
7DF8
102
{ACAD_REACTORS
330
C
102
}
330
C
100
AcDbDictionary
281
     1
  3
Normal
350
7DF9
100
AcDbDictionaryWithDefault
340
7DF9
1001
ACAD
1000
TREAT_AS_HARD
1070
     0
  0
DICTIONARY
  5
7F0A
102
{ACAD_REACTORS
330
C
102
}
330
C
100
AcDbDictionary
281
     1
  3
A0
350
7F0B
  3
A1
350
7F0C
  3
A2
350
7F0D
  3
A3
350
7F0E
  3
A4
350
7F0F
  3
A5
350
7F10
  3
A6
350
7F11
  3
A7
350
7F12
  3
A8
350
7F13
  3
A9
350
7F14
  3
B0
350
7F15
  3
B1
350
7F16
  3
B2
350
7F17
  3
B3
350
7F18
  3
B4
350
7F19
  3
B5
350
7F1A
  3
B6
350
7F1B
  0
DICTIONARY
  5
7F1E
102
{ACAD_REACTORS
330
C
102
}
330
C
100
AcDbDictionary
281
     1
  3
Imperial24
350
7F1F
  0
DICTIONARY
  5
7F08
102
{ACAD_REACTORS
330
C
102
}
330
C
100
AcDbDictionary
281
     1
  3
Standard
350
7F09
  0
DICTIONARY
  5
7EEE
102
{ACAD_REACTORS
330
C
102
}
330
C
100
AcDbDictionary
281
     1
  3
2dWireframe
350
7EF4
  3
Basic
350
7EF3
  3
Brighten
350
7EFA
  3
ColorChange
350
7EFE
  3
Conceptual
350
7EF7
  3
Dim
350
7EF9
  3
EdgeColorOff
350
7F06
  3
Facepattern
350
7EFD
  3
Flat
350
7EEF
  3
FlatWithEdges
350
7EF0
  3
Gouraud
350
7EF1
  3
GouraudWithEdges
350
7EF2
  3
Hidden
350
7EF6
  3
JitterOff
350
7F04
  3
Linepattern
350
7EFC
  3
OverhangOff
350
7F05
  3
Realistic
350
7EF8
  3
Shaded
350
7F03
  3
Shaded with edges
350
7F02
  3
Shades of Gray
350
7EFF
  3
Sketchy
350
7F00
  3
Thicken
350
7EFB
  3
Wireframe
350
7EF5
  3
X-Ray
350
7F01
  0
XRECORD
  5
7FC9
102
{ACAD_REACTORS
330
C
102
}
330
C
100
AcDbXrecord
280
     1
 90
        1
330
7F09
330
7F1F
330
7F21
  0
DICTIONARY
  5
7EC8
102
{ACAD_REACTORS
330
C
102
}
330
C
100
AcDbDictionary
281
     1
  3
CANNOSCALE
350
7F9A
  3
CMLEADERSTYLE
350
7F96
  3
CTABLESTYLE
350
7F95
  3
CVIEWDETAILSTYLE
350
7F97
  3
CVIEWSECTIONSTYLE
350
7F98
  3
DIMASSOC
350
7EC9
  3
LAYEREVAL
350
7F9C
  3
LAYERNOTIFY
350
7F9D
  3
LIGHTINGUNITS
350
7F9B
  3
MSLTSCALE
350
7F99
  0
DICTIONARY
  5
7F2D
102
{ACAD_REACTORS
330
7F2C
102
}
330
7F2C
100
AcDbDictionary
281
     1
  0
XRECORD
  5
7F80
102
{ACAD_REACTORS
330
7F7F
102
}
330
7F7F
100
AcDbXrecord
280
     1
290
     1
  0
XRECORD
  5
7F82
102
{ACAD_REACTORS
330
7F81
102
}
330
7F81
100
AcDbXrecord
280
     1
290
     1
  0
XRECORD
  5
7F84
102
{ACAD_REACTORS
330
7F83
102
}
330
7F83
100
AcDbXrecord
280
     1
290
     1
  0
XRECORD
  5
7F86
102
{ACAD_REACTORS
330
7F85
102
}
330
7F85
100
AcDbXrecord
280
     1
290
     1
  0
XRECORD
  5
7F88
102
{ACAD_REACTORS
330
7F87
102
}
330
7F87
100
AcDbXrecord
280
     1
290
     1
  0
XRECORD
  5
7E28
102
{ACAD_REACTORS
330
7E27
102
}
330
7E27
100
AcDbXrecord
280
     1
340
19
  0
XRECORD
  5
7E26
102
{ACAD_REACTORS
330
7E25
102
}
330
7E25
100
AcDbXrecord
280
     1
340
16
  0
ACDBDETAILVIEWSTYLE
  5
7F21
102
{ACAD_XDICTIONARY
360
7F92
102
}
102
{ACAD_REACTORS
330
7F20
102
}
330
7F20
100
AcDbModelDocViewStyle
 70
     0
  3
Imperial24
290
     0
100
AcDbDetailViewStyle
 70
     0
 71
     0
 90
        3
 71
     1
340
10
 62
   256
 40
0.24
340
0
 62
   256
 40
0.24
300

 40
0.36
280
     3
 71
     2
340
15
 90
       25
 62
   256
 71
     3
340
10
 62
   256
 40
0.24
 90
        1
 40
0.75
 90
        1
300
%<\AcVar ViewType \f "%tc1">% %<\AcVar ViewDetailId>%\PSCALE %<\AcVar ViewScale \f "%sn">%
 71
     4
340
15
 90
       25
 62
   256
340
15
 90
       25
 62
   256
280
     0
  0
LAYOUT
  5
7DFC
102
{ACAD_REACTORS
330
7DFA
102
}
330
7DFA
100
AcDbPlotSettings
  1

  2
\\Txbo34x8944cqyd\EPSON LP-6100
  4

  6

 40
0.0
 41
0.0
 42
0.0
 43
0.0
 44
0.0
 45
0.0
 46
0.0
 47
0.0
 48
0.0
 49
0.0
140
0.0
141
0.0
142
1.0
143
1.0
 70
  1712
 72
     0
 73
     0
 74
     0
  7
GOD2000TABLE.ctb
 75
     0
147
1.0
 76
     0
 77
     2
 78
   300
148
0.0
149
0.0
100
AcDbLayout
  1
Model
 70
     1
 71
     0
 10
0.0
 20
0.0
 11
12.0
 21
9.0
 12
0.0
 22
0.0
 32
0.0
 14
0.0
 24
0.0
 34
0.0
 15
0.0
 25
0.0
 35
0.0
146
0.0
 13
0.0
 23
0.0
 33
0.0
 16
1.0
 26
0.0
 36
0.0
 17
0.0
 27
1.0
 37
0.0
 76
     0
330
19
331
7ED3
  0
LAYOUT
  5
7DFD
102
{ACAD_REACTORS
330
7DFA
102
}
330
7DFA
100
AcDbPlotSettings
  1

  2
\\Txbo34x8944cqyd\EPSON LP-6100
  4

  6

 40
0.0
 41
0.0
 42
0.0
 43
0.0
 44
0.0
 45
0.0
 46
0.0
 47
0.0
 48
0.0
 49
0.0
140
0.0
141
0.0
142
1.0
143
1.0
 70
   688
 72
     0
 73
     0
 74
     5
  7
GOD2000TABLE.ctb
 75
    16
147
1.0
 76
     0
 77
     2
 78
   300
148
0.0
149
0.0
100
AcDbLayout
  1
ﾚｲｱｳﾄ1
 70
     1
 71
     1
 10
0.0
 20
0.0
 11
12.0
 21
9.0
 12
0.0
 22
0.0
 32
0.0
 14
1.000000000000000E+20
 24
1.000000000000000E+20
 34
1.000000000000000E+20
 15
-1.000000000000000E+20
 25
-1.000000000000000E+20
 35
-1.000000000000000E+20
146
0.0
 13
0.0
 23
0.0
 33
0.0
 16
1.0
 26
0.0
 36
0.0
 17
0.0
 27
1.0
 37
0.0
 76
     0
330
16
  0
MATERIAL
  5
7EDE
102
{ACAD_XDICTIONARY
360
7EDF
102
}
102
{ACAD_REACTORS
330
7ED5
102
}
330
7ED5
100
AcDbMaterial
  1
ByBlock
 72
     0
 43
0.0208333333333333
 43
0.0
 43
0.0
 43
0.0
 43
0.0
 43
0.0208333333333333
 43
0.0
 43
0.0
 43
0.0
 43
0.0
 43
1.0
 43
0.0
 43
0.0
 43
0.0
 43
0.0
 43
1.0
 77
     0
 47
0.0208333333333333
 47
0.0
 47
0.0
 47
0.0
 47
0.0
 47
0.0208333333333333
 47
0.0
 47
0.0
 47
0.0
 47
0.0
 47
1.0
 47
0.0
 47
0.0
 47
0.0
 47
0.0
 47
1.0
171
     0
 49
0.0208333333333333
 49
0.0
 49
0.0
 49
0.0
 49
0.0
 49
0.0208333333333333
 49
0.0
 49
0.0
 49
0.0
 49
0.0
 49
1.0
 49
0.0
 49
0.0
 49
0.0
 49
0.0
 49
1.0
175
     0
142
0.0208333333333333
142
0.0
142
0.0
142
0.0
142
0.0
142
0.0208333333333333
142
0.0
142
0.0
142
0.0
142
0.0
142
1.0
142
0.0
142
0.0
142
0.0
142
0.0
142
1.0
179
     0
144
0.0208333333333333
144
0.0
144
0.0
144
0.0
144
0.0
144
0.0208333333333333
144
0.0
144
0.0
144
0.0
144
0.0
144
1.0
144
0.0
144
0.0
144
0.0
144
0.0
144
1.0
147
0.0208333333333333
147
0.0
147
0.0
147
0.0
147
0.0
147
0.0208333333333333
147
0.0
147
0.0
147
0.0
147
0.0
147
1.0
147
0.0
147
0.0
147
0.0
147
0.0
147
1.0
  0
MATERIAL
  5
7ED6
102
{ACAD_XDICTIONARY
360
7ED7
102
}
102
{ACAD_REACTORS
330
7ED5
102
}
330
7ED5
100
AcDbMaterial
  1
ByLayer
 72
     0
 43
0.0208333333333333
 43
0.0
 43
0.0
 43
0.0
 43
0.0
 43
0.0208333333333333
 43
0.0
 43
0.0
 43
0.0
 43
0.0
 43
1.0
 43
0.0
 43
0.0
 43
0.0
 43
0.0
 43
1.0
 77
     0
 47
0.0208333333333333
 47
0.0
 47
0.0
 47
0.0
 47
0.0
 47
0.0208333333333333
 47
0.0
 47
0.0
 47
0.0
 47
0.0
 47
1.0
 47
0.0
 47
0.0
 47
0.0
 47
0.0
 47
1.0
171
     0
 49
0.0208333333333333
 49
0.0
 49
0.0
 49
0.0
 49
0.0
 49
0.0208333333333333
 49
0.0
 49
0.0
 49
0.0
 49
0.0
 49
1.0
 49
0.0
 49
0.0
 49
0.0
 49
0.0
 49
1.0
175
     0
142
0.0208333333333333
142
0.0
142
0.0
142
0.0
142
0.0
142
0.0208333333333333
142
0.0
142
0.0
142
0.0
142
0.0
142
1.0
142
0.0
142
0.0
142
0.0
142
0.0
142
1.0
179
     0
144
0.0208333333333333
144
0.0
144
0.0
144
0.0
144
0.0
144
0.0208333333333333
144
0.0
144
0.0
144
0.0
144
0.0
144
1.0
144
0.0
144
0.0
144
0.0
144
0.0
144
1.0
147
0.0208333333333333
147
0.0
147
0.0
147
0.0
147
0.0
147
0.0208333333333333
147
0.0
147
0.0
147
0.0
147
0.0
147
1.0
147
0.0
147
0.0
147
0.0
147
0.0
147
1.0
  0
MATERIAL
  5
7EE6
102
{ACAD_XDICTIONARY
360
7EE7
102
}
102
{ACAD_REACTORS
330
7ED5
102
}
330
7ED5
100
AcDbMaterial
  1
Global
 72
     0
 43
0.0208333333333333
 43
0.0
 43
0.0
 43
0.0
 43
0.0
 43
0.0208333333333333
 43
0.0
 43
0.0
 43
0.0
 43
0.0
 43
1.0
 43
0.0
 43
0.0
 43
0.0
 43
0.0
 43
1.0
 77
     0
 47
0.0208333333333333
 47
0.0
 47
0.0
 47
0.0
 47
0.0
 47
0.0208333333333333
 47
0.0
 47
0.0
 47
0.0
 47
0.0
 47
1.0
 47
0.0
 47
0.0
 47
0.0
 47
0.0
 47
1.0
171
     0
 49
0.0208333333333333
 49
0.0
 49
0.0
 49
0.0
 49
0.0
 49
0.0208333333333333
 49
0.0
 49
0.0
 49
0.0
 49
0.0
 49
1.0
 49
0.0
 49
0.0
 49
0.0
 49
0.0
 49
1.0
175
     0
142
0.0208333333333333
142
0.0
142
0.0
142
0.0
142
0.0
142
0.0208333333333333
142
0.0
142
0.0
142
0.0
142
0.0
142
1.0
142
0.0
142
0.0
142
0.0
142
0.0
142
1.0
179
     0
144
0.0208333333333333
144
0.0
144
0.0
144
0.0
144
0.0
144
0.0208333333333333
144
0.0
144
0.0
144
0.0
144
0.0
144
1.0
144
0.0
144
0.0
144
0.0
144
0.0
144
1.0
147
0.0208333333333333
147
0.0
147
0.0
147
0.0
147
0.0
147
0.0208333333333333
147
0.0
147
0.0
147
0.0
147
0.0
147
1.0
147
0.0
147
0.0
147
0.0
147
0.0
147
1.0
  0
MLEADERSTYLE
  5
7F1D
102
{ACAD_REACTORS
330
7F1C
102
}
330
7F1C
100
AcDbMLeaderStyle
179
     2
170
     2
171
     1
172
     0
 90
        2
 40
0.0
 41
0.0
173
     1
 91
-1056964608
340
13
 92
       -2
290
     1
 42
0.09
291
     1
 43
0.36
  3
Standard
 44
0.18
300

342
10
174
     1
178
     6
175
     1
176
     0
 93
-1056964608
 45
0.18
292
     0
297
     0
 46
0.18
 94
-1056964608
 47
1.0
 49
1.0
140
1.0
293
     1
141
0.0
294
     1
177
     0
142
1.0
295
     1
296
     0
143
0.125
271
     0
272
     9
273
     9
298
     1
  0
MLINESTYLE
  5
1C
102
{ACAD_REACTORS
330
E
102
}
330
0
100
AcDbMlineStyle
  2
STANDARD
 70
     0
  3

 62
     0
 51
90.0
 52
90.0
 71
     2
 49
0.5
 62
   256
  6
BYLAYER
 49
-0.5
 62
   256
  6
BYLAYER
  0
ACDBPLACEHOLDER
  5
7DF9
102
{ACAD_REACTORS
330
7DF8
102
}
330
7DF8
  0
SCALE
  5
7F0B
102
{ACAD_REACTORS
330
7F0A
102
}
330
7F0A
100
AcDbScale
 70
     0
300
1:1
140
1.0
141
1.0
290
     1
  0
SCALE
  5
7F0C
102
{ACAD_REACTORS
330
7F0A
102
}
330
7F0A
100
AcDbScale
 70
     0
300
1/128" = 1'-0"
140
0.0078125
141
12.0
290
     0
  0
SCALE
  5
7F0D
102
{ACAD_REACTORS
330
7F0A
102
}
330
7F0A
100
AcDbScale
 70
     0
300
1/64" = 1'-0"
140
0.015625
141
12.0
290
     0
  0
SCALE
  5
7F0E
102
{ACAD_REACTORS
330
7F0A
102
}
330
7F0A
100
AcDbScale
 70
     0
300
1/32" = 1'-0"
140
0.03125
141
12.0
290
     0
  0
SCALE
  5
7F0F
102
{ACAD_REACTORS
330
7F0A
102
}
330
7F0A
100
AcDbScale
 70
     0
300
1/16" = 1'-0"
140
0.0625
141
12.0
290
     0
  0
SCALE
  5
7F10
102
{ACAD_REACTORS
330
7F0A
102
}
330
7F0A
100
AcDbScale
 70
     0
300
3/32" = 1'-0"
140
0.09375
141
12.0
290
     0
  0
SCALE
  5
7F11
102
{ACAD_REACTORS
330
7F0A
102
}
330
7F0A
100
AcDbScale
 70
     0
300
1/8" = 1'-0"
140
0.125
141
12.0
290
     0
  0
SCALE
  5
7F12
102
{ACAD_REACTORS
330
7F0A
102
}
330
7F0A
100
AcDbScale
 70
     0
300
3/16" = 1'-0"
140
0.1875
141
12.0
290
     0
  0
SCALE
  5
7F13
102
{ACAD_REACTORS
330
7F0A
102
}
330
7F0A
100
AcDbScale
 70
     0
300
1/4" = 1'-0"
140
0.25
141
12.0
290
     0
  0
SCALE
  5
7F14
102
{ACAD_REACTORS
330
7F0A
102
}
330
7F0A
100
AcDbScale
 70
     0
300
3/8" = 1'-0"
140
0.375
141
12.0
290
     0
  0
SCALE
  5
7F15
102
{ACAD_REACTORS
330
7F0A
102
}
330
7F0A
100
AcDbScale
 70
     0
300
1/2" = 1'-0"
140
0.5
141
12.0
290
     0
  0
SCALE
  5
7F16
102
{ACAD_REACTORS
330
7F0A
102
}
330
7F0A
100
AcDbScale
 70
     0
300
3/4" = 1'-0"
140
0.75
141
12.0
290
     0
  0
SCALE
  5
7F17
102
{ACAD_REACTORS
330
7F0A
102
}
330
7F0A
100
AcDbScale
 70
     0
300
1" = 1'-0"
140
1.0
141
12.0
290
     0
  0
SCALE
  5
7F18
102
{ACAD_REACTORS
330
7F0A
102
}
330
7F0A
100
AcDbScale
 70
     0
300
1-1/2" = 1'-0"
140
1.5
141
12.0
290
     0
  0
SCALE
  5
7F19
102
{ACAD_REACTORS
330
7F0A
102
}
330
7F0A
100
AcDbScale
 70
     0
300
3" = 1'-0"
140
3.0
141
12.0
290
     0
  0
SCALE
  5
7F1A
102
{ACAD_REACTORS
330
7F0A
102
}
330
7F0A
100
AcDbScale
 70
     0
300
6" = 1'-0"
140
6.0
141
12.0
290
     0
  0
SCALE
  5
7F1B
102
{ACAD_REACTORS
330
7F0A
102
}
330
7F0A
100
AcDbScale
 70
     0
300
1'-0" = 1'-0"
140
12.0
141
12.0
290
     0
  0
ACDBSECTIONVIEWSTYLE
  5
7F1F
102
{ACAD_XDICTIONARY
360
7F90
102
}
102
{ACAD_REACTORS
330
7F1E
102
}
330
7F1E
100
AcDbModelDocViewStyle
 70
     0
  3
Imperial24
290
     0
100
AcDbSectionViewStyle
 70
     0
 71
     0
 90
       78
 71
     1
340
10
 62
   256
 40
0.24
340
0
340
0
 62
   256
 40
0.24
300
I, O, Q, S, X, Z
 40
0.48
 90
        3
 40
0.18
 90
        1
 71
     2
340
15
 90
       25
 62
   256
340
15
 90
       50
 62
   256
 40
0.24
 40
0.0
 40
0.24
 71
     3
340
10
 62
   256
 40
0.24
 90
        1
 40
0.75
 90
        1
300
%<\AcVar ViewType \f "%tc1">% %<\AcVar ViewSectionStartId>%-%<\AcVar ViewSectionEndId>%\PSCALE %<\AcVar ViewScale \f "%sn">%
 71
     4
 62
   256
 62
   257
300
ANSI31
 40
1.0
 90
        0
290
     0
290
     0
 90
        6
 40
0.0
 40
1.570796326794896
 40
0.2617993877991494
 40
1.308996938995747
 40
-0.2617993877991494
 40
1.832595714594046
  0
TABLESTYLE
  5
7F09
102
{ACAD_XDICTIONARY
360
7FC5
102
}
102
{ACAD_REACTORS
330
7F08
102
}
330
7F08
100
AcDbTableStyle
280
     0
  3
Standard
 70
     0
 71
     0
 40
0.06
 41
0.06
280
     0
281
     0
  7
STANDARD
140
0.18
170
     2
 62
     0
 63
     7
283
     0
 90
      512
 91
        0
  1

274
    -2
284
     1
 64
     0
275
    -2
285
     1
 65
     0
276
    -2
286
     1
 66
     0
277
    -2
287
     1
 67
     0
278
    -2
288
     1
 68
     0
279
    -2
289
     1
 69
     0
  7
STANDARD
140
0.25
170
     5
 62
     0
 63
     7
283
     0
 90
      512
 91
        0
  1

274
    -2
284
     1
 64
     0
275
    -2
285
     1
 65
     0
276
    -2
286
     1
 66
     0
277
    -2
287
     1
 67
     0
278
    -2
288
     1
 68
     0
279
    -2
289
     1
 69
     0
  7
STANDARD
140
0.18
170
     5
 62
     0
 63
     7
283
     0
 90
      512
 91
        0
  1

274
    -2
284
     1
 64
     0
275
    -2
285
     1
 65
     0
276
    -2
286
     1
 66
     0
277
    -2
287
     1
 67
     0
278
    -2
288
     1
 68
     0
279
    -2
289
     1
 69
     0
  0
VISUALSTYLE
  5
7EF4
102
{ACAD_REACTORS
330
7EEE
102
}
330
7EEE
100
AcDbVisualStyle
  2
2dWireframe
 70
     4
177
     3
291
     0
 70
    58
 90
        0
176
     1
 90
        2
176
     1
 90
        0
176
     1
 90
        0
176
     1
 40
0.6
176
     1
 40
30.0
176
     1
 62
     7
420
 16777215
176
     1
 90
        1
176
     1
 90
        4
176
     1
 62
     7
176
     1
 62
   257
176
     1
 90
        1
176
     1
 90
        1
176
     1
 40
1.0
176
     1
 90
        0
176
     1
 62
   257
176
     1
 40
1.0
176
     1
 90
        1
176
     1
 90
        6
176
     1
 90
        2
176
     1
 62
     7
176
     1
 90
        5
176
     1
 90
        0
176
     1
 90
        0
176
     1
290
     0
176
     1
 90
        1
176
     1
 40
0.0
176
     1
 90
        0
176
     1
290
     1
176
     1
290
     1
176
     1
290
     0
176
     1
290
     0
176
     1
290
     0
176
     1
290
     0
176
     1
290
     0
176
     1
290
     0
176
     1
290
     0
176
     1
 90
       50
176
     1
 40
0.0
176
     1
 40
1.0
176
     1
 90
        0
176
     1
 62
    18
420
        0
176
     1
 90
       50
176
     1
 90
        3
176
     1
 62
     5
420
      255
176
     1
290
     0
176
     1
 90
       50
176
     1
 90
       50
176
     1
 90
       50
176
     1
290
     0
176
     1
 90
       50
176
     1
 62
   256
176
     0
 40
1.0
176
     0
 90
        2
176
     1
  1
strokes_ogs.tif
176
     1
290
     0
176
     1
 40
1.0
176
     1
 40
1.0
176
     1
  0
VISUALSTYLE
  5
7EF3
102
{ACAD_REACTORS
330
7EEE
102
}
330
7EEE
100
AcDbVisualStyle
  2
Basic
 70
     7
177
     3
291
     1
 70
    58
 90
        1
176
     1
 90
        0
176
     1
 90
        1
176
     1
 90
        0
176
     1
 40
0.6
176
     1
 40
30.0
176
     1
 62
     7
420
 16777215
176
     1
 90
        0
176
     1
 90
        4
176
     1
 62
     7
176
     1
 62
   257
176
     1
 90
        1
176
     1
 90
        1
176
     1
 40
1.0
176
     1
 90
        8
176
     1
 62
     7
176
     1
 40
1.0
176
     1
 90
        1
176
     1
 90
        6
176
     1
 90
        2
176
     1
 62
     7
176
     1
 90
        5
176
     1
 90
        0
176
     1
 90
        0
176
     1
290
     0
176
     1
 90
        1
176
     1
 40
0.0
176
     1
 90
        0
176
     1
290
     0
176
     1
290
     1
176
     1
290
     1
176
     1
290
     0
176
     1
290
     0
176
     1
290
     0
176
     1
290
     0
176
     1
290
     0
176
     1
290
     0
176
     1
 90
       50
176
     1
 40
0.0
176
     1
 40
1.0
176
     1
 90
        0
176
     1
 62
    18
420
        0
176
     1
 90
       50
176
     1
 90
        3
176
     1
 62
     5
420
      255
176
     1
290
     0
176
     1
 90
       50
176
     1
 90
       50
176
     1
 90
       50
176
     1
290
     0
176
     1
 90
       50
176
     1
 62
   256
176
     0
 40
1.0
176
     0
 90
        2
176
     1
  1
strokes_ogs.tif
176
     1
290
     0
176
     1
 40
1.0
176
     1
 40
1.0
176
     1
  0
VISUALSTYLE
  5
7EFA
102
{ACAD_REACTORS
330
7EEE
102
}
330
7EEE
100
AcDbVisualStyle
  2
Brighten
 70
    12
177
     3
291
     1
 70
    58
 90
        2
176
     1
 90
        2
176
     1
 90
        0
176
     1
 90
        0
176
     1
 40
0.6
176
     1
 40
30.0
176
     1
 62
     7
420
 16777215
176
     1
 90
        1
176
     1
 90
        4
176
     1
 62
     7
176
     1
 62
   257
176
     1
 90
        1
176
     1
 90
        1
176
     1
 40
1.0
176
     1
 90
        8
176
     1
 62
     7
176
     1
 40
1.0
176
     1
 90
        1
176
     1
 90
        6
176
     1
 90
        2
176
     1
 62
     7
176
     1
 90
        5
176
     1
 90
        0
176
     1
 90
        0
176
     1
290
     0
176
     1
 90
        1
176
     1
 40
50.0
176
     1
 90
        0
176
     1
290
     0
176
     1
290
     1
176
     1
290
     1
176
     1
290
     0
176
     1
290
     0
176
     1
290
     0
176
     1
290
     0
176
     1
290
     0
176
     1
290
     0
176
     1
 90
       50
176
     1
 40
0.0
176
     1
 40
1.0
176
     1
 90
        0
176
     1
 62
    18
420
        0
176
     1
 90
       50
176
     1
 90
        3
176
     1
 62
     5
420
      255
176
     1
290
     0
176
     1
 90
       50
176
     1
 90
       50
176
     1
 90
       50
176
     1
290
     0
176
     1
 90
       50
176
     1
 62
   256
176
     0
 40
1.0
176
     0
 90
        2
176
     1
  1
strokes_ogs.tif
176
     1
290
     0
176
     1
 40
1.0
176
     1
 40
1.0
176
     1
  0
VISUALSTYLE
  5
7EFE
102
{ACAD_REACTORS
330
7EEE
102
}
330
7EEE
100
AcDbVisualStyle
  2
ColorChange
 70
    16
177
     3
291
     1
 70
    58
 90
        2
176
     1
 90
        2
176
     1
 90
        3
176
     1
 90
        0
176
     1
 40
0.6
176
     1
 40
30.0
176
     1
 62
     8
420
  8421504
176
     1
 90
        1
176
     1
 90
        4
176
     1
 62
     7
176
     1
 62
   257
176
     1
 90
        1
176
     1
 90
        1
176
     1
 40
1.0
176
     1
 90
        8
176
     1
 62
     8
420
  8421504
176
     1
 40
1.0
176
     1
 90
        1
176
     1
 90
        6
176
     1
 90
        2
176
     1
 62
     7
176
     1
 90
        5
176
     1
 90
        0
176
     1
 90
        0
176
     1
290
     0
176
     1
 90
        1
176
     1
 40
0.0
176
     1
 90
        0
176
     1
290
     0
176
     1
290
     1
176
     1
290
     1
176
     1
290
     0
176
     1
290
     0
176
     1
290
     0
176
     1
290
     0
176
     1
290
     0
176
     1
290
     0
176
     1
 90
       50
176
     1
 40
0.0
176
     1
 40
1.0
176
     1
 90
        0
176
     1
 62
    18
420
        0
176
     1
 90
       50
176
     1
 90
        3
176
     1
 62
     5
420
      255
176
     1
290
     0
176
     1
 90
       50
176
     1
 90
       50
176
     1
 90
       50
176
     1
290
     0
176
     1
 90
       50
176
     1
 62
   256
176
     0
 40
1.0
176
     0
 90
        2
176
     1
  1
strokes_ogs.tif
176
     1
290
     0
176
     1
 40
1.0
176
     1
 40
1.0
176
     1
  0
VISUALSTYLE
  5
7EF7
102
{ACAD_REACTORS
330
7EEE
102
}
330
7EEE
100
AcDbVisualStyle
  2
Conceptual
 70
     9
177
     3
291
     0
 70
    58
 90
        3
176
     1
 90
        2
176
     1
 90
        0
176
     1
 90
        0
176
     1
 40
0.6
176
     1
 40
30.0
176
     1
 62
     7
420
 16777215
176
     1
 90
        2
176
     1
 90
        2
176
     1
 62
     7
176
     1
 62
   257
176
     1
 90
        1
176
     1
 90
        1
176
     1
 40
179.0
176
     1
 90
        8
176
     1
 62
     7
176
     1
 40
1.0
176
     1
 90
        1
176
     1
 90
        6
176
     1
 90
        2
176
     1
 62
     7
176
     1
 90
        3
176
     1
 90
        0
176
     1
 90
        0
176
     1
290
     0
176
     1
 90
        1
176
     1
 40
0.0
176
     1
 90
        0
176
     1
290
     0
176
     1
290
     1
176
     1
290
     1
176
     1
290
     0
176
     1
290
     0
176
     1
290
     0
176
     1
290
     0
176
     1
290
     0
176
     1
290
     0
176
     1
 90
       50
176
     1
 40
0.0
176
     1
 40
1.0
176
     1
 90
        0
176
     1
 62
    18
420
        0
176
     1
 90
       50
176
     1
 90
        3
176
     1
 62
     5
420
      255
176
     1
290
     0
176
     1
 90
       50
176
     1
 90
       50
176
     1
 90
       50
176
     1
290
     0
176
     1
 90
       50
176
     1
 62
   256
176
     0
 40
1.0
176
     0
 90
        2
176
     1
  1
strokes_ogs.tif
176
     1
290
     0
176
     1
 40
1.0
176
     1
 40
1.0
176
     1
  0
VISUALSTYLE
  5
7EF9
102
{ACAD_REACTORS
330
7EEE
102
}
330
7EEE
100
AcDbVisualStyle
  2
Dim
 70
    11
177
     3
291
     1
 70
    58
 90
        2
176
     1
 90
        2
176
     1
 90
        0
176
     1
 90
        0
176
     1
 40
0.6
176
     1
 40
30.0
176
     1
 62
     7
420
 16777215
176
     1
 90
        1
176
     1
 90
        4
176
     1
 62
     7
176
     1
 62
   257
176
     1
 90
        1
176
     1
 90
        1
176
     1
 40
1.0
176
     1
 90
        8
176
     1
 62
     7
176
     1
 40
1.0
176
     1
 90
        1
176
     1
 90
        6
176
     1
 90
        2
176
     1
 62
     7
176
     1
 90
        5
176
     1
 90
        0
176
     1
 90
        0
176
     1
290
     0
176
     1
 90
        1
176
     1
 40
-50.0
176
     1
 90
        0
176
     1
290
     0
176
     1
290
     1
176
     1
290
     1
176
     1
290
     0
176
     1
290
     0
176
     1
290
     0
176
     1
290
     0
176
     1
290
     0
176
     1
290
     0
176
     1
 90
       50
176
     1
 40
0.0
176
     1
 40
1.0
176
     1
 90
        0
176
     1
 62
    18
420
        0
176
     1
 90
       50
176
     1
 90
        3
176
     1
 62
     5
420
      255
176
     1
290
     0
176
     1
 90
       50
176
     1
 90
       50
176
     1
 90
       50
176
     1
290
     0
176
     1
 90
       50
176
     1
 62
   256
176
     0
 40
1.0
176
     0
 90
        2
176
     1
  1
strokes_ogs.tif
176
     1
290
     0
176
     1
 40
1.0
176
     1
 40
1.0
176
     1
  0
VISUALSTYLE
  5
7F06
102
{ACAD_REACTORS
330
7EEE
102
}
330
7EEE
100
AcDbVisualStyle
  2
EdgeColorOff
 70
    22
177
     3
291
     1
 70
    58
 90
        2
176
     0
 90
        2
176
     0
 90
        0
176
     0
 90
        0
176
     0
 40
0.6
176
     0
 40
30.0
176
     0
 62
     7
420
 16777215
176
     0
 90
        1
176
     0
 90
        4
176
     0
 62
     7
176
     0
 62
   257
176
     0
 90
        1
176
     0
 90
        1
176
     0
 40
1.0
176
     0
 90
        8
176
     2
 62
     7
176
     0
 40
1.0
176
     0
 90
        1
176
     0
 90
        6
176
     0
 90
        2
176
     0
 62
     7
176
     0
 90
        5
176
     0
 90
        0
176
     0
 90
        0
176
     0
290
     0
176
     0
 90
        1
176
     0
 40
0.0
176
     0
 90
        0
176
     0
290
     0
176
     0
290
     1
176
     0
290
     1
176
     0
290
     0
176
     0
290
     0
176
     0
290
     0
176
     0
290
     0
176
     0
290
     0
176
     0
290
     0
176
     0
 90
       50
176
     0
 40
0.0
176
     0
 40
1.0
176
     0
 90
        0
176
     0
 62
    18
420
        0
176
     0
 90
       50
176
     0
 90
        3
176
     0
 62
     5
420
      255
176
     0
290
     0
176
     0
 90
       50
176
     0
 90
       50
176
     0
 90
       50
176
     0
290
     0
176
     0
 90
       50
176
     0
 62
   256
176
     0
 40
1.0
176
     0
 90
        2
176
     0
  1
strokes_ogs.tif
176
     0
290
     0
176
     0
 40
1.0
176
     0
 40
1.0
176
     0
  0
VISUALSTYLE
  5
7EFD
102
{ACAD_REACTORS
330
7EEE
102
}
330
7EEE
100
AcDbVisualStyle
  2
Facepattern
 70
    15
177
     3
291
     1
 70
    58
 90
        2
176
     1
 90
        2
176
     1
 90
        0
176
     1
 90
        0
176
     1
 40
0.6
176
     1
 40
30.0
176
     1
 62
     7
420
 16777215
176
     1
 90
        1
176
     1
 90
        4
176
     1
 62
     7
176
     1
 62
   257
176
     1
 90
        1
176
     1
 90
        1
176
     1
 40
1.0
176
     1
 90
        8
176
     1
 62
     7
176
     1
 40
1.0
176
     1
 90
        1
176
     1
 90
        6
176
     1
 90
        2
176
     1
 62
     7
176
     1
 90
        5
176
     1
 90
        0
176
     1
 90
        0
176
     1
290
     0
176
     1
 90
        1
176
     1
 40
0.0
176
     1
 90
        0
176
     1
290
     0
176
     1
290
     1
176
     1
290
     1
176
     1
290
     0
176
     1
290
     0
176
     1
290
     0
176
     1
290
     0
176
     1
290
     0
176
     1
290
     0
176
     1
 90
       50
176
     1
 40
0.0
176
     1
 40
1.0
176
     1
 90
        0
176
     1
 62
    18
420
        0
176
     1
 90
       50
176
     1
 90
        3
176
     1
 62
     5
420
      255
176
     1
290
     0
176
     1
 90
       50
176
     1
 90
       50
176
     1
 90
       50
176
     1
290
     0
176
     1
 90
       50
176
     1
 62
   256
176
     0
 40
1.0
176
     0
 90
        2
176
     1
  1
strokes_ogs.tif
176
     1
290
     0
176
     1
 40
1.0
176
     1
 40
1.0
176
     1
  0
VISUALSTYLE
  5
7EEF
102
{ACAD_REACTORS
330
7EEE
102
}
330
7EEE
100
AcDbVisualStyle
  2
Flat
 70
     0
177
     3
291
     1
 70
    58
 90
        2
176
     1
 90
        1
176
     1
 90
        1
176
     1
 90
        2
176
     1
 40
0.6
176
     1
 40
30.0
176
     1
 62
     7
420
 16777215
176
     1
 90
        0
176
     1
 90
        0
176
     1
 62
     7
176
     1
 62
   257
176
     1
 90
        1
176
     1
 90
        1
176
     1
 40
1.0
176
     1
 90
        8
176
     1
 62
     7
176
     1
 40
1.0
176
     1
 90
        1
176
     1
 90
        6
176
     1
 90
        2
176
     1
 62
     7
176
     1
 90
        5
176
     1
 90
        0
176
     1
 90
        0
176
     1
290
     0
176
     1
 90
       13
176
     1
 40
0.0
176
     1
 90
        0
176
     1
290
     0
176
     1
290
     1
176
     1
290
     1
176
     1
290
     0
176
     1
290
     0
176
     1
290
     0
176
     1
290
     0
176
     1
290
     0
176
     1
290
     0
176
     1
 90
       50
176
     1
 40
0.0
176
     1
 40
1.0
176
     1
 90
        0
176
     1
 62
    18
420
        0
176
     1
 90
       50
176
     1
 90
        3
176
     1
 62
     5
420
      255
176
     1
290
     0
176
     1
 90
       50
176
     1
 90
       50
176
     1
 90
       50
176
     1
290
     0
176
     1
 90
       50
176
     1
 62
   256
176
     0
 40
1.0
176
     0
 90
        2
176
     1
  1
strokes_ogs.tif
176
     1
290
     0
176
     1
 40
1.0
176
     1
 40
1.0
176
     1
  0
VISUALSTYLE
  5
7EF0
102
{ACAD_REACTORS
330
7EEE
102
}
330
7EEE
100
AcDbVisualStyle
  2
FlatWithEdges
 70
     1
177
     3
291
     1
 70
    58
 90
        2
176
     1
 90
        1
176
     1
 90
        1
176
     1
 90
        2
176
     1
 40
0.6
176
     1
 40
30.0
176
     1
 62
     7
420
 16777215
176
     1
 90
        1
176
     1
 90
        0
176
     1
 62
     7
176
     1
 62
   257
176
     1
 90
        1
176
     1
 90
        1
176
     1
 40
1.0
176
     1
 90
        0
176
     1
 62
   257
176
     1
 40
1.0
176
     1
 90
        1
176
     1
 90
        6
176
     1
 90
        2
176
     1
 62
     7
176
     1
 90
        5
176
     1
 90
        0
176
     1
 90
        0
176
     1
290
     0
176
     1
 90
       13
176
     1
 40
0.0
176
     1
 90
        0
176
     1
290
     0
176
     1
290
     1
176
     1
290
     1
176
     1
290
     0
176
     1
290
     0
176
     1
290
     0
176
     1
290
     0
176
     1
290
     0
176
     1
290
     0
176
     1
 90
       50
176
     1
 40
0.0
176
     1
 40
1.0
176
     1
 90
        0
176
     1
 62
    18
420
        0
176
     1
 90
       50
176
     1
 90
        3
176
     1
 62
     5
420
      255
176
     1
290
     0
176
     1
 90
       50
176
     1
 90
       50
176
     1
 90
       50
176
     1
290
     0
176
     1
 90
       50
176
     1
 62
   256
176
     0
 40
1.0
176
     0
 90
        2
176
     1
  1
strokes_ogs.tif
176
     1
290
     0
176
     1
 40
1.0
176
     1
 40
1.0
176
     1
  0
VISUALSTYLE
  5
7EF1
102
{ACAD_REACTORS
330
7EEE
102
}
330
7EEE
100
AcDbVisualStyle
  2
Gouraud
 70
     2
177
     3
291
     1
 70
    58
 90
        2
176
     1
 90
        2
176
     1
 90
        1
176
     1
 90
        2
176
     1
 40
0.6
176
     1
 40
30.0
176
     1
 62
     7
420
 16777215
176
     1
 90
        0
176
     1
 90
        0
176
     1
 62
     7
176
     1
 62
   257
176
     1
 90
        1
176
     1
 90
        1
176
     1
 40
1.0
176
     1
 90
        0
176
     1
 62
     7
176
     1
 40
1.0
176
     1
 90
        1
176
     1
 90
        6
176
     1
 90
        2
176
     1
 62
     7
176
     1
 90
        5
176
     1
 90
        0
176
     1
 90
        0
176
     1
290
     0
176
     1
 90
       13
176
     1
 40
0.0
176
     1
 90
        0
176
     1
290
     0
176
     1
290
     1
176
     1
290
     1
176
     1
290
     0
176
     1
290
     0
176
     1
290
     0
176
     1
290
     0
176
     1
290
     0
176
     1
290
     0
176
     1
 90
       50
176
     1
 40
0.0
176
     1
 40
1.0
176
     1
 90
        0
176
     1
 62
    18
420
        0
176
     1
 90
       50
176
     1
 90
        3
176
     1
 62
     5
420
      255
176
     1
290
     0
176
     1
 90
       50
176
     1
 90
       50
176
     1
 90
       50
176
     1
290
     0
176
     1
 90
       50
176
     1
 62
   256
176
     0
 40
1.0
176
     0
 90
        2
176
     1
  1
strokes_ogs.tif
176
     1
290
     0
176
     1
 40
1.0
176
     1
 40
1.0
176
     1
  0
VISUALSTYLE
  5
7EF2
102
{ACAD_REACTORS
330
7EEE
102
}
330
7EEE
100
AcDbVisualStyle
  2
GouraudWithEdges
 70
     3
177
     3
291
     1
 70
    58
 90
        2
176
     1
 90
        2
176
     1
 90
        1
176
     1
 90
        2
176
     1
 40
0.6
176
     1
 40
30.0
176
     1
 62
     7
420
 16777215
176
     1
 90
        1
176
     1
 90
        0
176
     1
 62
     7
176
     1
 62
   257
176
     1
 90
        1
176
     1
 90
        1
176
     1
 40
1.0
176
     1
 90
        0
176
     1
 62
   257
176
     1
 40
1.0
176
     1
 90
        1
176
     1
 90
        6
176
     1
 90
        2
176
     1
 62
     7
176
     1
 90
        5
176
     1
 90
        0
176
     1
 90
        0
176
     1
290
     0
176
     1
 90
       13
176
     1
 40
0.0
176
     1
 90
        0
176
     1
290
     0
176
     1
290
     1
176
     1
290
     1
176
     1
290
     0
176
     1
290
     0
176
     1
290
     0
176
     1
290
     0
176
     1
290
     0
176
     1
290
     0
176
     1
 90
       50
176
     1
 40
0.0
176
     1
 40
1.0
176
     1
 90
        0
176
     1
 62
    18
420
        0
176
     1
 90
       50
176
     1
 90
        3
176
     1
 62
     5
420
      255
176
     1
290
     0
176
     1
 90
       50
176
     1
 90
       50
176
     1
 90
       50
176
     1
290
     0
176
     1
 90
       50
176
     1
 62
   256
176
     0
 40
1.0
176
     0
 90
        2
176
     1
  1
strokes_ogs.tif
176
     1
290
     0
176
     1
 40
1.0
176
     1
 40
1.0
176
     1
  0
VISUALSTYLE
  5
7EF6
102
{ACAD_REACTORS
330
7EEE
102
}
330
7EEE
100
AcDbVisualStyle
  2
Hidden
 70
     6
177
     3
291
     0
 70
    58
 90
        1
176
     1
 90
        2
176
     1
 90
        2
176
     1
 90
        0
176
     1
 40
0.6
176
     1
 40
30.0
176
     1
 62
     7
420
 16777215
176
     1
 90
        2
176
     1
 90
        2
176
     1
 62
     7
176
     1
 62
   257
176
     1
 90
        2
176
     1
 90
        1
176
     1
 40
40.0
176
     1
 90
        0
176
     1
 62
   257
176
     1
 40
1.0
176
     1
 90
        1
176
     1
 90
        6
176
     1
 90
        2
176
     1
 62
     7
176
     1
 90
        3
176
     1
 90
        0
176
     1
 90
        0
176
     1
290
     0
176
     1
 90
        1
176
     1
 40
0.0
176
     1
 90
        0
176
     1
290
     0
176
     1
290
     1
176
     1
290
     1
176
     1
290
     0
176
     1
290
     0
176
     1
290
     0
176
     1
290
     0
176
     1
290
     0
176
     1
290
     0
176
     1
 90
       50
176
     1
 40
0.0
176
     1
 40
1.0
176
     1
 90
        0
176
     1
 62
    18
420
        0
176
     1
 90
       50
176
     1
 90
        3
176
     1
 62
     5
420
      255
176
     1
290
     0
176
     1
 90
       50
176
     1
 90
       50
176
     1
 90
       50
176
     1
290
     0
176
     1
 90
       50
176
     1
 62
   256
176
     0
 40
1.0
176
     0
 90
        2
176
     1
  1
strokes_ogs.tif
176
     1
290
     0
176
     1
 40
1.0
176
     1
 40
1.0
176
     1
  0
VISUALSTYLE
  5
7F04
102
{ACAD_REACTORS
330
7EEE
102
}
330
7EEE
100
AcDbVisualStyle
  2
JitterOff
 70
    20
177
     3
291
     1
 70
    58
 90
        2
176
     0
 90
        2
176
     0
 90
        0
176
     0
 90
        0
176
     0
 40
0.6
176
     0
 40
30.0
176
     0
 62
     7
420
 16777215
176
     0
 90
        1
176
     0
 90
        4
176
     0
 62
     7
176
     0
 62
   257
176
     0
 90
        1
176
     0
 90
        1
176
     0
 40
1.0
176
     0
 90
       10
176
     2
 62
     7
176
     0
 40
1.0
176
     0
 90
        1
176
     0
 90
        6
176
     0
 90
        2
176
     0
 62
     7
176
     0
 90
        5
176
     0
 90
        0
176
     0
 90
        0
176
     0
290
     0
176
     0
 90
        1
176
     0
 40
0.0
176
     0
 90
        0
176
     0
290
     0
176
     0
290
     1
176
     0
290
     1
176
     0
290
     0
176
     0
290
     0
176
     0
290
     0
176
     0
290
     0
176
     0
290
     0
176
     0
290
     0
176
     0
 90
       50
176
     0
 40
0.0
176
     0
 40
1.0
176
     0
 90
        0
176
     0
 62
    18
420
        0
176
     0
 90
       50
176
     0
 90
        3
176
     0
 62
     5
420
      255
176
     0
290
     0
176
     0
 90
       50
176
     0
 90
       50
176
     0
 90
       50
176
     0
290
     0
176
     0
 90
       50
176
     0
 62
   256
176
     0
 40
1.0
176
     0
 90
        2
176
     0
  1
strokes_ogs.tif
176
     0
290
     0
176
     0
 40
1.0
176
     0
 40
1.0
176
     0
  0
VISUALSTYLE
  5
7EFC
102
{ACAD_REACTORS
330
7EEE
102
}
330
7EEE
100
AcDbVisualStyle
  2
Linepattern
 70
    14
177
     3
291
     1
 70
    58
 90
        2
176
     1
 90
        2
176
     1
 90
        0
176
     1
 90
        0
176
     1
 40
0.6
176
     1
 40
30.0
176
     1
 62
     7
420
 16777215
176
     1
 90
        1
176
     1
 90
        4
176
     1
 62
     7
176
     1
 62
   257
176
     1
 90
        7
176
     1
 90
        7
176
     1
 40
1.0
176
     1
 90
        8
176
     1
 62
     7
176
     1
 40
1.0
176
     1
 90
        1
176
     1
 90
        6
176
     1
 90
        2
176
     1
 62
     7
176
     1
 90
        5
176
     1
 90
        0
176
     1
 90
        0
176
     1
290
     0
176
     1
 90
        1
176
     1
 40
0.0
176
     1
 90
        0
176
     1
290
     0
176
     1
290
     1
176
     1
290
     1
176
     1
290
     0
176
     1
290
     0
176
     1
290
     0
176
     1
290
     0
176
     1
290
     0
176
     1
290
     0
176
     1
 90
       50
176
     1
 40
0.0
176
     1
 40
1.0
176
     1
 90
        0
176
     1
 62
    18
420
        0
176
     1
 90
       50
176
     1
 90
        3
176
     1
 62
     5
420
      255
176
     1
290
     0
176
     1
 90
       50
176
     1
 90
       50
176
     1
 90
       50
176
     1
290
     0
176
     1
 90
       50
176
     1
 62
   256
176
     0
 40
1.0
176
     0
 90
        2
176
     1
  1
strokes_ogs.tif
176
     1
290
     0
176
     1
 40
1.0
176
     1
 40
1.0
176
     1
  0
VISUALSTYLE
  5
7F05
102
{ACAD_REACTORS
330
7EEE
102
}
330
7EEE
100
AcDbVisualStyle
  2
OverhangOff
 70
    21
177
     3
291
     1
 70
    58
 90
        2
176
     0
 90
        2
176
     0
 90
        0
176
     0
 90
        0
176
     0
 40
0.6
176
     0
 40
30.0
176
     0
 62
     7
420
 16777215
176
     0
 90
        1
176
     0
 90
        4
176
     0
 62
     7
176
     0
 62
   257
176
     0
 90
        1
176
     0
 90
        1
176
     0
 40
1.0
176
     0
 90
        9
176
     2
 62
     7
176
     0
 40
1.0
176
     0
 90
        1
176
     0
 90
        6
176
     0
 90
        2
176
     0
 62
     7
176
     0
 90
        5
176
     0
 90
        0
176
     0
 90
        0
176
     0
290
     0
176
     0
 90
        1
176
     0
 40
0.0
176
     0
 90
        0
176
     0
290
     0
176
     0
290
     1
176
     0
290
     1
176
     0
290
     0
176
     0
290
     0
176
     0
290
     0
176
     0
290
     0
176
     0
290
     0
176
     0
290
     0
176
     0
 90
       50
176
     0
 40
0.0
176
     0
 40
1.0
176
     0
 90
        0
176
     0
 62
    18
420
        0
176
     0
 90
       50
176
     0
 90
        3
176
     0
 62
     5
420
      255
176
     0
290
     0
176
     0
 90
       50
176
     0
 90
       50
176
     0
 90
       50
176
     0
290
     0
176
     0
 90
       50
176
     0
 62
   256
176
     0
 40
1.0
176
     0
 90
        2
176
     0
  1
strokes_ogs.tif
176
     0
290
     0
176
     0
 40
1.0
176
     0
 40
1.0
176
     0
  0
VISUALSTYLE
  5
7EF8
102
{ACAD_REACTORS
330
7EEE
102
}
330
7EEE
100
AcDbVisualStyle
  2
Realistic
 70
     8
177
     3
291
     0
 70
    58
 90
        2
176
     1
 90
        3
176
     1
 90
        0
176
     1
 90
        2
176
     1
 40
0.6
176
     1
 40
30.0
176
     1
 62
     7
420
 16777215
176
     1
 90
        0
176
     1
 90
        0
176
     1
 62
     7
176
     1
 62
   257
176
     1
 90
        1
176
     1
 90
        1
176
     1
 40
1.0
176
     1
 90
        8
176
     1
 62
   257
176
     1
 40
1.0
176
     1
 90
        1
176
     1
 90
        6
176
     1
 90
        2
176
     1
 62
     7
176
     1
 90
        3
176
     1
 90
        0
176
     1
 90
        0
176
     1
290
     0
176
     1
 90
       13
176
     1
 40
0.0
176
     1
 90
        0
176
     1
290
     0
176
     1
290
     1
176
     1
290
     1
176
     1
290
     0
176
     1
290
     0
176
     1
290
     0
176
     1
290
     0
176
     1
290
     0
176
     1
290
     0
176
     1
 90
       50
176
     1
 40
0.0
176
     1
 40
1.0
176
     1
 90
        0
176
     1
 62
    18
420
        0
176
     1
 90
       50
176
     1
 90
        3
176
     1
 62
     5
420
      255
176
     1
290
     0
176
     1
 90
       50
176
     1
 90
       50
176
     1
 90
       50
176
     1
290
     0
176
     1
 90
       50
176
     1
 62
   256
176
     0
 40
1.0
176
     0
 90
        2
176
     1
  1
strokes_ogs.tif
176
     1
290
     0
176
     1
 40
1.0
176
     1
 40
1.0
176
     1
  0
VISUALSTYLE
  5
7F03
102
{ACAD_REACTORS
330
7EEE
102
}
330
7EEE
100
AcDbVisualStyle
  2
Shaded
 70
    27
177
     3
291
     0
 70
    58
 90
        2
176
     1
 90
        2
176
     1
 90
        1
176
     1
 90
        2
176
     1
 40
0.6
176
     1
 40
30.0
176
     1
 62
     7
420
 16777215
176
     1
 90
        0
176
     1
 90
        4
176
     1
 62
     7
176
     1
 62
   257
176
     1
 90
        1
176
     1
 90
        1
176
     1
 40
1.0
176
     1
 90
        8
176
     1
 62
   257
176
     1
 40
1.0
176
     1
 90
        1
176
     1
 90
        6
176
     1
 90
        2
176
     1
 62
     8
420
  7895160
176
     1
 90
        3
176
     1
 90
        0
176
     1
 90
        0
176
     1
290
     0
176
     1
 90
        5
176
     1
 40
0.0
176
     1
 90
        0
176
     1
290
     0
176
     1
290
     1
176
     1
290
     1
176
     1
290
     0
176
     1
290
     0
176
     1
290
     0
176
     1
290
     0
176
     1
290
     0
176
     1
290
     0
176
     1
 90
       50
176
     1
 40
0.0
176
     1
 40
1.0
176
     1
 90
        0
176
     1
 62
    18
420
        0
176
     1
 90
       50
176
     1
 90
        3
176
     1
 62
     5
420
      255
176
     1
290
     0
176
     1
 90
       50
176
     1
 90
       50
176
     1
 90
       50
176
     1
290
     0
176
     1
 90
       50
176
     1
 62
   256
176
     0
 40
1.0
176
     0
 90
        2
176
     1
  1
strokes_ogs.tif
176
     1
290
     0
176
     1
 40
1.0
176
     1
 40
1.0
176
     1
  0
VISUALSTYLE
  5
7F02
102
{ACAD_REACTORS
330
7EEE
102
}
330
7EEE
100
AcDbVisualStyle
  2
Shaded with edges
 70
    26
177
     3
291
     0
 70
    58
 90
        2
176
     1
 90
        2
176
     1
 90
        1
176
     1
 90
        2
176
     1
 40
0.6
176
     1
 40
30.0
176
     1
 62
     7
420
 16777215
176
     1
 90
        1
176
     1
 90
       10
176
     1
 62
     7
176
     1
 62
   257
176
     1
 90
        2
176
     1
 90
        1
176
     1
 40
1.0
176
     1
 90
        8
176
     1
 62
   257
176
     1
 40
1.0
176
     1
 90
        1
176
     1
 90
        6
176
     1
 90
        2
176
     1
 62
     7
176
     1
 90
        3
176
     1
 90
        0
176
     1
 90
        0
176
     1
290
     0
176
     1
 90
        5
176
     1
 40
0.0
176
     1
 90
        0
176
     1
290
     0
176
     1
290
     1
176
     1
290
     1
176
     1
290
     0
176
     1
290
     0
176
     1
290
     0
176
     1
290
     0
176
     1
290
     0
176
     1
290
     0
176
     1
 90
       50
176
     1
 40
0.0
176
     1
 40
1.0
176
     1
 90
        0
176
     1
 62
    18
420
        0
176
     1
 90
       50
176
     1
 90
        3
176
     1
 62
     5
420
      255
176
     1
290
     0
176
     1
 90
       50
176
     1
 90
       50
176
     1
 90
       50
176
     1
290
     0
176
     1
 90
       50
176
     1
 62
   256
176
     0
 40
1.0
176
     0
 90
        2
176
     1
  1
strokes_ogs.tif
176
     1
290
     0
176
     1
 40
1.0
176
     1
 40
1.0
176
     1
  0
VISUALSTYLE
  5
7EFF
102
{ACAD_REACTORS
330
7EEE
102
}
330
7EEE
100
AcDbVisualStyle
  2
Shades of Gray
 70
    23
177
     3
291
     0
 70
    58
 90
        2
176
     1
 90
        2
176
     1
 90
        3
176
     1
 90
        0
176
     1
 40
0.6
176
     1
 40
30.0
176
     1
 62
     7
420
 16777215
176
     1
 90
        2
176
     1
 90
        2
176
     1
 62
     7
176
     1
 62
     7
176
     1
 90
        1
176
     1
 90
        1
176
     1
 40
40.0
176
     1
 90
        8
176
     1
 62
     7
176
     1
 40
1.0
176
     1
 90
        1
176
     1
 90
        6
176
     1
 90
        2
176
     1
 62
     7
176
     1
 90
        3
176
     1
 90
        0
176
     1
 90
        0
176
     1
290
     0
176
     1
 90
        1
176
     1
 40
0.0
176
     1
 90
        0
176
     1
290
     0
176
     1
290
     1
176
     1
290
     1
176
     1
290
     0
176
     1
290
     0
176
     1
290
     0
176
     1
290
     0
176
     1
290
     0
176
     1
290
     0
176
     1
 90
       50
176
     1
 40
0.0
176
     1
 40
1.0
176
     1
 90
        0
176
     1
 62
    18
420
        0
176
     1
 90
       50
176
     1
 90
        3
176
     1
 62
     5
420
      255
176
     1
290
     0
176
     1
 90
       50
176
     1
 90
       50
176
     1
 90
       50
176
     1
290
     0
176
     1
 90
       50
176
     1
 62
   256
176
     0
 40
1.0
176
     0
 90
        2
176
     1
  1
strokes_ogs.tif
176
     1
290
     0
176
     1
 40
1.0
176
     1
 40
1.0
176
     1
  0
VISUALSTYLE
  5
7F00
102
{ACAD_REACTORS
330
7EEE
102
}
330
7EEE
100
AcDbVisualStyle
  2
Sketchy
 70
    24
177
     3
291
     0
 70
    58
 90
        1
176
     1
 90
        2
176
     1
 90
        2
176
     1
 90
        0
176
     1
 40
0.6
176
     1
 40
30.0
176
     1
 62
     7
420
 16777215
176
     1
 90
        2
176
     1
 90
        2
176
     1
 62
     7
176
     1
 62
     7
176
     1
 90
        1
176
     1
 90
        1
176
     1
 40
40.0
176
     1
 90
       11
176
     1
 62
     7
176
     1
 40
1.0
176
     1
 90
        1
176
     1
 90
        6
176
     1
 90
        2
176
     1
 62
     7
176
     1
 90
        6
176
     1
 90
        0
176
     1
 90
        0
176
     1
290
     0
176
     1
 90
        1
176
     1
 40
0.0
176
     1
 90
        0
176
     1
290
     0
176
     1
290
     1
176
     1
290
     1
176
     1
290
     0
176
     1
290
     0
176
     1
290
     0
176
     1
290
     0
176
     1
290
     0
176
     1
290
     0
176
     1
 90
       50
176
     1
 40
0.0
176
     1
 40
1.0
176
     1
 90
        0
176
     1
 62
    18
420
        0
176
     1
 90
       50
176
     1
 90
        3
176
     1
 62
     5
420
      255
176
     1
290
     0
176
     1
 90
       50
176
     1
 90
       50
176
     1
 90
       50
176
     1
290
     0
176
     1
 90
       50
176
     1
 62
   256
176
     0
 40
1.0
176
     0
 90
        2
176
     1
  1
strokes_ogs.tif
176
     1
290
     0
176
     1
 40
1.0
176
     1
 40
1.0
176
     1
  0
VISUALSTYLE
  5
7EFB
102
{ACAD_REACTORS
330
7EEE
102
}
330
7EEE
100
AcDbVisualStyle
  2
Thicken
 70
    13
177
     3
291
     1
 70
    58
 90
        2
176
     1
 90
        2
176
     1
 90
        0
176
     1
 90
        0
176
     1
 40
0.6
176
     1
 40
30.0
176
     1
 62
     7
420
 16777215
176
     1
 90
        1
176
     1
 90
        4
176
     1
 62
     7
176
     1
 62
   257
176
     1
 90
        1
176
     1
 90
        1
176
     1
 40
1.0
176
     1
 90
       12
176
     1
 62
     7
176
     1
 40
1.0
176
     1
 90
        1
176
     1
 90
        6
176
     1
 90
        2
176
     1
 62
     7
176
     1
 90
        5
176
     1
 90
        0
176
     1
 90
        0
176
     1
290
     0
176
     1
 90
        1
176
     1
 40
0.0
176
     1
 90
        0
176
     1
290
     0
176
     1
290
     1
176
     1
290
     1
176
     1
290
     0
176
     1
290
     0
176
     1
290
     0
176
     1
290
     0
176
     1
290
     0
176
     1
290
     0
176
     1
 90
       50
176
     1
 40
0.0
176
     1
 40
1.0
176
     1
 90
        0
176
     1
 62
    18
420
        0
176
     1
 90
       50
176
     1
 90
        3
176
     1
 62
     5
420
      255
176
     1
290
     0
176
     1
 90
       50
176
     1
 90
       50
176
     1
 90
       50
176
     1
290
     0
176
     1
 90
       50
176
     1
 62
   256
176
     0
 40
1.0
176
     0
 90
        2
176
     1
  1
strokes_ogs.tif
176
     1
290
     0
176
     1
 40
1.0
176
     1
 40
1.0
176
     1
  0
VISUALSTYLE
  5
7EF5
102
{ACAD_REACTORS
330
7EEE
102
}
330
7EEE
100
AcDbVisualStyle
  2
Wireframe
 70
     5
177
     3
291
     0
 70
    58
 90
        0
176
     1
 90
        2
176
     1
 90
        0
176
     1
 90
        0
176
     1
 40
0.6
176
     1
 40
30.0
176
     1
 62
     7
420
 16777215
176
     1
 90
        1
176
     1
 90
        4
176
     1
 62
     7
176
     1
 62
   257
176
     1
 90
        1
176
     1
 90
        1
176
     1
 40
1.0
176
     1
 90
        0
176
     1
 62
   257
176
     1
 40
1.0
176
     1
 90
        1
176
     1
 90
        6
176
     1
 90
        2
176
     1
 62
     7
176
     1
 90
        3
176
     1
 90
        0
176
     1
 90
        0
176
     1
290
     0
176
     1
 90
        1
176
     1
 40
0.0
176
     1
 90
        0
176
     1
290
     0
176
     1
290
     1
176
     1
290
     1
176
     1
290
     0
176
     1
290
     0
176
     1
290
     0
176
     1
290
     0
176
     1
290
     0
176
     1
290
     0
176
     1
 90
       50
176
     1
 40
0.0
176
     1
 40
1.0
176
     1
 90
        0
176
     1
 62
    18
420
        0
176
     1
 90
       50
176
     1
 90
        3
176
     1
 62
     5
420
      255
176
     1
290
     0
176
     1
 90
       50
176
     1
 90
       50
176
     1
 90
       50
176
     1
290
     0
176
     1
 90
       50
176
     1
 62
   256
176
     0
 40
1.0
176
     0
 90
        2
176
     1
  1
strokes_ogs.tif
176
     1
290
     0
176
     1
 40
1.0
176
     1
 40
1.0
176
     1
  0
VISUALSTYLE
  5
7F01
102
{ACAD_REACTORS
330
7EEE
102
}
330
7EEE
100
AcDbVisualStyle
  2
X-Ray
 70
    25
177
     3
291
     0
 70
    58
 90
        2
176
     1
 90
        2
176
     1
 90
        1
176
     1
 90
        1
176
     1
 40
0.5
176
     1
 40
30.0
176
     1
 62
     7
420
 16777215
176
     1
 90
        1
176
     1
 90
        0
176
     1
 62
     7
176
     1
 62
   257
176
     1
 90
        1
176
     1
 90
        1
176
     1
 40
1.0
176
     1
 90
        8
176
     1
 62
     7
176
     1
 40
1.0
176
     1
 90
        1
176
     1
 90
        6
176
     1
 90
        2
176
     1
 62
     7
176
     1
 90
        3
176
     1
 90
        0
176
     1
 90
        0
176
     1
290
     0
176
     1
 90
       13
176
     1
 40
0.0
176
     1
 90
        0
176
     1
290
     0
176
     1
290
     1
176
     1
290
     1
176
     1
290
     0
176
     1
290
     0
176
     1
290
     0
176
     1
290
     0
176
     1
290
     0
176
     1
290
     0
176
     1
 90
       50
176
     1
 40
0.0
176
     1
 40
1.0
176
     1
 90
        0
176
     1
 62
    18
420
        0
176
     1
 90
       50
176
     1
 90
        3
176
     1
 62
     5
420
      255
176
     1
290
     0
176
     1
 90
       50
176
     1
 90
       50
176
     1
 90
       50
176
     1
290
     0
176
     1
 90
       50
176
     1
 62
   256
176
     0
 40
1.0
176
     0
 90
        2
176
     1
  1
strokes_ogs.tif
176
     1
290
     0
176
     1
 40
1.0
176
     1
 40
1.0
176
     1
  0
DICTIONARYVAR
  5
7F9A
102
{ACAD_REACTORS
330
7EC8
102
}
330
7EC8
100
DictionaryVariables
280
     0
  1
1:1
  0
DICTIONARYVAR
  5
7F96
102
{ACAD_REACTORS
330
7EC8
102
}
330
7EC8
100
DictionaryVariables
280
     0
  1
STANDARD
  0
DICTIONARYVAR
  5
7F95
102
{ACAD_REACTORS
330
7EC8
102
}
330
7EC8
100
DictionaryVariables
280
     0
  1
STANDARD
  0
DICTIONARYVAR
  5
7F97
102
{ACAD_REACTORS
330
7EC8
102
}
330
7EC8
100
DictionaryVariables
280
     0
  1
Imperial24
  0
DICTIONARYVAR
  5
7F98
102
{ACAD_REACTORS
330
7EC8
102
}
330
7EC8
100
DictionaryVariables
280
     0
  1
Imperial24
  0
DICTIONARYVAR
  5
7EC9
102
{ACAD_REACTORS
330
7EC8
102
}
330
7EC8
100
DictionaryVariables
280
     0
  1
1
  0
DICTIONARYVAR
  5
7F9C
102
{ACAD_REACTORS
330
7EC8
102
}
330
7EC8
100
DictionaryVariables
280
     0
  1
1
  0
DICTIONARYVAR
  5
7F9D
102
{ACAD_REACTORS
330
7EC8
102
}
330
7EC8
100
DictionaryVariables
280
     0
  1
15
  0
DICTIONARYVAR
  5
7F9B
102
{ACAD_REACTORS
330
7EC8
102
}
330
7EC8
100
DictionaryVariables
280
     0
  1
0
  0
DICTIONARYVAR
  5
7F99
102
{ACAD_REACTORS
330
7EC8
102
}
330
7EC8
100
DictionaryVariables
280
     0
  1
0
  0
DICTIONARY
  5
7F92
330
7F21
100
AcDbDictionary
280
     1
281
     1
  3
ACAD_XREC_ROUNDTRIP
360
7FC8
  0
DICTIONARY
  5
7EDF
330
7EDE
100
AcDbDictionary
280
     1
281
     1
  3
BUMPTILE
360
7EE1
  3
DIFFUSETILE
360
7EE0
  3
OPACITYTILE
360
7EE4
  3
REFLECTIONTILE
360
7EE3
  3
REFRACTIONTILE
360
7EE5
  3
SPECULARTILE
360
7EE2
  0
DICTIONARY
  5
7ED7
330
7ED6
100
AcDbDictionary
280
     1
281
     1
  3
BUMPTILE
360
7ED9
  3
DIFFUSETILE
360
7ED8
  3
OPACITYTILE
360
7EDC
  3
REFLECTIONTILE
360
7EDB
  3
REFRACTIONTILE
360
7EDD
  3
SPECULARTILE
360
7EDA
  0
DICTIONARY
  5
7EE7
330
7EE6
100
AcDbDictionary
280
     1
281
     1
  3
BUMPTILE
360
7EE9
  3
DIFFUSETILE
360
7EE8
  3
OPACITYTILE
360
7EEC
  3
REFLECTIONTILE
360
7EEB
  3
REFRACTIONTILE
360
7EED
  3
SPECULARTILE
360
7EEA
  0
DICTIONARY
  5
7F90
330
7F1F
100
AcDbDictionary
280
     1
281
     1
  3
ACAD_XREC_ROUNDTRIP
360
7FC7
  0
DICTIONARY
  5
7FC5
330
7F09
100
AcDbDictionary
280
     1
281
     1
  3
ACAD_ROUNDTRIP_2008_TABLESTYLE_CELLSTYLEMAP
360
7FC6
  0
XRECORD
  5
7FC8
102
{ACAD_REACTORS
330
7F92
102
}
330
7F92
100
AcDbXrecord
280
     1
102
DISPLAYNAME
  1
Imperial24
102
FLAGS
 90
        0
  0
XRECORD
  5
7EE1
102
{ACAD_REACTORS
330
7EDF
102
}
330
7EDF
100
AcDbXrecord
280
     1
270
     1
271
     1
  0
XRECORD
  5
7EE0
102
{ACAD_REACTORS
330
7EDF
102
}
330
7EDF
100
AcDbXrecord
280
     1
270
     1
271
     1
  0
XRECORD
  5
7EE4
102
{ACAD_REACTORS
330
7EDF
102
}
330
7EDF
100
AcDbXrecord
280
     1
270
     1
271
     1
  0
XRECORD
  5
7EE3
102
{ACAD_REACTORS
330
7EDF
102
}
330
7EDF
100
AcDbXrecord
280
     1
270
     1
271
     1
  0
XRECORD
  5
7EE5
102
{ACAD_REACTORS
330
7EDF
102
}
330
7EDF
100
AcDbXrecord
280
     1
270
     1
271
     1
  0
XRECORD
  5
7EE2
102
{ACAD_REACTORS
330
7EDF
102
}
330
7EDF
100
AcDbXrecord
280
     1
270
     1
271
     1
  0
XRECORD
  5
7ED9
102
{ACAD_REACTORS
330
7ED7
102
}
330
7ED7
100
AcDbXrecord
280
     1
270
     1
271
     1
  0
XRECORD
  5
7ED8
102
{ACAD_REACTORS
330
7ED7
102
}
330
7ED7
100
AcDbXrecord
280
     1
270
     1
271
     1
  0
XRECORD
  5
7EDC
102
{ACAD_REACTORS
330
7ED7
102
}
330
7ED7
100
AcDbXrecord
280
     1
270
     1
271
     1
  0
XRECORD
  5
7EDB
102
{ACAD_REACTORS
330
7ED7
102
}
330
7ED7
100
AcDbXrecord
280
     1
270
     1
271
     1
  0
XRECORD
  5
7EDD
102
{ACAD_REACTORS
330
7ED7
102
}
330
7ED7
100
AcDbXrecord
280
     1
270
     1
271
     1
  0
XRECORD
  5
7EDA
102
{ACAD_REACTORS
330
7ED7
102
}
330
7ED7
100
AcDbXrecord
280
     1
270
     1
271
     1
  0
XRECORD
  5
7EE9
102
{ACAD_REACTORS
330
7EE7
102
}
330
7EE7
100
AcDbXrecord
280
     1
270
     1
271
     1
  0
XRECORD
  5
7EE8
102
{ACAD_REACTORS
330
7EE7
102
}
330
7EE7
100
AcDbXrecord
280
     1
270
     1
271
     1
  0
XRECORD
  5
7EEC
102
{ACAD_REACTORS
330
7EE7
102
}
330
7EE7
100
AcDbXrecord
280
     1
270
     1
271
     1
  0
XRECORD
  5
7EEB
102
{ACAD_REACTORS
330
7EE7
102
}
330
7EE7
100
AcDbXrecord
280
     1
270
     1
271
     1
  0
XRECORD
  5
7EED
102
{ACAD_REACTORS
330
7EE7
102
}
330
7EE7
100
AcDbXrecord
280
     1
270
     1
271
     1
  0
XRECORD
  5
7EEA
102
{ACAD_REACTORS
330
7EE7
102
}
330
7EE7
100
AcDbXrecord
280
     1
270
     1
271
     1
  0
XRECORD
  5
7FC7
102
{ACAD_REACTORS
330
7F90
102
}
330
7F90
100
AcDbXrecord
280
     1
102
DISPLAYNAME
  1
Imperial24
102
FLAGS
 90
        0
  0
CELLSTYLEMAP
  5
7FC6
102
{ACAD_REACTORS
330
7FC5
102
}
330
7FC5
100
AcDbCellStyleMap
 90
        3
300
CELLSTYLE
  1
TABLEFORMAT_BEGIN
 90
        5
170
     1
 91
        0
 92
    32768
 62
   257
 93
        1
300
CONTENTFORMAT
  1
CONTENTFORMAT_BEGIN
 90
        0
 91
        0
 92
      512
 93
        0
300

 40
0.0
140
1.0
 94
        5
 62
     0
340
10
144
0.25
309
CONTENTFORMAT_END
171
     0
 94
        0
309
TABLEFORMAT_END
  1
CELLSTYLE_BEGIN
 90
        1
 91
        1
300
_TITLE
309
CELLSTYLE_END
300
CELLSTYLE
  1
TABLEFORMAT_BEGIN
 90
        5
170
     1
 91
        0
 92
        0
 62
   257
 93
        1
300
CONTENTFORMAT
  1
CONTENTFORMAT_BEGIN
 90
        0
 91
        0
 92
      512
 93
        0
300

 40
0.0
140
1.0
 94
        5
 62
     0
340
10
144
0.18
309
CONTENTFORMAT_END
171
     0
 94
        0
309
TABLEFORMAT_END
  1
CELLSTYLE_BEGIN
 90
        2
 91
        1
300
_HEADER
309
CELLSTYLE_END
300
CELLSTYLE
  1
TABLEFORMAT_BEGIN
 90
        5
170
     1
 91
        0
 92
        0
 62
   257
 93
        1
300
CONTENTFORMAT
  1
CONTENTFORMAT_BEGIN
 90
        0
 91
        0
 92
      512
 93
        0
300

 40
0.0
140
1.0
 94
        2
 62
     0
340
10
144
0.18
309
CONTENTFORMAT_END
171
     0
 94
        0
309
TABLEFORMAT_END
  1
CELLSTYLE_BEGIN
 90
        3
 91
        2
300
_DATA
309
CELLSTYLE_END
  0
ENDSEC
  0
SECTION
  2
ACDSDATA
 70
     2
 71
     8
  0
ACDSSCHEMA
 90
        0
  1
AcDb_Thumbnail_Schema
  2
AcDbDs::ID
280
    10
 91
        8
  2
Thumbnail_Data
280
    15
 91
        0
101
ACDSRECORD
 95
        0
 90
        1
  2
AcDbDs::TreatedAsObjectData
280
     1
291
     1
101
ACDSRECORD
 95
        0
 90
        2
  2
AcDbDs::Legacy
280
     1
291
     1
101
ACDSRECORD
  1
AcDbDs::ID
 90
        3
  2
AcDs:Indexable
280
     1
291
     1
101
ACDSRECORD
  1
AcDbDs::ID
 90
        4
  2
AcDbDs::HandleAttribute
280
     7
282
     1
  0
ACDSSCHEMA
 90
        1
  1
AcDbDs::TreatedAsObjectDataSchema
  2
AcDbDs::TreatedAsObjectData
280
     1
 91
        0
  0
ACDSSCHEMA
 90
        2
  1
AcDbDs::LegacySchema
  2
AcDbDs::Legacy
280
     1
 91
        0
  0
ACDSSCHEMA
 90
        3
  1
AcDbDs::IndexedPropertySchema
  2
AcDs:Indexable
280
     1
 91
        0
  0
ACDSSCHEMA
 90
        4
  1
AcDbDs::HandleAttributeSchema
  2
AcDbDs::HandleAttribute
280
     7
 91
        1
284
     1
  0
ACDSRECORD
 90
        0
  2
AcDbDs::ID
280
    10
320
7DFC
  2
Thumbnail_Data
280
    15
 94
     1778
310
89504E470D0A1A0A0000000D49484452000001000000008208030000009EA3E63300000300504C5445000000000000C8C8C80000000000000000000000000000000000000000000000000000330000660000990000CC0000FF0033000033330033660033990033CC0033FF0066000066330066660066990066CC0066FF0099
310
000099330099660099990099CC0099FF00CC0000CC3300CC6600CC9900CCCC00CCFF00FF0000FF3300FF6600FF9900FFCC00FFFF3300003300333300663300993300CC3300FF3333003333333333663333993333CC3333FF3366003366333366663366993366CC3366FF3399003399333399663399993399CC3399FF33CC00
310
33CC3333CC6633CC9933CCCC33CCFF33FF0033FF3333FF6633FF9933FFCC33FFFF6600006600336600666600996600CC6600FF6633006633336633666633996633CC6633FF6666006666336666666666996666CC6666FF6699006699336699666699996699CC6699FF66CC0066CC3366CC6666CC9966CCCC66CCFF66FF0066
310
FF3366FF6666FF9966FFCC66FFFF9900009900339900669900999900CC9900FF9933009933339933669933999933CC9933FF9966009966339966669966999966CC9966FF9999009999339999669999999999CC9999FF99CC0099CC3399CC6699CC9999CCCC99CCFF99FF0099FF3399FF6699FF9999FFCC99FFFFCC0000CC00
310
33CC0066CC0099CC00CCCC00FFCC3300CC3333CC3366CC3399CC33CCCC33FFCC6600CC6633CC6666CC6699CC66CCCC66FFCC9900CC9933CC9966CC9999CC99CCCC99FFCCCC00CCCC33CCCC66CCCC99CCCCCCCCCCFFCCFF00CCFF33CCFF66CCFF99CCFFCCCCFFFFFF0000FF0033FF0066FF0099FF00CCFF00FFFF3300FF3333
310
FF3366FF3399FF33CCFF33FFFF6600FF6633FF6666FF6699FF66CCFF66FFFF9900FF9933FF9966FF9999FF99CCFF99FFFFCC00FFCC33FFCC66FFCC99FFCCCCFFCCFFFFFF00FFFF33FFFF66FFFF99FFFFCCFFFFFF0000000D0D0D1A1A1A2828283535354343435050505D5D5D6B6B6B787878868686939393A1A1A1AEAEAEBB
310
BBBBC9C9C9D6D6D6E4E4E4F1F1F1FFFFFF00000000000000000000000000000000000000000000000000000000000008F1915C000003A64944415478DAED9D5B6EEC300840598E7FD8FF66D886FF6F13071B6C32897A55690CA0769A87A712C780F14B06F842A9A6401CA9AF1F7A05500D756301306C3E20801ADB05663788
310
68011BB702F50F64FF86ECEBFE6502F86B0075DC093BE61077DC9D4FDA6FBD89FEFB02E8CA3180A1A070ECAA02C6C44066441B028051B30A407BBA58401D4F80D109B5F774812A2D40D5342C371D4B6D48D8883208268004B02180E899E0636707B899582BBAEAB674DB5ED01AE565575F2703326912DFE1BBFD01A8DCC636
310
EFE93DB486B06E6C02B60FAFF57FB9C46A013D938A3412B073E04F49494949494949491982F858824E8907A0C812E10140140038A4F4AB6000F8A2A82761009C3FE7471817D03220848A01DDEF6FC43F007917D202C41DCA58100F80D90AF8CF04D10889220F080440BC103120014407E0BF33F4080012408C4C108D4E42B0
310
BE40C8EEF02700215C00D912946194EB5502F0DD0CD2B30BF81E15BE57AC3C1749000E010C730F0F0082007821909292929292929292929232E5D0E101105F7B534D5F3C017034627668D2F43A3EDAEFBB1EA4E3DEF1D318C259C60D00E8632264ABBB3C215F00D69AFF0CC09D0BAC974F00CED1432F0090C6BCC07D38A0E9
310
0BC70C02A1130BD06B2687BA243497B5CD53285E5C605A2DF50200B401F4AD017C9E1AA391EA91309319C0CE8110E7CB53C1C26BE41600087A4D49B9FEBA01F0A3F5B55A1C2FEF8E05004F023F2E700F607501043F2EA0D6CD737CB7014810AE001C17E533005E3DE0C002A6BD0138DD882488ACF27CEFC402D0DC4462B900
310
BA8A015D5954417038B97B00C3F7D9C54B6F109BEE23D3B99A0A4FCDE0A176E9EA83CC044D009605EC0FE0FA7B2A7701E8BB06690180E82915C616CA4176030B0C4B3700181600DB5B00AF9CEE00584F82270BF00080B5C586A0B9401C0B107DA1D62228170012D31FAA15E068E16534605466516CD6DEA0B6006FA32172BF
310
C00AC0CC151DE4C153174115206B2C6C2A99007CBAC0CD2C992C092E45AB75CE92D29B9209C089078C566038804717C0670BE05C708A01EE2D80D67D83377940D9391DB89FD4E4EAC67572D446B5676F789EEB576FC44A095ABFD391D0CE8B4448EB7F0780FC0278B56546C73F575B6BE8F9CD0AC02EE979D564EE9C4A4949
310
490921E10F59E9676D54F8C569928E00AC153A8E255306739D31C24797F906601F43D6CF59A9E0CA052A580086B220F4EE27EE6410746001FF13E0FCC70090E72F429D958E00A09F39C52E1F0BC038780AAA71FCB8F318204ED81A4DBF3B0BF8C656E01FA7D373C83D69CFEC0000000049454E44AE426082454E44AE426082
  0
ENDSEC
  0
EOF
