  0
SECTION
  2
HEADER
  9
$ACADVER
  1
AC1027
  9
$ACADMAINTVER
 70
    81
  9
$DWGCODEPAGE
  3
ANSI_932
  9
$LASTSAVEDBY
  1
reiko.miyawaki
  9
$REQUIREDVERSIONS
160
                 0
  9
$INSBASE
 10
0.0
 20
0.0
 30
0.0
  9
$EXTMIN
 10
-1457.240662
 20
-1146.467616
 30
0.0
  9
$EXTMAX
 10
142.759338
 20
1340.184645
 30
0.0
  9
$LIMMIN
 10
0.0
 20
0.0
  9
$LIMMAX
 10
297.0
 20
210.0
  9
$ORTHOMODE
 70
     0
  9
$REGENMODE
 70
     1
  9
$FILLMODE
 70
     0
  9
$QTEXTMODE
 70
     0
  9
$MIRRTEXT
 70
     1
  9
$LTSCALE
 40
100.0
  9
$ATTMODE
 70
     1
  9
$TEXTSIZE
 40
180.0
  9
$TRACEWID
 40
0.05
  9
$TEXTSTYLE
  7
STANDARD
  9
$CLAYER
  8
3
  9
$CELTYPE
  6
BYLAYER
  9
$CECOLOR
 62
   256
  9
$CELTSCALE
 40
1.0
  9
$DISPSILH
 70
     0
  9
$DIMSCALE
 40
10.0
  9
$DIMASZ
 40
2.0
  9
$DIMEXO
 40
0.5
  9
$DIMDLI
 40
10.0
  9
$DIMRND
 40
0.0
  9
$DIMDLE
 40
0.0
  9
$DIMEXE
 40
1.0
  9
$DIMTP
 40
1.0
  9
$DIMTM
 40
1.0
  9
$DIMTXT
 40
3.0
  9
$DIMCEN
 40
0.0
  9
$DIMTSZ
 40
0.0
  9
$DIMTOL
 70
     0
  9
$DIMLIM
 70
     0
  9
$DIMTIH
 70
     0
  9
$DIMTOH
 70
     0
  9
$DIMSE1
 70
     0
  9
$DIMSE2
 70
     0
  9
$DIMTAD
 70
     1
  9
$DIMZIN
 70
     8
  9
$DIMBLK
  1

  9
$DIMASO
 70
     1
  9
$DIMSHO
 70
     1
  9
$DIMPOST
  1
(<>)
  9
$DIMAPOST
  1

  9
$DIMALT
 70
     0
  9
$DIMALTD
 70
     2
  9
$DIMALTF
 40
0.039
  9
$DIMLFAC
 40
1.0
  9
$DIMTOFL
 70
     1
  9
$DIMTVP
 40
0.0
  9
$DIMTIX
 70
     0
  9
$DIMSOXD
 70
     0
  9
$DIMSAH
 70
     1
  9
$DIMBLK1
  1
OPEN
  9
$DIMBLK2
  1
OPEN
  9
$DIMSTYLE
  2
IGA
  9
$DIMCLRD
 70
     0
  9
$DIMCLRE
 70
     0
  9
$DIMCLRT
 70
     0
  9
$DIMTFAC
 40
10.0
  9
$DIMGAP
 40
1.0
  9
$DIMJUST
 70
     0
  9
$DIMSD1
 70
     0
  9
$DIMSD2
 70
     0
  9
$DIMTOLJ
 70
     1
  9
$DIMTZIN
 70
     8
  9
$DIMALTZ
 70
     0
  9
$DIMALTTZ
 70
     0
  9
$DIMUPT
 70
     0
  9
$DIMDEC
 70
     0
  9
$DIMTDEC
 70
     0
  9
$DIMALTU
 70
     2
  9
$DIMALTTD
 70
     2
  9
$DIMTXSTY
  7
STANDARD
  9
$DIMAUNIT
 70
     0
  9
$DIMADEC
 70
     0
  9
$DIMALTRND
 40
0.0
  9
$DIMAZIN
 70
     0
  9
$DIMDSEP
 70
    46
  9
$DIMATFIT
 70
     3
  9
$DIMFRAC
 70
     0
  9
$DIMLDRBLK
  1
OPEN
  9
$DIMLUNIT
 70
     2
  9
$DIMLWD
 70
    -2
  9
$DIMLWE
 70
    -2
  9
$DIMTMOVE
 70
     0
  9
$DIMFXL
 40
1.0
  9
$DIMFXLON
 70
     0
  9
$DIMJOGANG
 40
0.7853981633974483
  9
$DIMTFILL
 70
     0
  9
$DIMTFILLCLR
 70
     0
  9
$DIMARCSYM
 70
     0
  9
$DIMLTYPE
  6

  9
$DIMLTEX1
  6

  9
$DIMLTEX2
  6

  9
$DIMTXTDIRECTION
 70
     0
  9
$LUNITS
 70
     2
  9
$LUPREC
 70
     3
  9
$SKETCHINC
 40
0.1
  9
$FILLETRAD
 40
50.0
  9
$AUNITS
 70
     0
  9
$AUPREC
 70
     0
  9
$MENU
  1
acad
  9
$ELEVATION
 40
0.0
  9
$PELEVATION
 40
0.0
  9
$THICKNESS
 40
0.0
  9
$LIMCHECK
 70
     0
  9
$CHAMFERA
 40
0.5
  9
$CHAMFERB
 40
0.5
  9
$CHAMFERC
 40
20.0
  9
$CHAMFERD
 40
0.0
  9
$SKPOLY
 70
     0
  9
$TDCREATE
 40
2450738.669952431
  9
$TDUCREATE
 40
2450738.294952431
  9
$TDUPDATE
 40
2459024.538737905
  9
$TDUUPDATE
 40
2459024.163737905
  9
$TDINDWG
 40
0.0172519676
  9
$TDUSRTIMER
 40
0.0172519676
  9
$USRTIMER
 70
     1
  9
$ANGBASE
 50
0.0
  9
$ANGDIR
 70
     0
  9
$PDMODE
 70
     0
  9
$PDSIZE
 40
0.0
  9
$PLINEWID
 40
0.0
  9
$SPLFRAME
 70
     0
  9
$SPLINETYPE
 70
     6
  9
$SPLINESEGS
 70
     8
  9
$HANDSEED
  5
8034
  9
$SURFTAB1
 70
     6
  9
$SURFTAB2
 70
     6
  9
$SURFTYPE
 70
     6
  9
$SURFU
 70
     6
  9
$SURFV
 70
     6
  9
$UCSBASE
  2

  9
$UCSNAME
  2

  9
$UCSORG
 10
0.0
 20
0.0
 30
0.0
  9
$UCSXDIR
 10
1.0
 20
0.0
 30
0.0
  9
$UCSYDIR
 10
0.0
 20
1.0
 30
0.0
  9
$UCSORTHOREF
  2

  9
$UCSORTHOVIEW
 70
     0
  9
$UCSORGTOP
 10
0.0
 20
0.0
 30
0.0
  9
$UCSORGBOTTOM
 10
0.0
 20
0.0
 30
0.0
  9
$UCSORGLEFT
 10
0.0
 20
0.0
 30
0.0
  9
$UCSORGRIGHT
 10
0.0
 20
0.0
 30
0.0
  9
$UCSORGFRONT
 10
0.0
 20
0.0
 30
0.0
  9
$UCSORGBACK
 10
0.0
 20
0.0
 30
0.0
  9
$PUCSBASE
  2

  9
$PUCSNAME
  2

  9
$PUCSORG
 10
0.0
 20
0.0
 30
0.0
  9
$PUCSXDIR
 10
1.0
 20
0.0
 30
0.0
  9
$PUCSYDIR
 10
0.0
 20
1.0
 30
0.0
  9
$PUCSORTHOREF
  2

  9
$PUCSORTHOVIEW
 70
     0
  9
$PUCSORGTOP
 10
0.0
 20
0.0
 30
0.0
  9
$PUCSORGBOTTOM
 10
0.0
 20
0.0
 30
0.0
  9
$PUCSORGLEFT
 10
0.0
 20
0.0
 30
0.0
  9
$PUCSORGRIGHT
 10
0.0
 20
0.0
 30
0.0
  9
$PUCSORGFRONT
 10
0.0
 20
0.0
 30
0.0
  9
$PUCSORGBACK
 10
0.0
 20
0.0
 30
0.0
  9
$USERI1
 70
     0
  9
$USERI2
 70
     0
  9
$USERI3
 70
     0
  9
$USERI4
 70
     0
  9
$USERI5
 70
     0
  9
$USERR1
 40
0.0
  9
$USERR2
 40
0.0
  9
$USERR3
 40
0.0
  9
$USERR4
 40
0.0
  9
$USERR5
 40
0.0
  9
$WORLDVIEW
 70
     1
  9
$SHADEDGE
 70
     3
  9
$SHADEDIF
 70
    70
  9
$TILEMODE
 70
     1
  9
$MAXACTVP
 70
    16
  9
$PINSBASE
 10
0.0
 20
0.0
 30
0.0
  9
$PLIMCHECK
 70
     0
  9
$PEXTMIN
 10
1.000000000000000E+20
 20
1.000000000000000E+20
 30
1.000000000000000E+20
  9
$PEXTMAX
 10
-1.000000000000000E+20
 20
-1.000000000000000E+20
 30
-1.000000000000000E+20
  9
$PLIMMIN
 10
0.0
 20
0.0
  9
$PLIMMAX
 10
12.0
 20
9.0
  9
$UNITMODE
 70
     0
  9
$VISRETAIN
 70
     0
  9
$PLINEGEN
 70
     0
  9
$PSLTSCALE
 70
     1
  9
$TREEDEPTH
 70
  3020
  9
$CMLSTYLE
  2
STANDARD
  9
$CMLJUST
 70
     0
  9
$CMLSCALE
 40
20.0
  9
$PROXYGRAPHICS
 70
     1
  9
$MEASUREMENT
 70
     0
  9
$CELWEIGHT
370
    -1
  9
$ENDCAPS
280
     0
  9
$JOINSTYLE
280
     0
  9
$LWDISPLAY
290
     0
  9
$INSUNITS
 70
     0
  9
$HYPERLINKBASE
  1

  9
$STYLESHEET
  1

  9
$XEDIT
290
     1
  9
$CEPSNTYPE
380
     0
  9
$PSTYLEMODE
290
     1
  9
$FINGERPRINTGUID
  2
{E0CCBD8B-D96A-4FBD-B765-EC083DF9402C}
  9
$VERSIONGUID
  2
{25E6A417-79BE-426F-AD85-731B298E8EF2}
  9
$EXTNAMES
290
     1
  9
$PSVPSCALE
 40
0.0
  9
$OLESTARTUP
290
     0
  9
$SORTENTS
280
   127
  9
$INDEXCTL
280
     0
  9
$HIDETEXT
280
     0
  9
$XCLIPFRAME
280
     2
  9
$HALOGAP
280
     0
  9
$OBSCOLOR
 70
   257
  9
$OBSLTYPE
280
     0
  9
$INTERSECTIONDISPLAY
280
     0
  9
$INTERSECTIONCOLOR
 70
   257
  9
$DIMASSOC
280
     1
  9
$PROJECTNAME
  1

  9
$CAMERADISPLAY
290
     0
  9
$LENSLENGTH
 40
50.0
  9
$CAMERAHEIGHT
 40
0.0
  9
$STEPSPERSEC
 40
2.0
  9
$STEPSIZE
 40
6.0
  9
$3DDWFPREC
 40
2.0
  9
$PSOLWIDTH
 40
0.25
  9
$PSOLHEIGHT
 40
4.0
  9
$LOFTANG1
 40
1.570796326794896
  9
$LOFTANG2
 40
1.570796326794896
  9
$LOFTMAG1
 40
0.0
  9
$LOFTMAG2
 40
0.0
  9
$LOFTPARAM
 70
     7
  9
$LOFTNORMALS
280
     1
  9
$LATITUDE
 40
37.795
  9
$LONGITUDE
 40
-122.394
  9
$NORTHDIRECTION
 40
0.0
  9
$TIMEZONE
 70
 -8000
  9
$LIGHTGLYPHDISPLAY
280
     1
  9
$TILEMODELIGHTSYNCH
280
     1
  9
$CMATERIAL
347
7F37
  9
$SOLIDHIST
280
     0
  9
$SHOWHIST
280
     1
  9
$DWFFRAME
280
     2
  9
$DGNFRAME
280
     0
  9
$REALWORLDSCALE
290
     1
  9
$INTERFERECOLOR
 62
     1
  9
$INTERFEREOBJVS
345
7F59
  9
$INTERFEREVPVS
346
7F56
  9
$CSHADOW
280
     0
  9
$SHADOWPLANELOCATION
 40
0.0
  0
ENDSEC
  0
SECTION
  2
CLASSES
  0
CLASS
  1
ACDBDICTIONARYWDFLT
  2
AcDbDictionaryWithDefault
  3
ObjectDBX Classes
 90
        0
 91
        1
280
     0
281
     0
  0
CLASS
  1
DICTIONARYVAR
  2
AcDbDictionaryVar
  3
ObjectDBX Classes
 90
        0
 91
       10
280
     0
281
     0
  0
CLASS
  1
MATERIAL
  2
AcDbMaterial
  3
ObjectDBX Classes
 90
     1153
 91
        3
280
     0
281
     0
  0
CLASS
  1
VISUALSTYLE
  2
AcDbVisualStyle
  3
ObjectDBX Classes
 90
     4095
 91
       24
280
     0
281
     0
  0
CLASS
  1
TABLESTYLE
  2
AcDbTableStyle
  3
ObjectDBX Classes
 90
     4095
 91
        1
280
     0
281
     0
  0
CLASS
  1
SCALE
  2
AcDbScale
  3
ObjectDBX Classes
 90
     1153
 91
       17
280
     0
281
     0
  0
CLASS
  1
MLEADERSTYLE
  2
AcDbMLeaderStyle
  3
ACDB_MLEADERSTYLE_CLASS
 90
     4095
 91
        1
280
     0
281
     0
  0
CLASS
  1
ACDBSECTIONVIEWSTYLE
  2
AcDbSectionViewStyle
  3
ObjectDBX Classes
 90
     1025
 91
        1
280
     0
281
     0
  0
CLASS
  1
ACDBDETAILVIEWSTYLE
  2
AcDbDetailViewStyle
  3
ObjectDBX Classes
 90
     1025
 91
        1
280
     0
281
     0
  0
CLASS
  1
SORTENTSTABLE
  2
AcDbSortentsTable
  3
ObjectDBX Classes
 90
        0
 91
        0
280
     0
281
     0
  0
CLASS
  1
CELLSTYLEMAP
  2
AcDbCellStyleMap
  3
ObjectDBX Classes
 90
     1152
 91
        1
280
     0
281
     0
  0
ENDSEC
  0
SECTION
  2
TABLES
  0
TABLE
  2
VPORT
  5
8
330
0
100
AcDbSymbolTable
 70
     1
  0
VPORT
  5
7F34
330
8
100
AcDbSymbolTableRecord
100
AcDbViewportTableRecord
  2
*Active
 70
     0
 10
0.0
 20
0.0
 11
1.0
 21
1.0
 12
-540.595072109385
 22
156.4904493885437
 13
0.0
 23
0.0
 14
10.0
 24
10.0
 15
10.0
 25
10.0
 16
0.0
 26
0.0
 36
1.0
 17
0.0
 27
0.0
 37
0.0
 40
2625.022592281759
 41
1.957107843137254
 42
50.0
 43
0.0
 44
0.0
 50
0.0
 51
0.0
 71
     0
 72
   100
 73
     1
 74
     0
 75
     0
 76
     0
 77
     0
 78
     0
281
     0
 65
     1
110
0.0
120
0.0
130
0.0
111
1.0
121
0.0
131
0.0
112
0.0
122
1.0
132
0.0
 79
     0
146
0.0
348
7F55
 60
     3
 61
     5
292
     1
282
     1
141
0.0
142
0.0
 63
   250
421
  3355443
1001
ACAD_NAV_VCDISPLAY
1070
     3
  0
ENDTAB
  0
TABLE
  2
LTYPE
  5
5
330
0
100
AcDbSymbolTable
 70
     2
  0
LTYPE
  5
13
330
5
100
AcDbSymbolTableRecord
100
AcDbLinetypeTableRecord
  2
BYBLOCK
 70
     0
  3

 72
    65
 73
     0
 40
0.0
  0
LTYPE
  5
14
330
5
100
AcDbSymbolTableRecord
100
AcDbLinetypeTableRecord
  2
BYLAYER
 70
     0
  3

 72
    65
 73
     0
 40
0.0
  0
LTYPE
  5
15
330
5
100
AcDbSymbolTableRecord
100
AcDbLinetypeTableRecord
  2
CONTINUOUS
 70
     0
  3
Solid line
 72
    65
 73
     0
 40
0.0
  0
LTYPE
  5
1F
330
5
100
AcDbSymbolTableRecord
100
AcDbLinetypeTableRecord
  2
CENTER
 70
     0
  3
____ _ ____ _ ____ _ ____ _ ____ _ ____ _ ____ 
 72
    65
 73
     4
 40
2.0
 49
1.25
 74
     0
 49
-0.25
 74
     0
 49
0.25
 74
     0
 49
-0.25
 74
     0
  0
ENDTAB
  0
TABLE
  2
LAYER
  5
2
102
{ACAD_XDICTIONARY
360
7FE6
102
}
330
0
100
AcDbSymbolTable
 70
     6
  0
LAYER
  5
F
102
{ACAD_XDICTIONARY
360
7FD9
102
}
330
2
100
AcDbSymbolTableRecord
100
AcDbLayerTableRecord
  2
0
 70
     0
 62
     7
  6
CONTINUOUS
370
    -3
390
7E51
347
7F47
348
0
  0
LAYER
  5
31
102
{ACAD_XDICTIONARY
360
7FDB
102
}
330
2
100
AcDbSymbolTableRecord
100
AcDbLayerTableRecord
  2
3
 70
     0
 62
     2
  6
CONTINUOUS
370
    -3
390
7E51
347
7F47
348
0
  0
LAYER
  5
76D0
102
{ACAD_XDICTIONARY
360
7FDD
102
}
330
2
100
AcDbSymbolTableRecord
100
AcDbLayerTableRecord
  2
2
 70
     0
 62
     3
  6
CENTER
370
    -3
390
7E51
347
7F47
348
0
  0
LAYER
  5
76D1
102
{ACAD_XDICTIONARY
360
7FDF
102
}
330
2
100
AcDbSymbolTableRecord
100
AcDbLayerTableRecord
  2
1
 70
     0
 62
     4
  6
CONTINUOUS
370
    -3
390
7E51
347
7F47
348
0
  0
LAYER
  5
76D2
102
{ACAD_XDICTIONARY
360
7FE1
102
}
330
2
100
AcDbSymbolTableRecord
100
AcDbLayerTableRecord
  2
4
 70
     0
 62
     7
  6
CONTINUOUS
370
    -3
390
7E51
347
7F47
348
0
  0
LAYER
  5
7BED
330
2
100
AcDbSymbolTableRecord
100
AcDbLayerTableRecord
  2
DEFPOINTS
 70
     0
 62
     7
  6
CONTINUOUS
290
     0
370
    -3
390
7E51
347
7F47
348
0
  0
ENDTAB
  0
TABLE
  2
STYLE
  5
3
330
0
100
AcDbSymbolTable
 70
     1
  0
STYLE
  5
10
330
3
100
AcDbSymbolTableRecord
100
AcDbTextStyleTableRecord
  2
STANDARD
 70
     0
 40
0.0
 41
1.0
 50
0.0
 71
     0
 42
180.0
  3
simplex.shx
  4
extfont.shx
  0
ENDTAB
  0
TABLE
  2
VIEW
  5
6
330
0
100
AcDbSymbolTable
 70
     0
  0
ENDTAB
  0
TABLE
  2
UCS
  5
7
330
0
100
AcDbSymbolTable
 70
     0
  0
ENDTAB
  0
TABLE
  2
APPID
  5
9
330
0
100
AcDbSymbolTable
 70
     4
  0
APPID
  5
11
330
9
100
AcDbSymbolTableRecord
100
AcDbRegAppTableRecord
  2
ACAD
 70
     0
  0
APPID
  5
7F86
330
9
100
AcDbSymbolTableRecord
100
AcDbRegAppTableRecord
  2
ACAD_NAV_VCDISPLAY
 70
     0
  0
APPID
  5
7FFE
330
9
100
AcDbSymbolTableRecord
100
AcDbRegAppTableRecord
  2
AcadAnnoMonitorAlertIconDisabled
 70
     0
  0
APPID
  5
7FFF
330
9
100
AcDbSymbolTableRecord
100
AcDbRegAppTableRecord
  2
ACAD_EXEMPT_FROM_CAD_STANDARDS
 70
     0
  0
ENDTAB
  0
TABLE
  2
DIMSTYLE
  5
A
330
0
100
AcDbSymbolTable
 70
     1
100
AcDbDimStyleTable
 71
     1
340
1D
  0
DIMSTYLE
105
1D
102
{ACAD_REACTORS
330
7BF2
330
7BFE
330
7C0C
330
7C19
330
7C26
330
7C42
330
7CB4
330
7CC0
330
7CDA
330
7CE7
330
7CF7
330
7D03
330
7D10
330
7D1D
330
7D2B
330
7D52
330
7E2F
330
7E3C
330
7E49
102
}
330
A
100
AcDbSymbolTableRecord
100
AcDbDimStyleTableRecord
  2
IGA
 70
     0
 40
2.0
 41
2.0
 42
0.5
 43
10.0
 44
1.0
 47
1.0
 48
1.0
 73
     0
 74
     0
 77
     1
 78
     8
140
3.0
141
0.0
143
0.03937
146
10.0
147
1.0
173
     1
271
     1
272
     0
279
     2
284
     8
340
10
341
7BDF
343
7BDF
344
7BDF
  0
ENDTAB
  0
TABLE
  2
BLOCK_RECORD
  5
1
330
0
100
AcDbSymbolTable
 70
    21
  0
BLOCK_RECORD
  5
19
102
{ACAD_XDICTIONARY
360
7E7F
102
}
330
1
100
AcDbSymbolTableRecord
100
AcDbBlockTableRecord
  2
*MODEL_SPACE
340
7E54
 70
     0
280
     1
281
     0
  0
BLOCK_RECORD
  5
16
102
{ACAD_XDICTIONARY
360
7E7D
102
}
330
1
100
AcDbSymbolTableRecord
100
AcDbBlockTableRecord
  2
*PAPER_SPACE
340
7E55
 70
     0
280
     1
281
     0
  0
BLOCK_RECORD
  5
7BDF
330
1
100
AcDbSymbolTableRecord
100
AcDbBlockTableRecord
  2
_OPEN
340
0
102
{BLKREFS
331
7FB9
331
7FCA
331
7FCB
331
7FD5
331
800D
331
800E
331
7E99
331
7E9A
331
7EA2
331
7EA3
331
7EAB
331
7EAC
331
7EB3
331
7EB4
331
7EBC
331
7EBD
331
7EC4
331
7EC5
331
7ECD
331
7ECE
331
7ED6
331
7ED7
331
7EF0
331
7EF1
331
7F02
331
7F03
331
7F0A
331
7F0B
331
7F94
331
7F95
331
7F9C
331
7F9D
331
7FA5
331
7FA6
331
7FAD
331
7FAE
102
}
 70
     0
280
     1
281
     0
  0
BLOCK_RECORD
  5
7BE5
330
1
100
AcDbSymbolTableRecord
100
AcDbBlockTableRecord
  2
*D1
340
0
 70
     0
280
     1
281
     0
  0
BLOCK_RECORD
  5
7BF3
330
1
100
AcDbSymbolTableRecord
100
AcDbBlockTableRecord
  2
*D2
340
0
 70
     0
280
     1
281
     0
  0
BLOCK_RECORD
  5
7C00
330
1
100
AcDbSymbolTableRecord
100
AcDbBlockTableRecord
  2
*D3
340
0
 70
     0
280
     1
281
     0
  0
BLOCK_RECORD
  5
7C0D
330
1
100
AcDbSymbolTableRecord
100
AcDbBlockTableRecord
  2
*D4
340
0
 70
     0
280
     1
281
     0
  0
BLOCK_RECORD
  5
7C1A
330
1
100
AcDbSymbolTableRecord
100
AcDbBlockTableRecord
  2
*D5
340
0
 70
     0
280
     1
281
     0
  0
BLOCK_RECORD
  5
7C37
330
1
100
AcDbSymbolTableRecord
100
AcDbBlockTableRecord
  2
*D6
340
0
 70
     0
280
     1
281
     0
  0
BLOCK_RECORD
  5
7CA8
330
1
100
AcDbSymbolTableRecord
100
AcDbBlockTableRecord
  2
*D7
340
0
 70
     0
280
     1
281
     0
  0
BLOCK_RECORD
  5
7CB5
330
1
100
AcDbSymbolTableRecord
100
AcDbBlockTableRecord
  2
*D8
340
0
 70
     0
280
     1
281
     0
  0
BLOCK_RECORD
  5
7CCE
330
1
100
AcDbSymbolTableRecord
100
AcDbBlockTableRecord
  2
*D9
340
0
 70
     0
280
     1
281
     0
  0
BLOCK_RECORD
  5
7CDB
330
1
100
AcDbSymbolTableRecord
100
AcDbBlockTableRecord
  2
*D10
340
0
 70
     0
280
     1
281
     0
  0
BLOCK_RECORD
  5
7CEB
330
1
100
AcDbSymbolTableRecord
100
AcDbBlockTableRecord
  2
*D11
340
0
 70
     0
280
     1
281
     0
  0
BLOCK_RECORD
  5
7CF8
330
1
100
AcDbSymbolTableRecord
100
AcDbBlockTableRecord
  2
*D12
340
0
 70
     0
280
     1
281
     0
  0
BLOCK_RECORD
  5
7D04
330
1
100
AcDbSymbolTableRecord
100
AcDbBlockTableRecord
  2
*D13
340
0
 70
     0
280
     1
281
     0
  0
BLOCK_RECORD
  5
7D11
330
1
100
AcDbSymbolTableRecord
100
AcDbBlockTableRecord
  2
*D14
340
0
 70
     0
280
     1
281
     0
  0
BLOCK_RECORD
  5
7D1E
330
1
100
AcDbSymbolTableRecord
100
AcDbBlockTableRecord
  2
*D15
340
0
 70
     0
280
     1
281
     0
  0
BLOCK_RECORD
  5
7D46
330
1
100
AcDbSymbolTableRecord
100
AcDbBlockTableRecord
  2
*D16
340
0
 70
     0
280
     1
281
     0
  0
BLOCK_RECORD
  5
7DC0
330
1
100
AcDbSymbolTableRecord
100
AcDbBlockTableRecord
  2
_DOT
340
0
102
{BLKREFS
331
7FB8
331
7FD4
102
}
 70
     0
280
     1
281
     0
  0
BLOCK_RECORD
  5
7E21
330
1
100
AcDbSymbolTableRecord
100
AcDbBlockTableRecord
  2
*D18
340
0
 70
     0
280
     1
281
     0
  0
BLOCK_RECORD
  5
7E30
330
1
100
AcDbSymbolTableRecord
100
AcDbBlockTableRecord
  2
*D19
340
0
 70
     0
280
     1
281
     0
  0
BLOCK_RECORD
  5
7E3D
330
1
100
AcDbSymbolTableRecord
100
AcDbBlockTableRecord
  2
*D20
340
0
 70
     0
280
     1
281
     0
  0
ENDTAB
  0
ENDSEC
  0
SECTION
  2
BLOCKS
  0
BLOCK
  5
1A
330
19
100
AcDbEntity
  8
0
100
AcDbBlockBegin
  2
*MODEL_SPACE
 70
     0
 10
0.0
 20
0.0
 30
0.0
  3
*MODEL_SPACE
  1

  0
ENDBLK
  5
1B
330
19
100
AcDbEntity
  8
0
100
AcDbBlockEnd
  0
BLOCK
  5
17
330
16
100
AcDbEntity
 67
     1
  8
0
100
AcDbBlockBegin
  2
*PAPER_SPACE
 70
     0
 10
0.0
 20
0.0
 30
0.0
  3
*PAPER_SPACE
  1

  0
ENDBLK
  5
18
330
16
100
AcDbEntity
 67
     1
  8
0
100
AcDbBlockEnd
  0
BLOCK
  5
7BE0
330
7BDF
100
AcDbEntity
  8
0
100
AcDbBlockBegin
  2
_OPEN
 70
     0
 10
0.0
 20
0.0
 30
0.0
  3
_OPEN
  1

  0
LINE
  5
7BE1
330
7BDF
100
AcDbEntity
  8
0
  6
ByBlock
 62
     0
100
AcDbLine
 10
-1.0
 20
0.166667
 30
0.0
 11
0.0
 21
0.0
 31
0.0
  0
LINE
  5
7BE2
330
7BDF
100
AcDbEntity
  8
0
  6
ByBlock
 62
     0
100
AcDbLine
 10
0.0
 20
0.0
 30
0.0
 11
-1.0
 21
-0.166667
 31
0.0
  0
LINE
  5
7BE3
330
7BDF
100
AcDbEntity
  8
0
  6
ByBlock
 62
     0
100
AcDbLine
 10
0.0
 20
0.0
 30
0.0
 11
-1.0
 21
0.0
 31
0.0
  0
ENDBLK
  5
7BE4
330
7BDF
100
AcDbEntity
  8
0
100
AcDbBlockEnd
  0
BLOCK
  5
7BE6
330
7BE5
100
AcDbEntity
  8
0
100
AcDbBlockBegin
  2
*D1
 70
     1
 10
0.0
 20
0.0
 30
0.0
  3
*D1
  1

  0
LINE
  5
7F91
330
7BE5
100
AcDbEntity
  8
3
  6
Continuous
 62
     0
440
 16777216
370
    -2
100
AcDbLine
 10
-1421.578924
 20
-692.8183821131693
 30
0.0
 11
-1421.578924
 21
-748.4144981131692
 31
0.0
  0
LINE
  5
7F92
330
7BE5
100
AcDbEntity
  8
3
  6
Continuous
 62
     0
440
 16777216
370
    -2
100
AcDbLine
 10
-926.578924
 20
-667.8183821131693
 30
0.0
 11
-926.578924
 21
-748.4144981131692
 31
0.0
  0
LINE
  5
7F93
330
7BE5
100
AcDbEntity
  8
3
  6
Continuous
 62
     0
440
 16777216
370
    -2
100
AcDbLine
 10
-1401.578924
 20
-738.4144981131692
 30
0.0
 11
-946.5789240000001
 21
-738.4144981131692
 31
0.0
  0
INSERT
  5
7F94
330
7BE5
100
AcDbEntity
  8
3
  6
Continuous
 62
     0
440
 16777216
370
    -2
100
AcDbBlockReference
  2
_OPEN
 10
-1421.578924
 20
-738.4144981131692
 30
0.0
 41
20.0
 42
20.0
 43
20.0
 50
180.0
  0
INSERT
  5
7F95
330
7BE5
100
AcDbEntity
  8
3
  6
Continuous
 62
     0
440
 16777216
370
    -2
100
AcDbBlockReference
  2
_OPEN
 10
-926.578924
 20
-738.4144981131692
 30
0.0
 41
20.0
 42
20.0
 43
20.0
  0
MTEXT
  5
7F96
330
7BE5
100
AcDbEntity
  8
3
  6
Continuous
 62
     0
440
 16777216
100
AcDbMText
 10
-1182.507897
 20
-713.4144981131692
 30
0.0
 40
30.0
 41
0.0
 46
0.0
 71
     5
 72
     1
  1
\A1;495
 73
     1
 44
1.0
  0
POINT
  5
7F97
330
7BE5
100
AcDbEntity
  8
DEFPOINTS
  6
Continuous
 62
     0
440
 16777216
100
AcDbPoint
 10
-1421.578924
 20
-687.8183821131692
 30
0.0
  0
POINT
  5
7F98
330
7BE5
100
AcDbEntity
  8
DEFPOINTS
  6
Continuous
 62
     0
440
 16777216
100
AcDbPoint
 10
-926.578924
 20
-662.8183821131692
 30
0.0
  0
POINT
  5
7F99
330
7BE5
100
AcDbEntity
  8
DEFPOINTS
  6
Continuous
 62
     0
440
 16777216
100
AcDbPoint
 10
-926.578924
 20
-738.4144981131692
 30
0.0
  0
ENDBLK
  5
7BF1
330
7BE5
100
AcDbEntity
  8
0
100
AcDbBlockEnd
  0
BLOCK
  5
7BF4
330
7BF3
100
AcDbEntity
  8
0
100
AcDbBlockBegin
  2
*D2
 70
     1
 10
0.0
 20
0.0
 30
0.0
  3
*D2
  1

  0
LINE
  5
7F9A
330
7BF3
100
AcDbEntity
  8
3
  6
Continuous
 62
     0
440
 16777216
370
    -2
100
AcDbLine
 10
-741.578924
 20
-692.8183821131693
 30
0.0
 11
-741.578924
 21
-748.4144981131692
 31
0.0
  0
LINE
  5
7F9B
330
7BF3
100
AcDbEntity
  8
3
  6
Continuous
 62
     0
440
 16777216
370
    -2
100
AcDbLine
 10
-906.578924
 20
-738.4144981131692
 30
0.0
 11
-761.578924
 21
-738.4144981131692
 31
0.0
  0
INSERT
  5
7F9C
330
7BF3
100
AcDbEntity
  8
3
  6
Continuous
 62
     0
440
 16777216
370
    -2
100
AcDbBlockReference
  2
_OPEN
 10
-926.578924
 20
-738.4144981131692
 30
0.0
 41
20.0
 42
20.0
 43
20.0
 50
180.0
  0
INSERT
  5
7F9D
330
7BF3
100
AcDbEntity
  8
3
  6
Continuous
 62
     0
440
 16777216
370
    -2
100
AcDbBlockReference
  2
_OPEN
 10
-741.578924
 20
-738.4144981131692
 30
0.0
 41
20.0
 42
20.0
 43
20.0
  0
MTEXT
  5
7F9E
330
7BF3
100
AcDbEntity
  8
3
  6
Continuous
 62
     0
440
 16777216
100
AcDbMText
 10
-834.0789240000001
 20
-713.4144981131692
 30
0.0
 40
30.0
 41
0.0
 46
0.0
 71
     5
 72
     1
  1
\A1;185
 73
     1
 44
1.0
  0
POINT
  5
7F9F
330
7BF3
100
AcDbEntity
  8
DEFPOINTS
  6
Continuous
 62
     0
440
 16777216
100
AcDbPoint
 10
-926.578924
 20
-662.8183821131692
 30
0.0
  0
POINT
  5
7FA0
330
7BF3
100
AcDbEntity
  8
DEFPOINTS
  6
Continuous
 62
     0
440
 16777216
100
AcDbPoint
 10
-741.578924
 20
-687.8183821131692
 30
0.0
  0
POINT
  5
7FA1
330
7BF3
100
AcDbEntity
  8
DEFPOINTS
  6
Continuous
 62
     0
440
 16777216
100
AcDbPoint
 10
-741.578924
 20
-738.4144981131692
 30
0.0
  0
ENDBLK
  5
7BFD
330
7BF3
100
AcDbEntity
  8
0
100
AcDbBlockEnd
  0
BLOCK
  5
7C01
330
7C00
100
AcDbEntity
  8
0
100
AcDbBlockBegin
  2
*D3
 70
     1
 10
0.0
 20
0.0
 30
0.0
  3
*D3
  1

  0
LINE
  5
7E96
330
7C00
100
AcDbEntity
  8
3
  6
Continuous
 62
     0
440
 16777216
100
AcDbLine
 10
-761.578924
 20
-292.8183821131692
 30
0.0
 11
-688.8579670000001
 21
-292.8183821131692
 31
0.0
  0
LINE
  5
7E97
330
7C00
100
AcDbEntity
  8
3
  6
Continuous
 62
     0
440
 16777216
100
AcDbLine
 10
-762.578924
 20
-492.8183821131693
 30
0.0
 11
-688.8579670000001
 21
-492.8183821131693
 31
0.0
  0
LINE
  5
7E98
330
7C00
100
AcDbEntity
  8
3
  6
Continuous
 62
     0
440
 16777216
100
AcDbLine
 10
-698.8579670000001
 20
-312.8183821131691
 30
0.0
 11
-698.8579670000001
 21
-472.8183821131692
 31
0.0
  0
INSERT
  5
7E99
330
7C00
100
AcDbEntity
  8
3
  6
Continuous
 62
     0
440
 16777216
100
AcDbBlockReference
  2
_OPEN
 10
-698.8579670000001
 20
-292.8183821131692
 30
0.0
 41
20.0
 42
20.0
 43
20.0
 50
90.0
  0
INSERT
  5
7E9A
330
7C00
100
AcDbEntity
  8
3
  6
Continuous
 62
     0
440
 16777216
100
AcDbBlockReference
  2
_OPEN
 10
-698.8579670000001
 20
-492.8183821131693
 30
0.0
 41
20.0
 42
20.0
 43
20.0
 50
270.0
  0
MTEXT
  5
7E9B
330
7C00
100
AcDbEntity
  8
3
  6
Continuous
 62
     0
440
 16777216
100
AcDbMText
 10
-723.857967
 20
-382.2640561131692
 30
0.0
 40
30.0
 41
0.0
 46
0.0
 71
     5
 72
     5
  1
\A1;200
 11
0.0000000000000001
 21
1.0
 31
0.0
 73
     1
 44
1.0
  0
POINT
  5
7E9C
330
7C00
100
AcDbEntity
  8
DEFPOINTS
  6
Continuous
 62
     0
440
 16777216
100
AcDbPoint
 10
-766.578924
 20
-292.8183821131692
 30
0.0
  0
POINT
  5
7E9D
330
7C00
100
AcDbEntity
  8
DEFPOINTS
  6
Continuous
 62
     0
440
 16777216
100
AcDbPoint
 10
-767.578924
 20
-492.8183821131693
 30
0.0
  0
POINT
  5
7E9E
330
7C00
100
AcDbEntity
  8
DEFPOINTS
  6
Continuous
 62
     0
440
 16777216
100
AcDbPoint
 10
-698.8579670000001
 20
-492.8183821131693
 30
0.0
  0
ENDBLK
  5
7C0B
330
7C00
100
AcDbEntity
  8
0
100
AcDbBlockEnd
  0
BLOCK
  5
7C0E
330
7C0D
100
AcDbEntity
  8
0
100
AcDbBlockBegin
  2
*D4
 70
     1
 10
0.0
 20
0.0
 30
0.0
  3
*D4
  1

  0
LINE
  5
7E9F
330
7C0D
100
AcDbEntity
  8
3
  6
Continuous
 62
     0
440
 16777216
100
AcDbLine
 10
-761.578924
 20
-292.8183821131692
 30
0.0
 11
-622.198831
 21
-292.8183821131692
 31
0.0
  0
LINE
  5
7EA0
330
7C0D
100
AcDbEntity
  8
3
  6
Continuous
 62
     0
440
 16777216
100
AcDbLine
 10
-776.578924
 20
-503.8183821131692
 30
0.0
 11
-622.198831
 21
-503.8183821131693
 31
0.0
  0
LINE
  5
7EA1
330
7C0D
100
AcDbEntity
  8
3
  6
Continuous
 62
     0
440
 16777216
100
AcDbLine
 10
-632.198831
 20
-312.8183821131692
 30
0.0
 11
-632.198831
 21
-483.8183821131693
 31
0.0
  0
INSERT
  5
7EA2
330
7C0D
100
AcDbEntity
  8
3
  6
Continuous
 62
     0
440
 16777216
100
AcDbBlockReference
  2
_OPEN
 10
-632.198831
 20
-292.8183821131692
 30
0.0
 41
20.0
 42
20.0
 43
20.0
 50
90.0
  0
INSERT
  5
7EA3
330
7C0D
100
AcDbEntity
  8
3
  6
Continuous
 62
     0
440
 16777216
100
AcDbBlockReference
  2
_OPEN
 10
-632.198831
 20
-503.8183821131693
 30
0.0
 41
20.0
 42
20.0
 43
20.0
 50
270.0
  0
MTEXT
  5
7EA4
330
7C0D
100
AcDbEntity
  8
3
  6
Continuous
 62
     0
440
 16777216
100
AcDbMText
 10
-657.1988309999999
 20
-379.6886581131692
 30
0.0
 40
30.0
 41
0.0
 46
0.0
 71
     5
 72
     5
  1
\A1;211
 11
0.0000000000000001
 21
1.0
 31
0.0
 73
     1
 44
1.0
  0
POINT
  5
7EA5
330
7C0D
100
AcDbEntity
  8
DEFPOINTS
  6
Continuous
 62
     0
440
 16777216
100
AcDbPoint
 10
-766.578924
 20
-292.8183821131692
 30
0.0
  0
POINT
  5
7EA6
330
7C0D
100
AcDbEntity
  8
DEFPOINTS
  6
Continuous
 62
     0
440
 16777216
100
AcDbPoint
 10
-781.578924
 20
-503.8183821131692
 30
0.0
  0
POINT
  5
7EA7
330
7C0D
100
AcDbEntity
  8
DEFPOINTS
  6
Continuous
 62
     0
440
 16777216
100
AcDbPoint
 10
-632.198831
 20
-503.8183821131693
 30
0.0
  0
ENDBLK
  5
7C18
330
7C0D
100
AcDbEntity
  8
0
100
AcDbBlockEnd
  0
BLOCK
  5
7C1B
330
7C1A
100
AcDbEntity
  8
0
100
AcDbBlockBegin
  2
*D5
 70
     1
 10
0.0
 20
0.0
 30
0.0
  3
*D5
  1

  0
LINE
  5
7EA8
330
7C1A
100
AcDbEntity
  8
3
  6
Continuous
 62
     0
440
 16777216
100
AcDbLine
 10
-921.5789240000001
 20
-142.2511931131691
 30
0.0
 11
-560.3273749999999
 21
-142.2511931131692
 31
0.0
  0
LINE
  5
7EA9
330
7C1A
100
AcDbEntity
  8
3
  6
Continuous
 62
     0
440
 16777216
100
AcDbLine
 10
-761.578924
 20
-292.8183821131692
 30
0.0
 11
-560.327375
 21
-292.8183821131692
 31
0.0
  0
LINE
  5
7EAA
330
7C1A
100
AcDbEntity
  8
3
  6
Continuous
 62
     0
440
 16777216
100
AcDbLine
 10
-570.327375
 20
-162.2511931131693
 30
0.0
 11
-570.3273750000001
 21
-272.8183821131692
 31
0.0
  0
INSERT
  5
7EAB
330
7C1A
100
AcDbEntity
  8
3
  6
Continuous
 62
     0
440
 16777216
100
AcDbBlockReference
  2
_OPEN
 10
-570.327375
 20
-142.2511931131692
 30
0.0
 41
20.0
 42
20.0
 43
20.0
 50
90.0
  0
INSERT
  5
7EAC
330
7C1A
100
AcDbEntity
  8
3
  6
Continuous
 62
     0
440
 16777216
100
AcDbBlockReference
  2
_OPEN
 10
-570.3273750000001
 20
-292.8183821131692
 30
0.0
 41
20.0
 42
20.0
 43
20.0
 50
270.0
  0
MTEXT
  5
7EAD
330
7C1A
100
AcDbEntity
  8
3
  6
Continuous
 62
     0
440
 16777216
100
AcDbMText
 10
-595.327375
 20
-217.8061231131692
 30
0.0
 40
30.0
 41
0.0
 46
0.0
 71
     5
 72
     5
  1
\A1;151
 11
0.0000000000000001
 21
1.0
 31
0.0
 73
     1
 44
1.0
  0
POINT
  5
7EAE
330
7C1A
100
AcDbEntity
  8
DEFPOINTS
  6
Continuous
 62
     0
440
 16777216
100
AcDbPoint
 10
-926.578924
 20
-142.2511931131691
 30
0.0
  0
POINT
  5
7EAF
330
7C1A
100
AcDbEntity
  8
DEFPOINTS
  6
Continuous
 62
     0
440
 16777216
100
AcDbPoint
 10
-766.578924
 20
-292.8183821131692
 30
0.0
  0
POINT
  5
7EB0
330
7C1A
100
AcDbEntity
  8
DEFPOINTS
  6
Continuous
 62
     0
440
 16777216
100
AcDbPoint
 10
-570.3273750000001
 20
-292.8183821131692
 30
0.0
  0
ENDBLK
  5
7C25
330
7C1A
100
AcDbEntity
  8
0
100
AcDbBlockEnd
  0
BLOCK
  5
7C38
330
7C37
100
AcDbEntity
  8
0
100
AcDbBlockBegin
  2
*D6
 70
     1
 10
0.0
 20
0.0
 30
0.0
  3
*D6
  1

  0
LINE
  5
7EB1
330
7C37
100
AcDbEntity
  8
3
  6
Continuous
 62
     0
440
 16777216
100
AcDbLine
 10
-761.578924
 20
-567.8183821131693
 30
0.0
 11
-560.3273749999999
 21
-567.8183821131693
 31
0.0
  0
LINE
  5
7EB2
330
7C37
100
AcDbEntity
  8
3
  6
Continuous
 62
     0
440
 16777216
100
AcDbLine
 10
-570.327375
 20
-312.8183821131692
 30
0.0
 11
-570.327375
 21
-547.8183821131692
 31
0.0
  0
INSERT
  5
7EB3
330
7C37
100
AcDbEntity
  8
3
  6
Continuous
 62
     0
440
 16777216
100
AcDbBlockReference
  2
_OPEN
 10
-570.327375
 20
-292.8183821131692
 30
0.0
 41
20.0
 42
20.0
 43
20.0
 50
90.0
  0
INSERT
  5
7EB4
330
7C37
100
AcDbEntity
  8
3
  6
Continuous
 62
     0
440
 16777216
100
AcDbBlockReference
  2
_OPEN
 10
-570.327375
 20
-567.8183821131693
 30
0.0
 41
20.0
 42
20.0
 43
20.0
 50
270.0
  0
MTEXT
  5
7EB5
330
7C37
100
AcDbEntity
  8
3
  6
Continuous
 62
     0
440
 16777216
100
AcDbMText
 10
-595.3273749999998
 20
-430.3183821131693
 30
0.0
 40
30.0
 41
0.0
 46
0.0
 71
     5
 72
     5
  1
\A1;275
 11
0.0000000000000001
 21
1.0
 31
0.0
 73
     1
 44
1.0
  0
POINT
  5
7EB6
330
7C37
100
AcDbEntity
  8
DEFPOINTS
  6
Continuous
 62
     0
440
 16777216
100
AcDbPoint
 10
-766.578924
 20
-292.8183821131692
 30
0.0
  0
POINT
  5
7EB7
330
7C37
100
AcDbEntity
  8
DEFPOINTS
  6
Continuous
 62
     0
440
 16777216
100
AcDbPoint
 10
-766.578924
 20
-567.8183821131693
 30
0.0
  0
POINT
  5
7EB8
330
7C37
100
AcDbEntity
  8
DEFPOINTS
  6
Continuous
 62
     0
440
 16777216
100
AcDbPoint
 10
-570.327375
 20
-567.8183821131693
 30
0.0
  0
ENDBLK
  5
7C41
330
7C37
100
AcDbEntity
  8
0
100
AcDbBlockEnd
  0
BLOCK
  5
7E0E
330
7CA8
100
AcDbEntity
  8
0
100
AcDbBlockBegin
  2
*D7
 70
     1
 10
0.0
 20
0.0
 30
0.0
  3
*D7
  1

  0
LINE
  5
7EB9
330
7CA8
100
AcDbEntity
  8
3
  6
Continuous
 62
     0
440
 16777216
100
AcDbLine
 10
-1105.578924
 20
-287.8183821131691
 30
0.0
 11
-1105.578924
 21
-91.54502211316918
 31
0.0
  0
LINE
  5
7EBA
330
7CA8
100
AcDbEntity
  8
3
  6
Continuous
 62
     0
440
 16777216
100
AcDbLine
 10
-926.578924
 20
-137.2511931131692
 30
0.0
 11
-926.578924
 21
-91.54502211316918
 31
0.0
  0
LINE
  5
7EBB
330
7CA8
100
AcDbEntity
  8
3
  6
Continuous
 62
     0
440
 16777216
100
AcDbLine
 10
-1085.578924
 20
-101.5450221131692
 30
0.0
 11
-946.5789240000001
 21
-101.5450221131692
 31
0.0
  0
INSERT
  5
7EBC
330
7CA8
100
AcDbEntity
  8
3
  6
Continuous
 62
     0
440
 16777216
100
AcDbBlockReference
  2
_OPEN
 10
-1105.578924
 20
-101.5450221131692
 30
0.0
 41
20.0
 42
20.0
 43
20.0
 50
180.0
  0
INSERT
  5
7EBD
330
7CA8
100
AcDbEntity
  8
3
  6
Continuous
 62
     0
440
 16777216
100
AcDbBlockReference
  2
_OPEN
 10
-926.578924
 20
-101.5450221131692
 30
0.0
 41
20.0
 42
20.0
 43
20.0
  0
MTEXT
  5
7EBE
330
7CA8
100
AcDbEntity
  8
3
  6
Continuous
 62
     0
440
 16777216
100
AcDbMText
 10
-1022.725366
 20
-76.54502211316918
 30
0.0
 40
30.0
 41
0.0
 46
0.0
 71
     5
 72
     5
  1
\A1;179
 73
     1
 44
1.0
  0
POINT
  5
7EBF
330
7CA8
100
AcDbEntity
  8
DEFPOINTS
  6
Continuous
 62
     0
440
 16777216
100
AcDbPoint
 10
-1105.578924
 20
-292.8183821131692
 30
0.0
  0
POINT
  5
7EC0
330
7CA8
100
AcDbEntity
  8
DEFPOINTS
  6
Continuous
 62
     0
440
 16777216
100
AcDbPoint
 10
-926.578924
 20
-142.2511931131691
 30
0.0
  0
POINT
  5
7EC1
330
7CA8
100
AcDbEntity
  8
DEFPOINTS
  6
Continuous
 62
     0
440
 16777216
100
AcDbPoint
 10
-926.578924
 20
-101.5450221131692
 30
0.0
  0
ENDBLK
  5
7E18
330
7CA8
100
AcDbEntity
  8
0
100
AcDbBlockEnd
  0
BLOCK
  5
7CB6
330
7CB5
100
AcDbEntity
  8
0
100
AcDbBlockBegin
  2
*D8
 70
     1
 10
0.0
 20
0.0
 30
0.0
  3
*D8
  1

  0
LINE
  5
7EC2
330
7CB5
100
AcDbEntity
  8
3
  6
Continuous
 62
     0
440
 16777216
100
AcDbLine
 10
-766.578924
 20
-266.8183821131691
 30
0.0
 11
-766.578924
 21
-91.54502211316918
 31
0.0
  0
LINE
  5
7EC3
330
7CB5
100
AcDbEntity
  8
3
  6
Continuous
 62
     0
440
 16777216
100
AcDbLine
 10
-906.578924
 20
-101.5450221131692
 30
0.0
 11
-786.578924
 21
-101.5450221131692
 31
0.0
  0
INSERT
  5
7EC4
330
7CB5
100
AcDbEntity
  8
3
  6
Continuous
 62
     0
440
 16777216
100
AcDbBlockReference
  2
_OPEN
 10
-926.578924
 20
-101.5450221131692
 30
0.0
 41
20.0
 42
20.0
 43
20.0
 50
180.0
  0
INSERT
  5
7EC5
330
7CB5
100
AcDbEntity
  8
3
  6
Continuous
 62
     0
440
 16777216
100
AcDbBlockReference
  2
_OPEN
 10
-766.578924
 20
-101.5450221131692
 30
0.0
 41
20.0
 42
20.0
 43
20.0
  0
MTEXT
  5
7EC6
330
7CB5
100
AcDbEntity
  8
3
  6
Continuous
 62
     0
440
 16777216
100
AcDbMText
 10
-846.5789240000001
 20
-76.54502211316918
 30
0.0
 40
30.0
 41
0.0
 46
0.0
 71
     5
 72
     5
  1
\A1;160
 73
     1
 44
1.0
  0
POINT
  5
7EC7
330
7CB5
100
AcDbEntity
  8
DEFPOINTS
  6
Continuous
 62
     0
440
 16777216
100
AcDbPoint
 10
-926.578924
 20
-142.2511931131691
 30
0.0
  0
POINT
  5
7EC8
330
7CB5
100
AcDbEntity
  8
DEFPOINTS
  6
Continuous
 62
     0
440
 16777216
100
AcDbPoint
 10
-766.578924
 20
-271.8183821131692
 30
0.0
  0
POINT
  5
7EC9
330
7CB5
100
AcDbEntity
  8
DEFPOINTS
  6
Continuous
 62
     0
440
 16777216
100
AcDbPoint
 10
-766.578924
 20
-101.5450221131692
 30
0.0
  0
ENDBLK
  5
7CBF
330
7CB5
100
AcDbEntity
  8
0
100
AcDbBlockEnd
  0
BLOCK
  5
7CCF
330
7CCE
100
AcDbEntity
  8
0
100
AcDbBlockBegin
  2
*D9
 70
     1
 10
0.0
 20
0.0
 30
0.0
  3
*D9
  1

  0
LINE
  5
7ECA
330
7CCE
100
AcDbEntity
  8
3
  6
Continuous
 62
     0
440
 16777216
100
AcDbLine
 10
-1421.578924
 20
276.150495
 30
0.0
 11
-1421.578924
 21
172.070884
 31
0.0
  0
LINE
  5
7ECB
330
7CCE
100
AcDbEntity
  8
3
  6
Continuous
 62
     0
440
 16777216
100
AcDbLine
 10
-741.578924
 20
276.150495
 30
0.0
 11
-741.578924
 21
172.070884
 31
0.0
  0
LINE
  5
7ECC
330
7CCE
100
AcDbEntity
  8
3
  6
Continuous
 62
     0
440
 16777216
100
AcDbLine
 10
-1401.578924
 20
182.070884
 30
0.0
 11
-761.578924
 21
182.070884
 31
0.0
  0
INSERT
  5
7ECD
330
7CCE
100
AcDbEntity
  8
3
  6
Continuous
 62
     0
440
 16777216
100
AcDbBlockReference
  2
_OPEN
 10
-1421.578924
 20
182.070884
 30
0.0
 41
20.0
 42
20.0
 43
20.0
 50
180.0
  0
INSERT
  5
7ECE
330
7CCE
100
AcDbEntity
  8
3
  6
Continuous
 62
     0
440
 16777216
100
AcDbBlockReference
  2
_OPEN
 10
-741.578924
 20
182.070884
 30
0.0
 41
20.0
 42
20.0
 43
20.0
  0
MTEXT
  5
7ECF
330
7CCE
100
AcDbEntity
  8
3
  6
Continuous
 62
     0
440
 16777216
100
AcDbMText
 10
-1083.860248
 20
207.070884
 30
0.0
 40
30.0
 41
0.0
 46
0.0
 71
     5
 72
     5
  1
\A1;680
 73
     1
 44
1.0
  0
POINT
  5
7ED0
330
7CCE
100
AcDbEntity
  8
DEFPOINTS
  6
Continuous
 62
     0
440
 16777216
100
AcDbPoint
 10
-1421.578924
 20
281.150495
 30
0.0
  0
POINT
  5
7ED1
330
7CCE
100
AcDbEntity
  8
DEFPOINTS
  6
Continuous
 62
     0
440
 16777216
100
AcDbPoint
 10
-741.578924
 20
281.150495
 30
0.0
  0
POINT
  5
7ED2
330
7CCE
100
AcDbEntity
  8
DEFPOINTS
  6
Continuous
 62
     0
440
 16777216
100
AcDbPoint
 10
-741.578924
 20
182.070884
 30
0.0
  0
ENDBLK
  5
7CD9
330
7CCE
100
AcDbEntity
  8
0
100
AcDbBlockEnd
  0
BLOCK
  5
7CDC
330
7CDB
100
AcDbEntity
  8
0
100
AcDbBlockBegin
  2
*D10
 70
     1
 10
0.0
 20
0.0
 30
0.0
  3
*D10
  1

  0
LINE
  5
7ED3
330
7CDB
100
AcDbEntity
  8
3
  6
Continuous
 62
     0
440
 16777216
100
AcDbLine
 10
-736.578924
 20
711.1504949999999
 30
0.0
 11
-643.7063129999999
 21
711.1504949999999
 31
0.0
  0
LINE
  5
7ED4
330
7CDB
100
AcDbEntity
  8
3
  6
Continuous
 62
     0
440
 16777216
100
AcDbLine
 10
-736.578924
 20
281.150495
 30
0.0
 11
-643.7063129999999
 21
281.150495
 31
0.0
  0
LINE
  5
7ED5
330
7CDB
100
AcDbEntity
  8
3
  6
Continuous
 62
     0
440
 16777216
100
AcDbLine
 10
-653.7063129999999
 20
691.150495
 30
0.0
 11
-653.7063129999999
 21
301.150495
 31
0.0
  0
INSERT
  5
7ED6
330
7CDB
100
AcDbEntity
  8
3
  6
Continuous
 62
     0
440
 16777216
100
AcDbBlockReference
  2
_OPEN
 10
-653.7063129999999
 20
711.1504949999999
 30
0.0
 41
20.0
 42
20.0
 43
20.0
 50
90.0
  0
INSERT
  5
7ED7
330
7CDB
100
AcDbEntity
  8
3
  6
Continuous
 62
     0
440
 16777216
100
AcDbBlockReference
  2
_OPEN
 10
-653.7063129999999
 20
281.150495
 30
0.0
 41
20.0
 42
20.0
 43
20.0
 50
270.0
  0
MTEXT
  5
7ED8
330
7CDB
100
AcDbEntity
  8
3
  6
Continuous
 62
     0
440
 16777216
100
AcDbMText
 10
-678.7063129999999
 20
467.5728089999999
 30
0.0
 40
30.0
 41
0.0
 46
0.0
 71
     5
 72
     5
  1
\A1;430
 11
0.0000000000000001
 21
1.0
 31
0.0
 73
     1
 44
1.0
  0
POINT
  5
7ED9
330
7CDB
100
AcDbEntity
  8
DEFPOINTS
  6
Continuous
 62
     0
440
 16777216
100
AcDbPoint
 10
-741.578924
 20
711.1504949999999
 30
0.0
  0
POINT
  5
7EDA
330
7CDB
100
AcDbEntity
  8
DEFPOINTS
  6
Continuous
 62
     0
440
 16777216
100
AcDbPoint
 10
-741.578924
 20
281.150495
 30
0.0
  0
POINT
  5
7EDB
330
7CDB
100
AcDbEntity
  8
DEFPOINTS
  6
Continuous
 62
     0
440
 16777216
100
AcDbPoint
 10
-653.7063129999999
 20
281.150495
 30
0.0
  0
ENDBLK
  5
7CE6
330
7CDB
100
AcDbEntity
  8
0
100
AcDbBlockEnd
  0
BLOCK
  5
7CEC
330
7CEB
100
AcDbEntity
  8
0
100
AcDbBlockBegin
  2
*D11
 70
     1
 10
0.0
 20
0.0
 30
0.0
  3
*D11
  1

  0
LINE
  5
7FA2
330
7CEB
100
AcDbEntity
  8
3
  6
Continuous
 62
     0
440
 16777216
370
    -2
100
AcDbLine
 10
-373.223438
 20
-692.8183821131693
 30
0.0
 11
-373.223438
 21
-775.7251571131692
 31
0.0
  0
LINE
  5
7FA3
330
7CEB
100
AcDbEntity
  8
3
  6
Continuous
 62
     0
440
 16777216
370
    -2
100
AcDbLine
 10
-75.22343799999998
 20
-692.8183821131693
 30
0.0
 11
-75.22343799999998
 21
-775.7251571131692
 31
0.0
  0
LINE
  5
7FA4
330
7CEB
100
AcDbEntity
  8
3
  6
Continuous
 62
     0
440
 16777216
370
    -2
100
AcDbLine
 10
-353.223438
 20
-765.7251571131691
 30
0.0
 11
-95.22343799999999
 21
-765.7251571131691
 31
0.0
  0
INSERT
  5
7FA5
330
7CEB
100
AcDbEntity
  8
3
  6
Continuous
 62
     0
440
 16777216
370
    -2
100
AcDbBlockReference
  2
_OPEN
 10
-373.223438
 20
-765.7251571131691
 30
0.0
 41
20.0
 42
20.0
 43
20.0
 50
180.0
  0
INSERT
  5
7FA6
330
7CEB
100
AcDbEntity
  8
3
  6
Continuous
 62
     0
440
 16777216
370
    -2
100
AcDbBlockReference
  2
_OPEN
 10
-75.22343799999998
 20
-765.7251571131691
 30
0.0
 41
20.0
 42
20.0
 43
20.0
  0
MTEXT
  5
7FA7
330
7CEB
100
AcDbEntity
  8
3
  6
Continuous
 62
     0
440
 16777216
100
AcDbMText
 10
-224.868483
 20
-740.7251571131691
 30
0.0
 40
30.0
 41
0.0
 46
0.0
 71
     5
 72
     1
  1
\A1;298
 73
     1
 44
1.0
  0
POINT
  5
7FA8
330
7CEB
100
AcDbEntity
  8
DEFPOINTS
  6
Continuous
 62
     0
440
 16777216
100
AcDbPoint
 10
-373.223438
 20
-687.8183821131692
 30
0.0
  0
POINT
  5
7FA9
330
7CEB
100
AcDbEntity
  8
DEFPOINTS
  6
Continuous
 62
     0
440
 16777216
100
AcDbPoint
 10
-75.22343799999998
 20
-687.8183821131692
 30
0.0
  0
POINT
  5
7FAA
330
7CEB
100
AcDbEntity
  8
DEFPOINTS
  6
Continuous
 62
     0
440
 16777216
100
AcDbPoint
 10
-75.22343799999998
 20
-765.7251571131691
 30
0.0
  0
ENDBLK
  5
7CF6
330
7CEB
100
AcDbEntity
  8
0
100
AcDbBlockEnd
  0
BLOCK
  5
7CF9
330
7CF8
100
AcDbEntity
  8
0
100
AcDbBlockBegin
  2
*D12
 70
     1
 10
0.0
 20
0.0
 30
0.0
  3
*D12
  1

  0
LINE
  5
7FAB
330
7CF8
100
AcDbEntity
  8
3
  6
Continuous
 62
     0
440
 16777216
370
    -2
100
AcDbLine
 10
56.77656200000001
 20
-692.8183821131693
 30
0.0
 11
56.77656200000001
 21
-775.7251571131692
 31
0.0
  0
LINE
  5
7FAC
330
7CF8
100
AcDbEntity
  8
3
  6
Continuous
 62
     0
440
 16777216
370
    -2
100
AcDbLine
 10
-55.22343799999998
 20
-765.7251571131691
 30
0.0
 11
36.77656200000001
 21
-765.7251571131691
 31
0.0
  0
INSERT
  5
7FAD
330
7CF8
100
AcDbEntity
  8
3
  6
Continuous
 62
     0
440
 16777216
370
    -2
100
AcDbBlockReference
  2
_OPEN
 10
-75.22343799999998
 20
-765.7251571131691
 30
0.0
 41
20.0
 42
20.0
 43
20.0
 50
180.0
  0
INSERT
  5
7FAE
330
7CF8
100
AcDbEntity
  8
3
  6
Continuous
 62
     0
440
 16777216
370
    -2
100
AcDbBlockReference
  2
_OPEN
 10
56.77656200000001
 20
-765.7251571131691
 30
0.0
 41
20.0
 42
20.0
 43
20.0
  0
MTEXT
  5
7FAF
330
7CF8
100
AcDbEntity
  8
3
  6
Continuous
 62
     0
440
 16777216
100
AcDbMText
 10
-9.223437999999989
 20
-740.7251571131691
 30
0.0
 40
30.0
 41
0.0
 46
0.0
 71
     5
 72
     1
  1
\A1;132
 73
     1
 44
1.0
  0
POINT
  5
7FB0
330
7CF8
100
AcDbEntity
  8
DEFPOINTS
  6
Continuous
 62
     0
440
 16777216
100
AcDbPoint
 10
-75.22343799999998
 20
-687.8183821131692
 30
0.0
  0
POINT
  5
7FB1
330
7CF8
100
AcDbEntity
  8
DEFPOINTS
  6
Continuous
 62
     0
440
 16777216
100
AcDbPoint
 10
56.77656200000001
 20
-687.8183821131692
 30
0.0
  0
POINT
  5
7FB2
330
7CF8
100
AcDbEntity
  8
DEFPOINTS
  6
Continuous
 62
     0
440
 16777216
100
AcDbPoint
 10
56.77656200000001
 20
-765.7251571131691
 30
0.0
  0
ENDBLK
  5
7D02
330
7CF8
100
AcDbEntity
  8
0
100
AcDbBlockEnd
  0
BLOCK
  5
7D05
330
7D04
100
AcDbEntity
  8
0
100
AcDbBlockBegin
  2
*D13
 70
     1
 10
0.0
 20
0.0
 30
0.0
  3
*D13
  1

  0
LINE
  5
7EED
330
7D04
100
AcDbEntity
  8
3
  6
Continuous
 62
     0
440
 16777216
100
AcDbLine
 10
-145.223438
 20
-148.8183821131691
 30
0.0
 11
-145.223438
 21
-86.68490311316919
 31
0.0
  0
LINE
  5
7EEE
330
7D04
100
AcDbEntity
  8
3
  6
Continuous
 62
     0
440
 16777216
100
AcDbLine
 10
-5.223437999999987
 20
-148.8183821131691
 30
0.0
 11
-5.223437999999982
 21
-86.68490311316919
 31
0.0
  0
LINE
  5
7EEF
330
7D04
100
AcDbEntity
  8
3
  6
Continuous
 62
     0
440
 16777216
100
AcDbLine
 10
-125.223438
 20
-96.68490311316919
 30
0.0
 11
-25.22343799999998
 21
-96.68490311316919
 31
0.0
  0
INSERT
  5
7EF0
330
7D04
100
AcDbEntity
  8
3
  6
Continuous
 62
     0
440
 16777216
100
AcDbBlockReference
  2
_OPEN
 10
-145.223438
 20
-96.68490311316919
 30
0.0
 41
20.0
 42
20.0
 43
20.0
 50
180.0
  0
INSERT
  5
7EF1
330
7D04
100
AcDbEntity
  8
3
  6
Continuous
 62
     0
440
 16777216
100
AcDbBlockReference
  2
_OPEN
 10
-5.223437999999983
 20
-96.68490311316919
 30
0.0
 41
20.0
 42
20.0
 43
20.0
  0
MTEXT
  5
7EF2
330
7D04
100
AcDbEntity
  8
3
  6
Continuous
 62
     0
440
 16777216
100
AcDbMText
 10
-79.50915299999997
 20
-71.68490311316919
 30
0.0
 40
30.0
 41
0.0
 46
0.0
 71
     5
 72
     5
  1
\A1;140
 73
     1
 44
1.0
  0
POINT
  5
7EF3
330
7D04
100
AcDbEntity
  8
DEFPOINTS
  6
Continuous
 62
     0
440
 16777216
100
AcDbPoint
 10
-145.223438
 20
-153.8183821131692
 30
0.0
  0
POINT
  5
7EF4
330
7D04
100
AcDbEntity
  8
DEFPOINTS
  6
Continuous
 62
     0
440
 16777216
100
AcDbPoint
 10
-5.223437999999987
 20
-153.8183821131692
 30
0.0
  0
POINT
  5
7EF5
330
7D04
100
AcDbEntity
  8
DEFPOINTS
  6
Continuous
 62
     0
440
 16777216
100
AcDbPoint
 10
-5.223437999999983
 20
-96.68490311316919
 30
0.0
  0
ENDBLK
  5
7D0F
330
7D04
100
AcDbEntity
  8
0
100
AcDbBlockEnd
  0
BLOCK
  5
7DEE
330
7D11
100
AcDbEntity
  8
0
100
AcDbBlockBegin
  2
*D14
 70
     1
 10
0.0
 20
0.0
 30
0.0
  3
*D14
  1

  0
LINE
  5
800A
330
7D11
100
AcDbEntity
  8
3
  6
Continuous
 62
     0
440
 16777216
370
    -2
100
AcDbLine
 10
-375.223438
 20
-177.8183821131691
 30
0.0
 11
-375.223438
 21
-24.87520811316915
 31
0.0
  0
LINE
  5
800B
330
7D11
100
AcDbEntity
  8
3
  6
Continuous
 62
     0
440
 16777216
370
    -2
100
AcDbLine
 10
-75.22343799999998
 20
-36.97181511316922
 30
0.0
 11
-75.22343799999998
 21
-24.87520811316915
 31
0.0
  0
LINE
  5
800C
330
7D11
100
AcDbEntity
  8
3
  6
Continuous
 62
     0
440
 16777216
370
    -2
100
AcDbLine
 10
-355.223438
 20
-34.87520811316915
 30
0.0
 11
-95.22343799999999
 21
-34.87520811316915
 31
0.0
  0
INSERT
  5
800D
330
7D11
100
AcDbEntity
  8
3
  6
Continuous
 62
     0
440
 16777216
370
    -2
100
AcDbBlockReference
  2
_OPEN
 10
-375.223438
 20
-34.87520811316915
 30
0.0
 41
20.0
 42
20.0
 43
20.0
 50
180.0
  0
INSERT
  5
800E
330
7D11
100
AcDbEntity
  8
3
  6
Continuous
 62
     0
440
 16777216
370
    -2
100
AcDbBlockReference
  2
_OPEN
 10
-75.22343799999998
 20
-34.87520811316915
 30
0.0
 41
20.0
 42
20.0
 43
20.0
  0
MTEXT
  5
800F
330
7D11
100
AcDbEntity
  8
3
  6
Continuous
 62
     0
440
 16777216
100
AcDbMText
 10
-221.922222
 20
-2.018065256026289
 30
0.0
 40
30.0
 41
0.0
 46
0.0
 71
     5
 72
     1
  1
\A1;(300)
 73
     1
 44
1.0
  0
POINT
  5
8010
330
7D11
100
AcDbEntity
  8
DEFPOINTS
  6
Continuous
 62
     0
440
 16777216
100
AcDbPoint
 10
-375.223438
 20
-182.8183821131691
 30
0.0
  0
POINT
  5
8011
330
7D11
100
AcDbEntity
  8
DEFPOINTS
  6
Continuous
 62
     0
440
 16777216
100
AcDbPoint
 10
-75.22343799999998
 20
-41.97181511316921
 30
0.0
  0
POINT
  5
8012
330
7D11
100
AcDbEntity
  8
DEFPOINTS
  6
Continuous
 62
     0
440
 16777216
100
AcDbPoint
 10
-75.22343799999998
 20
-34.87520811316915
 30
0.0
  0
ENDBLK
  5
7DF8
330
7D11
100
AcDbEntity
  8
0
100
AcDbBlockEnd
  0
BLOCK
  5
7D63
330
7D1E
100
AcDbEntity
  8
0
100
AcDbBlockBegin
  2
*D15
 70
     1
 10
0.0
 20
0.0
 30
0.0
  3
*D15
  1

  0
LINE
  5
7EFF
330
7D1E
100
AcDbEntity
  8
3
  6
Continuous
 62
     0
440
 16777216
100
AcDbLine
 10
2.776562000000013
 20
-167.8183821131691
 30
0.0
 11
2.776562000000021
 21
-24.87520811316915
 31
0.0
  0
LINE
  5
7F00
330
7D1E
100
AcDbEntity
  8
3
  6
Continuous
 62
     0
440
 16777216
100
AcDbLine
 10
-55.22343799999998
 20
-34.87520811316915
 30
0.0
 11
-17.22343799999998
 21
-34.87520811316915
 31
0.0
  0
MTEXT
  5
7F01
330
7D1E
100
AcDbEntity
  8
3
  6
Continuous
 62
     0
440
 16777216
100
AcDbMText
 10
-36.30785300000002
 20
-9.875208113169151
 30
0.0
 40
30.0
 41
0.0
 46
0.0
 71
     5
 72
     5
  1
\A1;78
 73
     1
 44
1.0
  0
INSERT
  5
7F02
330
7D1E
100
AcDbEntity
  8
3
  6
Continuous
 62
     0
440
 16777216
100
AcDbBlockReference
  2
_OPEN
 10
-75.22343799999998
 20
-34.87520811316915
 30
0.0
 41
20.0
 42
20.0
 43
20.0
 50
180.0
  0
INSERT
  5
7F03
330
7D1E
100
AcDbEntity
  8
3
  6
Continuous
 62
     0
440
 16777216
100
AcDbBlockReference
  2
_OPEN
 10
2.776562000000021
 20
-34.87520811316915
 30
0.0
 41
20.0
 42
20.0
 43
20.0
  0
POINT
  5
7F04
330
7D1E
100
AcDbEntity
  8
DEFPOINTS
  6
Continuous
 62
     0
440
 16777216
100
AcDbPoint
 10
-75.22343799999998
 20
-41.97181511316921
 30
0.0
  0
POINT
  5
7F05
330
7D1E
100
AcDbEntity
  8
DEFPOINTS
  6
Continuous
 62
     0
440
 16777216
100
AcDbPoint
 10
2.776562000000012
 20
-172.8183821131691
 30
0.0
  0
POINT
  5
7F06
330
7D1E
100
AcDbEntity
  8
DEFPOINTS
  6
Continuous
 62
     0
440
 16777216
100
AcDbPoint
 10
2.776562000000021
 20
-34.87520811316915
 30
0.0
  0
ENDBLK
  5
7D6C
330
7D1E
100
AcDbEntity
  8
0
100
AcDbBlockEnd
  0
BLOCK
  5
7DF9
330
7D46
100
AcDbEntity
  8
0
100
AcDbBlockBegin
  2
*D16
 70
     1
 10
0.0
 20
0.0
 30
0.0
  3
*D16
  1

  0
LINE
  5
7F07
330
7D46
100
AcDbEntity
  8
3
  6
Continuous
 62
     0
440
 16777216
100
AcDbLine
 10
7.776562000000012
 20
-192.8183821131691
 30
0.0
 11
82.40623600000001
 21
-192.8183821131692
 31
0.0
  0
LINE
  5
7F08
330
7D46
100
AcDbEntity
  8
3
  6
Continuous
 62
     0
440
 16777216
100
AcDbLine
 10
7.776562000000012
 20
-392.8183821131692
 30
0.0
 11
82.40623599999997
 21
-392.8183821131692
 31
0.0
  0
LINE
  5
7F09
330
7D46
100
AcDbEntity
  8
3
  6
Continuous
 62
     0
440
 16777216
100
AcDbLine
 10
72.40623600000001
 20
-212.8183821131692
 30
0.0
 11
72.40623599999996
 21
-372.8183821131692
 31
0.0
  0
INSERT
  5
7F0A
330
7D46
100
AcDbEntity
  8
3
  6
Continuous
 62
     0
440
 16777216
100
AcDbBlockReference
  2
_OPEN
 10
72.40623600000001
 20
-192.8183821131692
 30
0.0
 41
20.0
 42
20.0
 43
20.0
 50
90.0
  0
INSERT
  5
7F0B
330
7D46
100
AcDbEntity
  8
3
  6
Continuous
 62
     0
440
 16777216
100
AcDbBlockReference
  2
_OPEN
 10
72.40623599999996
 20
-392.8183821131692
 30
0.0
 41
20.0
 42
20.0
 43
20.0
 50
270.0
  0
MTEXT
  5
7F0C
330
7D46
100
AcDbEntity
  8
3
  6
Continuous
 62
     0
440
 16777216
100
AcDbMText
 10
47.40623600000003
 20
-279.3898106845978
 30
0.0
 40
30.0
 41
0.0
 46
0.0
 71
     5
 72
     5
  1
\A1;φ200
 11
0.0000000000000001
 21
1.0
 31
0.0
 73
     1
 44
1.0
  0
POINT
  5
7F0D
330
7D46
100
AcDbEntity
  8
DEFPOINTS
  6
Continuous
 62
     0
440
 16777216
100
AcDbPoint
 10
2.776562000000012
 20
-192.8183821131691
 30
0.0
  0
POINT
  5
7F0E
330
7D46
100
AcDbEntity
  8
DEFPOINTS
  6
Continuous
 62
     0
440
 16777216
100
AcDbPoint
 10
2.776562000000012
 20
-392.8183821131692
 30
0.0
  0
POINT
  5
7F0F
330
7D46
100
AcDbEntity
  8
DEFPOINTS
  6
Continuous
 62
     0
440
 16777216
100
AcDbPoint
 10
72.40623599999996
 20
-392.8183821131692
 30
0.0
  0
ENDBLK
  5
7E03
330
7D46
100
AcDbEntity
  8
0
100
AcDbBlockEnd
  0
BLOCK
  5
7DC1
330
7DC0
100
AcDbEntity
  8
0
100
AcDbBlockBegin
  2
_DOT
 70
     0
 10
0.0
 20
0.0
 30
0.0
  3
_DOT
  1

  0
LINE
  5
7E04
330
7DC0
100
AcDbEntity
  8
0
  6
ByBlock
 62
     0
100
AcDbLine
 10
0.0
 20
0.0
 30
0.0
 11
-1.0
 21
-0.0000000000000284
 31
0.0
  0
LWPOLYLINE
  5
7E05
330
7DC0
100
AcDbEntity
  8
0
  6
ByBlock
 62
     0
100
AcDbPolyline
 90
        2
 70
     1
 43
0.1666666666666666
 10
-0.0833333333333286
 20
-0.0000000000000284
 42
1.0
 10
0.0833333333333286
 20
-0.0000000000000284
 42
1.0
  0
ENDBLK
  5
7DC7
330
7DC0
100
AcDbEntity
  8
0
100
AcDbBlockEnd
  0
BLOCK
  5
7E22
330
7E21
100
AcDbEntity
  8
0
100
AcDbBlockBegin
  2
*D18
 70
     1
 10
0.0
 20
0.0
 30
0.0
  3
*D18
  1

  0
LINE
  5
7FB3
330
7E21
100
AcDbEntity
  8
3
 62
     0
440
 16777216
370
    -2
100
AcDbLine
 10
-736.578924
 20
-637.8183821131692
 30
0.0
 11
-559.8073600379065
 21
-637.8183821131692
 31
0.0
  0
LINE
  5
7FB4
330
7E21
100
AcDbEntity
  8
3
 62
     0
440
 16777216
370
    -2
100
AcDbLine
 10
-736.578924
 20
-687.8183821131692
 30
0.0
 11
-559.8073600379065
 21
-687.8183821131692
 31
0.0
  0
LINE
  5
7FB5
330
7E21
100
AcDbEntity
  8
3
 62
     0
440
 16777216
370
    -2
100
AcDbLine
 10
-569.8073600379066
 20
-617.8183821131693
 30
0.0
 11
-569.8073600379066
 21
-597.8183821131692
 31
0.0
  0
LINE
  5
7FB6
330
7E21
100
AcDbEntity
  8
3
 62
     0
440
 16777216
370
    -2
100
AcDbLine
 10
-569.8073600379066
 20
-707.8183821131692
 30
0.0
 11
-569.8073600379067
 21
-796.3898106845978
 31
0.0
  0
LINE
  5
7FB7
330
7E21
100
AcDbEntity
  8
3
 62
     0
440
 16777216
370
    -2
100
AcDbLine
 10
-569.8073600379066
 20
-637.8183821131692
 30
0.0
 11
-569.8073600379066
 21
-687.8183821131692
 31
0.0
  0
INSERT
  5
7FB8
330
7E21
100
AcDbEntity
  8
3
 62
     0
440
 16777216
370
    -2
100
AcDbBlockReference
  2
_DOT
 10
-569.8073600379066
 20
-637.8183821131692
 30
0.0
 41
20.0
 42
20.0
 43
20.0
 50
270.0
  0
INSERT
  5
7FB9
330
7E21
100
AcDbEntity
  8
3
 62
     0
440
 16777216
370
    -2
100
AcDbBlockReference
  2
_OPEN
 10
-569.8073600379066
 20
-687.8183821131692
 30
0.0
 41
20.0
 42
20.0
 43
20.0
 50
90.0
  0
MTEXT
  5
7FBA
330
7E21
100
AcDbEntity
  8
3
 62
     0
440
 16777216
100
AcDbMText
 10
-594.8073600379065
 20
-762.1040963988837
 30
0.0
 40
30.0
 41
0.0
 46
0.0
 71
     5
 72
     1
  1
\A1;50
 11
0.0000000000000001
 21
1.0
 31
0.0
 73
     1
 44
1.0
  0
POINT
  5
7FBB
330
7E21
100
AcDbEntity
  8
DEFPOINTS
 62
     0
440
 16777216
100
AcDbPoint
 10
-741.578924
 20
-637.8183821131692
 30
0.0
  0
POINT
  5
7FBC
330
7E21
100
AcDbEntity
  8
DEFPOINTS
 62
     0
440
 16777216
100
AcDbPoint
 10
-741.578924
 20
-687.8183821131692
 30
0.0
  0
POINT
  5
7FBD
330
7E21
100
AcDbEntity
  8
DEFPOINTS
 62
     0
440
 16777216
100
AcDbPoint
 10
-569.8073600379066
 20
-687.8183821131692
 30
0.0
  0
ENDBLK
  5
7E2E
330
7E21
100
AcDbEntity
  8
0
100
AcDbBlockEnd
  0
BLOCK
  5
7E31
330
7E30
100
AcDbEntity
  8
0
100
AcDbBlockBegin
  2
*D19
 70
     1
 10
0.0
 20
0.0
 30
0.0
  3
*D19
  1

  0
LINE
  5
7FD0
330
7E30
100
AcDbEntity
  8
3
 62
     0
440
 16777216
370
    -2
100
AcDbLine
 10
-736.578924
 20
-637.8183821131692
 30
0.0
 11
-559.8073600379065
 21
-637.8183821131692
 31
0.0
  0
LINE
  5
7FD1
330
7E30
100
AcDbEntity
  8
3
 62
     0
440
 16777216
370
    -2
100
AcDbLine
 10
-761.578924
 20
-567.8183821131693
 30
0.0
 11
-559.8073600379065
 21
-567.8183821131693
 31
0.0
  0
LINE
  5
7FD2
330
7E30
100
AcDbEntity
  8
3
 62
     0
440
 16777216
370
    -2
100
AcDbLine
 10
-569.8073600379066
 20
-617.8183821131693
 30
0.0
 11
-569.8073600379066
 21
-587.8183821131692
 31
0.0
  0
MTEXT
  5
7FD3
330
7E30
100
AcDbEntity
  8
3
 62
     0
440
 16777216
100
AcDbMText
 10
-529.6278961332263
 20
-603.6241450814295
 30
0.0
 40
30.0
 41
0.0
 46
0.0
 71
     5
 72
     1
  1
\A1;(70)
 11
0.0000000000000001
 21
1.0
 31
0.0
 73
     1
 44
1.0
  0
INSERT
  5
7FD4
330
7E30
100
AcDbEntity
  8
3
 62
     0
440
 16777216
370
    -2
100
AcDbBlockReference
  2
_DOT
 10
-569.8073600379066
 20
-637.8183821131692
 30
0.0
 41
20.0
 42
20.0
 43
20.0
 50
270.0
  0
INSERT
  5
7FD5
330
7E30
100
AcDbEntity
  8
3
 62
     0
440
 16777216
370
    -2
100
AcDbBlockReference
  2
_OPEN
 10
-569.8073600379066
 20
-567.8183821131693
 30
0.0
 41
20.0
 42
20.0
 43
20.0
 50
90.0
  0
POINT
  5
7FD6
330
7E30
100
AcDbEntity
  8
DEFPOINTS
 62
     0
440
 16777216
100
AcDbPoint
 10
-741.578924
 20
-637.8183821131692
 30
0.0
  0
POINT
  5
7FD7
330
7E30
100
AcDbEntity
  8
DEFPOINTS
 62
     0
440
 16777216
100
AcDbPoint
 10
-766.578924
 20
-567.8183821131693
 30
0.0
  0
POINT
  5
7FD8
330
7E30
100
AcDbEntity
  8
DEFPOINTS
 62
     0
440
 16777216
100
AcDbPoint
 10
-569.8073600379066
 20
-567.8183821131693
 30
0.0
  0
ENDBLK
  5
7E3B
330
7E30
100
AcDbEntity
  8
0
100
AcDbBlockEnd
  0
BLOCK
  5
7E3E
330
7E3D
100
AcDbEntity
  8
0
100
AcDbBlockBegin
  2
*D20
 70
     1
 10
0.0
 20
0.0
 30
0.0
  3
*D20
  1

  0
LINE
  5
7FC7
330
7E3D
100
AcDbEntity
  8
3
 62
     0
440
 16777216
370
    -2
100
AcDbLine
 10
-916.578924
 20
-142.2511931131692
 30
0.0
 11
-469.6563855806378
 21
-142.2511931131693
 31
0.0
  0
LINE
  5
7FC8
330
7E3D
100
AcDbEntity
  8
3
 62
     0
440
 16777216
370
    -2
100
AcDbLine
 10
-731.578924
 20
-687.8183821131692
 30
0.0
 11
-469.656385580638
 21
-687.8183821131692
 31
0.0
  0
LINE
  5
7FC9
330
7E3D
100
AcDbEntity
  8
3
 62
     0
440
 16777216
370
    -2
100
AcDbLine
 10
-479.6563855806379
 20
-162.2511931131693
 30
0.0
 11
-479.656385580638
 21
-667.8183821131693
 31
0.0
  0
INSERT
  5
7FCA
330
7E3D
100
AcDbEntity
  8
3
 62
     0
440
 16777216
370
    -2
100
AcDbBlockReference
  2
_OPEN
 10
-479.6563855806379
 20
-142.2511931131693
 30
0.0
 41
20.0
 42
20.0
 43
20.0
 50
90.0
  0
INSERT
  5
7FCB
330
7E3D
100
AcDbEntity
  8
3
 62
     0
440
 16777216
370
    -2
100
AcDbBlockReference
  2
_OPEN
 10
-479.656385580638
 20
-687.8183821131692
 30
0.0
 41
20.0
 42
20.0
 43
20.0
 50
270.0
  0
MTEXT
  5
7FCC
330
7E3D
100
AcDbEntity
  8
3
 62
     0
440
 16777216
100
AcDbMText
 10
-512.5135284377806
 20
-415.0347876131693
 30
0.0
 40
30.0
 41
0.0
 46
0.0
 71
     5
 72
     1
  1
\A1;(546)
 11
0.0000000000000001
 21
1.0
 31
0.0
 73
     1
 44
1.0
  0
POINT
  5
7FCD
330
7E3D
100
AcDbEntity
  8
DEFPOINTS
 62
     0
440
 16777216
100
AcDbPoint
 10
-921.5789240000001
 20
-142.2511931131692
 30
0.0
  0
POINT
  5
7FCE
330
7E3D
100
AcDbEntity
  8
DEFPOINTS
 62
     0
440
 16777216
100
AcDbPoint
 10
-736.578924
 20
-687.8183821131692
 30
0.0
  0
POINT
  5
7FCF
330
7E3D
100
AcDbEntity
  8
DEFPOINTS
 62
     0
440
 16777216
100
AcDbPoint
 10
-479.656385580638
 20
-687.8183821131692
 30
0.0
  0
ENDBLK
  5
7E48
330
7E3D
100
AcDbEntity
  8
0
100
AcDbBlockEnd
  0
ENDSEC
  0
SECTION
  2
ENTITIES
  0
LINE
  5
7B2C
330
19
100
AcDbEntity
  8
1
  6
Continuous
100
AcDbLine
 10
-1396.578924
 20
-517.8183821131693
 30
0.0
 11
-766.578924
 21
-517.8183821131693
 31
0.0
  0
LINE
  5
7B2D
330
19
100
AcDbEntity
  8
1
  6
Continuous
100
AcDbLine
 10
-1396.578924
 20
-567.8183821131693
 30
0.0
 11
-766.578924
 21
-567.8183821131693
 31
0.0
  0
LINE
  5
7B2E
330
19
100
AcDbEntity
  8
1
  6
Continuous
100
AcDbLine
 10
-1349.578924
 20
-182.8183821131691
 30
0.0
 11
-819.5789239999999
 21
-182.8183821131691
 31
0.0
  0
ARC
  5
7B2F
330
19
100
AcDbEntity
  8
1
  6
Continuous
100
AcDbCircle
 10
-940.578924
 20
-306.8183821131691
 30
0.0
 40
165.0
100
AcDbArc
 50
89.40000000000001
 51
180.3
  0
ARC
  5
7B30
330
19
100
AcDbEntity
  8
1
  6
Continuous
100
AcDbCircle
 10
-910.578924
 20
-308.8183821131691
 30
0.0
 40
195.0
100
AcDbArc
 50
179.7
 51
270.0
  0
LINE
  5
7B31
330
19
100
AcDbEntity
  8
1
  6
Continuous
100
AcDbLine
 10
-1421.578924
 20
-637.8183821131692
 30
0.0
 11
-741.578924
 21
-637.8183821131692
 31
0.0
  0
LINE
  5
7B32
330
19
100
AcDbEntity
  8
1
  6
Continuous
100
AcDbLine
 10
-1421.578924
 20
-662.8183821131692
 30
0.0
 11
-741.578924
 21
-662.8183821131692
 31
0.0
  0
LINE
  5
7B33
330
19
100
AcDbEntity
  8
1
  6
Continuous
100
AcDbLine
 10
-1214.878924
 20
-449.6183821131692
 30
0.0
 11
-909.6789240000001
 21
-339.8183821131691
 31
0.0
  0
LINE
  5
7B34
330
19
100
AcDbEntity
  8
1
  6
Continuous
100
AcDbLine
 10
-1241.578924
 20
-385.0183821131692
 30
0.0
 11
-947.7789240000001
 21
-247.5183821131691
 31
0.0
  0
LINE
  5
7B35
330
19
100
AcDbEntity
  8
1
  6
Continuous
100
AcDbLine
 10
-1349.578924
 20
-517.8183821131693
 30
0.0
 11
-1349.578924
 21
-182.8183821131691
 31
0.0
  0
LINE
  5
7B36
330
19
100
AcDbEntity
  8
1
  6
Continuous
100
AcDbLine
 10
-1138.278924
 20
-497.1183821131692
 30
0.0
 11
-1389.278924
 21
-497.1183821131692
 31
0.0
  0
ARC
  5
7B37
330
19
100
AcDbEntity
  8
1
  6
Continuous
100
AcDbCircle
 10
-1231.178924
 20
-417.1183821131692
 30
0.0
 40
85.0
100
AcDbArc
 50
324.7
 51
215.3
  0
LINE
  5
7B38
330
19
100
AcDbEntity
  8
1
  6
Continuous
100
AcDbLine
 10
-1421.578924
 20
-687.8183821131692
 30
0.0
 11
-1396.578924
 21
-687.8183821131692
 31
0.0
  0
LINE
  5
7B39
330
19
100
AcDbEntity
  8
1
  6
Continuous
100
AcDbLine
 10
-1396.578924
 20
-687.8183821131692
 30
0.0
 11
-1396.578924
 21
-662.8183821131692
 31
0.0
  0
LINE
  5
7B3A
330
19
100
AcDbEntity
  8
1
  6
Continuous
100
AcDbLine
 10
-1421.578924
 20
-687.8183821131692
 30
0.0
 11
-1421.578924
 21
-637.8183821131692
 31
0.0
  0
LINE
  5
7B3B
330
19
100
AcDbEntity
  8
1
  6
Continuous
100
AcDbLine
 10
-1396.578924
 20
-567.8183821131693
 30
0.0
 11
-1396.578924
 21
-517.8183821131693
 31
0.0
  0
LINE
  5
7B3C
330
19
100
AcDbEntity
  8
1
  6
Continuous
100
AcDbLine
 10
-1389.278924
 20
-497.1183821131692
 30
0.0
 11
-1389.278924
 21
-517.8183821131693
 31
0.0
  0
LINE
  5
7B3D
330
19
100
AcDbEntity
  8
1
  6
Continuous
100
AcDbLine
 10
-1308.678924
 20
-489.1183821131692
 30
0.0
 11
-1300.478924
 21
-466.3183821131692
 31
0.0
  0
LINE
  5
7B3E
330
19
100
AcDbEntity
  8
1
  6
Continuous
100
AcDbLine
 10
-1308.678924
 20
-497.1183821131692
 30
0.0
 11
-1308.678924
 21
-489.1183821131692
 31
0.0
  0
CIRCLE
  5
7B3F
330
19
100
AcDbEntity
  8
1
  6
Continuous
100
AcDbCircle
 10
-1226.778924
 20
-416.7183821131692
 30
0.0
 40
35.0
  0
LINE
  5
7B40
330
19
100
AcDbEntity
  8
2
  6
CENTER
100
AcDbLine
 10
-1226.778924
 20
-451.7183821131692
 30
0.0
 11
-1226.778924
 21
-381.7183821131692
 31
0.0
  0
LINE
  5
7B41
330
19
100
AcDbEntity
  8
2
  6
CENTER
100
AcDbLine
 10
-1261.778924
 20
-416.7183821131692
 30
0.0
 11
-1191.778924
 21
-416.7183821131692
 31
0.0
  0
LINE
  5
7B42
330
19
100
AcDbEntity
  8
1
  6
Continuous
100
AcDbLine
 10
-1138.278924
 20
-517.8183821131693
 30
0.0
 11
-1138.278924
 21
-497.1183821131692
 31
0.0
  0
LINE
  5
7B43
330
19
100
AcDbEntity
  8
1
  6
Continuous
100
AcDbLine
 10
-1153.678924
 20
-497.1183821131692
 30
0.0
 11
-1153.678924
 21
-489.1183821131692
 31
0.0
  0
LINE
  5
7B44
330
19
100
AcDbEntity
  8
1
  6
Continuous
100
AcDbLine
 10
-1153.678924
 20
-489.1183821131692
 30
0.0
 11
-1161.778924
 21
-466.3183821131692
 31
0.0
  0
CIRCLE
  5
7B45
330
19
100
AcDbEntity
  8
1
  6
Continuous
100
AcDbCircle
 10
-926.578924
 20
-292.8183821131692
 30
0.0
 40
100.0
  0
CIRCLE
  5
7B46
330
19
100
AcDbEntity
  8
1
  6
Continuous
100
AcDbCircle
 10
-926.578924
 20
-292.8183821131692
 30
0.0
 40
120.0
  0
LINE
  5
7B47
330
19
100
AcDbEntity
  8
1
  6
Continuous
100
AcDbLine
 10
-819.5789239999999
 20
-517.8183821131693
 30
0.0
 11
-819.5789239999999
 21
-182.8183821131691
 31
0.0
  0
LINE
  5
7B48
330
19
100
AcDbEntity
  8
1
  6
Continuous
100
AcDbLine
 10
-791.578924
 20
-517.8183821131693
 30
0.0
 11
-791.578924
 21
-239.1183821131692
 31
0.0
  0
LINE
  5
7B49
330
19
100
AcDbEntity
  8
1
  6
Continuous
100
AcDbLine
 10
-1061.578924
 20
-239.1183821131692
 30
0.0
 11
-1061.578924
 21
-517.8183821131693
 31
0.0
  0
ARC
  5
7B4A
330
19
100
AcDbEntity
  8
1
  6
Continuous
100
AcDbCircle
 10
-937.5789240000001
 20
-281.8183821131691
 30
0.0
 40
140.0
100
AcDbArc
 50
359.6
 51
90.6
  0
CIRCLE
  5
7B4B
330
19
100
AcDbEntity
  8
1
  6
Continuous
100
AcDbCircle
 10
-926.578924
 20
-292.8183821131692
 30
0.0
 40
50.0
  0
LINE
  5
7B4C
330
19
100
AcDbEntity
  8
2
  6
CENTER
100
AcDbLine
 10
-926.578924
 20
-662.8183821131692
 30
0.0
 11
-926.578924
 21
-115.2532661131692
 31
0.0
  0
LINE
  5
7B4D
330
19
100
AcDbEntity
  8
1
  6
Continuous
100
AcDbLine
 10
-781.578924
 20
-503.8183821131692
 30
0.0
 11
-910.578924
 21
-503.8183821131692
 31
0.0
  0
LINE
  5
7B4E
330
19
100
AcDbEntity
  8
2
  6
CENTER
100
AcDbLine
 10
-1378.521625
 20
-292.8183821131692
 30
0.0
 11
-713.051455
 21
-292.8183821131692
 31
0.0
  0
LINE
  5
7B4F
330
19
100
AcDbEntity
  8
1
  6
Continuous
100
AcDbLine
 10
-741.578924
 20
-687.8183821131692
 30
0.0
 11
-766.578924
 21
-687.8183821131692
 31
0.0
  0
LINE
  5
7B50
330
19
100
AcDbEntity
  8
1
  6
Continuous
100
AcDbLine
 10
-766.578924
 20
-687.8183821131692
 30
0.0
 11
-766.578924
 21
-662.8183821131692
 31
0.0
  0
LINE
  5
7B51
330
19
100
AcDbEntity
  8
1
  6
Continuous
100
AcDbLine
 10
-741.578924
 20
-687.8183821131692
 30
0.0
 11
-741.578924
 21
-637.8183821131692
 31
0.0
  0
LINE
  5
7B52
330
19
100
AcDbEntity
  8
1
  6
Continuous
100
AcDbLine
 10
-766.578924
 20
-567.8183821131693
 30
0.0
 11
-766.578924
 21
-517.8183821131693
 31
0.0
  0
LINE
  5
7B53
330
19
100
AcDbEntity
  8
1
  6
Continuous
100
AcDbLine
 10
-781.578924
 20
-292.8183821131692
 30
0.0
 11
-781.578924
 21
-282.8183821131691
 31
0.0
  0
LINE
  5
7B54
330
19
100
AcDbEntity
  8
1
  6
Continuous
100
AcDbLine
 10
-781.578924
 20
-503.8183821131692
 30
0.0
 11
-781.578924
 21
-492.8183821131693
 31
0.0
  0
LINE
  5
7B55
330
19
100
AcDbEntity
  8
1
  6
Continuous
100
AcDbLine
 10
-766.578924
 20
-492.8183821131693
 30
0.0
 11
-781.578924
 21
-492.8183821131693
 31
0.0
  0
LINE
  5
7B56
330
19
100
AcDbEntity
  8
1
  6
Continuous
100
AcDbLine
 10
-766.578924
 20
-291.8183821131691
 30
0.0
 11
-781.578924
 21
-306.8183821131691
 31
0.0
  0
LINE
  5
7B57
330
19
100
AcDbEntity
  8
1
  6
Continuous
100
AcDbLine
 10
-781.578924
 20
-478.8183821131692
 30
0.0
 11
-781.578924
 21
-306.8183821131691
 31
0.0
  0
LINE
  5
7B58
330
19
100
AcDbEntity
  8
1
  6
Continuous
100
AcDbLine
 10
-766.578924
 20
-493.8183821131692
 30
0.0
 11
-781.578924
 21
-478.8183821131692
 31
0.0
  0
LINE
  5
7B59
330
19
100
AcDbEntity
  8
1
  6
Continuous
100
AcDbLine
 10
-766.578924
 20
-292.8183821131692
 30
0.0
 11
-781.578924
 21
-292.8183821131692
 31
0.0
  0
LINE
  5
7B5A
330
19
100
AcDbEntity
  8
1
  6
Continuous
100
AcDbLine
 10
-766.578924
 20
-513.8183821131693
 30
0.0
 11
-766.578924
 21
-271.8183821131692
 31
0.0
  0
LINE
  5
7B5B
330
19
100
AcDbEntity
  8
1
  6
Continuous
100
AcDbLine
 10
-781.578924
 20
-282.8183821131691
 30
0.0
 11
-797.578924
 21
-282.8183821131691
 31
0.0
  0
LINE
  5
7B5C
330
19
100
AcDbEntity
  8
1
  6
Continuous
100
AcDbLine
 10
-874.978924
 20
-167.8183821131691
 30
0.0
 11
-791.578924
 21
-239.1183821131692
 31
0.0
  0
LINE
  5
7B5D
330
19
100
AcDbEntity
  8
1
  6
Continuous
100
AcDbLine
 10
-1061.578924
 20
-259.5183821131691
 30
0.0
 11
-791.578924
 21
-259.5183821131691
 31
0.0
  0
LINE
  5
7B5E
330
19
100
AcDbEntity
  8
1
  6
Continuous
100
AcDbLine
 10
-874.978924
 20
-167.8183821131691
 30
0.0
 11
-978.178924
 21
-167.8183821131691
 31
0.0
  0
LINE
  5
7B5F
330
19
100
AcDbEntity
  8
1
  6
Continuous
100
AcDbLine
 10
-978.178924
 20
-167.8183821131691
 30
0.0
 11
-1061.578924
 21
-239.1183821131692
 31
0.0
  0
LINE
  5
7B61
330
19
100
AcDbEntity
  8
1
  6
Continuous
100
AcDbLine
 10
-373.223438
 20
-687.8183821131692
 30
0.0
 11
56.77656200000001
 21
-687.8183821131692
 31
0.0
  0
LINE
  5
7B62
330
19
100
AcDbEntity
  8
1
  6
Continuous
100
AcDbLine
 10
-289.223438
 20
-567.8183821131693
 30
0.0
 11
-65.22343799999998
 21
-567.8183821131693
 31
0.0
  0
LINE
  5
7B63
330
19
100
AcDbEntity
  8
1
  6
Continuous
100
AcDbLine
 10
-375.223438
 20
-517.8183821131693
 30
0.0
 11
-65.22343799999998
 21
-517.8183821131693
 31
0.0
  0
LINE
  5
7B64
330
19
100
AcDbEntity
  8
1
  6
Continuous
100
AcDbLine
 10
-265.223438
 20
-326.1183821131691
 30
0.0
 11
-153.223438
 21
-239.1183821131692
 31
0.0
  0
LINE
  5
7B65
330
19
100
AcDbEntity
  8
1
  6
Continuous
100
AcDbLine
 10
-289.223438
 20
-637.8183821131692
 30
0.0
 11
-65.22343799999998
 21
-637.8183821131692
 31
0.0
  0
LINE
  5
7B66
330
19
100
AcDbEntity
  8
1
  6
Continuous
100
AcDbLine
 10
-373.223438
 20
-662.8183821131692
 30
0.0
 11
56.77656200000001
 21
-662.8183821131692
 31
0.0
  0
LINE
  5
7B67
330
19
100
AcDbEntity
  8
1
  6
Continuous
100
AcDbLine
 10
-375.223438
 20
-182.8183821131691
 30
0.0
 11
-375.223438
 21
-517.8183821131693
 31
0.0
  0
LINE
  5
7B68
330
19
100
AcDbEntity
  8
1
  6
Continuous
100
AcDbLine
 10
-300.223438
 20
-182.8183821131691
 30
0.0
 11
-300.223438
 21
-517.8183821131693
 31
0.0
  0
LINE
  5
7B69
330
19
100
AcDbEntity
  8
1
  6
Continuous
100
AcDbLine
 10
-352.723438
 20
-242.8183821131692
 30
0.0
 11
-352.723438
 21
-342.8183821131692
 31
0.0
  0
LINE
  5
7B6A
330
19
100
AcDbEntity
  8
1
  6
Continuous
100
AcDbLine
 10
-322.723438
 20
-242.8183821131692
 30
0.0
 11
-322.723438
 21
-342.8183821131692
 31
0.0
  0
LINE
  5
7B6E
330
19
100
AcDbEntity
  8
1
  6
Continuous
100
AcDbLine
 10
-373.223438
 20
-662.8183821131692
 30
0.0
 11
-373.223438
 21
-687.8183821131692
 31
0.0
  0
LINE
  5
7B6F
330
19
100
AcDbEntity
  8
1
  6
Continuous
100
AcDbLine
 10
-289.223438
 20
-637.8183821131692
 30
0.0
 11
-289.223438
 21
-662.8183821131692
 31
0.0
  0
LINE
  5
7B70
330
19
100
AcDbEntity
  8
1
  6
Continuous
100
AcDbLine
 10
-322.723438
 20
-404.7183821131692
 30
0.0
 11
-265.223438
 21
-404.7183821131692
 31
0.0
  0
LINE
  5
7B71
330
19
100
AcDbEntity
  8
1
  6
Continuous
100
AcDbLine
 10
-322.723438
 20
-428.7183821131692
 30
0.0
 11
-265.223438
 21
-428.7183821131692
 31
0.0
  0
LINE
  5
7B72
330
19
100
AcDbEntity
  8
1
  6
Continuous
100
AcDbLine
 10
-322.723438
 20
-280.8183821131692
 30
0.0
 11
-206.923438
 21
-280.8183821131692
 31
0.0
  0
LINE
  5
7B73
330
19
100
AcDbEntity
  8
1
  6
Continuous
100
AcDbLine
 10
-322.723438
 20
-304.8183821131691
 30
0.0
 11
-237.823438
 21
-304.8183821131691
 31
0.0
  0
LINE
  5
7B74
330
19
100
AcDbEntity
  8
1
  6
Continuous
100
AcDbLine
 10
-352.723438
 20
-342.8183821131692
 30
0.0
 11
-322.723438
 21
-342.8183821131692
 31
0.0
  0
LINE
  5
7B75
330
19
100
AcDbEntity
  8
1
  6
Continuous
100
AcDbLine
 10
-352.723438
 20
-381.7183821131692
 30
0.0
 11
-352.723438
 21
-451.7183821131692
 31
0.0
  0
LINE
  5
7B76
330
19
100
AcDbEntity
  8
1
  6
Continuous
100
AcDbLine
 10
-322.723438
 20
-381.7183821131692
 30
0.0
 11
-322.723438
 21
-451.7183821131692
 31
0.0
  0
LINE
  5
7B77
330
19
100
AcDbEntity
  8
1
  6
Continuous
100
AcDbLine
 10
-352.723438
 20
-381.7183821131692
 30
0.0
 11
-322.723438
 21
-381.7183821131692
 31
0.0
  0
LINE
  5
7B78
330
19
100
AcDbEntity
  8
1
  6
Continuous
100
AcDbLine
 10
-352.723438
 20
-451.7183821131692
 30
0.0
 11
-322.723438
 21
-451.7183821131692
 31
0.0
  0
LINE
  5
7B79
330
19
100
AcDbEntity
  8
1
  6
Continuous
100
AcDbLine
 10
-289.223438
 20
-517.8183821131693
 30
0.0
 11
-289.223438
 21
-567.8183821131693
 31
0.0
  0
LINE
  5
7B7A
330
19
100
AcDbEntity
  8
1
  6
Continuous
100
AcDbLine
 10
-265.223438
 20
-326.1183821131691
 30
0.0
 11
-265.223438
 21
-517.8183821131693
 31
0.0
  0
LINE
  5
7B7B
330
19
100
AcDbEntity
  8
1
  6
Continuous
100
AcDbLine
 10
-375.223438
 20
-182.8183821131691
 30
0.0
 11
-300.223438
 21
-182.8183821131691
 31
0.0
  0
LINE
  5
7B7C
330
19
100
AcDbEntity
  8
1
  6
Continuous
100
AcDbLine
 10
-352.723438
 20
-242.8183821131692
 30
0.0
 11
-322.723438
 21
-242.8183821131692
 31
0.0
  0
LINE
  5
7B7D
330
19
100
AcDbEntity
  8
1
  6
Continuous
100
AcDbLine
 10
2.776562000000012
 20
-412.8183821131692
 30
0.0
 11
2.776562000000012
 21
-172.8183821131691
 31
0.0
  0
LINE
  5
7B7E
330
19
100
AcDbEntity
  8
1
  6
Continuous
100
AcDbLine
 10
-5.223437999999987
 20
-153.8183821131692
 30
0.0
 11
-5.223437999999987
 21
-492.8183821131693
 31
0.0
  0
LINE
  5
7B7F
330
19
100
AcDbEntity
  8
1
  6
Continuous
100
AcDbLine
 10
-145.223438
 20
-492.8183821131693
 30
0.0
 11
-145.223438
 21
-153.8183821131692
 31
0.0
  0
LINE
  5
7B80
330
19
100
AcDbEntity
  8
1
  6
Continuous
100
AcDbLine
 10
-153.023438
 20
-517.8183821131693
 30
0.0
 11
-153.023438
 21
-172.8183821131691
 31
0.0
  0
LINE
  5
7B81
330
19
100
AcDbEntity
  8
1
  6
Continuous
100
AcDbLine
 10
-65.22343799999998
 20
-637.8183821131692
 30
0.0
 11
-65.22343799999998
 21
-662.8183821131692
 31
0.0
  0
LINE
  5
7B82
330
19
100
AcDbEntity
  8
1
  6
Continuous
100
AcDbLine
 10
-145.223438
 20
-292.8183821131692
 30
0.0
 11
-5.223437999999987
 21
-292.8183821131692
 31
0.0
  0
LINE
  5
7B83
330
19
100
AcDbEntity
  8
1
  6
Continuous
100
AcDbLine
 10
-5.223437999999987
 20
-492.8183821131693
 30
0.0
 11
-145.223438
 21
-492.8183821131693
 31
0.0
  0
LINE
  5
7B84
330
19
100
AcDbEntity
  8
1
  6
Continuous
100
AcDbLine
 10
-145.223438
 20
-492.8183821131693
 30
0.0
 11
-5.223437999999987
 21
-292.8183821131692
 31
0.0
  0
LINE
  5
7B85
330
19
100
AcDbEntity
  8
1
  6
Continuous
100
AcDbLine
 10
-5.223437999999987
 20
-492.8183821131693
 30
0.0
 11
-145.223438
 21
-292.8183821131692
 31
0.0
  0
LINE
  5
7B86
330
19
100
AcDbEntity
  8
1
  6
Continuous
100
AcDbLine
 10
-145.023438
 20
-412.8183821131692
 30
0.0
 11
-153.023438
 21
-412.8183821131692
 31
0.0
  0
LINE
  5
7B87
330
19
100
AcDbEntity
  8
1
  6
Continuous
100
AcDbLine
 10
-5.423438000000032
 20
-412.8183821131692
 30
0.0
 11
2.776562000000012
 21
-412.8183821131692
 31
0.0
  0
LINE
  5
7B88
330
19
100
AcDbEntity
  8
1
  6
Continuous
100
AcDbLine
 10
-65.22343799999998
 20
-517.8183821131693
 30
0.0
 11
-65.22343799999998
 21
-567.8183821131693
 31
0.0
  0
LINE
  5
7B89
330
19
100
AcDbEntity
  8
1
  6
Continuous
100
AcDbLine
 10
56.77656200000001
 20
-662.8183821131692
 30
0.0
 11
56.77656200000001
 21
-687.8183821131692
 31
0.0
  0
LINE
  5
7B8A
330
19
100
AcDbEntity
  8
1
  6
Continuous
100
AcDbLine
 10
-133.223438
 20
-141.8183821131691
 30
0.0
 11
-17.22343799999999
 21
-141.8183821131691
 31
0.0
  0
LINE
  5
7B8B
330
19
100
AcDbEntity
  8
1
  6
Continuous
100
AcDbLine
 10
-145.023438
 20
-172.8183821131691
 30
0.0
 11
-153.023438
 21
-172.8183821131691
 31
0.0
  0
ARC
  5
7B8C
330
19
100
AcDbEntity
  8
1
  6
Continuous
100
AcDbCircle
 10
-133.223438
 20
-153.8183821131692
 30
0.0
 40
12.0
100
AcDbArc
 50
90.0
 51
180.0
  0
LINE
  5
7B8D
330
19
100
AcDbEntity
  8
1
  6
Continuous
100
AcDbLine
 10
-5.423438000000032
 20
-172.8183821131691
 30
0.0
 11
2.776562000000012
 21
-172.8183821131691
 31
0.0
  0
ARC
  5
7B8E
330
19
100
AcDbEntity
  8
1
  6
Continuous
100
AcDbCircle
 10
-17.22343799999999
 20
-153.8183821131692
 30
0.0
 40
12.0
100
AcDbArc
 50
0.0
 51
90.0
  0
LINE
  5
7B8F
330
19
100
AcDbEntity
  8
1
  6
Continuous
100
AcDbLine
 10
-766.578924
 20
509.150495
 30
0.0
 11
-1095.578924
 21
509.150495
 31
0.0
  0
LINE
  5
7B90
330
19
100
AcDbEntity
  8
1
  6
Continuous
100
AcDbLine
 10
-766.578924
 20
649.1504949999999
 30
0.0
 11
-1095.578924
 21
649.1504949999999
 31
0.0
  0
LINE
  5
7B91
330
19
100
AcDbEntity
  8
1
  6
Continuous
100
AcDbLine
 10
-938.5789240000001
 20
365.150495
 30
0.0
 11
-1214.778924
 21
365.150495
 31
0.0
  0
LINE
  5
7B92
330
19
100
AcDbEntity
  8
1
  6
Continuous
100
AcDbLine
 10
-819.5789239999999
 20
279.150495
 30
0.0
 11
-1349.578924
 21
279.150495
 31
0.0
  0
LINE
  5
7B93
330
19
100
AcDbEntity
  8
1
  6
Continuous
100
AcDbLine
 10
-819.5789239999999
 20
354.150495
 30
0.0
 11
-1349.578924
 21
354.150495
 31
0.0
  0
LINE
  5
7B94
330
19
100
AcDbEntity
  8
1
  6
Continuous
100
AcDbLine
 10
-1421.578924
 20
281.150495
 30
0.0
 11
-1421.578924
 21
711.1504949999999
 31
0.0
  0
LINE
  5
7B95
330
19
100
AcDbEntity
  8
1
  6
Continuous
100
AcDbLine
 10
-1396.578924
 20
281.150495
 30
0.0
 11
-1396.578924
 21
711.1504949999999
 31
0.0
  0
LINE
  5
7B96
330
19
100
AcDbEntity
  8
1
  6
Continuous
100
AcDbLine
 10
-1238.778924
 20
365.150495
 30
0.0
 11
-1396.578924
 21
365.150495
 31
0.0
  0
LINE
  5
7B97
330
19
100
AcDbEntity
  8
1
  6
Continuous
100
AcDbLine
 10
-1146.178924
 20
575.250495
 30
0.0
 11
-1316.178924
 21
575.250495
 31
0.0
  0
LINE
  5
7B98
330
19
100
AcDbEntity
  8
1
  6
Continuous
100
AcDbLine
 10
-1146.178924
 20
384.350495
 30
0.0
 11
-1316.178924
 21
384.350495
 31
0.0
  0
LINE
  5
7B99
330
19
100
AcDbEntity
  8
1
  6
Continuous
100
AcDbLine
 10
-1105.578924
 20
589.1504949999999
 30
0.0
 11
-1396.578924
 21
589.1504949999999
 31
0.0
  0
LINE
  5
7B9A
330
19
100
AcDbEntity
  8
1
  6
Continuous
100
AcDbLine
 10
-1421.578924
 20
365.150495
 30
0.0
 11
-1421.578924
 21
589.1504949999999
 31
0.0
  0
LINE
  5
7B9B
330
19
100
AcDbEntity
  8
1
  6
Continuous
100
AcDbLine
 10
-1421.578924
 20
281.150495
 30
0.0
 11
-1396.578924
 21
281.150495
 31
0.0
  0
LINE
  5
7B9C
330
19
100
AcDbEntity
  8
1
  6
Continuous
100
AcDbLine
 10
-1349.578924
 20
279.150495
 30
0.0
 11
-1349.578924
 21
354.150495
 31
0.0
  0
LINE
  5
7B9D
330
19
100
AcDbEntity
  8
1
  6
Continuous
100
AcDbLine
 10
-1316.178924
 20
384.350495
 30
0.0
 11
-1316.178924
 21
575.250495
 31
0.0
  0
LINE
  5
7B9E
330
19
100
AcDbEntity
  8
1
  6
Continuous
100
AcDbLine
 10
-1238.778924
 20
331.6504950000001
 30
0.0
 11
-1238.778924
 21
384.350495
 31
0.0
  0
LINE
  5
7B9F
330
19
100
AcDbEntity
  8
1
  6
Continuous
100
AcDbLine
 10
-1214.778924
 20
331.6504950000001
 30
0.0
 11
-1214.778924
 21
384.350495
 31
0.0
  0
LINE
  5
7BA0
330
19
100
AcDbEntity
  8
1
  6
Continuous
100
AcDbLine
 10
-1261.778924
 20
301.650495
 30
0.0
 11
-1261.778924
 21
331.6504950000001
 31
0.0
  0
LINE
  5
7BA1
330
19
100
AcDbEntity
  8
1
  6
Continuous
100
AcDbLine
 10
-1191.778924
 20
301.650495
 30
0.0
 11
-1191.778924
 21
331.6504950000001
 31
0.0
  0
LINE
  5
7BA2
330
19
100
AcDbEntity
  8
1
  6
Continuous
100
AcDbLine
 10
-1261.778924
 20
331.6504950000001
 30
0.0
 11
-1191.778924
 21
331.6504950000001
 31
0.0
  0
LINE
  5
7BA3
330
19
100
AcDbEntity
  8
1
  6
Continuous
100
AcDbLine
 10
-1261.778924
 20
301.650495
 30
0.0
 11
-1191.778924
 21
301.650495
 31
0.0
  0
LINE
  5
7BA4
330
19
100
AcDbEntity
  8
1
  6
Continuous
100
AcDbLine
 10
-1105.578924
 20
639.1504949999999
 30
0.0
 11
-1105.578924
 21
519.1504949999999
 31
0.0
  0
ARC
  5
7BA5
330
19
100
AcDbEntity
  8
1
  6
Continuous
100
AcDbCircle
 10
-1095.578924
 20
639.1504949999999
 30
0.0
 40
10.0
100
AcDbArc
 50
90.0
 51
180.0
  0
ARC
  5
7BA6
330
19
100
AcDbEntity
  8
1
  6
Continuous
100
AcDbCircle
 10
-1095.578924
 20
519.1504949999999
 30
0.0
 40
10.0
100
AcDbArc
 50
180.0
 51
270.0
  0
LINE
  5
7BA7
330
19
100
AcDbEntity
  8
1
  6
Continuous
100
AcDbLine
 10
-1146.178924
 20
384.350495
 30
0.0
 11
-1146.178924
 21
575.250495
 31
0.0
  0
LINE
  5
7BA8
330
19
100
AcDbEntity
  8
1
  6
Continuous
100
AcDbLine
 10
-1421.578924
 20
711.1504949999999
 30
0.0
 11
-1396.578924
 21
711.1504949999999
 31
0.0
  0
LINE
  5
7BA9
330
19
100
AcDbEntity
  8
1
  6
Continuous
100
AcDbLine
 10
-741.578924
 20
281.150495
 30
0.0
 11
-741.578924
 21
711.1504949999999
 31
0.0
  0
LINE
  5
7BAA
330
19
100
AcDbEntity
  8
1
  6
Continuous
100
AcDbLine
 10
-766.578924
 20
281.150495
 30
0.0
 11
-766.578924
 21
711.1504949999999
 31
0.0
  0
LINE
  5
7BAB
330
19
100
AcDbEntity
  8
1
  6
Continuous
100
AcDbLine
 10
-806.578924
 20
657.1504949999999
 30
0.0
 11
-1046.578924
 21
657.1504949999999
 31
0.0
  0
LINE
  5
7BAC
330
19
100
AcDbEntity
  8
1
  6
Continuous
100
AcDbLine
 10
-806.578924
 20
501.150495
 30
0.0
 11
-1046.578924
 21
501.150495
 31
0.0
  0
LINE
  5
7BAD
330
19
100
AcDbEntity
  8
1
  6
Continuous
100
AcDbLine
 10
-766.578924
 20
365.150495
 30
0.0
 11
-914.578924
 21
365.150495
 31
0.0
  0
LINE
  5
7BAE
330
19
100
AcDbEntity
  8
1
  6
Continuous
100
AcDbLine
 10
-914.578924
 20
501.150495
 30
0.0
 11
-914.578924
 21
331.6504950000001
 31
0.0
  0
LINE
  5
7BAF
330
19
100
AcDbEntity
  8
1
  6
Continuous
100
AcDbLine
 10
-938.5789240000001
 20
501.150495
 30
0.0
 11
-938.5789240000001
 21
331.6504950000001
 31
0.0
  0
LINE
  5
7BB0
330
19
100
AcDbEntity
  8
1
  6
Continuous
100
AcDbLine
 10
-976.578924
 20
301.650495
 30
0.0
 11
-876.578924
 21
301.650495
 31
0.0
  0
LINE
  5
7BB1
330
19
100
AcDbEntity
  8
1
  6
Continuous
100
AcDbLine
 10
-976.578924
 20
331.6504950000001
 30
0.0
 11
-876.578924
 21
331.6504950000001
 31
0.0
  0
LINE
  5
7BB2
330
19
100
AcDbEntity
  8
1
  6
Continuous
100
AcDbLine
 10
-976.578924
 20
301.650495
 30
0.0
 11
-976.578924
 21
331.6504950000001
 31
0.0
  0
LINE
  5
7BB3
330
19
100
AcDbEntity
  8
1
  6
Continuous
100
AcDbLine
 10
-876.578924
 20
301.650495
 30
0.0
 11
-876.578924
 21
331.6504950000001
 31
0.0
  0
LINE
  5
7BB4
330
19
100
AcDbEntity
  8
1
  6
Continuous
100
AcDbLine
 10
-1046.578924
 20
649.1504949999999
 30
0.0
 11
-1046.578924
 21
657.1504949999999
 31
0.0
  0
LINE
  5
7BB5
330
19
100
AcDbEntity
  8
1
  6
Continuous
100
AcDbLine
 10
-1046.578924
 20
509.150495
 30
0.0
 11
-1046.578924
 21
501.150495
 31
0.0
  0
LINE
  5
7BB6
330
19
100
AcDbEntity
  8
1
  6
Continuous
100
AcDbLine
 10
-741.578924
 20
365.150495
 30
0.0
 11
-741.578924
 21
589.1504949999999
 31
0.0
  0
LINE
  5
7BB7
330
19
100
AcDbEntity
  8
1
  6
Continuous
100
AcDbLine
 10
-741.578924
 20
281.150495
 30
0.0
 11
-766.578924
 21
281.150495
 31
0.0
  0
LINE
  5
7BB8
330
19
100
AcDbEntity
  8
1
  6
Continuous
100
AcDbLine
 10
-819.5789239999999
 20
279.150495
 30
0.0
 11
-819.5789239999999
 21
354.150495
 31
0.0
  0
LINE
  5
7BB9
330
19
100
AcDbEntity
  8
1
  6
Continuous
100
AcDbLine
 10
-806.578924
 20
649.1504949999999
 30
0.0
 11
-806.578924
 21
657.1504949999999
 31
0.0
  0
LINE
  5
7BBA
330
19
100
AcDbEntity
  8
1
  6
Continuous
100
AcDbLine
 10
-766.578924
 20
670.150495
 30
0.0
 11
-766.578924
 21
488.150495
 31
0.0
  0
LINE
  5
7BBB
330
19
100
AcDbEntity
  8
1
  6
Continuous
100
AcDbLine
 10
-766.578924
 20
650.150495
 30
0.0
 11
-781.578924
 21
635.1504949999999
 31
0.0
  0
LINE
  5
7BBC
330
19
100
AcDbEntity
  8
1
  6
Continuous
100
AcDbLine
 10
-781.578924
 20
635.1504949999999
 30
0.0
 11
-781.578924
 21
523.1504949999999
 31
0.0
  0
LINE
  5
7BBD
330
19
100
AcDbEntity
  8
1
  6
Continuous
100
AcDbLine
 10
-766.578924
 20
508.150495
 30
0.0
 11
-781.578924
 21
523.1504949999999
 31
0.0
  0
LINE
  5
7BBE
330
19
100
AcDbEntity
  8
1
  6
Continuous
100
AcDbLine
 10
-806.578924
 20
509.150495
 30
0.0
 11
-806.578924
 21
501.150495
 31
0.0
  0
LINE
  5
7BBF
330
19
100
AcDbEntity
  8
1
  6
Continuous
100
AcDbLine
 10
-741.578924
 20
711.1504949999999
 30
0.0
 11
-766.578924
 21
711.1504949999999
 31
0.0
  0
LINE
  5
7BC0
330
19
100
AcDbEntity
  8
4
  6
Continuous
100
AcDbLine
 10
142.759338
 20
-946.4676159999999
 30
0.0
 11
142.759338
 21
-1146.467616
 31
0.0
  0
LINE
  5
7BC1
330
19
100
AcDbEntity
  8
4
  6
Continuous
100
AcDbLine
 10
-557.240662
 20
-946.4676159999999
 30
0.0
 11
-557.240662
 21
-1146.467616
 31
0.0
  0
LINE
  5
7BC2
330
19
100
AcDbEntity
  8
4
  6
Continuous
100
AcDbLine
 10
-1057.240662
 20
-946.4676159999999
 30
0.0
 11
-1057.240662
 21
-1146.467616
 31
0.0
  0
LINE
  5
7BC5
330
19
100
AcDbEntity
  8
4
  6
Continuous
100
AcDbLine
 10
-1057.240662
 20
-1146.467616
 30
0.0
 11
142.759338
 21
-1146.467616
 31
0.0
  0
LINE
  5
7BC6
330
19
100
AcDbEntity
  8
4
  6
Continuous
100
AcDbLine
 10
-1057.240662
 20
-1046.467616
 30
0.0
 11
142.759338
 21
-1046.467616
 31
0.0
  0
TEXT
  5
7BC7
330
19
100
AcDbEntity
  8
4
  6
Continuous
100
AcDbText
 10
-1018.738582
 20
-1014.924591
 30
0.0
 40
50.0
  1
機器名称
100
AcDbText
  0
TEXT
  5
7BC8
330
19
100
AcDbEntity
  8
4
  6
Continuous
100
AcDbText
 10
-1020.982556
 20
-1124.82246
 30
0.0
 40
50.0
  1
機器型番
100
AcDbText
  0
TEXT
  5
7BC9
330
19
100
AcDbEntity
  8
4
  6
Continuous
100
AcDbText
 10
-529.561917
 20
-1023.895848
 30
0.0
 40
45.0
  1
ミツヤニューマルチファン
100
AcDbText
  0
TEXT
  5
7BCA
330
19
100
AcDbEntity
  8
4
  6
Continuous
100
AcDbText
 10
-520.586167
 20
-1129.308032
 30
0.0
 40
50.0
  1
NM#1 1/4-1
100
AcDbText
  0
TEXT
  5
7BCC
330
19
100
AcDbEntity
  8
4
  6
Continuous
100
AcDbText
 10
-864.3205710000001
 20
936.9612250000001
 30
0.0
 40
54.0
  1
天井吊防振ベット
100
AcDbText
  0
TEXT
  5
7BCD
330
19
100
AcDbEntity
  8
4
  6
Continuous
100
AcDbText
 10
-1391.073069
 20
1087.41336
 30
0.0
 40
72.0
  1
ベルト駆動式片吸込片持多翼ファン
100
AcDbText
  0
LINE
  5
7BCE
330
19
100
AcDbEntity
  8
4
  6
Continuous
100
AcDbLine
 10
-1457.240662
 20
1022.941138
 30
0.0
 11
142.759338
 21
1022.941138
 31
0.0
  0
LINE
  5
7BCF
330
19
100
AcDbEntity
  8
4
  6
Continuous
100
AcDbLine
 10
-1457.240662
 20
1222.941138
 30
0.0
 11
142.759338
 21
1222.941138
 31
0.0
  0
LINE
  5
7BD0
330
19
100
AcDbEntity
  8
4
  6
Continuous
100
AcDbLine
 10
-1057.240662
 20
-946.4676159999999
 30
0.0
 11
142.759338
 21
-946.4676159999999
 31
0.0
  0
LINE
  5
7BD1
330
19
100
AcDbEntity
  8
4
  6
Continuous
100
AcDbLine
 10
-1457.240662
 20
1222.941138
 30
0.0
 11
-1457.240662
 21
1022.941138
 31
0.0
  0
TEXT
  5
7BD2
330
19
100
AcDbEntity
  8
4
  6
Continuous
100
AcDbText
 10
-1372.212182
 20
935.851861
 30
0.0
 40
54.0
  1
左回転右横向
100
AcDbText
  0
TEXT
  5
7BD3
330
19
100
AcDbEntity
  8
4
  6
Continuous
100
AcDbText
 10
-238.271103
 20
1259.593465
 30
0.0
 40
56.0
  1
No.
100
AcDbText
  0
TEXT
  5
7BD4
330
19
100
AcDbEntity
  8
4
  6
Continuous
100
AcDbText
 10
-262.04616
 20
936.9612250000001
 30
0.0
 40
54.0
  1
縮尺：1/10
100
AcDbText
  0
LINE
  5
7BD5
330
19
100
AcDbEntity
  8
4
  6
Continuous
100
AcDbLine
 10
142.759338
 20
1222.941138
 30
0.0
 11
142.759338
 21
1022.941138
 31
0.0
  0
LINE
  5
7BD7
330
19
100
AcDbEntity
  8
4
  6
Continuous
100
AcDbLine
 10
-266.62324
 20
1234.795967
 30
0.0
 11
-266.62324
 21
1340.184645
 31
0.0
  0
LINE
  5
7BD8
330
19
100
AcDbEntity
  8
4
  6
Continuous
100
AcDbLine
 10
-266.62324
 20
1340.184645
 30
0.0
 11
142.759338
 21
1340.184645
 31
0.0
  0
LINE
  5
7BD9
330
19
100
AcDbEntity
  8
4
  6
Continuous
100
AcDbLine
 10
142.759338
 20
1340.184645
 30
0.0
 11
142.759338
 21
1234.795967
 31
0.0
  0
LINE
  5
7BDA
330
19
100
AcDbEntity
  8
4
  6
Continuous
100
AcDbLine
 10
142.759338
 20
1234.795967
 30
0.0
 11
-266.62324
 21
1234.795967
 31
0.0
  0
DIMENSION
  5
7BF2
330
19
100
AcDbEntity
  8
3
  6
Continuous
100
AcDbDimension
280
     0
  2
*D1
 10
-926.578924
 20
-738.4144981131692
 30
0.0
 11
-1182.507897
 21
-738.4144981131692
 31
0.0
 70
   160
 71
     5
 42
494.9999999999999
 73
     0
 74
     0
 75
     0
  3
IGA
100
AcDbAlignedDimension
 13
-1421.578924
 23
-687.8183821131692
 33
0.0
 14
-926.578924
 24
-662.8183821131692
 34
0.0
100
AcDbRotatedDimension
1001
ACAD
1000
DSTYLE
1002
{
1070
   287
1070
     3
1070
    40
1040
10.0
1070
   143
1040
0.039
1070
   172
1070
     1
1070
   271
1070
     0
1070
   279
1070
     0
1070
   288
1070
     1
1002
}
  0
DIMENSION
  5
7BFE
330
19
100
AcDbEntity
  8
3
  6
Continuous
100
AcDbDimension
280
     0
  2
*D2
 10
-741.578924
 20
-738.4144981131692
 30
0.0
 11
-834.0789240000001
 21
-713.4144981131692
 31
0.0
 70
    32
 71
     5
 42
185.0
 73
     0
 74
     0
 75
     0
  3
IGA
100
AcDbAlignedDimension
 13
-926.578924
 23
-662.8183821131692
 33
0.0
 14
-741.578924
 24
-687.8183821131692
 34
0.0
100
AcDbRotatedDimension
1001
ACAD
1000
DSTYLE
1002
{
1070
   287
1070
     4
1070
    40
1040
10.0
1070
    75
1070
     1
1070
   143
1040
0.039
1070
   172
1070
     1
1070
   271
1070
     0
1070
   279
1070
     1
1070
   288
1070
     1
1002
}
  0
DIMENSION
  5
7C0C
330
19
100
AcDbEntity
  8
3
  6
Continuous
100
AcDbDimension
280
     0
  2
*D3
 10
-698.8579670000001
 20
-492.8183821131693
 30
0.0
 11
-698.857967
 21
-382.2640561131692
 31
0.0
 70
   160
 71
     5
 42
-1.0
 73
     0
 74
     0
 75
     0
  3
IGA
100
AcDbAlignedDimension
 13
-766.578924
 23
-292.8183821131692
 33
0.0
 14
-767.578924
 24
-492.8183821131693
 34
0.0
 50
90.0
100
AcDbRotatedDimension
1001
ACAD
1000
DSTYLE
1002
{
1070
   287
1070
     3
1070
    40
1040
10.0
1070
   143
1040
0.039
1070
   172
1070
     1
1070
   271
1070
     0
1070
   279
1070
     0
1070
   288
1070
     1
1002
}
  0
DIMENSION
  5
7C19
330
19
100
AcDbEntity
  8
3
  6
Continuous
100
AcDbDimension
280
     0
  2
*D4
 10
-632.198831
 20
-503.8183821131693
 30
0.0
 11
-632.1988309999999
 21
-379.6886581131692
 31
0.0
 70
   160
 71
     5
 42
-1.0
 73
     0
 74
     0
 75
     0
  3
IGA
100
AcDbAlignedDimension
 13
-766.578924
 23
-292.8183821131692
 33
0.0
 14
-781.578924
 24
-503.8183821131692
 34
0.0
 50
90.0
100
AcDbRotatedDimension
1001
ACAD
1000
DSTYLE
1002
{
1070
   287
1070
     3
1070
    40
1040
10.0
1070
   143
1040
0.039
1070
   172
1070
     1
1070
   271
1070
     0
1070
   279
1070
     0
1070
   288
1070
     1
1002
}
  0
DIMENSION
  5
7C26
330
19
100
AcDbEntity
  8
3
  6
Continuous
100
AcDbDimension
280
     0
  2
*D5
 10
-570.3273750000001
 20
-292.8183821131692
 30
0.0
 11
-570.327375
 21
-217.8061231131692
 31
0.0
 70
   160
 71
     5
 42
-1.0
 73
     0
 74
     0
 75
     0
  3
IGA
100
AcDbAlignedDimension
 13
-926.578924
 23
-142.2511931131691
 33
0.0
 14
-766.578924
 24
-292.8183821131692
 34
0.0
 50
90.0
100
AcDbRotatedDimension
1001
ACAD
1000
DSTYLE
1002
{
1070
   287
1070
     3
1070
    40
1040
10.0
1070
   143
1040
0.039
1070
   172
1070
     1
1070
   271
1070
     0
1070
   279
1070
     0
1070
   288
1070
     1
1002
}
  0
DIMENSION
  5
7C42
330
19
100
AcDbEntity
  8
3
  6
Continuous
100
AcDbDimension
280
     0
  2
*D6
 10
-570.327375
 20
-567.8183821131693
 30
0.0
 11
-595.3273749999998
 21
-430.3183821131693
 31
0.0
 70
    32
 71
     5
 42
-1.0
 73
     0
 74
     0
 75
     0
  3
IGA
100
AcDbAlignedDimension
 13
-766.578924
 23
-292.8183821131692
 33
0.0
 14
-766.578924
 24
-567.8183821131693
 34
0.0
 50
90.0
100
AcDbRotatedDimension
1001
ACAD
1000
DSTYLE
1002
{
1070
   287
1070
     4
1070
    40
1040
10.0
1070
    75
1070
     1
1070
   143
1040
0.039
1070
   172
1070
     1
1070
   271
1070
     0
1070
   279
1070
     1
1070
   288
1070
     1
1002
}
  0
DIMENSION
  5
7CB4
330
19
100
AcDbEntity
  8
3
  6
Continuous
100
AcDbDimension
280
     0
  2
*D7
 10
-926.578924
 20
-101.5450221131692
 30
0.0
 11
-1022.725366
 21
-101.5450221131692
 31
0.0
 70
   160
 71
     5
 42
-1.0
 73
     0
 74
     0
 75
     0
  3
IGA
100
AcDbAlignedDimension
 13
-1105.578924
 23
-292.8183821131692
 33
0.0
 14
-926.578924
 24
-142.2511931131691
 34
0.0
100
AcDbRotatedDimension
1001
ACAD
1000
DSTYLE
1002
{
1070
   287
1070
     3
1070
    40
1040
10.0
1070
   143
1040
0.039
1070
   172
1070
     1
1070
   271
1070
     0
1070
   279
1070
     0
1070
   288
1070
     1
1002
}
  0
DIMENSION
  5
7CC0
330
19
100
AcDbEntity
  8
3
  6
Continuous
100
AcDbDimension
280
     0
  2
*D8
 10
-766.578924
 20
-101.5450221131692
 30
0.0
 11
-846.5789240000001
 21
-76.54502211316918
 31
0.0
 70
    32
 71
     5
 42
-1.0
 73
     0
 74
     0
 75
     0
  3
IGA
100
AcDbAlignedDimension
 13
-926.578924
 23
-142.2511931131691
 33
0.0
 14
-766.578924
 24
-271.8183821131692
 34
0.0
100
AcDbRotatedDimension
1001
ACAD
1000
DSTYLE
1002
{
1070
   287
1070
     4
1070
    40
1040
10.0
1070
    75
1070
     1
1070
   143
1040
0.039
1070
   172
1070
     1
1070
   271
1070
     0
1070
   279
1070
     1
1070
   288
1070
     1
1002
}
  0
DIMENSION
  5
7CDA
330
19
100
AcDbEntity
  8
3
  6
Continuous
100
AcDbDimension
280
     0
  2
*D9
 10
-741.578924
 20
182.070884
 30
0.0
 11
-1083.860248
 21
182.070884
 31
0.0
 70
   160
 71
     5
 42
-1.0
 73
     0
 74
     0
 75
     0
  3
IGA
100
AcDbAlignedDimension
 13
-1421.578924
 23
281.150495
 33
0.0
 14
-741.578924
 24
281.150495
 34
0.0
100
AcDbRotatedDimension
1001
ACAD
1000
DSTYLE
1002
{
1070
   287
1070
     3
1070
    40
1040
10.0
1070
   143
1040
0.039
1070
   172
1070
     1
1070
   271
1070
     0
1070
   279
1070
     0
1070
   288
1070
     1
1002
}
  0
DIMENSION
  5
7CE7
330
19
100
AcDbEntity
  8
3
  6
Continuous
100
AcDbDimension
280
     0
  2
*D10
 10
-653.7063129999999
 20
281.150495
 30
0.0
 11
-653.7063129999999
 21
467.5728089999999
 31
0.0
 70
   160
 71
     5
 42
-1.0
 73
     0
 74
     0
 75
     0
  3
IGA
100
AcDbAlignedDimension
 13
-741.578924
 23
711.1504949999999
 33
0.0
 14
-741.578924
 24
281.150495
 34
0.0
 50
90.0
100
AcDbRotatedDimension
1001
ACAD
1000
DSTYLE
1002
{
1070
   287
1070
     3
1070
    40
1040
10.0
1070
   143
1040
0.039
1070
   172
1070
     1
1070
   271
1070
     0
1070
   279
1070
     0
1070
   288
1070
     1
1002
}
  0
LINE
  5
7CE8
330
19
100
AcDbEntity
  8
2
  6
CENTER
100
AcDbLine
 10
-1140.934044
 20
579.150495
 30
0.0
 11
-727.3628139999999
 21
579.150495
 31
0.0
  0
LINE
  5
7CE9
330
19
100
AcDbEntity
  8
2
  6
CENTER
100
AcDbLine
 10
-926.578924
 20
225.639279
 30
0.0
 11
-926.578924
 21
676.585367
 31
0.0
  0
DIMENSION
  5
7CF7
330
19
100
AcDbEntity
  8
3
  6
Continuous
100
AcDbDimension
280
     0
  2
*D11
 10
-75.22343799999998
 20
-765.7251571131691
 30
0.0
 11
-224.868483
 21
-765.7251571131691
 31
0.0
 70
   160
 71
     5
 42
298.0
 73
     0
 74
     0
 75
     0
  3
IGA
100
AcDbAlignedDimension
 13
-373.223438
 23
-687.8183821131692
 33
0.0
 14
-75.22343799999998
 24
-687.8183821131692
 34
0.0
100
AcDbRotatedDimension
1001
ACAD
1000
DSTYLE
1002
{
1070
   287
1070
     3
1070
    40
1040
10.0
1070
   143
1040
0.039
1070
   172
1070
     1
1070
   271
1070
     0
1070
   279
1070
     0
1070
   288
1070
     1
1002
}
  0
DIMENSION
  5
7D03
330
19
100
AcDbEntity
  8
3
  6
Continuous
100
AcDbDimension
280
     0
  2
*D12
 10
56.77656200000001
 20
-765.7251571131691
 30
0.0
 11
-9.223437999999989
 21
-740.7251571131691
 31
0.0
 70
    32
 71
     5
 42
132.0
 73
     0
 74
     0
 75
     0
  3
IGA
100
AcDbAlignedDimension
 13
-75.22343799999998
 23
-687.8183821131692
 33
0.0
 14
56.77656200000001
 24
-687.8183821131692
 34
0.0
100
AcDbRotatedDimension
1001
ACAD
1000
DSTYLE
1002
{
1070
   287
1070
     4
1070
    40
1040
10.0
1070
    75
1070
     1
1070
   143
1040
0.039
1070
   172
1070
     1
1070
   271
1070
     0
1070
   279
1070
     1
1070
   288
1070
     1
1002
}
  0
DIMENSION
  5
7D10
330
19
100
AcDbEntity
  8
3
  6
Continuous
100
AcDbDimension
280
     0
  2
*D13
 10
-5.223437999999983
 20
-96.68490311316919
 30
0.0
 11
-79.50915299999997
 21
-96.68490311316919
 31
0.0
 70
   160
 71
     5
 42
-1.0
 73
     0
 74
     0
 75
     0
  3
IGA
100
AcDbAlignedDimension
 13
-145.223438
 23
-153.8183821131692
 33
0.0
 14
-5.223437999999987
 24
-153.8183821131692
 34
0.0
100
AcDbRotatedDimension
1001
ACAD
1000
DSTYLE
1002
{
1070
   287
1070
     3
1070
    40
1040
10.0
1070
   143
1040
0.039
1070
   172
1070
     1
1070
   271
1070
     0
1070
   279
1070
     0
1070
   288
1070
     1
1002
}
  0
DIMENSION
  5
7D1D
330
19
100
AcDbEntity
  8
3
  6
Continuous
100
AcDbDimension
280
     0
  2
*D14
 10
-75.22343799999998
 20
-34.87520811316915
 30
0.0
 11
-221.922222
 21
-34.87520811316915
 31
0.0
 70
   160
  1
(300)
 71
     5
 42
300.0
 73
     0
 74
     0
 75
     0
  3
IGA
100
AcDbAlignedDimension
 13
-375.223438
 23
-182.8183821131691
 33
0.0
 14
-75.22343799999998
 24
-41.97181511316921
 34
0.0
100
AcDbRotatedDimension
1001
ACAD
1000
DSTYLE
1002
{
1070
   287
1070
     3
1070
    40
1040
10.0
1070
   143
1040
0.039
1070
   172
1070
     1
1070
   271
1070
     0
1070
   279
1070
     0
1070
   288
1070
     1
1002
}
  0
DIMENSION
  5
7D2B
330
19
100
AcDbEntity
  8
3
  6
Continuous
100
AcDbDimension
280
     0
  2
*D15
 10
2.776562000000021
 20
-34.87520811316915
 30
0.0
 11
-36.30785300000002
 21
-34.87520811316915
 31
0.0
 70
   160
 71
     5
 42
-1.0
 73
     0
 74
     0
 75
     0
  3
IGA
100
AcDbAlignedDimension
 13
-75.22343799999998
 23
-41.97181511316921
 33
0.0
 14
2.776562000000012
 24
-172.8183821131691
 34
0.0
100
AcDbRotatedDimension
1001
ACAD
1000
DSTYLE
1002
{
1070
   287
1070
     4
1070
    40
1040
10.0
1070
    75
1070
     1
1070
   143
1040
0.039
1070
   172
1070
     1
1070
   271
1070
     0
1070
   279
1070
     1
1070
   288
1070
     1
1002
}
  0
LINE
  5
7D43
330
19
100
AcDbEntity
  8
3
  6
Continuous
100
AcDbLine
 10
2.776562000000012
 20
-192.8183821131691
 30
0.0
 11
14.93239800000003
 21
-192.8183821131691
 31
0.0
  0
LINE
  5
7D45
330
19
100
AcDbEntity
  8
3
  6
Continuous
100
AcDbLine
 10
2.776562000000012
 20
-392.8183821131692
 30
0.0
 11
18.12538900000004
 21
-392.8183821131692
 31
0.0
  0
DIMENSION
  5
7D52
330
19
100
AcDbEntity
  8
3
  6
Continuous
100
AcDbDimension
280
     0
  2
*D16
 10
72.40623599999996
 20
-392.8183821131692
 30
0.0
 11
72.40623600000003
 21
-279.3898106845978
 31
0.0
 70
   160
 71
     5
 42
-1.0
 73
     0
 74
     0
 75
     0
  3
IGA
100
AcDbAlignedDimension
 13
2.776562000000012
 23
-192.8183821131691
 33
0.0
 14
2.776562000000012
 24
-392.8183821131692
 34
0.0
 50
90.0
100
AcDbRotatedDimension
1001
ACAD
1000
DSTYLE
1002
{
1070
   287
1070
     3
1070
     3
1000
φ<>
1070
    40
1040
10.0
1070
   143
1040
0.039
1070
   172
1070
     1
1070
   271
1070
     0
1070
   279
1070
     0
1070
   288
1070
     1
1002
}
  0
LINE
  5
7D53
330
19
100
AcDbEntity
  8
2
  6
CENTER
100
AcDbLine
 10
-419.2161249999999
 20
-292.8183821131692
 30
0.0
 11
10.06535099999996
 21
-292.8183821131692
 31
0.0
  0
LINE
  5
7D78
330
19
100
AcDbEntity
  8
2
  6
CENTER
100
AcDbLine
 10
-75.22343799999998
 20
-90.93101711316919
 30
0.0
 11
-75.223438
 21
-687.8183821131694
 31
0.0
  0
DIMENSION
  5
7E2F
330
19
100
AcDbEntity
  8
3
100
AcDbDimension
280
     0
  2
*D18
 10
-569.8073600379066
 20
-687.8183821131692
 30
0.0
 11
-594.8073600379065
 21
-762.1040963988837
 31
0.0
 70
    32
 71
     5
 42
50.0
 73
     0
 74
     0
 75
     0
  3
IGA
100
AcDbAlignedDimension
 13
-741.578924
 23
-637.8183821131692
 33
0.0
 14
-741.578924
 24
-687.8183821131692
 34
0.0
 50
90.0
100
AcDbRotatedDimension
1001
ACAD
1000
DSTYLE
1002
{
1070
   287
1070
     3
1070
    40
1040
10.0
1070
   143
1040
0.039
1070
   172
1070
     1
1070
   271
1070
     0
1070
   279
1070
     0
1070
     6
1000
DOT
1002
}
  0
DIMENSION
  5
7E3C
330
19
100
AcDbEntity
  8
3
100
AcDbDimension
280
     0
  2
*D19
 10
-569.8073600379066
 20
-567.8183821131693
 30
0.0
 11
-529.6278961332263
 21
-603.6241450814295
 31
0.0
 70
   160
 71
     5
 42
70.0
 73
     0
 74
     0
 75
     0
  3
IGA
100
AcDbAlignedDimension
 13
-741.578924
 23
-637.8183821131692
 33
0.0
 14
-766.578924
 24
-567.8183821131693
 34
0.0
 50
90.0
100
AcDbRotatedDimension
1001
ACAD
1000
DSTYLE
1002
{
1070
     3
1000
(<>)
1070
    40
1040
10.0
1070
   143
1040
0.039
1070
   172
1070
     1
1070
   271
1070
     0
1070
   343
1005
7DC0
1002
}
  0
DIMENSION
  5
7E49
330
19
100
AcDbEntity
  8
3
100
AcDbDimension
280
     0
  2
*D20
 10
-479.656385580638
 20
-687.8183821131692
 30
0.0
 11
-512.5135284377806
 21
-415.0347876131693
 31
0.0
 70
    32
 71
     5
 42
545.5671889999999
 73
     0
 74
     0
 75
     0
  3
IGA
100
AcDbAlignedDimension
 13
-921.5789240000001
 23
-142.2511931131692
 33
0.0
 14
-736.578924
 24
-687.8183821131692
 34
0.0
 50
90.0
100
AcDbRotatedDimension
1001
ACAD
1000
DSTYLE
1002
{
1070
   287
1070
     3
1070
     3
1000
(<>)
1070
    40
1040
10.0
1070
   143
1040
0.039
1070
   172
1070
     1
1070
   271
1070
     0
1070
   279
1070
     0
1002
}
  0
ENDSEC
  0
SECTION
  2
OBJECTS
  0
DICTIONARY
  5
C
330
0
100
AcDbDictionary
281
     1
  3
ACAD_CIP_PREVIOUS_PRODUCT_INFO
350
7F85
  3
ACAD_COLOR
350
7F68
  3
ACAD_DETAILVIEWSTYLE
350
7F81
  3
ACAD_GROUP
350
D
  3
ACAD_LAYOUT
350
7E52
  3
ACAD_MATERIAL
350
7F36
  3
ACAD_MLEADERSTYLE
350
7F7D
  3
ACAD_MLINESTYLE
350
E
  3
ACAD_PLOTSETTINGS
350
7E53
  3
ACAD_PLOTSTYLENAME
350
7E50
  3
ACAD_SCALELIST
350
7F6B
  3
ACAD_SECTIONVIEWSTYLE
350
7F7F
  3
ACAD_TABLESTYLE
350
7F69
  3
ACAD_VISUALSTYLE
350
7F4F
  3
ACDB_RECOMPOSE_DATA
350
8033
  3
AcDbVariableDictionary
350
7F29
  0
DICTIONARY
  5
7FE6
330
2
100
AcDbDictionary
280
     1
281
     1
  3
ACAD_LAYERSTATES
360
7FE7
  0
DICTIONARY
  5
7FD9
330
F
100
AcDbDictionary
280
     1
281
     1
  3
ADSK_XREC_LAYER_RECONCILED
360
7FDA
  0
DICTIONARY
  5
7FDB
330
31
100
AcDbDictionary
280
     1
281
     1
  3
ADSK_XREC_LAYER_RECONCILED
360
7FDC
  0
DICTIONARY
  5
7FDD
330
76D0
100
AcDbDictionary
280
     1
281
     1
  3
ADSK_XREC_LAYER_RECONCILED
360
7FDE
  0
DICTIONARY
  5
7FDF
330
76D1
100
AcDbDictionary
280
     1
281
     1
  3
ADSK_XREC_LAYER_RECONCILED
360
7FE0
  0
DICTIONARY
  5
7FE1
330
76D2
100
AcDbDictionary
280
     1
281
     1
  3
ADSK_XREC_LAYER_RECONCILED
360
7FE2
  0
DICTIONARY
  5
7E7F
330
19
100
AcDbDictionary
280
     1
281
     1
  3
ACAD_LAYOUTSELFREF
360
7E80
  0
DICTIONARY
  5
7E7D
330
16
100
AcDbDictionary
280
     1
281
     1
  3
ACAD_LAYOUTSELFREF
360
7E7E
  0
XRECORD
  5
7F85
102
{ACAD_REACTORS
330
C
102
}
330
C
100
AcDbXrecord
280
     1
300
ACDLT
300
2015
300
INVLTS_F_S
  0
DICTIONARY
  5
7F68
102
{ACAD_REACTORS
330
C
102
}
330
C
100
AcDbDictionary
281
     1
  0
DICTIONARY
  5
7F81
102
{ACAD_REACTORS
330
C
102
}
330
C
100
AcDbDictionary
281
     1
  3
Imperial24
350
7F82
  0
DICTIONARY
  5
D
102
{ACAD_REACTORS
330
C
102
}
330
0
100
AcDbDictionary
281
     1
  0
DICTIONARY
  5
7E52
102
{ACAD_REACTORS
330
C
102
}
330
C
100
AcDbDictionary
281
     1
  3
Model
350
7E54
  3
ﾚｲｱｳﾄ1
350
7E55
  0
DICTIONARY
  5
7F36
102
{ACAD_REACTORS
330
C
102
}
330
C
100
AcDbDictionary
281
     1
  3
ByBlock
350
7F3F
  3
ByLayer
350
7F37
  3
Global
350
7F47
  0
DICTIONARY
  5
7F7D
102
{ACAD_REACTORS
330
C
102
}
330
C
100
AcDbDictionary
281
     1
  3
Standard
350
7F7E
  0
DICTIONARY
  5
E
102
{ACAD_REACTORS
330
C
102
}
330
0
100
AcDbDictionary
281
     1
  3
STANDARD
350
1C
  0
DICTIONARY
  5
7E53
102
{ACAD_REACTORS
330
C
102
}
330
C
100
AcDbDictionary
281
     1
  0
ACDBDICTIONARYWDFLT
  5
7E50
102
{ACAD_REACTORS
330
C
102
}
330
C
100
AcDbDictionary
281
     1
  3
Normal
350
7E51
100
AcDbDictionaryWithDefault
340
7E51
1001
ACAD
1000
TREAT_AS_HARD
1070
     0
  0
DICTIONARY
  5
7F6B
102
{ACAD_REACTORS
330
C
102
}
330
C
100
AcDbDictionary
281
     1
  3
A0
350
7F6C
  3
A1
350
7F6D
  3
A2
350
7F6E
  3
A3
350
7F6F
  3
A4
350
7F70
  3
A5
350
7F71
  3
A6
350
7F72
  3
A7
350
7F73
  3
A8
350
7F74
  3
A9
350
7F75
  3
B0
350
7F76
  3
B1
350
7F77
  3
B2
350
7F78
  3
B3
350
7F79
  3
B4
350
7F7A
  3
B5
350
7F7B
  3
B6
350
7F7C
  0
DICTIONARY
  5
7F7F
102
{ACAD_REACTORS
330
C
102
}
330
C
100
AcDbDictionary
281
     1
  3
Imperial24
350
7F80
  0
DICTIONARY
  5
7F69
102
{ACAD_REACTORS
330
C
102
}
330
C
100
AcDbDictionary
281
     1
  3
Standard
350
7F6A
  0
DICTIONARY
  5
7F4F
102
{ACAD_REACTORS
330
C
102
}
330
C
100
AcDbDictionary
281
     1
  3
2dWireframe
350
7F55
  3
Basic
350
7F54
  3
Brighten
350
7F5B
  3
ColorChange
350
7F5F
  3
Conceptual
350
7F58
  3
Dim
350
7F5A
  3
EdgeColorOff
350
7F67
  3
Facepattern
350
7F5E
  3
Flat
350
7F50
  3
FlatWithEdges
350
7F51
  3
Gouraud
350
7F52
  3
GouraudWithEdges
350
7F53
  3
Hidden
350
7F57
  3
JitterOff
350
7F65
  3
Linepattern
350
7F5D
  3
OverhangOff
350
7F66
  3
Realistic
350
7F59
  3
Shaded
350
7F64
  3
Shaded with edges
350
7F63
  3
Shades of Gray
350
7F60
  3
Sketchy
350
7F61
  3
Thicken
350
7F5C
  3
Wireframe
350
7F56
  3
X-Ray
350
7F62
  0
XRECORD
  5
8033
102
{ACAD_REACTORS
330
C
102
}
330
C
100
AcDbXrecord
280
     1
 90
        1
330
7F6A
330
7F80
330
7F82
  0
DICTIONARY
  5
7F29
102
{ACAD_REACTORS
330
C
102
}
330
C
100
AcDbDictionary
281
     1
  3
CANNOSCALE
350
7FF6
  3
CMLEADERSTYLE
350
7FF2
  3
CTABLESTYLE
350
7FF1
  3
CVIEWDETAILSTYLE
350
7FF3
  3
CVIEWSECTIONSTYLE
350
7FF4
  3
DIMASSOC
350
7F2A
  3
LAYEREVAL
350
7FF8
  3
LAYERNOTIFY
350
7FF9
  3
LIGHTINGUNITS
350
7FF7
  3
MSLTSCALE
350
7FF5
  0
DICTIONARY
  5
7FE7
102
{ACAD_REACTORS
330
7FE6
102
}
330
7FE6
100
AcDbDictionary
281
     1
  0
XRECORD
  5
7FDA
102
{ACAD_REACTORS
330
7FD9
102
}
330
7FD9
100
AcDbXrecord
280
     1
290
     1
  0
XRECORD
  5
7FDC
102
{ACAD_REACTORS
330
7FDB
102
}
330
7FDB
100
AcDbXrecord
280
     1
290
     1
  0
XRECORD
  5
7FDE
102
{ACAD_REACTORS
330
7FDD
102
}
330
7FDD
100
AcDbXrecord
280
     1
290
     1
  0
XRECORD
  5
7FE0
102
{ACAD_REACTORS
330
7FDF
102
}
330
7FDF
100
AcDbXrecord
280
     1
290
     1
  0
XRECORD
  5
7FE2
102
{ACAD_REACTORS
330
7FE1
102
}
330
7FE1
100
AcDbXrecord
280
     1
290
     1
  0
XRECORD
  5
7E80
102
{ACAD_REACTORS
330
7E7F
102
}
330
7E7F
100
AcDbXrecord
280
     1
340
19
  0
XRECORD
  5
7E7E
102
{ACAD_REACTORS
330
7E7D
102
}
330
7E7D
100
AcDbXrecord
280
     1
340
16
  0
ACDBDETAILVIEWSTYLE
  5
7F82
102
{ACAD_XDICTIONARY
360
7FEE
102
}
102
{ACAD_REACTORS
330
7F81
102
}
330
7F81
100
AcDbModelDocViewStyle
 70
     0
  3
Imperial24
290
     0
100
AcDbDetailViewStyle
 70
     0
 71
     0
 90
        3
 71
     1
340
10
 62
   256
 40
0.24
340
0
 62
   256
 40
0.24
300

 40
0.36
280
     3
 71
     2
340
15
 90
       25
 62
   256
 71
     3
340
10
 62
   256
 40
0.24
 90
        1
 40
0.75
 90
        1
300
%<\AcVar ViewType \f "%tc1">% %<\AcVar ViewDetailId>%\PSCALE %<\AcVar ViewScale \f "%sn">%
 71
     4
340
15
 90
       25
 62
   256
340
15
 90
       25
 62
   256
280
     0
  0
LAYOUT
  5
7E54
102
{ACAD_REACTORS
330
7E52
102
}
330
7E52
100
AcDbPlotSettings
  1

  2
\\Txbo34x8944cqyd\EPSON LP-6100
  4

  6

 40
0.0
 41
0.0
 42
0.0
 43
0.0
 44
0.0
 45
0.0
 46
0.0
 47
0.0
 48
0.0
 49
0.0
140
0.0
141
0.0
142
1.0
143
1.0
 70
  1712
 72
     0
 73
     0
 74
     0
  7
GOD2000TABLE.ctb
 75
     0
147
1.0
 76
     0
 77
     2
 78
   300
148
0.0
149
0.0
100
AcDbLayout
  1
Model
 70
     1
 71
     0
 10
0.0
 20
0.0
 11
12.0
 21
9.0
 12
0.0
 22
0.0
 32
0.0
 14
0.0
 24
0.0
 34
0.0
 15
0.0
 25
0.0
 35
0.0
146
0.0
 13
0.0
 23
0.0
 33
0.0
 16
1.0
 26
0.0
 36
0.0
 17
0.0
 27
1.0
 37
0.0
 76
     0
330
19
331
7F34
  0
LAYOUT
  5
7E55
102
{ACAD_REACTORS
330
7E52
102
}
330
7E52
100
AcDbPlotSettings
  1

  2
\\Txbo34x8944cqyd\EPSON LP-6100
  4

  6

 40
0.0
 41
0.0
 42
0.0
 43
0.0
 44
0.0
 45
0.0
 46
0.0
 47
0.0
 48
0.0
 49
0.0
140
0.0
141
0.0
142
1.0
143
1.0
 70
   688
 72
     0
 73
     0
 74
     5
  7
GOD2000TABLE.ctb
 75
    16
147
1.0
 76
     0
 77
     2
 78
   300
148
0.0
149
0.0
100
AcDbLayout
  1
ﾚｲｱｳﾄ1
 70
     1
 71
     1
 10
0.0
 20
0.0
 11
12.0
 21
9.0
 12
0.0
 22
0.0
 32
0.0
 14
1.000000000000000E+20
 24
1.000000000000000E+20
 34
1.000000000000000E+20
 15
-1.000000000000000E+20
 25
-1.000000000000000E+20
 35
-1.000000000000000E+20
146
0.0
 13
0.0
 23
0.0
 33
0.0
 16
1.0
 26
0.0
 36
0.0
 17
0.0
 27
1.0
 37
0.0
 76
     0
330
16
  0
MATERIAL
  5
7F3F
102
{ACAD_XDICTIONARY
360
7F40
102
}
102
{ACAD_REACTORS
330
7F36
102
}
330
7F36
100
AcDbMaterial
  1
ByBlock
 72
     0
 43
0.0208333333333333
 43
0.0
 43
0.0
 43
0.0
 43
0.0
 43
0.0208333333333333
 43
0.0
 43
0.0
 43
0.0
 43
0.0
 43
1.0
 43
0.0
 43
0.0
 43
0.0
 43
0.0
 43
1.0
 77
     0
 47
0.0208333333333333
 47
0.0
 47
0.0
 47
0.0
 47
0.0
 47
0.0208333333333333
 47
0.0
 47
0.0
 47
0.0
 47
0.0
 47
1.0
 47
0.0
 47
0.0
 47
0.0
 47
0.0
 47
1.0
171
     0
 49
0.0208333333333333
 49
0.0
 49
0.0
 49
0.0
 49
0.0
 49
0.0208333333333333
 49
0.0
 49
0.0
 49
0.0
 49
0.0
 49
1.0
 49
0.0
 49
0.0
 49
0.0
 49
0.0
 49
1.0
175
     0
142
0.0208333333333333
142
0.0
142
0.0
142
0.0
142
0.0
142
0.0208333333333333
142
0.0
142
0.0
142
0.0
142
0.0
142
1.0
142
0.0
142
0.0
142
0.0
142
0.0
142
1.0
179
     0
144
0.0208333333333333
144
0.0
144
0.0
144
0.0
144
0.0
144
0.0208333333333333
144
0.0
144
0.0
144
0.0
144
0.0
144
1.0
144
0.0
144
0.0
144
0.0
144
0.0
144
1.0
147
0.0208333333333333
147
0.0
147
0.0
147
0.0
147
0.0
147
0.0208333333333333
147
0.0
147
0.0
147
0.0
147
0.0
147
1.0
147
0.0
147
0.0
147
0.0
147
0.0
147
1.0
  0
MATERIAL
  5
7F37
102
{ACAD_XDICTIONARY
360
7F38
102
}
102
{ACAD_REACTORS
330
7F36
102
}
330
7F36
100
AcDbMaterial
  1
ByLayer
 72
     0
 43
0.0208333333333333
 43
0.0
 43
0.0
 43
0.0
 43
0.0
 43
0.0208333333333333
 43
0.0
 43
0.0
 43
0.0
 43
0.0
 43
1.0
 43
0.0
 43
0.0
 43
0.0
 43
0.0
 43
1.0
 77
     0
 47
0.0208333333333333
 47
0.0
 47
0.0
 47
0.0
 47
0.0
 47
0.0208333333333333
 47
0.0
 47
0.0
 47
0.0
 47
0.0
 47
1.0
 47
0.0
 47
0.0
 47
0.0
 47
0.0
 47
1.0
171
     0
 49
0.0208333333333333
 49
0.0
 49
0.0
 49
0.0
 49
0.0
 49
0.0208333333333333
 49
0.0
 49
0.0
 49
0.0
 49
0.0
 49
1.0
 49
0.0
 49
0.0
 49
0.0
 49
0.0
 49
1.0
175
     0
142
0.0208333333333333
142
0.0
142
0.0
142
0.0
142
0.0
142
0.0208333333333333
142
0.0
142
0.0
142
0.0
142
0.0
142
1.0
142
0.0
142
0.0
142
0.0
142
0.0
142
1.0
179
     0
144
0.0208333333333333
144
0.0
144
0.0
144
0.0
144
0.0
144
0.0208333333333333
144
0.0
144
0.0
144
0.0
144
0.0
144
1.0
144
0.0
144
0.0
144
0.0
144
0.0
144
1.0
147
0.0208333333333333
147
0.0
147
0.0
147
0.0
147
0.0
147
0.0208333333333333
147
0.0
147
0.0
147
0.0
147
0.0
147
1.0
147
0.0
147
0.0
147
0.0
147
0.0
147
1.0
  0
MATERIAL
  5
7F47
102
{ACAD_XDICTIONARY
360
7F48
102
}
102
{ACAD_REACTORS
330
7F36
102
}
330
7F36
100
AcDbMaterial
  1
Global
 72
     0
 43
0.0208333333333333
 43
0.0
 43
0.0
 43
0.0
 43
0.0
 43
0.0208333333333333
 43
0.0
 43
0.0
 43
0.0
 43
0.0
 43
1.0
 43
0.0
 43
0.0
 43
0.0
 43
0.0
 43
1.0
 77
     0
 47
0.0208333333333333
 47
0.0
 47
0.0
 47
0.0
 47
0.0
 47
0.0208333333333333
 47
0.0
 47
0.0
 47
0.0
 47
0.0
 47
1.0
 47
0.0
 47
0.0
 47
0.0
 47
0.0
 47
1.0
171
     0
 49
0.0208333333333333
 49
0.0
 49
0.0
 49
0.0
 49
0.0
 49
0.0208333333333333
 49
0.0
 49
0.0
 49
0.0
 49
0.0
 49
1.0
 49
0.0
 49
0.0
 49
0.0
 49
0.0
 49
1.0
175
     0
142
0.0208333333333333
142
0.0
142
0.0
142
0.0
142
0.0
142
0.0208333333333333
142
0.0
142
0.0
142
0.0
142
0.0
142
1.0
142
0.0
142
0.0
142
0.0
142
0.0
142
1.0
179
     0
144
0.0208333333333333
144
0.0
144
0.0
144
0.0
144
0.0
144
0.0208333333333333
144
0.0
144
0.0
144
0.0
144
0.0
144
1.0
144
0.0
144
0.0
144
0.0
144
0.0
144
1.0
147
0.0208333333333333
147
0.0
147
0.0
147
0.0
147
0.0
147
0.0208333333333333
147
0.0
147
0.0
147
0.0
147
0.0
147
1.0
147
0.0
147
0.0
147
0.0
147
0.0
147
1.0
  0
MLEADERSTYLE
  5
7F7E
102
{ACAD_REACTORS
330
7F7D
102
}
330
7F7D
100
AcDbMLeaderStyle
179
     2
170
     2
171
     1
172
     0
 90
        2
 40
0.0
 41
0.0
173
     1
 91
-1056964608
340
13
 92
       -2
290
     1
 42
0.09
291
     1
 43
0.36
  3
Standard
 44
0.18
300

342
10
174
     1
178
     6
175
     1
176
     0
 93
-1056964608
 45
0.18
292
     0
297
     0
 46
0.18
 94
-1056964608
 47
1.0
 49
1.0
140
1.0
293
     1
141
0.0
294
     1
177
     0
142
1.0
295
     1
296
     0
143
0.125
271
     0
272
     9
273
     9
298
     1
  0
MLINESTYLE
  5
1C
102
{ACAD_REACTORS
330
E
102
}
330
0
100
AcDbMlineStyle
  2
STANDARD
 70
     0
  3

 62
     0
 51
90.0
 52
90.0
 71
     2
 49
0.5
 62
   256
  6
BYLAYER
 49
-0.5
 62
   256
  6
BYLAYER
  0
ACDBPLACEHOLDER
  5
7E51
102
{ACAD_REACTORS
330
7E50
102
}
330
7E50
  0
SCALE
  5
7F6C
102
{ACAD_REACTORS
330
7F6B
102
}
330
7F6B
100
AcDbScale
 70
     0
300
1:1
140
1.0
141
1.0
290
     1
  0
SCALE
  5
7F6D
102
{ACAD_REACTORS
330
7F6B
102
}
330
7F6B
100
AcDbScale
 70
     0
300
1/128" = 1'-0"
140
0.0078125
141
12.0
290
     0
  0
SCALE
  5
7F6E
102
{ACAD_REACTORS
330
7F6B
102
}
330
7F6B
100
AcDbScale
 70
     0
300
1/64" = 1'-0"
140
0.015625
141
12.0
290
     0
  0
SCALE
  5
7F6F
102
{ACAD_REACTORS
330
7F6B
102
}
330
7F6B
100
AcDbScale
 70
     0
300
1/32" = 1'-0"
140
0.03125
141
12.0
290
     0
  0
SCALE
  5
7F70
102
{ACAD_REACTORS
330
7F6B
102
}
330
7F6B
100
AcDbScale
 70
     0
300
1/16" = 1'-0"
140
0.0625
141
12.0
290
     0
  0
SCALE
  5
7F71
102
{ACAD_REACTORS
330
7F6B
102
}
330
7F6B
100
AcDbScale
 70
     0
300
3/32" = 1'-0"
140
0.09375
141
12.0
290
     0
  0
SCALE
  5
7F72
102
{ACAD_REACTORS
330
7F6B
102
}
330
7F6B
100
AcDbScale
 70
     0
300
1/8" = 1'-0"
140
0.125
141
12.0
290
     0
  0
SCALE
  5
7F73
102
{ACAD_REACTORS
330
7F6B
102
}
330
7F6B
100
AcDbScale
 70
     0
300
3/16" = 1'-0"
140
0.1875
141
12.0
290
     0
  0
SCALE
  5
7F74
102
{ACAD_REACTORS
330
7F6B
102
}
330
7F6B
100
AcDbScale
 70
     0
300
1/4" = 1'-0"
140
0.25
141
12.0
290
     0
  0
SCALE
  5
7F75
102
{ACAD_REACTORS
330
7F6B
102
}
330
7F6B
100
AcDbScale
 70
     0
300
3/8" = 1'-0"
140
0.375
141
12.0
290
     0
  0
SCALE
  5
7F76
102
{ACAD_REACTORS
330
7F6B
102
}
330
7F6B
100
AcDbScale
 70
     0
300
1/2" = 1'-0"
140
0.5
141
12.0
290
     0
  0
SCALE
  5
7F77
102
{ACAD_REACTORS
330
7F6B
102
}
330
7F6B
100
AcDbScale
 70
     0
300
3/4" = 1'-0"
140
0.75
141
12.0
290
     0
  0
SCALE
  5
7F78
102
{ACAD_REACTORS
330
7F6B
102
}
330
7F6B
100
AcDbScale
 70
     0
300
1" = 1'-0"
140
1.0
141
12.0
290
     0
  0
SCALE
  5
7F79
102
{ACAD_REACTORS
330
7F6B
102
}
330
7F6B
100
AcDbScale
 70
     0
300
1-1/2" = 1'-0"
140
1.5
141
12.0
290
     0
  0
SCALE
  5
7F7A
102
{ACAD_REACTORS
330
7F6B
102
}
330
7F6B
100
AcDbScale
 70
     0
300
3" = 1'-0"
140
3.0
141
12.0
290
     0
  0
SCALE
  5
7F7B
102
{ACAD_REACTORS
330
7F6B
102
}
330
7F6B
100
AcDbScale
 70
     0
300
6" = 1'-0"
140
6.0
141
12.0
290
     0
  0
SCALE
  5
7F7C
102
{ACAD_REACTORS
330
7F6B
102
}
330
7F6B
100
AcDbScale
 70
     0
300
1'-0" = 1'-0"
140
12.0
141
12.0
290
     0
  0
ACDBSECTIONVIEWSTYLE
  5
7F80
102
{ACAD_XDICTIONARY
360
7FEC
102
}
102
{ACAD_REACTORS
330
7F7F
102
}
330
7F7F
100
AcDbModelDocViewStyle
 70
     0
  3
Imperial24
290
     0
100
AcDbSectionViewStyle
 70
     0
 71
     0
 90
       78
 71
     1
340
10
 62
   256
 40
0.24
340
0
340
0
 62
   256
 40
0.24
300
I, O, Q, S, X, Z
 40
0.48
 90
        3
 40
0.18
 90
        1
 71
     2
340
15
 90
       25
 62
   256
340
15
 90
       50
 62
   256
 40
0.24
 40
0.0
 40
0.24
 71
     3
340
10
 62
   256
 40
0.24
 90
        1
 40
0.75
 90
        1
300
%<\AcVar ViewType \f "%tc1">% %<\AcVar ViewSectionStartId>%-%<\AcVar ViewSectionEndId>%\PSCALE %<\AcVar ViewScale \f "%sn">%
 71
     4
 62
   256
 62
   257
300
ANSI31
 40
1.0
 90
        0
290
     0
290
     0
 90
        6
 40
0.0
 40
1.570796326794896
 40
0.2617993877991494
 40
1.308996938995747
 40
-0.2617993877991494
 40
1.832595714594046
  0
TABLESTYLE
  5
7F6A
102
{ACAD_XDICTIONARY
360
802F
102
}
102
{ACAD_REACTORS
330
7F69
102
}
330
7F69
100
AcDbTableStyle
280
     0
  3
Standard
 70
     0
 71
     0
 40
0.06
 41
0.06
280
     0
281
     0
  7
STANDARD
140
0.18
170
     2
 62
     0
 63
     7
283
     0
 90
      512
 91
        0
  1

274
    -2
284
     1
 64
     0
275
    -2
285
     1
 65
     0
276
    -2
286
     1
 66
     0
277
    -2
287
     1
 67
     0
278
    -2
288
     1
 68
     0
279
    -2
289
     1
 69
     0
  7
STANDARD
140
0.25
170
     5
 62
     0
 63
     7
283
     0
 90
      512
 91
        0
  1

274
    -2
284
     1
 64
     0
275
    -2
285
     1
 65
     0
276
    -2
286
     1
 66
     0
277
    -2
287
     1
 67
     0
278
    -2
288
     1
 68
     0
279
    -2
289
     1
 69
     0
  7
STANDARD
140
0.18
170
     5
 62
     0
 63
     7
283
     0
 90
      512
 91
        0
  1

274
    -2
284
     1
 64
     0
275
    -2
285
     1
 65
     0
276
    -2
286
     1
 66
     0
277
    -2
287
     1
 67
     0
278
    -2
288
     1
 68
     0
279
    -2
289
     1
 69
     0
  0
VISUALSTYLE
  5
7F55
102
{ACAD_REACTORS
330
7F4F
102
}
330
7F4F
100
AcDbVisualStyle
  2
2dWireframe
 70
     4
177
     3
291
     0
 70
    58
 90
        0
176
     1
 90
        2
176
     1
 90
        0
176
     1
 90
        0
176
     1
 40
0.6
176
     1
 40
30.0
176
     1
 62
     7
420
 16777215
176
     1
 90
        1
176
     1
 90
        4
176
     1
 62
     7
176
     1
 62
   257
176
     1
 90
        1
176
     1
 90
        1
176
     1
 40
1.0
176
     1
 90
        0
176
     1
 62
   257
176
     1
 40
1.0
176
     1
 90
        1
176
     1
 90
        6
176
     1
 90
        2
176
     1
 62
     7
176
     1
 90
        5
176
     1
 90
        0
176
     1
 90
        0
176
     1
290
     0
176
     1
 90
        1
176
     1
 40
0.0
176
     1
 90
        0
176
     1
290
     1
176
     1
290
     1
176
     1
290
     0
176
     1
290
     0
176
     1
290
     0
176
     1
290
     0
176
     1
290
     0
176
     1
290
     0
176
     1
290
     0
176
     1
 90
       50
176
     1
 40
0.0
176
     1
 40
1.0
176
     1
 90
        0
176
     1
 62
    18
420
        0
176
     1
 90
       50
176
     1
 90
        3
176
     1
 62
     5
420
      255
176
     1
290
     0
176
     1
 90
       50
176
     1
 90
       50
176
     1
 90
       50
176
     1
290
     0
176
     1
 90
       50
176
     1
 62
   256
176
     0
 40
1.0
176
     0
 90
        2
176
     1
  1
strokes_ogs.tif
176
     1
290
     0
176
     1
 40
1.0
176
     1
 40
1.0
176
     1
  0
VISUALSTYLE
  5
7F54
102
{ACAD_REACTORS
330
7F4F
102
}
330
7F4F
100
AcDbVisualStyle
  2
Basic
 70
     7
177
     3
291
     1
 70
    58
 90
        1
176
     1
 90
        0
176
     1
 90
        1
176
     1
 90
        0
176
     1
 40
0.6
176
     1
 40
30.0
176
     1
 62
     7
420
 16777215
176
     1
 90
        0
176
     1
 90
        4
176
     1
 62
     7
176
     1
 62
   257
176
     1
 90
        1
176
     1
 90
        1
176
     1
 40
1.0
176
     1
 90
        8
176
     1
 62
     7
176
     1
 40
1.0
176
     1
 90
        1
176
     1
 90
        6
176
     1
 90
        2
176
     1
 62
     7
176
     1
 90
        5
176
     1
 90
        0
176
     1
 90
        0
176
     1
290
     0
176
     1
 90
        1
176
     1
 40
0.0
176
     1
 90
        0
176
     1
290
     0
176
     1
290
     1
176
     1
290
     1
176
     1
290
     0
176
     1
290
     0
176
     1
290
     0
176
     1
290
     0
176
     1
290
     0
176
     1
290
     0
176
     1
 90
       50
176
     1
 40
0.0
176
     1
 40
1.0
176
     1
 90
        0
176
     1
 62
    18
420
        0
176
     1
 90
       50
176
     1
 90
        3
176
     1
 62
     5
420
      255
176
     1
290
     0
176
     1
 90
       50
176
     1
 90
       50
176
     1
 90
       50
176
     1
290
     0
176
     1
 90
       50
176
     1
 62
   256
176
     0
 40
1.0
176
     0
 90
        2
176
     1
  1
strokes_ogs.tif
176
     1
290
     0
176
     1
 40
1.0
176
     1
 40
1.0
176
     1
  0
VISUALSTYLE
  5
7F5B
102
{ACAD_REACTORS
330
7F4F
102
}
330
7F4F
100
AcDbVisualStyle
  2
Brighten
 70
    12
177
     3
291
     1
 70
    58
 90
        2
176
     1
 90
        2
176
     1
 90
        0
176
     1
 90
        0
176
     1
 40
0.6
176
     1
 40
30.0
176
     1
 62
     7
420
 16777215
176
     1
 90
        1
176
     1
 90
        4
176
     1
 62
     7
176
     1
 62
   257
176
     1
 90
        1
176
     1
 90
        1
176
     1
 40
1.0
176
     1
 90
        8
176
     1
 62
     7
176
     1
 40
1.0
176
     1
 90
        1
176
     1
 90
        6
176
     1
 90
        2
176
     1
 62
     7
176
     1
 90
        5
176
     1
 90
        0
176
     1
 90
        0
176
     1
290
     0
176
     1
 90
        1
176
     1
 40
50.0
176
     1
 90
        0
176
     1
290
     0
176
     1
290
     1
176
     1
290
     1
176
     1
290
     0
176
     1
290
     0
176
     1
290
     0
176
     1
290
     0
176
     1
290
     0
176
     1
290
     0
176
     1
 90
       50
176
     1
 40
0.0
176
     1
 40
1.0
176
     1
 90
        0
176
     1
 62
    18
420
        0
176
     1
 90
       50
176
     1
 90
        3
176
     1
 62
     5
420
      255
176
     1
290
     0
176
     1
 90
       50
176
     1
 90
       50
176
     1
 90
       50
176
     1
290
     0
176
     1
 90
       50
176
     1
 62
   256
176
     0
 40
1.0
176
     0
 90
        2
176
     1
  1
strokes_ogs.tif
176
     1
290
     0
176
     1
 40
1.0
176
     1
 40
1.0
176
     1
  0
VISUALSTYLE
  5
7F5F
102
{ACAD_REACTORS
330
7F4F
102
}
330
7F4F
100
AcDbVisualStyle
  2
ColorChange
 70
    16
177
     3
291
     1
 70
    58
 90
        2
176
     1
 90
        2
176
     1
 90
        3
176
     1
 90
        0
176
     1
 40
0.6
176
     1
 40
30.0
176
     1
 62
     8
420
  8421504
176
     1
 90
        1
176
     1
 90
        4
176
     1
 62
     7
176
     1
 62
   257
176
     1
 90
        1
176
     1
 90
        1
176
     1
 40
1.0
176
     1
 90
        8
176
     1
 62
     8
420
  8421504
176
     1
 40
1.0
176
     1
 90
        1
176
     1
 90
        6
176
     1
 90
        2
176
     1
 62
     7
176
     1
 90
        5
176
     1
 90
        0
176
     1
 90
        0
176
     1
290
     0
176
     1
 90
        1
176
     1
 40
0.0
176
     1
 90
        0
176
     1
290
     0
176
     1
290
     1
176
     1
290
     1
176
     1
290
     0
176
     1
290
     0
176
     1
290
     0
176
     1
290
     0
176
     1
290
     0
176
     1
290
     0
176
     1
 90
       50
176
     1
 40
0.0
176
     1
 40
1.0
176
     1
 90
        0
176
     1
 62
    18
420
        0
176
     1
 90
       50
176
     1
 90
        3
176
     1
 62
     5
420
      255
176
     1
290
     0
176
     1
 90
       50
176
     1
 90
       50
176
     1
 90
       50
176
     1
290
     0
176
     1
 90
       50
176
     1
 62
   256
176
     0
 40
1.0
176
     0
 90
        2
176
     1
  1
strokes_ogs.tif
176
     1
290
     0
176
     1
 40
1.0
176
     1
 40
1.0
176
     1
  0
VISUALSTYLE
  5
7F58
102
{ACAD_REACTORS
330
7F4F
102
}
330
7F4F
100
AcDbVisualStyle
  2
Conceptual
 70
     9
177
     3
291
     0
 70
    58
 90
        3
176
     1
 90
        2
176
     1
 90
        0
176
     1
 90
        0
176
     1
 40
0.6
176
     1
 40
30.0
176
     1
 62
     7
420
 16777215
176
     1
 90
        2
176
     1
 90
        2
176
     1
 62
     7
176
     1
 62
   257
176
     1
 90
        1
176
     1
 90
        1
176
     1
 40
179.0
176
     1
 90
        8
176
     1
 62
     7
176
     1
 40
1.0
176
     1
 90
        1
176
     1
 90
        6
176
     1
 90
        2
176
     1
 62
     7
176
     1
 90
        3
176
     1
 90
        0
176
     1
 90
        0
176
     1
290
     0
176
     1
 90
        1
176
     1
 40
0.0
176
     1
 90
        0
176
     1
290
     0
176
     1
290
     1
176
     1
290
     1
176
     1
290
     0
176
     1
290
     0
176
     1
290
     0
176
     1
290
     0
176
     1
290
     0
176
     1
290
     0
176
     1
 90
       50
176
     1
 40
0.0
176
     1
 40
1.0
176
     1
 90
        0
176
     1
 62
    18
420
        0
176
     1
 90
       50
176
     1
 90
        3
176
     1
 62
     5
420
      255
176
     1
290
     0
176
     1
 90
       50
176
     1
 90
       50
176
     1
 90
       50
176
     1
290
     0
176
     1
 90
       50
176
     1
 62
   256
176
     0
 40
1.0
176
     0
 90
        2
176
     1
  1
strokes_ogs.tif
176
     1
290
     0
176
     1
 40
1.0
176
     1
 40
1.0
176
     1
  0
VISUALSTYLE
  5
7F5A
102
{ACAD_REACTORS
330
7F4F
102
}
330
7F4F
100
AcDbVisualStyle
  2
Dim
 70
    11
177
     3
291
     1
 70
    58
 90
        2
176
     1
 90
        2
176
     1
 90
        0
176
     1
 90
        0
176
     1
 40
0.6
176
     1
 40
30.0
176
     1
 62
     7
420
 16777215
176
     1
 90
        1
176
     1
 90
        4
176
     1
 62
     7
176
     1
 62
   257
176
     1
 90
        1
176
     1
 90
        1
176
     1
 40
1.0
176
     1
 90
        8
176
     1
 62
     7
176
     1
 40
1.0
176
     1
 90
        1
176
     1
 90
        6
176
     1
 90
        2
176
     1
 62
     7
176
     1
 90
        5
176
     1
 90
        0
176
     1
 90
        0
176
     1
290
     0
176
     1
 90
        1
176
     1
 40
-50.0
176
     1
 90
        0
176
     1
290
     0
176
     1
290
     1
176
     1
290
     1
176
     1
290
     0
176
     1
290
     0
176
     1
290
     0
176
     1
290
     0
176
     1
290
     0
176
     1
290
     0
176
     1
 90
       50
176
     1
 40
0.0
176
     1
 40
1.0
176
     1
 90
        0
176
     1
 62
    18
420
        0
176
     1
 90
       50
176
     1
 90
        3
176
     1
 62
     5
420
      255
176
     1
290
     0
176
     1
 90
       50
176
     1
 90
       50
176
     1
 90
       50
176
     1
290
     0
176
     1
 90
       50
176
     1
 62
   256
176
     0
 40
1.0
176
     0
 90
        2
176
     1
  1
strokes_ogs.tif
176
     1
290
     0
176
     1
 40
1.0
176
     1
 40
1.0
176
     1
  0
VISUALSTYLE
  5
7F67
102
{ACAD_REACTORS
330
7F4F
102
}
330
7F4F
100
AcDbVisualStyle
  2
EdgeColorOff
 70
    22
177
     3
291
     1
 70
    58
 90
        2
176
     0
 90
        2
176
     0
 90
        0
176
     0
 90
        0
176
     0
 40
0.6
176
     0
 40
30.0
176
     0
 62
     7
420
 16777215
176
     0
 90
        1
176
     0
 90
        4
176
     0
 62
     7
176
     0
 62
   257
176
     0
 90
        1
176
     0
 90
        1
176
     0
 40
1.0
176
     0
 90
        8
176
     2
 62
     7
176
     0
 40
1.0
176
     0
 90
        1
176
     0
 90
        6
176
     0
 90
        2
176
     0
 62
     7
176
     0
 90
        5
176
     0
 90
        0
176
     0
 90
        0
176
     0
290
     0
176
     0
 90
        1
176
     0
 40
0.0
176
     0
 90
        0
176
     0
290
     0
176
     0
290
     1
176
     0
290
     1
176
     0
290
     0
176
     0
290
     0
176
     0
290
     0
176
     0
290
     0
176
     0
290
     0
176
     0
290
     0
176
     0
 90
       50
176
     0
 40
0.0
176
     0
 40
1.0
176
     0
 90
        0
176
     0
 62
    18
420
        0
176
     0
 90
       50
176
     0
 90
        3
176
     0
 62
     5
420
      255
176
     0
290
     0
176
     0
 90
       50
176
     0
 90
       50
176
     0
 90
       50
176
     0
290
     0
176
     0
 90
       50
176
     0
 62
   256
176
     0
 40
1.0
176
     0
 90
        2
176
     0
  1
strokes_ogs.tif
176
     0
290
     0
176
     0
 40
1.0
176
     0
 40
1.0
176
     0
  0
VISUALSTYLE
  5
7F5E
102
{ACAD_REACTORS
330
7F4F
102
}
330
7F4F
100
AcDbVisualStyle
  2
Facepattern
 70
    15
177
     3
291
     1
 70
    58
 90
        2
176
     1
 90
        2
176
     1
 90
        0
176
     1
 90
        0
176
     1
 40
0.6
176
     1
 40
30.0
176
     1
 62
     7
420
 16777215
176
     1
 90
        1
176
     1
 90
        4
176
     1
 62
     7
176
     1
 62
   257
176
     1
 90
        1
176
     1
 90
        1
176
     1
 40
1.0
176
     1
 90
        8
176
     1
 62
     7
176
     1
 40
1.0
176
     1
 90
        1
176
     1
 90
        6
176
     1
 90
        2
176
     1
 62
     7
176
     1
 90
        5
176
     1
 90
        0
176
     1
 90
        0
176
     1
290
     0
176
     1
 90
        1
176
     1
 40
0.0
176
     1
 90
        0
176
     1
290
     0
176
     1
290
     1
176
     1
290
     1
176
     1
290
     0
176
     1
290
     0
176
     1
290
     0
176
     1
290
     0
176
     1
290
     0
176
     1
290
     0
176
     1
 90
       50
176
     1
 40
0.0
176
     1
 40
1.0
176
     1
 90
        0
176
     1
 62
    18
420
        0
176
     1
 90
       50
176
     1
 90
        3
176
     1
 62
     5
420
      255
176
     1
290
     0
176
     1
 90
       50
176
     1
 90
       50
176
     1
 90
       50
176
     1
290
     0
176
     1
 90
       50
176
     1
 62
   256
176
     0
 40
1.0
176
     0
 90
        2
176
     1
  1
strokes_ogs.tif
176
     1
290
     0
176
     1
 40
1.0
176
     1
 40
1.0
176
     1
  0
VISUALSTYLE
  5
7F50
102
{ACAD_REACTORS
330
7F4F
102
}
330
7F4F
100
AcDbVisualStyle
  2
Flat
 70
     0
177
     3
291
     1
 70
    58
 90
        2
176
     1
 90
        1
176
     1
 90
        1
176
     1
 90
        2
176
     1
 40
0.6
176
     1
 40
30.0
176
     1
 62
     7
420
 16777215
176
     1
 90
        0
176
     1
 90
        0
176
     1
 62
     7
176
     1
 62
   257
176
     1
 90
        1
176
     1
 90
        1
176
     1
 40
1.0
176
     1
 90
        8
176
     1
 62
     7
176
     1
 40
1.0
176
     1
 90
        1
176
     1
 90
        6
176
     1
 90
        2
176
     1
 62
     7
176
     1
 90
        5
176
     1
 90
        0
176
     1
 90
        0
176
     1
290
     0
176
     1
 90
       13
176
     1
 40
0.0
176
     1
 90
        0
176
     1
290
     0
176
     1
290
     1
176
     1
290
     1
176
     1
290
     0
176
     1
290
     0
176
     1
290
     0
176
     1
290
     0
176
     1
290
     0
176
     1
290
     0
176
     1
 90
       50
176
     1
 40
0.0
176
     1
 40
1.0
176
     1
 90
        0
176
     1
 62
    18
420
        0
176
     1
 90
       50
176
     1
 90
        3
176
     1
 62
     5
420
      255
176
     1
290
     0
176
     1
 90
       50
176
     1
 90
       50
176
     1
 90
       50
176
     1
290
     0
176
     1
 90
       50
176
     1
 62
   256
176
     0
 40
1.0
176
     0
 90
        2
176
     1
  1
strokes_ogs.tif
176
     1
290
     0
176
     1
 40
1.0
176
     1
 40
1.0
176
     1
  0
VISUALSTYLE
  5
7F51
102
{ACAD_REACTORS
330
7F4F
102
}
330
7F4F
100
AcDbVisualStyle
  2
FlatWithEdges
 70
     1
177
     3
291
     1
 70
    58
 90
        2
176
     1
 90
        1
176
     1
 90
        1
176
     1
 90
        2
176
     1
 40
0.6
176
     1
 40
30.0
176
     1
 62
     7
420
 16777215
176
     1
 90
        1
176
     1
 90
        0
176
     1
 62
     7
176
     1
 62
   257
176
     1
 90
        1
176
     1
 90
        1
176
     1
 40
1.0
176
     1
 90
        0
176
     1
 62
   257
176
     1
 40
1.0
176
     1
 90
        1
176
     1
 90
        6
176
     1
 90
        2
176
     1
 62
     7
176
     1
 90
        5
176
     1
 90
        0
176
     1
 90
        0
176
     1
290
     0
176
     1
 90
       13
176
     1
 40
0.0
176
     1
 90
        0
176
     1
290
     0
176
     1
290
     1
176
     1
290
     1
176
     1
290
     0
176
     1
290
     0
176
     1
290
     0
176
     1
290
     0
176
     1
290
     0
176
     1
290
     0
176
     1
 90
       50
176
     1
 40
0.0
176
     1
 40
1.0
176
     1
 90
        0
176
     1
 62
    18
420
        0
176
     1
 90
       50
176
     1
 90
        3
176
     1
 62
     5
420
      255
176
     1
290
     0
176
     1
 90
       50
176
     1
 90
       50
176
     1
 90
       50
176
     1
290
     0
176
     1
 90
       50
176
     1
 62
   256
176
     0
 40
1.0
176
     0
 90
        2
176
     1
  1
strokes_ogs.tif
176
     1
290
     0
176
     1
 40
1.0
176
     1
 40
1.0
176
     1
  0
VISUALSTYLE
  5
7F52
102
{ACAD_REACTORS
330
7F4F
102
}
330
7F4F
100
AcDbVisualStyle
  2
Gouraud
 70
     2
177
     3
291
     1
 70
    58
 90
        2
176
     1
 90
        2
176
     1
 90
        1
176
     1
 90
        2
176
     1
 40
0.6
176
     1
 40
30.0
176
     1
 62
     7
420
 16777215
176
     1
 90
        0
176
     1
 90
        0
176
     1
 62
     7
176
     1
 62
   257
176
     1
 90
        1
176
     1
 90
        1
176
     1
 40
1.0
176
     1
 90
        0
176
     1
 62
     7
176
     1
 40
1.0
176
     1
 90
        1
176
     1
 90
        6
176
     1
 90
        2
176
     1
 62
     7
176
     1
 90
        5
176
     1
 90
        0
176
     1
 90
        0
176
     1
290
     0
176
     1
 90
       13
176
     1
 40
0.0
176
     1
 90
        0
176
     1
290
     0
176
     1
290
     1
176
     1
290
     1
176
     1
290
     0
176
     1
290
     0
176
     1
290
     0
176
     1
290
     0
176
     1
290
     0
176
     1
290
     0
176
     1
 90
       50
176
     1
 40
0.0
176
     1
 40
1.0
176
     1
 90
        0
176
     1
 62
    18
420
        0
176
     1
 90
       50
176
     1
 90
        3
176
     1
 62
     5
420
      255
176
     1
290
     0
176
     1
 90
       50
176
     1
 90
       50
176
     1
 90
       50
176
     1
290
     0
176
     1
 90
       50
176
     1
 62
   256
176
     0
 40
1.0
176
     0
 90
        2
176
     1
  1
strokes_ogs.tif
176
     1
290
     0
176
     1
 40
1.0
176
     1
 40
1.0
176
     1
  0
VISUALSTYLE
  5
7F53
102
{ACAD_REACTORS
330
7F4F
102
}
330
7F4F
100
AcDbVisualStyle
  2
GouraudWithEdges
 70
     3
177
     3
291
     1
 70
    58
 90
        2
176
     1
 90
        2
176
     1
 90
        1
176
     1
 90
        2
176
     1
 40
0.6
176
     1
 40
30.0
176
     1
 62
     7
420
 16777215
176
     1
 90
        1
176
     1
 90
        0
176
     1
 62
     7
176
     1
 62
   257
176
     1
 90
        1
176
     1
 90
        1
176
     1
 40
1.0
176
     1
 90
        0
176
     1
 62
   257
176
     1
 40
1.0
176
     1
 90
        1
176
     1
 90
        6
176
     1
 90
        2
176
     1
 62
     7
176
     1
 90
        5
176
     1
 90
        0
176
     1
 90
        0
176
     1
290
     0
176
     1
 90
       13
176
     1
 40
0.0
176
     1
 90
        0
176
     1
290
     0
176
     1
290
     1
176
     1
290
     1
176
     1
290
     0
176
     1
290
     0
176
     1
290
     0
176
     1
290
     0
176
     1
290
     0
176
     1
290
     0
176
     1
 90
       50
176
     1
 40
0.0
176
     1
 40
1.0
176
     1
 90
        0
176
     1
 62
    18
420
        0
176
     1
 90
       50
176
     1
 90
        3
176
     1
 62
     5
420
      255
176
     1
290
     0
176
     1
 90
       50
176
     1
 90
       50
176
     1
 90
       50
176
     1
290
     0
176
     1
 90
       50
176
     1
 62
   256
176
     0
 40
1.0
176
     0
 90
        2
176
     1
  1
strokes_ogs.tif
176
     1
290
     0
176
     1
 40
1.0
176
     1
 40
1.0
176
     1
  0
VISUALSTYLE
  5
7F57
102
{ACAD_REACTORS
330
7F4F
102
}
330
7F4F
100
AcDbVisualStyle
  2
Hidden
 70
     6
177
     3
291
     0
 70
    58
 90
        1
176
     1
 90
        2
176
     1
 90
        2
176
     1
 90
        0
176
     1
 40
0.6
176
     1
 40
30.0
176
     1
 62
     7
420
 16777215
176
     1
 90
        2
176
     1
 90
        2
176
     1
 62
     7
176
     1
 62
   257
176
     1
 90
        2
176
     1
 90
        1
176
     1
 40
40.0
176
     1
 90
        0
176
     1
 62
   257
176
     1
 40
1.0
176
     1
 90
        1
176
     1
 90
        6
176
     1
 90
        2
176
     1
 62
     7
176
     1
 90
        3
176
     1
 90
        0
176
     1
 90
        0
176
     1
290
     0
176
     1
 90
        1
176
     1
 40
0.0
176
     1
 90
        0
176
     1
290
     0
176
     1
290
     1
176
     1
290
     1
176
     1
290
     0
176
     1
290
     0
176
     1
290
     0
176
     1
290
     0
176
     1
290
     0
176
     1
290
     0
176
     1
 90
       50
176
     1
 40
0.0
176
     1
 40
1.0
176
     1
 90
        0
176
     1
 62
    18
420
        0
176
     1
 90
       50
176
     1
 90
        3
176
     1
 62
     5
420
      255
176
     1
290
     0
176
     1
 90
       50
176
     1
 90
       50
176
     1
 90
       50
176
     1
290
     0
176
     1
 90
       50
176
     1
 62
   256
176
     0
 40
1.0
176
     0
 90
        2
176
     1
  1
strokes_ogs.tif
176
     1
290
     0
176
     1
 40
1.0
176
     1
 40
1.0
176
     1
  0
VISUALSTYLE
  5
7F65
102
{ACAD_REACTORS
330
7F4F
102
}
330
7F4F
100
AcDbVisualStyle
  2
JitterOff
 70
    20
177
     3
291
     1
 70
    58
 90
        2
176
     0
 90
        2
176
     0
 90
        0
176
     0
 90
        0
176
     0
 40
0.6
176
     0
 40
30.0
176
     0
 62
     7
420
 16777215
176
     0
 90
        1
176
     0
 90
        4
176
     0
 62
     7
176
     0
 62
   257
176
     0
 90
        1
176
     0
 90
        1
176
     0
 40
1.0
176
     0
 90
       10
176
     2
 62
     7
176
     0
 40
1.0
176
     0
 90
        1
176
     0
 90
        6
176
     0
 90
        2
176
     0
 62
     7
176
     0
 90
        5
176
     0
 90
        0
176
     0
 90
        0
176
     0
290
     0
176
     0
 90
        1
176
     0
 40
0.0
176
     0
 90
        0
176
     0
290
     0
176
     0
290
     1
176
     0
290
     1
176
     0
290
     0
176
     0
290
     0
176
     0
290
     0
176
     0
290
     0
176
     0
290
     0
176
     0
290
     0
176
     0
 90
       50
176
     0
 40
0.0
176
     0
 40
1.0
176
     0
 90
        0
176
     0
 62
    18
420
        0
176
     0
 90
       50
176
     0
 90
        3
176
     0
 62
     5
420
      255
176
     0
290
     0
176
     0
 90
       50
176
     0
 90
       50
176
     0
 90
       50
176
     0
290
     0
176
     0
 90
       50
176
     0
 62
   256
176
     0
 40
1.0
176
     0
 90
        2
176
     0
  1
strokes_ogs.tif
176
     0
290
     0
176
     0
 40
1.0
176
     0
 40
1.0
176
     0
  0
VISUALSTYLE
  5
7F5D
102
{ACAD_REACTORS
330
7F4F
102
}
330
7F4F
100
AcDbVisualStyle
  2
Linepattern
 70
    14
177
     3
291
     1
 70
    58
 90
        2
176
     1
 90
        2
176
     1
 90
        0
176
     1
 90
        0
176
     1
 40
0.6
176
     1
 40
30.0
176
     1
 62
     7
420
 16777215
176
     1
 90
        1
176
     1
 90
        4
176
     1
 62
     7
176
     1
 62
   257
176
     1
 90
        7
176
     1
 90
        7
176
     1
 40
1.0
176
     1
 90
        8
176
     1
 62
     7
176
     1
 40
1.0
176
     1
 90
        1
176
     1
 90
        6
176
     1
 90
        2
176
     1
 62
     7
176
     1
 90
        5
176
     1
 90
        0
176
     1
 90
        0
176
     1
290
     0
176
     1
 90
        1
176
     1
 40
0.0
176
     1
 90
        0
176
     1
290
     0
176
     1
290
     1
176
     1
290
     1
176
     1
290
     0
176
     1
290
     0
176
     1
290
     0
176
     1
290
     0
176
     1
290
     0
176
     1
290
     0
176
     1
 90
       50
176
     1
 40
0.0
176
     1
 40
1.0
176
     1
 90
        0
176
     1
 62
    18
420
        0
176
     1
 90
       50
176
     1
 90
        3
176
     1
 62
     5
420
      255
176
     1
290
     0
176
     1
 90
       50
176
     1
 90
       50
176
     1
 90
       50
176
     1
290
     0
176
     1
 90
       50
176
     1
 62
   256
176
     0
 40
1.0
176
     0
 90
        2
176
     1
  1
strokes_ogs.tif
176
     1
290
     0
176
     1
 40
1.0
176
     1
 40
1.0
176
     1
  0
VISUALSTYLE
  5
7F66
102
{ACAD_REACTORS
330
7F4F
102
}
330
7F4F
100
AcDbVisualStyle
  2
OverhangOff
 70
    21
177
     3
291
     1
 70
    58
 90
        2
176
     0
 90
        2
176
     0
 90
        0
176
     0
 90
        0
176
     0
 40
0.6
176
     0
 40
30.0
176
     0
 62
     7
420
 16777215
176
     0
 90
        1
176
     0
 90
        4
176
     0
 62
     7
176
     0
 62
   257
176
     0
 90
        1
176
     0
 90
        1
176
     0
 40
1.0
176
     0
 90
        9
176
     2
 62
     7
176
     0
 40
1.0
176
     0
 90
        1
176
     0
 90
        6
176
     0
 90
        2
176
     0
 62
     7
176
     0
 90
        5
176
     0
 90
        0
176
     0
 90
        0
176
     0
290
     0
176
     0
 90
        1
176
     0
 40
0.0
176
     0
 90
        0
176
     0
290
     0
176
     0
290
     1
176
     0
290
     1
176
     0
290
     0
176
     0
290
     0
176
     0
290
     0
176
     0
290
     0
176
     0
290
     0
176
     0
290
     0
176
     0
 90
       50
176
     0
 40
0.0
176
     0
 40
1.0
176
     0
 90
        0
176
     0
 62
    18
420
        0
176
     0
 90
       50
176
     0
 90
        3
176
     0
 62
     5
420
      255
176
     0
290
     0
176
     0
 90
       50
176
     0
 90
       50
176
     0
 90
       50
176
     0
290
     0
176
     0
 90
       50
176
     0
 62
   256
176
     0
 40
1.0
176
     0
 90
        2
176
     0
  1
strokes_ogs.tif
176
     0
290
     0
176
     0
 40
1.0
176
     0
 40
1.0
176
     0
  0
VISUALSTYLE
  5
7F59
102
{ACAD_REACTORS
330
7F4F
102
}
330
7F4F
100
AcDbVisualStyle
  2
Realistic
 70
     8
177
     3
291
     0
 70
    58
 90
        2
176
     1
 90
        3
176
     1
 90
        0
176
     1
 90
        2
176
     1
 40
0.6
176
     1
 40
30.0
176
     1
 62
     7
420
 16777215
176
     1
 90
        0
176
     1
 90
        0
176
     1
 62
     7
176
     1
 62
   257
176
     1
 90
        1
176
     1
 90
        1
176
     1
 40
1.0
176
     1
 90
        8
176
     1
 62
   257
176
     1
 40
1.0
176
     1
 90
        1
176
     1
 90
        6
176
     1
 90
        2
176
     1
 62
     7
176
     1
 90
        3
176
     1
 90
        0
176
     1
 90
        0
176
     1
290
     0
176
     1
 90
       13
176
     1
 40
0.0
176
     1
 90
        0
176
     1
290
     0
176
     1
290
     1
176
     1
290
     1
176
     1
290
     0
176
     1
290
     0
176
     1
290
     0
176
     1
290
     0
176
     1
290
     0
176
     1
290
     0
176
     1
 90
       50
176
     1
 40
0.0
176
     1
 40
1.0
176
     1
 90
        0
176
     1
 62
    18
420
        0
176
     1
 90
       50
176
     1
 90
        3
176
     1
 62
     5
420
      255
176
     1
290
     0
176
     1
 90
       50
176
     1
 90
       50
176
     1
 90
       50
176
     1
290
     0
176
     1
 90
       50
176
     1
 62
   256
176
     0
 40
1.0
176
     0
 90
        2
176
     1
  1
strokes_ogs.tif
176
     1
290
     0
176
     1
 40
1.0
176
     1
 40
1.0
176
     1
  0
VISUALSTYLE
  5
7F64
102
{ACAD_REACTORS
330
7F4F
102
}
330
7F4F
100
AcDbVisualStyle
  2
Shaded
 70
    27
177
     3
291
     0
 70
    58
 90
        2
176
     1
 90
        2
176
     1
 90
        1
176
     1
 90
        2
176
     1
 40
0.6
176
     1
 40
30.0
176
     1
 62
     7
420
 16777215
176
     1
 90
        0
176
     1
 90
        4
176
     1
 62
     7
176
     1
 62
   257
176
     1
 90
        1
176
     1
 90
        1
176
     1
 40
1.0
176
     1
 90
        8
176
     1
 62
   257
176
     1
 40
1.0
176
     1
 90
        1
176
     1
 90
        6
176
     1
 90
        2
176
     1
 62
     8
420
  7895160
176
     1
 90
        3
176
     1
 90
        0
176
     1
 90
        0
176
     1
290
     0
176
     1
 90
        5
176
     1
 40
0.0
176
     1
 90
        0
176
     1
290
     0
176
     1
290
     1
176
     1
290
     1
176
     1
290
     0
176
     1
290
     0
176
     1
290
     0
176
     1
290
     0
176
     1
290
     0
176
     1
290
     0
176
     1
 90
       50
176
     1
 40
0.0
176
     1
 40
1.0
176
     1
 90
        0
176
     1
 62
    18
420
        0
176
     1
 90
       50
176
     1
 90
        3
176
     1
 62
     5
420
      255
176
     1
290
     0
176
     1
 90
       50
176
     1
 90
       50
176
     1
 90
       50
176
     1
290
     0
176
     1
 90
       50
176
     1
 62
   256
176
     0
 40
1.0
176
     0
 90
        2
176
     1
  1
strokes_ogs.tif
176
     1
290
     0
176
     1
 40
1.0
176
     1
 40
1.0
176
     1
  0
VISUALSTYLE
  5
7F63
102
{ACAD_REACTORS
330
7F4F
102
}
330
7F4F
100
AcDbVisualStyle
  2
Shaded with edges
 70
    26
177
     3
291
     0
 70
    58
 90
        2
176
     1
 90
        2
176
     1
 90
        1
176
     1
 90
        2
176
     1
 40
0.6
176
     1
 40
30.0
176
     1
 62
     7
420
 16777215
176
     1
 90
        1
176
     1
 90
       10
176
     1
 62
     7
176
     1
 62
   257
176
     1
 90
        2
176
     1
 90
        1
176
     1
 40
1.0
176
     1
 90
        8
176
     1
 62
   257
176
     1
 40
1.0
176
     1
 90
        1
176
     1
 90
        6
176
     1
 90
        2
176
     1
 62
     7
176
     1
 90
        3
176
     1
 90
        0
176
     1
 90
        0
176
     1
290
     0
176
     1
 90
        5
176
     1
 40
0.0
176
     1
 90
        0
176
     1
290
     0
176
     1
290
     1
176
     1
290
     1
176
     1
290
     0
176
     1
290
     0
176
     1
290
     0
176
     1
290
     0
176
     1
290
     0
176
     1
290
     0
176
     1
 90
       50
176
     1
 40
0.0
176
     1
 40
1.0
176
     1
 90
        0
176
     1
 62
    18
420
        0
176
     1
 90
       50
176
     1
 90
        3
176
     1
 62
     5
420
      255
176
     1
290
     0
176
     1
 90
       50
176
     1
 90
       50
176
     1
 90
       50
176
     1
290
     0
176
     1
 90
       50
176
     1
 62
   256
176
     0
 40
1.0
176
     0
 90
        2
176
     1
  1
strokes_ogs.tif
176
     1
290
     0
176
     1
 40
1.0
176
     1
 40
1.0
176
     1
  0
VISUALSTYLE
  5
7F60
102
{ACAD_REACTORS
330
7F4F
102
}
330
7F4F
100
AcDbVisualStyle
  2
Shades of Gray
 70
    23
177
     3
291
     0
 70
    58
 90
        2
176
     1
 90
        2
176
     1
 90
        3
176
     1
 90
        0
176
     1
 40
0.6
176
     1
 40
30.0
176
     1
 62
     7
420
 16777215
176
     1
 90
        2
176
     1
 90
        2
176
     1
 62
     7
176
     1
 62
     7
176
     1
 90
        1
176
     1
 90
        1
176
     1
 40
40.0
176
     1
 90
        8
176
     1
 62
     7
176
     1
 40
1.0
176
     1
 90
        1
176
     1
 90
        6
176
     1
 90
        2
176
     1
 62
     7
176
     1
 90
        3
176
     1
 90
        0
176
     1
 90
        0
176
     1
290
     0
176
     1
 90
        1
176
     1
 40
0.0
176
     1
 90
        0
176
     1
290
     0
176
     1
290
     1
176
     1
290
     1
176
     1
290
     0
176
     1
290
     0
176
     1
290
     0
176
     1
290
     0
176
     1
290
     0
176
     1
290
     0
176
     1
 90
       50
176
     1
 40
0.0
176
     1
 40
1.0
176
     1
 90
        0
176
     1
 62
    18
420
        0
176
     1
 90
       50
176
     1
 90
        3
176
     1
 62
     5
420
      255
176
     1
290
     0
176
     1
 90
       50
176
     1
 90
       50
176
     1
 90
       50
176
     1
290
     0
176
     1
 90
       50
176
     1
 62
   256
176
     0
 40
1.0
176
     0
 90
        2
176
     1
  1
strokes_ogs.tif
176
     1
290
     0
176
     1
 40
1.0
176
     1
 40
1.0
176
     1
  0
VISUALSTYLE
  5
7F61
102
{ACAD_REACTORS
330
7F4F
102
}
330
7F4F
100
AcDbVisualStyle
  2
Sketchy
 70
    24
177
     3
291
     0
 70
    58
 90
        1
176
     1
 90
        2
176
     1
 90
        2
176
     1
 90
        0
176
     1
 40
0.6
176
     1
 40
30.0
176
     1
 62
     7
420
 16777215
176
     1
 90
        2
176
     1
 90
        2
176
     1
 62
     7
176
     1
 62
     7
176
     1
 90
        1
176
     1
 90
        1
176
     1
 40
40.0
176
     1
 90
       11
176
     1
 62
     7
176
     1
 40
1.0
176
     1
 90
        1
176
     1
 90
        6
176
     1
 90
        2
176
     1
 62
     7
176
     1
 90
        6
176
     1
 90
        0
176
     1
 90
        0
176
     1
290
     0
176
     1
 90
        1
176
     1
 40
0.0
176
     1
 90
        0
176
     1
290
     0
176
     1
290
     1
176
     1
290
     1
176
     1
290
     0
176
     1
290
     0
176
     1
290
     0
176
     1
290
     0
176
     1
290
     0
176
     1
290
     0
176
     1
 90
       50
176
     1
 40
0.0
176
     1
 40
1.0
176
     1
 90
        0
176
     1
 62
    18
420
        0
176
     1
 90
       50
176
     1
 90
        3
176
     1
 62
     5
420
      255
176
     1
290
     0
176
     1
 90
       50
176
     1
 90
       50
176
     1
 90
       50
176
     1
290
     0
176
     1
 90
       50
176
     1
 62
   256
176
     0
 40
1.0
176
     0
 90
        2
176
     1
  1
strokes_ogs.tif
176
     1
290
     0
176
     1
 40
1.0
176
     1
 40
1.0
176
     1
  0
VISUALSTYLE
  5
7F5C
102
{ACAD_REACTORS
330
7F4F
102
}
330
7F4F
100
AcDbVisualStyle
  2
Thicken
 70
    13
177
     3
291
     1
 70
    58
 90
        2
176
     1
 90
        2
176
     1
 90
        0
176
     1
 90
        0
176
     1
 40
0.6
176
     1
 40
30.0
176
     1
 62
     7
420
 16777215
176
     1
 90
        1
176
     1
 90
        4
176
     1
 62
     7
176
     1
 62
   257
176
     1
 90
        1
176
     1
 90
        1
176
     1
 40
1.0
176
     1
 90
       12
176
     1
 62
     7
176
     1
 40
1.0
176
     1
 90
        1
176
     1
 90
        6
176
     1
 90
        2
176
     1
 62
     7
176
     1
 90
        5
176
     1
 90
        0
176
     1
 90
        0
176
     1
290
     0
176
     1
 90
        1
176
     1
 40
0.0
176
     1
 90
        0
176
     1
290
     0
176
     1
290
     1
176
     1
290
     1
176
     1
290
     0
176
     1
290
     0
176
     1
290
     0
176
     1
290
     0
176
     1
290
     0
176
     1
290
     0
176
     1
 90
       50
176
     1
 40
0.0
176
     1
 40
1.0
176
     1
 90
        0
176
     1
 62
    18
420
        0
176
     1
 90
       50
176
     1
 90
        3
176
     1
 62
     5
420
      255
176
     1
290
     0
176
     1
 90
       50
176
     1
 90
       50
176
     1
 90
       50
176
     1
290
     0
176
     1
 90
       50
176
     1
 62
   256
176
     0
 40
1.0
176
     0
 90
        2
176
     1
  1
strokes_ogs.tif
176
     1
290
     0
176
     1
 40
1.0
176
     1
 40
1.0
176
     1
  0
VISUALSTYLE
  5
7F56
102
{ACAD_REACTORS
330
7F4F
102
}
330
7F4F
100
AcDbVisualStyle
  2
Wireframe
 70
     5
177
     3
291
     0
 70
    58
 90
        0
176
     1
 90
        2
176
     1
 90
        0
176
     1
 90
        0
176
     1
 40
0.6
176
     1
 40
30.0
176
     1
 62
     7
420
 16777215
176
     1
 90
        1
176
     1
 90
        4
176
     1
 62
     7
176
     1
 62
   257
176
     1
 90
        1
176
     1
 90
        1
176
     1
 40
1.0
176
     1
 90
        0
176
     1
 62
   257
176
     1
 40
1.0
176
     1
 90
        1
176
     1
 90
        6
176
     1
 90
        2
176
     1
 62
     7
176
     1
 90
        3
176
     1
 90
        0
176
     1
 90
        0
176
     1
290
     0
176
     1
 90
        1
176
     1
 40
0.0
176
     1
 90
        0
176
     1
290
     0
176
     1
290
     1
176
     1
290
     1
176
     1
290
     0
176
     1
290
     0
176
     1
290
     0
176
     1
290
     0
176
     1
290
     0
176
     1
290
     0
176
     1
 90
       50
176
     1
 40
0.0
176
     1
 40
1.0
176
     1
 90
        0
176
     1
 62
    18
420
        0
176
     1
 90
       50
176
     1
 90
        3
176
     1
 62
     5
420
      255
176
     1
290
     0
176
     1
 90
       50
176
     1
 90
       50
176
     1
 90
       50
176
     1
290
     0
176
     1
 90
       50
176
     1
 62
   256
176
     0
 40
1.0
176
     0
 90
        2
176
     1
  1
strokes_ogs.tif
176
     1
290
     0
176
     1
 40
1.0
176
     1
 40
1.0
176
     1
  0
VISUALSTYLE
  5
7F62
102
{ACAD_REACTORS
330
7F4F
102
}
330
7F4F
100
AcDbVisualStyle
  2
X-Ray
 70
    25
177
     3
291
     0
 70
    58
 90
        2
176
     1
 90
        2
176
     1
 90
        1
176
     1
 90
        1
176
     1
 40
0.5
176
     1
 40
30.0
176
     1
 62
     7
420
 16777215
176
     1
 90
        1
176
     1
 90
        0
176
     1
 62
     7
176
     1
 62
   257
176
     1
 90
        1
176
     1
 90
        1
176
     1
 40
1.0
176
     1
 90
        8
176
     1
 62
     7
176
     1
 40
1.0
176
     1
 90
        1
176
     1
 90
        6
176
     1
 90
        2
176
     1
 62
     7
176
     1
 90
        3
176
     1
 90
        0
176
     1
 90
        0
176
     1
290
     0
176
     1
 90
       13
176
     1
 40
0.0
176
     1
 90
        0
176
     1
290
     0
176
     1
290
     1
176
     1
290
     1
176
     1
290
     0
176
     1
290
     0
176
     1
290
     0
176
     1
290
     0
176
     1
290
     0
176
     1
290
     0
176
     1
 90
       50
176
     1
 40
0.0
176
     1
 40
1.0
176
     1
 90
        0
176
     1
 62
    18
420
        0
176
     1
 90
       50
176
     1
 90
        3
176
     1
 62
     5
420
      255
176
     1
290
     0
176
     1
 90
       50
176
     1
 90
       50
176
     1
 90
       50
176
     1
290
     0
176
     1
 90
       50
176
     1
 62
   256
176
     0
 40
1.0
176
     0
 90
        2
176
     1
  1
strokes_ogs.tif
176
     1
290
     0
176
     1
 40
1.0
176
     1
 40
1.0
176
     1
  0
DICTIONARYVAR
  5
7FF6
102
{ACAD_REACTORS
330
7F29
102
}
330
7F29
100
DictionaryVariables
280
     0
  1
1:1
  0
DICTIONARYVAR
  5
7FF2
102
{ACAD_REACTORS
330
7F29
102
}
330
7F29
100
DictionaryVariables
280
     0
  1
STANDARD
  0
DICTIONARYVAR
  5
7FF1
102
{ACAD_REACTORS
330
7F29
102
}
330
7F29
100
DictionaryVariables
280
     0
  1
STANDARD
  0
DICTIONARYVAR
  5
7FF3
102
{ACAD_REACTORS
330
7F29
102
}
330
7F29
100
DictionaryVariables
280
     0
  1
Imperial24
  0
DICTIONARYVAR
  5
7FF4
102
{ACAD_REACTORS
330
7F29
102
}
330
7F29
100
DictionaryVariables
280
     0
  1
Imperial24
  0
DICTIONARYVAR
  5
7F2A
102
{ACAD_REACTORS
330
7F29
102
}
330
7F29
100
DictionaryVariables
280
     0
  1
1
  0
DICTIONARYVAR
  5
7FF8
102
{ACAD_REACTORS
330
7F29
102
}
330
7F29
100
DictionaryVariables
280
     0
  1
1
  0
DICTIONARYVAR
  5
7FF9
102
{ACAD_REACTORS
330
7F29
102
}
330
7F29
100
DictionaryVariables
280
     0
  1
15
  0
DICTIONARYVAR
  5
7FF7
102
{ACAD_REACTORS
330
7F29
102
}
330
7F29
100
DictionaryVariables
280
     0
  1
0
  0
DICTIONARYVAR
  5
7FF5
102
{ACAD_REACTORS
330
7F29
102
}
330
7F29
100
DictionaryVariables
280
     0
  1
0
  0
DICTIONARY
  5
7FEE
330
7F82
100
AcDbDictionary
280
     1
281
     1
  3
ACAD_XREC_ROUNDTRIP
360
8032
  0
DICTIONARY
  5
7F40
330
7F3F
100
AcDbDictionary
280
     1
281
     1
  3
BUMPTILE
360
7F42
  3
DIFFUSETILE
360
7F41
  3
OPACITYTILE
360
7F45
  3
REFLECTIONTILE
360
7F44
  3
REFRACTIONTILE
360
7F46
  3
SPECULARTILE
360
7F43
  0
DICTIONARY
  5
7F38
330
7F37
100
AcDbDictionary
280
     1
281
     1
  3
BUMPTILE
360
7F3A
  3
DIFFUSETILE
360
7F39
  3
OPACITYTILE
360
7F3D
  3
REFLECTIONTILE
360
7F3C
  3
REFRACTIONTILE
360
7F3E
  3
SPECULARTILE
360
7F3B
  0
DICTIONARY
  5
7F48
330
7F47
100
AcDbDictionary
280
     1
281
     1
  3
BUMPTILE
360
7F4A
  3
DIFFUSETILE
360
7F49
  3
OPACITYTILE
360
7F4D
  3
REFLECTIONTILE
360
7F4C
  3
REFRACTIONTILE
360
7F4E
  3
SPECULARTILE
360
7F4B
  0
DICTIONARY
  5
7FEC
330
7F80
100
AcDbDictionary
280
     1
281
     1
  3
ACAD_XREC_ROUNDTRIP
360
8031
  0
DICTIONARY
  5
802F
330
7F6A
100
AcDbDictionary
280
     1
281
     1
  3
ACAD_ROUNDTRIP_2008_TABLESTYLE_CELLSTYLEMAP
360
8030
  0
XRECORD
  5
8032
102
{ACAD_REACTORS
330
7FEE
102
}
330
7FEE
100
AcDbXrecord
280
     1
102
DISPLAYNAME
  1
Imperial24
102
FLAGS
 90
        0
  0
XRECORD
  5
7F42
102
{ACAD_REACTORS
330
7F40
102
}
330
7F40
100
AcDbXrecord
280
     1
270
     1
271
     1
  0
XRECORD
  5
7F41
102
{ACAD_REACTORS
330
7F40
102
}
330
7F40
100
AcDbXrecord
280
     1
270
     1
271
     1
  0
XRECORD
  5
7F45
102
{ACAD_REACTORS
330
7F40
102
}
330
7F40
100
AcDbXrecord
280
     1
270
     1
271
     1
  0
XRECORD
  5
7F44
102
{ACAD_REACTORS
330
7F40
102
}
330
7F40
100
AcDbXrecord
280
     1
270
     1
271
     1
  0
XRECORD
  5
7F46
102
{ACAD_REACTORS
330
7F40
102
}
330
7F40
100
AcDbXrecord
280
     1
270
     1
271
     1
  0
XRECORD
  5
7F43
102
{ACAD_REACTORS
330
7F40
102
}
330
7F40
100
AcDbXrecord
280
     1
270
     1
271
     1
  0
XRECORD
  5
7F3A
102
{ACAD_REACTORS
330
7F38
102
}
330
7F38
100
AcDbXrecord
280
     1
270
     1
271
     1
  0
XRECORD
  5
7F39
102
{ACAD_REACTORS
330
7F38
102
}
330
7F38
100
AcDbXrecord
280
     1
270
     1
271
     1
  0
XRECORD
  5
7F3D
102
{ACAD_REACTORS
330
7F38
102
}
330
7F38
100
AcDbXrecord
280
     1
270
     1
271
     1
  0
XRECORD
  5
7F3C
102
{ACAD_REACTORS
330
7F38
102
}
330
7F38
100
AcDbXrecord
280
     1
270
     1
271
     1
  0
XRECORD
  5
7F3E
102
{ACAD_REACTORS
330
7F38
102
}
330
7F38
100
AcDbXrecord
280
     1
270
     1
271
     1
  0
XRECORD
  5
7F3B
102
{ACAD_REACTORS
330
7F38
102
}
330
7F38
100
AcDbXrecord
280
     1
270
     1
271
     1
  0
XRECORD
  5
7F4A
102
{ACAD_REACTORS
330
7F48
102
}
330
7F48
100
AcDbXrecord
280
     1
270
     1
271
     1
  0
XRECORD
  5
7F49
102
{ACAD_REACTORS
330
7F48
102
}
330
7F48
100
AcDbXrecord
280
     1
270
     1
271
     1
  0
XRECORD
  5
7F4D
102
{ACAD_REACTORS
330
7F48
102
}
330
7F48
100
AcDbXrecord
280
     1
270
     1
271
     1
  0
XRECORD
  5
7F4C
102
{ACAD_REACTORS
330
7F48
102
}
330
7F48
100
AcDbXrecord
280
     1
270
     1
271
     1
  0
XRECORD
  5
7F4E
102
{ACAD_REACTORS
330
7F48
102
}
330
7F48
100
AcDbXrecord
280
     1
270
     1
271
     1
  0
XRECORD
  5
7F4B
102
{ACAD_REACTORS
330
7F48
102
}
330
7F48
100
AcDbXrecord
280
     1
270
     1
271
     1
  0
XRECORD
  5
8031
102
{ACAD_REACTORS
330
7FEC
102
}
330
7FEC
100
AcDbXrecord
280
     1
102
DISPLAYNAME
  1
Imperial24
102
FLAGS
 90
        0
  0
CELLSTYLEMAP
  5
8030
102
{ACAD_REACTORS
330
802F
102
}
330
802F
100
AcDbCellStyleMap
 90
        3
300
CELLSTYLE
  1
TABLEFORMAT_BEGIN
 90
        5
170
     1
 91
        0
 92
    32768
 62
   257
 93
        1
300
CONTENTFORMAT
  1
CONTENTFORMAT_BEGIN
 90
        0
 91
        0
 92
      512
 93
        0
300

 40
0.0
140
1.0
 94
        5
 62
     0
340
10
144
0.25
309
CONTENTFORMAT_END
171
     0
 94
        0
309
TABLEFORMAT_END
  1
CELLSTYLE_BEGIN
 90
        1
 91
        1
300
_TITLE
309
CELLSTYLE_END
300
CELLSTYLE
  1
TABLEFORMAT_BEGIN
 90
        5
170
     1
 91
        0
 92
        0
 62
   257
 93
        1
300
CONTENTFORMAT
  1
CONTENTFORMAT_BEGIN
 90
        0
 91
        0
 92
      512
 93
        0
300

 40
0.0
140
1.0
 94
        5
 62
     0
340
10
144
0.18
309
CONTENTFORMAT_END
171
     0
 94
        0
309
TABLEFORMAT_END
  1
CELLSTYLE_BEGIN
 90
        2
 91
        1
300
_HEADER
309
CELLSTYLE_END
300
CELLSTYLE
  1
TABLEFORMAT_BEGIN
 90
        5
170
     1
 91
        0
 92
        0
 62
   257
 93
        1
300
CONTENTFORMAT
  1
CONTENTFORMAT_BEGIN
 90
        0
 91
        0
 92
      512
 93
        0
300

 40
0.0
140
1.0
 94
        2
 62
     0
340
10
144
0.18
309
CONTENTFORMAT_END
171
     0
 94
        0
309
TABLEFORMAT_END
  1
CELLSTYLE_BEGIN
 90
        3
 91
        2
300
_DATA
309
CELLSTYLE_END
  0
ENDSEC
  0
SECTION
  2
ACDSDATA
 70
     2
 71
     8
  0
ACDSSCHEMA
 90
        0
  1
AcDb_Thumbnail_Schema
  2
AcDbDs::ID
280
    10
 91
        8
  2
Thumbnail_Data
280
    15
 91
        0
101
ACDSRECORD
 95
        0
 90
        1
  2
AcDbDs::TreatedAsObjectData
280
     1
291
     1
101
ACDSRECORD
 95
        0
 90
        2
  2
AcDbDs::Legacy
280
     1
291
     1
101
ACDSRECORD
  1
AcDbDs::ID
 90
        3
  2
AcDs:Indexable
280
     1
291
     1
101
ACDSRECORD
  1
AcDbDs::ID
 90
        4
  2
AcDbDs::HandleAttribute
280
     7
282
     1
  0
ACDSSCHEMA
 90
        1
  1
AcDbDs::TreatedAsObjectDataSchema
  2
AcDbDs::TreatedAsObjectData
280
     1
 91
        0
  0
ACDSSCHEMA
 90
        2
  1
AcDbDs::LegacySchema
  2
AcDbDs::Legacy
280
     1
 91
        0
  0
ACDSSCHEMA
 90
        3
  1
AcDbDs::IndexedPropertySchema
  2
AcDs:Indexable
280
     1
 91
        0
  0
ACDSSCHEMA
 90
        4
  1
AcDbDs::HandleAttributeSchema
  2
AcDbDs::HandleAttribute
280
     7
 91
        1
284
     1
  0
ACDSRECORD
 90
        0
  2
AcDbDs::ID
280
    10
320
7E54
  2
Thumbnail_Data
280
    15
 94
     1825
310
89504E470D0A1A0A0000000D49484452000001000000007C0803000000B13B9E5A00000300504C5445000000000000C8C8C80000000000000000000000000000000000000000000000000000330000660000990000CC0000FF0033000033330033660033990033CC0033FF0066000066330066660066990066CC0066FF0099
310
000099330099660099990099CC0099FF00CC0000CC3300CC6600CC9900CCCC00CCFF00FF0000FF3300FF6600FF9900FFCC00FFFF3300003300333300663300993300CC3300FF3333003333333333663333993333CC3333FF3366003366333366663366993366CC3366FF3399003399333399663399993399CC3399FF33CC00
310
33CC3333CC6633CC9933CCCC33CCFF33FF0033FF3333FF6633FF9933FFCC33FFFF6600006600336600666600996600CC6600FF6633006633336633666633996633CC6633FF6666006666336666666666996666CC6666FF6699006699336699666699996699CC6699FF66CC0066CC3366CC6666CC9966CCCC66CCFF66FF0066
310
FF3366FF6666FF9966FFCC66FFFF9900009900339900669900999900CC9900FF9933009933339933669933999933CC9933FF9966009966339966669966999966CC9966FF9999009999339999669999999999CC9999FF99CC0099CC3399CC6699CC9999CCCC99CCFF99FF0099FF3399FF6699FF9999FFCC99FFFFCC0000CC00
310
33CC0066CC0099CC00CCCC00FFCC3300CC3333CC3366CC3399CC33CCCC33FFCC6600CC6633CC6666CC6699CC66CCCC66FFCC9900CC9933CC9966CC9999CC99CCCC99FFCCCC00CCCC33CCCC66CCCC99CCCCCCCCCCFFCCFF00CCFF33CCFF66CCFF99CCFFCCCCFFFFFF0000FF0033FF0066FF0099FF00CCFF00FFFF3300FF3333
310
FF3366FF3399FF33CCFF33FFFF6600FF6633FF6666FF6699FF66CCFF66FFFF9900FF9933FF9966FF9999FF99CCFF99FFFFCC00FFCC33FFCC66FFCC99FFCCCCFFCCFFFFFF00FFFF33FFFF66FFFF99FFFFCCFFFFFF0000000D0D0D1A1A1A2828283535354343435050505D5D5D6B6B6B787878868686939393A1A1A1AEAEAEBB
310
BBBBC9C9C9D6D6D6E4E4E4F1F1F1FFFFFF00000000000000000000000000000000000000000000000000000000000008F1915C000003A94944415478DAED9D597223310886398E5EB8FF65B886DE675A0B022DB6939AAAB1803FA9D8EE56A7C22784D09212C03729EF048E943FBC6618C05AE1EE00CC4EEF1140760CC0420C
310
C8FF5826AAF17B7E5D00F85F008A2BE7FE9A6BA99CE58DBDB75F0AA09826037B6FD0B95E80DC8C1737F24803F2B0FB4E0079FC607B73B3B9D9DB6A1D74BCCBF2D9AB9B40AB63E901307980FE303CC006806E434FEE72AB72909E3FBCA0DD5AED8F5E20004426E856379B7EACC9D38D2C9F831116AF7500D5F749579EB222D1
310
07804C1220F397450F0095FB70D6083247AA5F8E4380E3E0170A8542A1502874AF10DFDDA7478E01C053C02180E4150036A5FEC61900FEE8D503D06113D0F21903D8FCB4930700AABA3D7A4000606B77DDA0FD4C10651FA000804300AD09E0680201C03B00700FC04F22E412C05E9E4683AF00B86802DCFBCBABA97C0E00F6
310
0110C276522C716E6C7C5294E0750C305DFBF0C2BCF4B6844D00ECEEEE01801B00EFE53306B8F1805028140A857E9D4078B79F0ED9A375E3B5073804603B5D667B8E86D152DC1600F00CE023E7265D3E596A0234BF790700CADC893500D8A6420FD14E02A8D387C600F05A893296A0AF925AF30039194CF3AC304DBD7FAFF6
310
FEAC0900DA036AFDCF00A4F7A35E4F4E2D761A0150EC2F563DEF3E0470F7268A09405912C56779BCB4891D80A5091802302F16EF620003A8AF0601FCBDD49AC01140EB252C0050DB6249BC2F1B67A71C806A79D4856A390B1E80B5E53F31A06F9DA89D3F2D4D00F98152F47600C2A7EB4BEA5779E0BF07F0B496DB77926167
310
0038B2C0D4A9F0708F7878886357F10000370328A10C4101E040D73CA07D2F1E0098C00280A7D1436FF5C85B6418004D005001B83D13C416DBC5AEC9C41D7D0D002D0CAC00B809C0ED1E30B64B6900B50BA0531330010050748872BBD8E8062B8035080A669707C101A018D43D60F481D3608893E1162E4CCC068C18C0BDC0
310
C802F700406E27320060B357F8C55860A40C46A643E40861B9AD67C3702D6AD303A62951DA3C76390078ED0162A47C5A017104009C03008B1EF0F63F46D0780C3801A0E51FCAC7C2C87163F98DA2C31F4E0C68B334B60370EB609054945753A032038479916CF915D702A02D001223A0B9A0D822331EA47B017CB65B9CAC02
310
F801A837D01C01088542A150286455EE0F58984FD31137E4CBFE51E300F4093B793D96C91400D8030090674DF0090BA600FCC2C1B3A5261041F0605177733E67439DB9E22108F2A932EDA4B5F9A42D30EF01F351737319EB41509DBB06E394426B00BE3608FE0149213B831A2B48B00000000049454E44AE4260827D0318A7
310
B242DE1C3F6E3C06B0D3B560644AD6007C632FF00F4ECAB0549EF7E3C70000000049454E44AE4260824E44AE426082
  0
ENDSEC
  0
EOF
