  0
SECTION
  2
HEADER
  9
$ACADVER
  1
AC1027
  9
$ACADMAINTVER
 70
    81
  9
$DWGCODEPAGE
  3
ANSI_932
  9
$LASTSAVEDBY
  1
reiko.miyawaki
  9
$REQUIREDVERSIONS
160
                 0
  9
$INSBASE
 10
0.0
 20
0.0
 30
0.0
  9
$EXTMIN
 10
188.0903524124594
 20
300.0
 30
0.0
  9
$EXTMAX
 10
1850.0
 20
2786.652262
 30
0.0
  9
$LIMMIN
 10
0.0
 20
0.0
  9
$LIMMAX
 10
297.0
 20
210.0
  9
$ORTHOMODE
 70
     0
  9
$REGENMODE
 70
     1
  9
$FILLMODE
 70
     0
  9
$QTEXTMODE
 70
     0
  9
$MIRRTEXT
 70
     1
  9
$LTSCALE
 40
100.0
  9
$ATTMODE
 70
     1
  9
$TEXTSIZE
 40
180.0
  9
$TRACEWID
 40
0.05
  9
$TEXTSTYLE
  7
STANDARD
  9
$CLAYER
  8
3
  9
$CELTYPE
  6
BYLAYER
  9
$CECOLOR
 62
   256
  9
$CELTSCALE
 40
1.0
  9
$DISPSILH
 70
     0
  9
$DIMSCALE
 40
10.0
  9
$DIMASZ
 40
2.0
  9
$DIMEXO
 40
0.5
  9
$DIMDLI
 40
10.0
  9
$DIMRND
 40
0.0
  9
$DIMDLE
 40
0.0
  9
$DIMEXE
 40
1.0
  9
$DIMTP
 40
1.0
  9
$DIMTM
 40
1.0
  9
$DIMTXT
 40
3.0
  9
$DIMCEN
 40
0.0
  9
$DIMTSZ
 40
0.0
  9
$DIMTOL
 70
     0
  9
$DIMLIM
 70
     0
  9
$DIMTIH
 70
     0
  9
$DIMTOH
 70
     0
  9
$DIMSE1
 70
     0
  9
$DIMSE2
 70
     0
  9
$DIMTAD
 70
     1
  9
$DIMZIN
 70
     8
  9
$DIMBLK
  1

  9
$DIMASO
 70
     1
  9
$DIMSHO
 70
     1
  9
$DIMPOST
  1
(<>)
  9
$DIMAPOST
  1

  9
$DIMALT
 70
     0
  9
$DIMALTD
 70
     2
  9
$DIMALTF
 40
0.039
  9
$DIMLFAC
 40
1.0
  9
$DIMTOFL
 70
     1
  9
$DIMTVP
 40
0.0
  9
$DIMTIX
 70
     0
  9
$DIMSOXD
 70
     0
  9
$DIMSAH
 70
     1
  9
$DIMBLK1
  1
OPEN
  9
$DIMBLK2
  1
OPEN
  9
$DIMSTYLE
  2
IGA
  9
$DIMCLRD
 70
     0
  9
$DIMCLRE
 70
     0
  9
$DIMCLRT
 70
     0
  9
$DIMTFAC
 40
10.0
  9
$DIMGAP
 40
1.0
  9
$DIMJUST
 70
     0
  9
$DIMSD1
 70
     0
  9
$DIMSD2
 70
     0
  9
$DIMTOLJ
 70
     1
  9
$DIMTZIN
 70
     8
  9
$DIMALTZ
 70
     0
  9
$DIMALTTZ
 70
     0
  9
$DIMUPT
 70
     0
  9
$DIMDEC
 70
     0
  9
$DIMTDEC
 70
     0
  9
$DIMALTU
 70
     2
  9
$DIMALTTD
 70
     2
  9
$DIMTXSTY
  7
STANDARD
  9
$DIMAUNIT
 70
     0
  9
$DIMADEC
 70
     0
  9
$DIMALTRND
 40
0.0
  9
$DIMAZIN
 70
     0
  9
$DIMDSEP
 70
    46
  9
$DIMATFIT
 70
     3
  9
$DIMFRAC
 70
     0
  9
$DIMLDRBLK
  1
OPEN
  9
$DIMLUNIT
 70
     2
  9
$DIMLWD
 70
    -2
  9
$DIMLWE
 70
    -2
  9
$DIMTMOVE
 70
     0
  9
$DIMFXL
 40
1.0
  9
$DIMFXLON
 70
     0
  9
$DIMJOGANG
 40
0.7853981633974483
  9
$DIMTFILL
 70
     0
  9
$DIMTFILLCLR
 70
     0
  9
$DIMARCSYM
 70
     0
  9
$DIMLTYPE
  6

  9
$DIMLTEX1
  6

  9
$DIMLTEX2
  6

  9
$DIMTXTDIRECTION
 70
     0
  9
$LUNITS
 70
     2
  9
$LUPREC
 70
     3
  9
$SKETCHINC
 40
0.1
  9
$FILLETRAD
 40
50.0
  9
$AUNITS
 70
     0
  9
$AUPREC
 70
     0
  9
$MENU
  1
acad
  9
$ELEVATION
 40
0.0
  9
$PELEVATION
 40
0.0
  9
$THICKNESS
 40
0.0
  9
$LIMCHECK
 70
     0
  9
$CHAMFERA
 40
0.5
  9
$CHAMFERB
 40
0.5
  9
$CHAMFERC
 40
20.0
  9
$CHAMFERD
 40
0.0
  9
$SKPOLY
 70
     0
  9
$TDCREATE
 40
2450738.604315741
  9
$TDUCREATE
 40
2450738.229315740
  9
$TDUPDATE
 40
2459024.538437454
  9
$TDUUPDATE
 40
2459024.163437454
  9
$TDINDWG
 40
0.0084968403
  9
$TDUSRTIMER
 40
0.0084968403
  9
$USRTIMER
 70
     1
  9
$ANGBASE
 50
0.0
  9
$ANGDIR
 70
     0
  9
$PDMODE
 70
     0
  9
$PDSIZE
 40
0.0
  9
$PLINEWID
 40
0.0
  9
$SPLFRAME
 70
     0
  9
$SPLINETYPE
 70
     6
  9
$SPLINESEGS
 70
     8
  9
$HANDSEED
  5
7F87
  9
$SURFTAB1
 70
     6
  9
$SURFTAB2
 70
     6
  9
$SURFTYPE
 70
     6
  9
$SURFU
 70
     6
  9
$SURFV
 70
     6
  9
$UCSBASE
  2

  9
$UCSNAME
  2

  9
$UCSORG
 10
0.0
 20
0.0
 30
0.0
  9
$UCSXDIR
 10
1.0
 20
0.0
 30
0.0
  9
$UCSYDIR
 10
0.0
 20
1.0
 30
0.0
  9
$UCSORTHOREF
  2

  9
$UCSORTHOVIEW
 70
     0
  9
$UCSORGTOP
 10
0.0
 20
0.0
 30
0.0
  9
$UCSORGBOTTOM
 10
0.0
 20
0.0
 30
0.0
  9
$UCSORGLEFT
 10
0.0
 20
0.0
 30
0.0
  9
$UCSORGRIGHT
 10
0.0
 20
0.0
 30
0.0
  9
$UCSORGFRONT
 10
0.0
 20
0.0
 30
0.0
  9
$UCSORGBACK
 10
0.0
 20
0.0
 30
0.0
  9
$PUCSBASE
  2

  9
$PUCSNAME
  2

  9
$PUCSORG
 10
0.0
 20
0.0
 30
0.0
  9
$PUCSXDIR
 10
1.0
 20
0.0
 30
0.0
  9
$PUCSYDIR
 10
0.0
 20
1.0
 30
0.0
  9
$PUCSORTHOREF
  2

  9
$PUCSORTHOVIEW
 70
     0
  9
$PUCSORGTOP
 10
0.0
 20
0.0
 30
0.0
  9
$PUCSORGBOTTOM
 10
0.0
 20
0.0
 30
0.0
  9
$PUCSORGLEFT
 10
0.0
 20
0.0
 30
0.0
  9
$PUCSORGRIGHT
 10
0.0
 20
0.0
 30
0.0
  9
$PUCSORGFRONT
 10
0.0
 20
0.0
 30
0.0
  9
$PUCSORGBACK
 10
0.0
 20
0.0
 30
0.0
  9
$USERI1
 70
     0
  9
$USERI2
 70
     0
  9
$USERI3
 70
     0
  9
$USERI4
 70
     0
  9
$USERI5
 70
     0
  9
$USERR1
 40
0.0
  9
$USERR2
 40
0.0
  9
$USERR3
 40
0.0
  9
$USERR4
 40
0.0
  9
$USERR5
 40
0.0
  9
$WORLDVIEW
 70
     1
  9
$SHADEDGE
 70
     3
  9
$SHADEDIF
 70
    70
  9
$TILEMODE
 70
     1
  9
$MAXACTVP
 70
    16
  9
$PINSBASE
 10
0.0
 20
0.0
 30
0.0
  9
$PLIMCHECK
 70
     0
  9
$PEXTMIN
 10
1.000000000000000E+20
 20
1.000000000000000E+20
 30
1.000000000000000E+20
  9
$PEXTMAX
 10
-1.000000000000000E+20
 20
-1.000000000000000E+20
 30
-1.000000000000000E+20
  9
$PLIMMIN
 10
0.0
 20
0.0
  9
$PLIMMAX
 10
12.0
 20
9.0
  9
$UNITMODE
 70
     0
  9
$VISRETAIN
 70
     0
  9
$PLINEGEN
 70
     0
  9
$PSLTSCALE
 70
     1
  9
$TREEDEPTH
 70
  3020
  9
$CMLSTYLE
  2
STANDARD
  9
$CMLJUST
 70
     0
  9
$CMLSCALE
 40
20.0
  9
$PROXYGRAPHICS
 70
     1
  9
$MEASUREMENT
 70
     0
  9
$CELWEIGHT
370
    -1
  9
$ENDCAPS
280
     0
  9
$JOINSTYLE
280
     0
  9
$LWDISPLAY
290
     0
  9
$INSUNITS
 70
     0
  9
$HYPERLINKBASE
  1

  9
$STYLESHEET
  1

  9
$XEDIT
290
     1
  9
$CEPSNTYPE
380
     0
  9
$PSTYLEMODE
290
     1
  9
$FINGERPRINTGUID
  2
{525920D3-F582-4C83-BBCB-EFCBC0FDFA9E}
  9
$VERSIONGUID
  2
{284E6E39-9459-4824-BB74-8E581328EA20}
  9
$EXTNAMES
290
     1
  9
$PSVPSCALE
 40
0.0
  9
$OLESTARTUP
290
     0
  9
$SORTENTS
280
   127
  9
$INDEXCTL
280
     0
  9
$HIDETEXT
280
     0
  9
$XCLIPFRAME
280
     2
  9
$HALOGAP
280
     0
  9
$OBSCOLOR
 70
   257
  9
$OBSLTYPE
280
     0
  9
$INTERSECTIONDISPLAY
280
     0
  9
$INTERSECTIONCOLOR
 70
   257
  9
$DIMASSOC
280
     1
  9
$PROJECTNAME
  1

  9
$CAMERADISPLAY
290
     0
  9
$LENSLENGTH
 40
50.0
  9
$CAMERAHEIGHT
 40
0.0
  9
$STEPSPERSEC
 40
2.0
  9
$STEPSIZE
 40
6.0
  9
$3DDWFPREC
 40
2.0
  9
$PSOLWIDTH
 40
0.25
  9
$PSOLHEIGHT
 40
4.0
  9
$LOFTANG1
 40
1.570796326794896
  9
$LOFTANG2
 40
1.570796326794896
  9
$LOFTMAG1
 40
0.0
  9
$LOFTMAG2
 40
0.0
  9
$LOFTPARAM
 70
     7
  9
$LOFTNORMALS
280
     1
  9
$LATITUDE
 40
37.795
  9
$LONGITUDE
 40
-122.394
  9
$NORTHDIRECTION
 40
0.0
  9
$TIMEZONE
 70
 -8000
  9
$LIGHTGLYPHDISPLAY
280
     1
  9
$TILEMODELIGHTSYNCH
280
     1
  9
$CMATERIAL
347
7E92
  9
$SOLIDHIST
280
     0
  9
$SHOWHIST
280
     1
  9
$DWFFRAME
280
     2
  9
$DGNFRAME
280
     0
  9
$REALWORLDSCALE
290
     1
  9
$INTERFERECOLOR
 62
     1
  9
$INTERFEREOBJVS
345
7EB4
  9
$INTERFEREVPVS
346
7EB1
  9
$CSHADOW
280
     0
  9
$SHADOWPLANELOCATION
 40
0.0
  0
ENDSEC
  0
SECTION
  2
CLASSES
  0
CLASS
  1
ACDBDICTIONARYWDFLT
  2
AcDbDictionaryWithDefault
  3
ObjectDBX Classes
 90
        0
 91
        1
280
     0
281
     0
  0
CLASS
  1
DICTIONARYVAR
  2
AcDbDictionaryVar
  3
ObjectDBX Classes
 90
        0
 91
       10
280
     0
281
     0
  0
CLASS
  1
MATERIAL
  2
AcDbMaterial
  3
ObjectDBX Classes
 90
     1153
 91
        3
280
     0
281
     0
  0
CLASS
  1
VISUALSTYLE
  2
AcDbVisualStyle
  3
ObjectDBX Classes
 90
     4095
 91
       24
280
     0
281
     0
  0
CLASS
  1
TABLESTYLE
  2
AcDbTableStyle
  3
ObjectDBX Classes
 90
     4095
 91
        1
280
     0
281
     0
  0
CLASS
  1
SCALE
  2
AcDbScale
  3
ObjectDBX Classes
 90
     1153
 91
       17
280
     0
281
     0
  0
CLASS
  1
MLEADERSTYLE
  2
AcDbMLeaderStyle
  3
ACDB_MLEADERSTYLE_CLASS
 90
     4095
 91
        1
280
     0
281
     0
  0
CLASS
  1
ACDBSECTIONVIEWSTYLE
  2
AcDbSectionViewStyle
  3
ObjectDBX Classes
 90
     1025
 91
        1
280
     0
281
     0
  0
CLASS
  1
ACDBDETAILVIEWSTYLE
  2
AcDbDetailViewStyle
  3
ObjectDBX Classes
 90
     1025
 91
        1
280
     0
281
     0
  0
CLASS
  1
SORTENTSTABLE
  2
AcDbSortentsTable
  3
ObjectDBX Classes
 90
        0
 91
        1
280
     0
281
     0
  0
CLASS
  1
CELLSTYLEMAP
  2
AcDbCellStyleMap
  3
ObjectDBX Classes
 90
     1152
 91
        1
280
     0
281
     0
  0
ENDSEC
  0
SECTION
  2
TABLES
  0
TABLE
  2
VPORT
  5
8
330
0
100
AcDbSymbolTable
 70
     1
  0
VPORT
  5
7E8F
330
8
100
AcDbSymbolTableRecord
100
AcDbViewportTableRecord
  2
*Active
 70
     0
 10
0.0
 20
0.0
 11
1.0
 21
1.0
 12
1019.072346335827
 22
1543.318750184234
 13
0.0
 23
0.0
 14
10.0
 24
10.0
 15
10.0
 25
10.0
 16
0.0
 26
0.0
 36
1.0
 17
0.0
 27
0.0
 37
0.0
 40
2505.100306070788
 41
1.957107843137254
 42
50.0
 43
0.0
 44
0.0
 50
0.0
 51
0.0
 71
     0
 72
   100
 73
     1
 74
     0
 75
     0
 76
     0
 77
     0
 78
     0
281
     0
 65
     1
110
0.0
120
0.0
130
0.0
111
1.0
121
0.0
131
0.0
112
0.0
122
1.0
132
0.0
 79
     0
146
0.0
348
7EB0
 60
     3
 61
     5
292
     1
282
     1
141
0.0
142
0.0
 63
   250
421
  3355443
1001
ACAD_NAV_VCDISPLAY
1070
     3
  0
ENDTAB
  0
TABLE
  2
LTYPE
  5
5
330
0
100
AcDbSymbolTable
 70
     2
  0
LTYPE
  5
13
330
5
100
AcDbSymbolTableRecord
100
AcDbLinetypeTableRecord
  2
BYBLOCK
 70
     0
  3

 72
    65
 73
     0
 40
0.0
  0
LTYPE
  5
14
330
5
100
AcDbSymbolTableRecord
100
AcDbLinetypeTableRecord
  2
BYLAYER
 70
     0
  3

 72
    65
 73
     0
 40
0.0
  0
LTYPE
  5
15
330
5
100
AcDbSymbolTableRecord
100
AcDbLinetypeTableRecord
  2
CONTINUOUS
 70
     0
  3
Solid line
 72
    65
 73
     0
 40
0.0
  0
LTYPE
  5
1F
330
5
100
AcDbSymbolTableRecord
100
AcDbLinetypeTableRecord
  2
CENTER
 70
     0
  3
____ _ ____ _ ____ _ ____ _ ____ _ ____ _ ____ 
 72
    65
 73
     4
 40
2.0
 49
1.25
 74
     0
 49
-0.25
 74
     0
 49
0.25
 74
     0
 49
-0.25
 74
     0
  0
ENDTAB
  0
TABLE
  2
LAYER
  5
2
102
{ACAD_XDICTIONARY
360
7F47
102
}
330
0
100
AcDbSymbolTable
 70
     6
  0
LAYER
  5
F
102
{ACAD_XDICTIONARY
360
7F3A
102
}
330
2
100
AcDbSymbolTableRecord
100
AcDbLayerTableRecord
  2
0
 70
     0
 62
     7
  6
CONTINUOUS
370
    -3
390
7DB4
347
7EA2
348
0
  0
LAYER
  5
31
102
{ACAD_XDICTIONARY
360
7F3C
102
}
330
2
100
AcDbSymbolTableRecord
100
AcDbLayerTableRecord
  2
3
 70
     0
 62
     2
  6
CONTINUOUS
370
    -3
390
7DB4
347
7EA2
348
0
  0
LAYER
  5
76D0
102
{ACAD_XDICTIONARY
360
7F3E
102
}
330
2
100
AcDbSymbolTableRecord
100
AcDbLayerTableRecord
  2
2
 70
     0
 62
     3
  6
CENTER
370
    -3
390
7DB4
347
7EA2
348
0
  0
LAYER
  5
76D1
102
{ACAD_XDICTIONARY
360
7F40
102
}
330
2
100
AcDbSymbolTableRecord
100
AcDbLayerTableRecord
  2
1
 70
     0
 62
     4
  6
CONTINUOUS
370
    -3
390
7DB4
347
7EA2
348
0
  0
LAYER
  5
76D2
102
{ACAD_XDICTIONARY
360
7F42
102
}
330
2
100
AcDbSymbolTableRecord
100
AcDbLayerTableRecord
  2
4
 70
     0
 62
     7
  6
CONTINUOUS
370
    -3
390
7DB4
347
7EA2
348
0
  0
LAYER
  5
7B56
330
2
100
AcDbSymbolTableRecord
100
AcDbLayerTableRecord
  2
DEFPOINTS
 70
     0
 62
     7
  6
CONTINUOUS
290
     0
370
    -3
390
7DB4
347
7EA2
348
0
  0
ENDTAB
  0
TABLE
  2
STYLE
  5
3
330
0
100
AcDbSymbolTable
 70
     1
  0
STYLE
  5
10
330
3
100
AcDbSymbolTableRecord
100
AcDbTextStyleTableRecord
  2
STANDARD
 70
     0
 40
0.0
 41
1.0
 50
0.0
 71
     0
 42
180.0
  3
simplex.shx
  4
extfont.shx
  0
ENDTAB
  0
TABLE
  2
VIEW
  5
6
330
0
100
AcDbSymbolTable
 70
     0
  0
ENDTAB
  0
TABLE
  2
UCS
  5
7
330
0
100
AcDbSymbolTable
 70
     0
  0
ENDTAB
  0
TABLE
  2
APPID
  5
9
330
0
100
AcDbSymbolTable
 70
     4
  0
APPID
  5
11
330
9
100
AcDbSymbolTableRecord
100
AcDbRegAppTableRecord
  2
ACAD
 70
     0
  0
APPID
  5
7EE3
330
9
100
AcDbSymbolTableRecord
100
AcDbRegAppTableRecord
  2
ACAD_NAV_VCDISPLAY
 70
     0
  0
APPID
  5
7F5F
330
9
100
AcDbSymbolTableRecord
100
AcDbRegAppTableRecord
  2
AcadAnnoMonitorAlertIconDisabled
 70
     0
  0
APPID
  5
7F60
330
9
100
AcDbSymbolTableRecord
100
AcDbRegAppTableRecord
  2
ACAD_EXEMPT_FROM_CAD_STANDARDS
 70
     0
  0
ENDTAB
  0
TABLE
  2
DIMSTYLE
  5
A
330
0
100
AcDbSymbolTable
 70
     1
100
AcDbDimStyleTable
 71
     0
  0
DIMSTYLE
105
1D
102
{ACAD_REACTORS
330
7B5B
330
7B67
330
7B8D
330
7BA6
330
7BB2
330
7C13
330
7C20
330
7C30
330
7C3C
330
7C4A
330
7C57
330
7C65
330
7C8C
330
7CA3
330
7CAF
330
7D92
330
7D9F
330
7DAC
102
}
330
A
100
AcDbSymbolTableRecord
100
AcDbDimStyleTableRecord
  2
IGA
 70
     0
 40
2.0
 41
2.0
 42
0.5
 43
10.0
 44
1.0
 47
1.0
 48
1.0
 73
     0
 74
     0
 77
     1
 78
     8
140
3.0
141
0.0
143
0.03937
146
10.0
147
1.0
173
     1
271
     1
272
     0
279
     2
284
     8
340
10
341
7B48
343
7B48
344
7B48
  0
ENDTAB
  0
TABLE
  2
BLOCK_RECORD
  5
1
330
0
100
AcDbSymbolTable
 70
    20
  0
BLOCK_RECORD
  5
19
102
{ACAD_XDICTIONARY
360
7DE2
102
}
330
1
100
AcDbSymbolTableRecord
100
AcDbBlockTableRecord
  2
*MODEL_SPACE
340
7DB7
 70
     0
280
     1
281
     0
  0
BLOCK_RECORD
  5
16
102
{ACAD_XDICTIONARY
360
7DE0
102
}
330
1
100
AcDbSymbolTableRecord
100
AcDbBlockTableRecord
  2
*PAPER_SPACE
340
7DB8
 70
     0
280
     1
281
     0
  0
BLOCK_RECORD
  5
7B48
330
1
100
AcDbSymbolTableRecord
100
AcDbBlockTableRecord
  2
_OPEN
340
0
102
{BLKREFS
331
7DFC
331
7DFD
331
7E05
331
7E06
331
7E0D
331
7E0E
331
7E16
331
7E17
331
7E1F
331
7E20
331
7E39
331
7E3A
331
7E4B
331
7E4C
331
7E53
331
7E54
331
7E5C
331
7E5D
331
7E64
331
7E65
331
7EEA
331
7EEB
331
7EF6
331
7F07
331
7F08
331
7F10
331
7F11
331
7F18
331
7F19
331
7F21
331
7F22
331
7F36
331
7F6E
331
7F6F
102
}
 70
     0
280
     1
281
     0
  0
BLOCK_RECORD
  5
7B4E
330
1
100
AcDbSymbolTableRecord
100
AcDbBlockTableRecord
  2
*D1
340
0
 70
     0
280
     1
281
     0
  0
BLOCK_RECORD
  5
7B5C
330
1
100
AcDbSymbolTableRecord
100
AcDbBlockTableRecord
  2
*D2
340
0
 70
     0
280
     1
281
     0
  0
BLOCK_RECORD
  5
7B81
330
1
100
AcDbSymbolTableRecord
100
AcDbBlockTableRecord
  2
*D3
340
0
 70
     0
280
     1
281
     0
  0
BLOCK_RECORD
  5
7B9A
330
1
100
AcDbSymbolTableRecord
100
AcDbBlockTableRecord
  2
*D4
340
0
 70
     0
280
     1
281
     0
  0
BLOCK_RECORD
  5
7BA7
330
1
100
AcDbSymbolTableRecord
100
AcDbBlockTableRecord
  2
*D5
340
0
 70
     0
280
     1
281
     0
  0
BLOCK_RECORD
  5
7C07
330
1
100
AcDbSymbolTableRecord
100
AcDbBlockTableRecord
  2
*D6
340
0
 70
     0
280
     1
281
     0
  0
BLOCK_RECORD
  5
7C14
330
1
100
AcDbSymbolTableRecord
100
AcDbBlockTableRecord
  2
*D7
340
0
 70
     0
280
     1
281
     0
  0
BLOCK_RECORD
  5
7C24
330
1
100
AcDbSymbolTableRecord
100
AcDbBlockTableRecord
  2
*D8
340
0
 70
     0
280
     1
281
     0
  0
BLOCK_RECORD
  5
7C31
330
1
100
AcDbSymbolTableRecord
100
AcDbBlockTableRecord
  2
*D9
340
0
 70
     0
280
     1
281
     0
  0
BLOCK_RECORD
  5
7C3E
330
1
100
AcDbSymbolTableRecord
100
AcDbBlockTableRecord
  2
*D10
340
0
 70
     0
280
     1
281
     0
  0
BLOCK_RECORD
  5
7C4B
330
1
100
AcDbSymbolTableRecord
100
AcDbBlockTableRecord
  2
*D11
340
0
 70
     0
280
     1
281
     0
  0
BLOCK_RECORD
  5
7C58
330
1
100
AcDbSymbolTableRecord
100
AcDbBlockTableRecord
  2
*D12
340
0
 70
     0
280
     1
281
     0
  0
BLOCK_RECORD
  5
7C80
330
1
100
AcDbSymbolTableRecord
100
AcDbBlockTableRecord
  2
*D13
340
0
 70
     0
280
     1
281
     0
  0
BLOCK_RECORD
  5
7C97
330
1
100
AcDbSymbolTableRecord
100
AcDbBlockTableRecord
  2
*D14
340
0
 70
     0
280
     1
281
     0
  0
BLOCK_RECORD
  5
7CA4
330
1
100
AcDbSymbolTableRecord
100
AcDbBlockTableRecord
  2
*D15
340
0
 70
     0
280
     1
281
     0
  0
BLOCK_RECORD
  5
7D49
330
1
100
AcDbSymbolTableRecord
100
AcDbBlockTableRecord
  2
_DOT
340
0
102
{BLKREFS
331
7EF5
331
7F35
102
}
 70
     0
280
     1
281
     0
  0
BLOCK_RECORD
  5
7D84
330
1
100
AcDbSymbolTableRecord
100
AcDbBlockTableRecord
  2
*D17
340
0
 70
     0
280
     1
281
     0
  0
BLOCK_RECORD
  5
7D93
330
1
100
AcDbSymbolTableRecord
100
AcDbBlockTableRecord
  2
*D18
340
0
 70
     0
280
     1
281
     0
  0
BLOCK_RECORD
  5
7DA0
330
1
100
AcDbSymbolTableRecord
100
AcDbBlockTableRecord
  2
*D19
340
0
 70
     0
280
     1
281
     0
  0
ENDTAB
  0
ENDSEC
  0
SECTION
  2
BLOCKS
  0
BLOCK
  5
1A
330
19
100
AcDbEntity
  8
0
100
AcDbBlockBegin
  2
*MODEL_SPACE
 70
     0
 10
0.0
 20
0.0
 30
0.0
  3
*MODEL_SPACE
  1

  0
ENDBLK
  5
1B
330
19
100
AcDbEntity
  8
0
100
AcDbBlockEnd
  0
BLOCK
  5
17
330
16
100
AcDbEntity
 67
     1
  8
0
100
AcDbBlockBegin
  2
*PAPER_SPACE
 70
     0
 10
0.0
 20
0.0
 30
0.0
  3
*PAPER_SPACE
  1

  0
ENDBLK
  5
18
330
16
100
AcDbEntity
 67
     1
  8
0
100
AcDbBlockEnd
  0
BLOCK
  5
7B49
330
7B48
100
AcDbEntity
  8
0
100
AcDbBlockBegin
  2
_OPEN
 70
     0
 10
0.0
 20
0.0
 30
0.0
  3
_OPEN
  1

  0
LINE
  5
7B4A
330
7B48
100
AcDbEntity
  8
0
  6
ByBlock
 62
     0
100
AcDbLine
 10
-1.0
 20
0.166667
 30
0.0
 11
0.0
 21
0.0
 31
0.0
  0
LINE
  5
7B4B
330
7B48
100
AcDbEntity
  8
0
  6
ByBlock
 62
     0
100
AcDbLine
 10
0.0
 20
0.0
 30
0.0
 11
-1.0
 21
-0.166667
 31
0.0
  0
LINE
  5
7B4C
330
7B48
100
AcDbEntity
  8
0
  6
ByBlock
 62
     0
100
AcDbLine
 10
0.0
 20
0.0
 30
0.0
 11
-1.0
 21
0.0
 31
0.0
  0
ENDBLK
  5
7B4D
330
7B48
100
AcDbEntity
  8
0
100
AcDbBlockEnd
  0
BLOCK
  5
7B4F
330
7B4E
100
AcDbEntity
  8
0
100
AcDbBlockBegin
  2
*D1
 70
     1
 10
0.0
 20
0.0
 30
0.0
  3
*D1
  1

  0
LINE
  5
7F0D
330
7B4E
100
AcDbEntity
  8
3
  6
Continuous
 62
     0
440
 16777216
370
    -2
100
AcDbLine
 10
420.185794034528
 20
745.2638967991995
 30
0.0
 11
420.185794034528
 21
686.7374727991995
 31
0.0
  0
LINE
  5
7F0E
330
7B4E
100
AcDbEntity
  8
3
  6
Continuous
 62
     0
440
 16777216
370
    -2
100
AcDbLine
 10
605.185794034528
 20
770.2638967991995
 30
0.0
 11
605.185794034528
 21
686.7374727991995
 31
0.0
  0
LINE
  5
7F0F
330
7B4E
100
AcDbEntity
  8
3
  6
Continuous
 62
     0
440
 16777216
370
    -2
100
AcDbLine
 10
440.185794034528
 20
696.7374727991995
 30
0.0
 11
585.185794034528
 21
696.7374727991995
 31
0.0
  0
INSERT
  5
7F10
330
7B4E
100
AcDbEntity
  8
3
  6
Continuous
 62
     0
440
 16777216
370
    -2
100
AcDbBlockReference
  2
_OPEN
 10
420.185794034528
 20
696.7374727991995
 30
0.0
 41
20.0
 42
20.0
 43
20.0
 50
180.0
  0
INSERT
  5
7F11
330
7B4E
100
AcDbEntity
  8
3
  6
Continuous
 62
     0
440
 16777216
370
    -2
100
AcDbBlockReference
  2
_OPEN
 10
605.185794034528
 20
696.7374727991995
 30
0.0
 41
20.0
 42
20.0
 43
20.0
  0
MTEXT
  5
7F12
330
7B4E
100
AcDbEntity
  8
3
  6
Continuous
 62
     0
440
 16777216
100
AcDbMText
 10
513.314543034528
 20
721.7374727991995
 30
0.0
 40
30.0
 41
0.0
 46
0.0
 71
     5
 72
     1
  1
\A1;185
 73
     1
 44
1.0
  0
POINT
  5
7F13
330
7B4E
100
AcDbEntity
  8
DEFPOINTS
  6
Continuous
 62
     0
440
 16777216
100
AcDbPoint
 10
420.185794034528
 20
750.2638967991995
 30
0.0
  0
POINT
  5
7F14
330
7B4E
100
AcDbEntity
  8
DEFPOINTS
  6
Continuous
 62
     0
440
 16777216
100
AcDbPoint
 10
605.185794034528
 20
775.2638967991995
 30
0.0
  0
POINT
  5
7F15
330
7B4E
100
AcDbEntity
  8
DEFPOINTS
  6
Continuous
 62
     0
440
 16777216
100
AcDbPoint
 10
605.185794034528
 20
696.7374727991995
 30
0.0
  0
ENDBLK
  5
7B5A
330
7B4E
100
AcDbEntity
  8
0
100
AcDbBlockEnd
  0
BLOCK
  5
7B5D
330
7B5C
100
AcDbEntity
  8
0
100
AcDbBlockBegin
  2
*D2
 70
     1
 10
0.0
 20
0.0
 30
0.0
  3
*D2
  1

  0
LINE
  5
7F16
330
7B5C
100
AcDbEntity
  8
3
  6
Continuous
 62
     0
440
 16777216
370
    -2
100
AcDbLine
 10
1100.185794034528
 20
745.2638967991995
 30
0.0
 11
1100.185794034528
 21
686.7374727991995
 31
0.0
  0
LINE
  5
7F17
330
7B5C
100
AcDbEntity
  8
3
  6
Continuous
 62
     0
440
 16777216
370
    -2
100
AcDbLine
 10
625.185794034528
 20
696.7374727991995
 30
0.0
 11
1080.185794034528
 21
696.7374727991995
 31
0.0
  0
INSERT
  5
7F18
330
7B5C
100
AcDbEntity
  8
3
  6
Continuous
 62
     0
440
 16777216
370
    -2
100
AcDbBlockReference
  2
_OPEN
 10
605.185794034528
 20
696.7374727991995
 30
0.0
 41
20.0
 42
20.0
 43
20.0
 50
180.0
  0
INSERT
  5
7F19
330
7B5C
100
AcDbEntity
  8
3
  6
Continuous
 62
     0
440
 16777216
370
    -2
100
AcDbBlockReference
  2
_OPEN
 10
1100.185794034528
 20
696.7374727991995
 30
0.0
 41
20.0
 42
20.0
 43
20.0
  0
MTEXT
  5
7F1A
330
7B5C
100
AcDbEntity
  8
3
  6
Continuous
 62
     0
440
 16777216
100
AcDbMText
 10
852.685794034528
 20
721.7374727991995
 30
0.0
 40
30.0
 41
0.0
 46
0.0
 71
     5
 72
     1
  1
\A1;495
 73
     1
 44
1.0
  0
POINT
  5
7F1B
330
7B5C
100
AcDbEntity
  8
DEFPOINTS
  6
Continuous
 62
     0
440
 16777216
100
AcDbPoint
 10
605.185794034528
 20
775.2638967991995
 30
0.0
  0
POINT
  5
7F1C
330
7B5C
100
AcDbEntity
  8
DEFPOINTS
  6
Continuous
 62
     0
440
 16777216
100
AcDbPoint
 10
1100.185794034528
 20
750.2638967991995
 30
0.0
  0
POINT
  5
7F1D
330
7B5C
100
AcDbEntity
  8
DEFPOINTS
  6
Continuous
 62
     0
440
 16777216
100
AcDbPoint
 10
1100.185794034528
 20
696.7374727991995
 30
0.0
  0
ENDBLK
  5
7B66
330
7B5C
100
AcDbEntity
  8
0
100
AcDbBlockEnd
  0
BLOCK
  5
7B82
330
7B81
100
AcDbEntity
  8
0
100
AcDbBlockBegin
  2
*D3
 70
     1
 10
0.0
 20
0.0
 30
0.0
  3
*D3
  1

  0
LINE
  5
7DF9
330
7B81
100
AcDbEntity
  8
3
  6
Continuous
 62
     0
440
 16777216
100
AcDbLine
 10
805.1857940345279
 20
1310.263896799199
 30
0.0
 11
805.1857940345279
 21
1363.797963799199
 31
0.0
  0
LINE
  5
7DFA
330
7B81
100
AcDbEntity
  8
3
  6
Continuous
 62
     0
440
 16777216
100
AcDbLine
 10
605.185794034528
 20
1310.263896799199
 30
0.0
 11
605.185794034528
 21
1363.797963799199
 31
0.0
  0
LINE
  5
7DFB
330
7B81
100
AcDbEntity
  8
3
  6
Continuous
 62
     0
440
 16777216
100
AcDbLine
 10
785.1857940345279
 20
1353.797963799199
 30
0.0
 11
625.185794034528
 21
1353.797963799199
 31
0.0
  0
INSERT
  5
7DFC
330
7B81
100
AcDbEntity
  8
3
  6
Continuous
 62
     0
440
 16777216
100
AcDbBlockReference
  2
_OPEN
 10
805.1857940345279
 20
1353.797963799199
 30
0.0
 41
20.0
 42
20.0
 43
20.0
  0
INSERT
  5
7DFD
330
7B81
100
AcDbEntity
  8
3
  6
Continuous
 62
     0
440
 16777216
100
AcDbBlockReference
  2
_OPEN
 10
605.185794034528
 20
1353.797963799199
 30
0.0
 41
20.0
 42
20.0
 43
20.0
 50
180.0
  0
MTEXT
  5
7DFE
330
7B81
100
AcDbEntity
  8
3
  6
Continuous
 62
     0
440
 16777216
100
AcDbMText
 10
705.2324800345279
 20
1378.797963799199
 30
0.0
 40
30.0
 41
0.0
 46
0.0
 71
     5
 72
     5
  1
\A1;200
 73
     1
 44
1.0
  0
POINT
  5
7DFF
330
7B81
100
AcDbEntity
  8
DEFPOINTS
  6
Continuous
 62
     0
440
 16777216
100
AcDbPoint
 10
805.1857940345279
 20
1305.263896799199
 30
0.0
  0
POINT
  5
7E00
330
7B81
100
AcDbEntity
  8
DEFPOINTS
  6
Continuous
 62
     0
440
 16777216
100
AcDbPoint
 10
605.185794034528
 20
1305.263896799199
 30
0.0
  0
POINT
  5
7E01
330
7B81
100
AcDbEntity
  8
DEFPOINTS
  6
Continuous
 62
     0
440
 16777216
100
AcDbPoint
 10
605.185794034528
 20
1353.797963799199
 30
0.0
  0
ENDBLK
  5
7B8C
330
7B81
100
AcDbEntity
  8
0
100
AcDbBlockEnd
  0
BLOCK
  5
7D2A
330
7B9A
100
AcDbEntity
  8
0
100
AcDbBlockBegin
  2
*D4
 70
     1
 10
0.0
 20
0.0
 30
0.0
  3
*D4
  1

  0
LINE
  5
7E02
330
7B9A
100
AcDbEntity
  8
3
  6
Continuous
 62
     0
440
 16777216
100
AcDbLine
 10
579.185794034528
 20
1305.263896799199
 30
0.0
 11
333.8656718502952
 21
1305.2638967992
 31
0.0
  0
LINE
  5
7E03
330
7B9A
100
AcDbEntity
  8
3
  6
Continuous
 62
     0
440
 16777216
100
AcDbLine
 10
449.618606034528
 20
1145.263896799199
 30
0.0
 11
333.8656718502951
 21
1145.263896799199
 31
0.0
  0
LINE
  5
7E04
330
7B9A
100
AcDbEntity
  8
3
  6
Continuous
 62
     0
440
 16777216
100
AcDbLine
 10
343.8656718502951
 20
1285.2638967992
 30
0.0
 11
343.8656718502951
 21
1165.263896799199
 31
0.0
  0
INSERT
  5
7E05
330
7B9A
100
AcDbEntity
  8
3
  6
Continuous
 62
     0
440
 16777216
100
AcDbBlockReference
  2
_OPEN
 10
343.8656718502951
 20
1305.2638967992
 30
0.0
 41
20.0
 42
20.0
 43
20.0
 50
90.0
  0
INSERT
  5
7E06
330
7B9A
100
AcDbEntity
  8
3
  6
Continuous
 62
     0
440
 16777216
100
AcDbBlockReference
  2
_OPEN
 10
343.8656718502951
 20
1145.263896799199
 30
0.0
 41
20.0
 42
20.0
 43
20.0
 50
270.0
  0
MTEXT
  5
7E07
330
7B9A
100
AcDbEntity
  8
3
  6
Continuous
 62
     0
440
 16777216
100
AcDbMText
 10
318.8656718502949
 20
1228.8497377992
 30
0.0
 40
30.0
 41
0.0
 46
0.0
 71
     5
 72
     5
  1
\A1;160
 11
0.0000000000000001
 21
1.0
 31
0.0
 73
     1
 44
1.0
  0
POINT
  5
7E08
330
7B9A
100
AcDbEntity
  8
DEFPOINTS
  6
Continuous
 62
     0
440
 16777216
100
AcDbPoint
 10
584.185794034528
 20
1305.263896799199
 30
0.0
  0
POINT
  5
7E09
330
7B9A
100
AcDbEntity
  8
DEFPOINTS
  6
Continuous
 62
     0
440
 16777216
100
AcDbPoint
 10
454.618606034528
 20
1145.263896799199
 30
0.0
  0
POINT
  5
7E0A
330
7B9A
100
AcDbEntity
  8
DEFPOINTS
  6
Continuous
 62
     0
440
 16777216
100
AcDbPoint
 10
343.8656718502951
 20
1145.263896799199
 30
0.0
  0
ENDBLK
  5
7D34
330
7B9A
100
AcDbEntity
  8
0
100
AcDbBlockEnd
  0
BLOCK
  5
7D07
330
7BA7
100
AcDbEntity
  8
0
100
AcDbBlockBegin
  2
*D5
 70
     1
 10
0.0
 20
0.0
 30
0.0
  3
*D5
  1

  0
LINE
  5
7E0B
330
7BA7
100
AcDbEntity
  8
3
  6
Continuous
 62
     0
440
 16777216
100
AcDbLine
 10
440.185794034528
 20
870.2638967991996
 30
0.0
 11
333.8656718502949
 21
870.2638967991996
 31
0.0
  0
LINE
  5
7E0C
330
7BA7
100
AcDbEntity
  8
3
  6
Continuous
 62
     0
440
 16777216
100
AcDbLine
 10
343.865671850295
 20
1125.263896799199
 30
0.0
 11
343.8656718502949
 21
890.2638967991995
 31
0.0
  0
INSERT
  5
7E0D
330
7BA7
100
AcDbEntity
  8
3
  6
Continuous
 62
     0
440
 16777216
100
AcDbBlockReference
  2
_OPEN
 10
343.865671850295
 20
1145.263896799199
 30
0.0
 41
20.0
 42
20.0
 43
20.0
 50
90.0
  0
INSERT
  5
7E0E
330
7BA7
100
AcDbEntity
  8
3
  6
Continuous
 62
     0
440
 16777216
100
AcDbBlockReference
  2
_OPEN
 10
343.8656718502949
 20
870.2638967991996
 30
0.0
 41
20.0
 42
20.0
 43
20.0
 50
270.0
  0
MTEXT
  5
7E0F
330
7BA7
100
AcDbEntity
  8
3
  6
Continuous
 62
     0
440
 16777216
100
AcDbMText
 10
318.8656718502948
 20
1007.763896799199
 30
0.0
 40
30.0
 41
0.0
 46
0.0
 71
     5
 72
     5
  1
\A1;275
 11
0.0000000000000001
 21
1.0
 31
0.0
 73
     1
 44
1.0
  0
POINT
  5
7E10
330
7BA7
100
AcDbEntity
  8
DEFPOINTS
  6
Continuous
 62
     0
440
 16777216
100
AcDbPoint
 10
454.618606034528
 20
1145.263896799199
 30
0.0
  0
POINT
  5
7E11
330
7BA7
100
AcDbEntity
  8
DEFPOINTS
  6
Continuous
 62
     0
440
 16777216
100
AcDbPoint
 10
445.185794034528
 20
870.2638967991996
 30
0.0
  0
POINT
  5
7E12
330
7BA7
100
AcDbEntity
  8
DEFPOINTS
  6
Continuous
 62
     0
440
 16777216
100
AcDbPoint
 10
343.8656718502949
 20
870.2638967991996
 30
0.0
  0
ENDBLK
  5
7D10
330
7BA7
100
AcDbEntity
  8
0
100
AcDbBlockEnd
  0
BLOCK
  5
7C08
330
7C07
100
AcDbEntity
  8
0
100
AcDbBlockBegin
  2
*D6
 70
     1
 10
0.0
 20
0.0
 30
0.0
  3
*D6
  1

  0
LINE
  5
7E13
330
7C07
100
AcDbEntity
  8
3
  6
Continuous
 62
     0
440
 16777216
100
AcDbLine
 10
420.185794034528
 20
1750.664497163346
 30
0.0
 11
420.185794034528
 21
1654.588035163346
 31
0.0
  0
LINE
  5
7E14
330
7C07
100
AcDbEntity
  8
3
  6
Continuous
 62
     0
440
 16777216
100
AcDbLine
 10
1100.185794034528
 20
1750.664497163346
 30
0.0
 11
1100.185794034528
 21
1654.588035163346
 31
0.0
  0
LINE
  5
7E15
330
7C07
100
AcDbEntity
  8
3
  6
Continuous
 62
     0
440
 16777216
100
AcDbLine
 10
440.1857940345279
 20
1664.588035163346
 30
0.0
 11
1080.185794034528
 21
1664.588035163346
 31
0.0
  0
INSERT
  5
7E16
330
7C07
100
AcDbEntity
  8
3
  6
Continuous
 62
     0
440
 16777216
100
AcDbBlockReference
  2
_OPEN
 10
420.185794034528
 20
1664.588035163346
 30
0.0
 41
20.0
 42
20.0
 43
20.0
 50
180.0
  0
INSERT
  5
7E17
330
7C07
100
AcDbEntity
  8
3
  6
Continuous
 62
     0
440
 16777216
100
AcDbBlockReference
  2
_OPEN
 10
1100.185794034528
 20
1664.588035163346
 30
0.0
 41
20.0
 42
20.0
 43
20.0
  0
MTEXT
  5
7E18
330
7C07
100
AcDbEntity
  8
3
  6
Continuous
 62
     0
440
 16777216
100
AcDbMText
 10
769.847773034528
 20
1689.588035163346
 30
0.0
 40
30.0
 41
0.0
 46
0.0
 71
     5
 72
     5
  1
\A1;680
 73
     1
 44
1.0
  0
POINT
  5
7E19
330
7C07
100
AcDbEntity
  8
DEFPOINTS
  6
Continuous
 62
     0
440
 16777216
100
AcDbPoint
 10
420.185794034528
 20
1755.664497163346
 30
0.0
  0
POINT
  5
7E1A
330
7C07
100
AcDbEntity
  8
DEFPOINTS
  6
Continuous
 62
     0
440
 16777216
100
AcDbPoint
 10
1100.185794034528
 20
1755.664497163346
 30
0.0
  0
POINT
  5
7E1B
330
7C07
100
AcDbEntity
  8
DEFPOINTS
  6
Continuous
 62
     0
440
 16777216
100
AcDbPoint
 10
1100.185794034528
 20
1664.588035163346
 30
0.0
  0
ENDBLK
  5
7C12
330
7C07
100
AcDbEntity
  8
0
100
AcDbBlockEnd
  0
BLOCK
  5
7C15
330
7C14
100
AcDbEntity
  8
0
100
AcDbBlockBegin
  2
*D7
 70
     1
 10
0.0
 20
0.0
 30
0.0
  3
*D7
  1

  0
LINE
  5
7E1C
330
7C14
100
AcDbEntity
  8
3
  6
Continuous
 62
     0
440
 16777216
100
AcDbLine
 10
1105.185794034528
 20
2185.664497163346
 30
0.0
 11
1189.545910034528
 21
2185.664497163346
 31
0.0
  0
LINE
  5
7E1D
330
7C14
100
AcDbEntity
  8
3
  6
Continuous
 62
     0
440
 16777216
100
AcDbLine
 10
1105.185794034528
 20
1755.664497163346
 30
0.0
 11
1189.545910034528
 21
1755.664497163346
 31
0.0
  0
LINE
  5
7E1E
330
7C14
100
AcDbEntity
  8
3
  6
Continuous
 62
     0
440
 16777216
100
AcDbLine
 10
1179.545910034528
 20
2165.664497163346
 30
0.0
 11
1179.545910034528
 21
1775.664497163346
 31
0.0
  0
INSERT
  5
7E1F
330
7C14
100
AcDbEntity
  8
3
  6
Continuous
 62
     0
440
 16777216
100
AcDbBlockReference
  2
_OPEN
 10
1179.545910034528
 20
2185.664497163346
 30
0.0
 41
20.0
 42
20.0
 43
20.0
 50
90.0
  0
INSERT
  5
7E20
330
7C14
100
AcDbEntity
  8
3
  6
Continuous
 62
     0
440
 16777216
100
AcDbBlockReference
  2
_OPEN
 10
1179.545910034528
 20
1755.664497163346
 30
0.0
 41
20.0
 42
20.0
 43
20.0
 50
270.0
  0
MTEXT
  5
7E21
330
7C14
100
AcDbEntity
  8
3
  6
Continuous
 62
     0
440
 16777216
100
AcDbMText
 10
1154.545910034528
 20
1997.550979163346
 30
0.0
 40
30.0
 41
0.0
 46
0.0
 71
     5
 72
     5
  1
\A1;430
 11
0.0000000000000001
 21
1.0
 31
0.0
 73
     1
 44
1.0
  0
POINT
  5
7E22
330
7C14
100
AcDbEntity
  8
DEFPOINTS
  6
Continuous
 62
     0
440
 16777216
100
AcDbPoint
 10
1100.185794034528
 20
2185.664497163346
 30
0.0
  0
POINT
  5
7E23
330
7C14
100
AcDbEntity
  8
DEFPOINTS
  6
Continuous
 62
     0
440
 16777216
100
AcDbPoint
 10
1100.185794034528
 20
1755.664497163346
 30
0.0
  0
POINT
  5
7E24
330
7C14
100
AcDbEntity
  8
DEFPOINTS
  6
Continuous
 62
     0
440
 16777216
100
AcDbPoint
 10
1179.545910034528
 20
1755.664497163346
 30
0.0
  0
ENDBLK
  5
7C1F
330
7C14
100
AcDbEntity
  8
0
100
AcDbBlockEnd
  0
BLOCK
  5
7C25
330
7C24
100
AcDbEntity
  8
0
100
AcDbBlockBegin
  2
*D8
 70
     1
 10
0.0
 20
0.0
 30
0.0
  3
*D8
  1

  0
LINE
  5
7F1E
330
7C24
100
AcDbEntity
  8
3
  6
Continuous
 62
     0
440
 16777216
370
    -2
100
AcDbLine
 10
1301.808772152806
 20
745.2638967991995
 30
0.0
 11
1301.808772152806
 21
663.5207957991995
 31
0.0
  0
LINE
  5
7F1F
330
7C24
100
AcDbEntity
  8
3
  6
Continuous
 62
     0
440
 16777216
370
    -2
100
AcDbLine
 10
1599.808772152806
 20
745.2638967991995
 30
0.0
 11
1599.808772152806
 21
663.5207957991995
 31
0.0
  0
LINE
  5
7F20
330
7C24
100
AcDbEntity
  8
3
  6
Continuous
 62
     0
440
 16777216
370
    -2
100
AcDbLine
 10
1321.808772152806
 20
673.5207957991995
 30
0.0
 11
1579.808772152806
 21
673.5207957991995
 31
0.0
  0
INSERT
  5
7F21
330
7C24
100
AcDbEntity
  8
3
  6
Continuous
 62
     0
440
 16777216
370
    -2
100
AcDbBlockReference
  2
_OPEN
 10
1301.808772152806
 20
673.5207957991995
 30
0.0
 41
20.0
 42
20.0
 43
20.0
 50
180.0
  0
INSERT
  5
7F22
330
7C24
100
AcDbEntity
  8
3
  6
Continuous
 62
     0
440
 16777216
370
    -2
100
AcDbBlockReference
  2
_OPEN
 10
1599.808772152806
 20
673.5207957991995
 30
0.0
 41
20.0
 42
20.0
 43
20.0
  0
MTEXT
  5
7F23
330
7C24
100
AcDbEntity
  8
3
  6
Continuous
 62
     0
440
 16777216
100
AcDbMText
 10
1454.590788152805
 20
698.5207957991995
 30
0.0
 40
30.0
 41
0.0
 46
0.0
 71
     5
 72
     1
  1
\A1;298
 73
     1
 44
1.0
  0
POINT
  5
7F24
330
7C24
100
AcDbEntity
  8
DEFPOINTS
  6
Continuous
 62
     0
440
 16777216
100
AcDbPoint
 10
1301.808772152806
 20
750.2638967991995
 30
0.0
  0
POINT
  5
7F25
330
7C24
100
AcDbEntity
  8
DEFPOINTS
  6
Continuous
 62
     0
440
 16777216
100
AcDbPoint
 10
1599.808772152806
 20
750.2638967991995
 30
0.0
  0
POINT
  5
7F26
330
7C24
100
AcDbEntity
  8
DEFPOINTS
  6
Continuous
 62
     0
440
 16777216
100
AcDbPoint
 10
1599.808772152806
 20
673.5207957991995
 30
0.0
  0
ENDBLK
  5
7C2F
330
7C24
100
AcDbEntity
  8
0
100
AcDbBlockEnd
  0
BLOCK
  5
7C32
330
7C31
100
AcDbEntity
  8
0
100
AcDbBlockBegin
  2
*D9
 70
     1
 10
0.0
 20
0.0
 30
0.0
  3
*D9
  1

  0
LINE
  5
7EE8
330
7C31
100
AcDbEntity
  8
3
  6
Continuous
 62
     0
440
 16777216
370
    -2
100
AcDbLine
 10
1731.808772152806
 20
745.2638967991995
 30
0.0
 11
1731.808772152806
 21
663.5207957991995
 31
0.0
  0
LINE
  5
7EE9
330
7C31
100
AcDbEntity
  8
3
  6
Continuous
 62
     0
440
 16777216
370
    -2
100
AcDbLine
 10
1619.808772152806
 20
673.5207957991995
 30
0.0
 11
1711.808772152806
 21
673.5207957991995
 31
0.0
  0
INSERT
  5
7EEA
330
7C31
100
AcDbEntity
  8
3
  6
Continuous
 62
     0
440
 16777216
370
    -2
100
AcDbBlockReference
  2
_OPEN
 10
1599.808772152806
 20
673.5207957991995
 30
0.0
 41
20.0
 42
20.0
 43
20.0
 50
180.0
  0
INSERT
  5
7EEB
330
7C31
100
AcDbEntity
  8
3
  6
Continuous
 62
     0
440
 16777216
370
    -2
100
AcDbBlockReference
  2
_OPEN
 10
1731.808772152806
 20
673.5207957991995
 30
0.0
 41
20.0
 42
20.0
 43
20.0
  0
MTEXT
  5
7EEC
330
7C31
100
AcDbEntity
  8
3
  6
Continuous
 62
     0
440
 16777216
100
AcDbMText
 10
1665.808772152806
 20
698.5207957991995
 30
0.0
 40
30.0
 41
0.0
 46
0.0
 71
     5
 72
     1
  1
\A1;132
 73
     1
 44
1.0
  0
POINT
  5
7EED
330
7C31
100
AcDbEntity
  8
DEFPOINTS
  6
Continuous
 62
     0
440
 16777216
100
AcDbPoint
 10
1599.808772152806
 20
750.2638967991995
 30
0.0
  0
POINT
  5
7EEE
330
7C31
100
AcDbEntity
  8
DEFPOINTS
  6
Continuous
 62
     0
440
 16777216
100
AcDbPoint
 10
1731.808772152806
 20
750.2638967991995
 30
0.0
  0
POINT
  5
7EEF
330
7C31
100
AcDbEntity
  8
DEFPOINTS
  6
Continuous
 62
     0
440
 16777216
100
AcDbPoint
 10
1731.808772152806
 20
673.5207957991995
 30
0.0
  0
ENDBLK
  5
7C3B
330
7C31
100
AcDbEntity
  8
0
100
AcDbBlockEnd
  0
BLOCK
  5
7C3F
330
7C3E
100
AcDbEntity
  8
0
100
AcDbBlockBegin
  2
*D10
 70
     1
 10
0.0
 20
0.0
 30
0.0
  3
*D10
  1

  0
LINE
  5
7E36
330
7C3E
100
AcDbEntity
  8
3
  6
Continuous
 62
     0
440
 16777216
100
AcDbLine
 10
1529.808772152806
 20
1310.263896799199
 30
0.0
 11
1529.808772152806
 21
1344.5226197992
 31
0.0
  0
LINE
  5
7E37
330
7C3E
100
AcDbEntity
  8
3
  6
Continuous
 62
     0
440
 16777216
100
AcDbLine
 10
1669.808772152806
 20
1310.263896799199
 30
0.0
 11
1669.808772152806
 21
1344.5226197992
 31
0.0
  0
LINE
  5
7E38
330
7C3E
100
AcDbEntity
  8
3
  6
Continuous
 62
     0
440
 16777216
100
AcDbLine
 10
1549.808772152806
 20
1334.522619799199
 30
0.0
 11
1649.808772152806
 21
1334.522619799199
 31
0.0
  0
INSERT
  5
7E39
330
7C3E
100
AcDbEntity
  8
3
  6
Continuous
 62
     0
440
 16777216
100
AcDbBlockReference
  2
_OPEN
 10
1529.808772152806
 20
1334.522619799199
 30
0.0
 41
20.0
 42
20.0
 43
20.0
 50
180.0
  0
INSERT
  5
7E3A
330
7C3E
100
AcDbEntity
  8
3
  6
Continuous
 62
     0
440
 16777216
100
AcDbBlockReference
  2
_OPEN
 10
1669.808772152806
 20
1334.522619799199
 30
0.0
 41
20.0
 42
20.0
 43
20.0
  0
MTEXT
  5
7E3B
330
7C3E
100
AcDbEntity
  8
3
  6
Continuous
 62
     0
440
 16777216
100
AcDbMText
 10
1595.523058152806
 20
1359.522619799199
 30
0.0
 40
30.0
 41
0.0
 46
0.0
 71
     5
 72
     5
  1
\A1;140
 73
     1
 44
1.0
  0
POINT
  5
7E3C
330
7C3E
100
AcDbEntity
  8
DEFPOINTS
  6
Continuous
 62
     0
440
 16777216
100
AcDbPoint
 10
1529.808772152806
 20
1305.263896799199
 30
0.0
  0
POINT
  5
7E3D
330
7C3E
100
AcDbEntity
  8
DEFPOINTS
  6
Continuous
 62
     0
440
 16777216
100
AcDbPoint
 10
1669.808772152806
 20
1305.263896799199
 30
0.0
  0
POINT
  5
7E3E
330
7C3E
100
AcDbEntity
  8
DEFPOINTS
  6
Continuous
 62
     0
440
 16777216
100
AcDbPoint
 10
1669.808772152806
 20
1334.522619799199
 30
0.0
  0
ENDBLK
  5
7C49
330
7C3E
100
AcDbEntity
  8
0
100
AcDbBlockEnd
  0
BLOCK
  5
7CD9
330
7C4B
100
AcDbEntity
  8
0
100
AcDbBlockBegin
  2
*D11
 70
     1
 10
0.0
 20
0.0
 30
0.0
  3
*D11
  1

  0
LINE
  5
7F6B
330
7C4B
100
AcDbEntity
  8
3
  6
Continuous
 62
     0
440
 16777216
370
    -2
100
AcDbLine
 10
1299.808772152806
 20
1260.263896799199
 30
0.0
 11
1299.808772152806
 21
1410.544493799199
 31
0.0
  0
LINE
  5
7F6C
330
7C4B
100
AcDbEntity
  8
3
  6
Continuous
 62
     0
440
 16777216
370
    -2
100
AcDbLine
 10
1599.808772152806
 20
1385.800145799199
 30
0.0
 11
1599.808772152806
 21
1410.544493799199
 31
0.0
  0
LINE
  5
7F6D
330
7C4B
100
AcDbEntity
  8
3
  6
Continuous
 62
     0
440
 16777216
370
    -2
100
AcDbLine
 10
1319.808772152806
 20
1400.544493799199
 30
0.0
 11
1579.808772152806
 21
1400.544493799199
 31
0.0
  0
INSERT
  5
7F6E
330
7C4B
100
AcDbEntity
  8
3
  6
Continuous
 62
     0
440
 16777216
370
    -2
100
AcDbBlockReference
  2
_OPEN
 10
1299.808772152806
 20
1400.544493799199
 30
0.0
 41
20.0
 42
20.0
 43
20.0
 50
180.0
  0
INSERT
  5
7F6F
330
7C4B
100
AcDbEntity
  8
3
  6
Continuous
 62
     0
440
 16777216
370
    -2
100
AcDbBlockReference
  2
_OPEN
 10
1599.808772152806
 20
1400.544493799199
 30
0.0
 41
20.0
 42
20.0
 43
20.0
  0
MTEXT
  5
7F70
330
7C4B
100
AcDbEntity
  8
3
  6
Continuous
 62
     0
440
 16777216
100
AcDbMText
 10
1457.622077152806
 20
1433.401636656342
 30
0.0
 40
30.0
 41
0.0
 46
0.0
 71
     5
 72
     1
  1
\A1;(300)
 73
     1
 44
1.0
  0
POINT
  5
7F71
330
7C4B
100
AcDbEntity
  8
DEFPOINTS
  6
Continuous
 62
     0
440
 16777216
100
AcDbPoint
 10
1299.808772152806
 20
1255.263896799199
 30
0.0
  0
POINT
  5
7F72
330
7C4B
100
AcDbEntity
  8
DEFPOINTS
  6
Continuous
 62
     0
440
 16777216
100
AcDbPoint
 10
1599.808772152806
 20
1380.800145799199
 30
0.0
  0
POINT
  5
7F73
330
7C4B
100
AcDbEntity
  8
DEFPOINTS
  6
Continuous
 62
     0
440
 16777216
100
AcDbPoint
 10
1599.808772152806
 20
1400.544493799199
 30
0.0
  0
ENDBLK
  5
7CE3
330
7C4B
100
AcDbEntity
  8
0
100
AcDbBlockEnd
  0
BLOCK
  5
7CC0
330
7C58
100
AcDbEntity
  8
0
100
AcDbBlockBegin
  2
*D12
 70
     1
 10
0.0
 20
0.0
 30
0.0
  3
*D12
  1

  0
LINE
  5
7E48
330
7C58
100
AcDbEntity
  8
3
  6
Continuous
 62
     0
440
 16777216
100
AcDbLine
 10
1677.808772152806
 20
1270.263896799199
 30
0.0
 11
1677.808772152806
 21
1410.544493799199
 31
0.0
  0
LINE
  5
7E49
330
7C58
100
AcDbEntity
  8
3
  6
Continuous
 62
     0
440
 16777216
100
AcDbLine
 10
1619.808772152806
 20
1400.544493799199
 30
0.0
 11
1657.808772152806
 21
1400.544493799199
 31
0.0
  0
MTEXT
  5
7E4A
330
7C58
100
AcDbEntity
  8
3
  6
Continuous
 62
     0
440
 16777216
100
AcDbMText
 10
1635.842324152806
 20
1425.5444937992
 30
0.0
 40
30.0
 41
0.0
 46
0.0
 71
     5
 72
     5
  1
\A1;78
 73
     1
 44
1.0
  0
INSERT
  5
7E4B
330
7C58
100
AcDbEntity
  8
3
  6
Continuous
 62
     0
440
 16777216
100
AcDbBlockReference
  2
_OPEN
 10
1599.808772152806
 20
1400.544493799199
 30
0.0
 41
20.0
 42
20.0
 43
20.0
 50
180.0
  0
INSERT
  5
7E4C
330
7C58
100
AcDbEntity
  8
3
  6
Continuous
 62
     0
440
 16777216
100
AcDbBlockReference
  2
_OPEN
 10
1677.808772152806
 20
1400.544493799199
 30
0.0
 41
20.0
 42
20.0
 43
20.0
  0
POINT
  5
7E4D
330
7C58
100
AcDbEntity
  8
DEFPOINTS
  6
Continuous
 62
     0
440
 16777216
100
AcDbPoint
 10
1599.808772152806
 20
1380.800145799199
 30
0.0
  0
POINT
  5
7E4E
330
7C58
100
AcDbEntity
  8
DEFPOINTS
  6
Continuous
 62
     0
440
 16777216
100
AcDbPoint
 10
1677.808772152806
 20
1265.263896799199
 30
0.0
  0
POINT
  5
7E4F
330
7C58
100
AcDbEntity
  8
DEFPOINTS
  6
Continuous
 62
     0
440
 16777216
100
AcDbPoint
 10
1677.808772152806
 20
1400.544493799199
 30
0.0
  0
ENDBLK
  5
7CC9
330
7C58
100
AcDbEntity
  8
0
100
AcDbBlockEnd
  0
BLOCK
  5
7CE4
330
7C80
100
AcDbEntity
  8
0
100
AcDbBlockBegin
  2
*D13
 70
     1
 10
0.0
 20
0.0
 30
0.0
  3
*D13
  1

  0
LINE
  5
7E50
330
7C80
100
AcDbEntity
  8
3
  6
Continuous
 62
     0
440
 16777216
100
AcDbLine
 10
1682.808772152806
 20
1245.2638967992
 30
0.0
 11
1758.788692152806
 21
1245.2638967992
 31
0.0
  0
LINE
  5
7E51
330
7C80
100
AcDbEntity
  8
3
  6
Continuous
 62
     0
440
 16777216
100
AcDbLine
 10
1682.808772152806
 20
1045.263896799199
 30
0.0
 11
1758.788692152806
 21
1045.263896799199
 31
0.0
  0
LINE
  5
7E52
330
7C80
100
AcDbEntity
  8
3
  6
Continuous
 62
     0
440
 16777216
100
AcDbLine
 10
1748.788692152806
 20
1225.263896799199
 30
0.0
 11
1748.788692152806
 21
1065.263896799199
 31
0.0
  0
INSERT
  5
7E53
330
7C80
100
AcDbEntity
  8
3
  6
Continuous
 62
     0
440
 16777216
100
AcDbBlockReference
  2
_OPEN
 10
1748.788692152806
 20
1245.2638967992
 30
0.0
 41
20.0
 42
20.0
 43
20.0
 50
90.0
  0
INSERT
  5
7E54
330
7C80
100
AcDbEntity
  8
3
  6
Continuous
 62
     0
440
 16777216
100
AcDbBlockReference
  2
_OPEN
 10
1748.788692152806
 20
1045.263896799199
 30
0.0
 41
20.0
 42
20.0
 43
20.0
 50
270.0
  0
MTEXT
  5
7E55
330
7C80
100
AcDbEntity
  8
3
  6
Continuous
 62
     0
440
 16777216
100
AcDbMText
 10
1723.788692152806
 20
1158.692468227771
 30
0.0
 40
30.0
 41
0.0
 46
0.0
 71
     5
 72
     5
  1
\A1;φ200
 11
0.0000000000000001
 21
1.0
 31
0.0
 73
     1
 44
1.0
  0
POINT
  5
7E56
330
7C80
100
AcDbEntity
  8
DEFPOINTS
  6
Continuous
 62
     0
440
 16777216
100
AcDbPoint
 10
1677.808772152806
 20
1245.2638967992
 30
0.0
  0
POINT
  5
7E57
330
7C80
100
AcDbEntity
  8
DEFPOINTS
  6
Continuous
 62
     0
440
 16777216
100
AcDbPoint
 10
1677.808772152806
 20
1045.263896799199
 30
0.0
  0
POINT
  5
7E58
330
7C80
100
AcDbEntity
  8
DEFPOINTS
  6
Continuous
 62
     0
440
 16777216
100
AcDbPoint
 10
1748.788692152806
 20
1045.263896799199
 30
0.0
  0
ENDBLK
  5
7CEE
330
7C80
100
AcDbEntity
  8
0
100
AcDbBlockEnd
  0
BLOCK
  5
7C98
330
7C97
100
AcDbEntity
  8
0
100
AcDbBlockBegin
  2
*D14
 70
     1
 10
0.0
 20
0.0
 30
0.0
  3
*D14
  1

  0
LINE
  5
7E59
330
7C97
100
AcDbEntity
  8
3
  6
Continuous
 62
     0
440
 16777216
100
AcDbLine
 10
816.185794034528
 20
1295.263896799199
 30
0.0
 11
816.185794034528
 21
1433.061145799199
 31
0.0
  0
LINE
  5
7E5A
330
7C97
100
AcDbEntity
  8
3
  6
Continuous
 62
     0
440
 16777216
100
AcDbLine
 10
605.185794034528
 20
1310.263896799199
 30
0.0
 11
605.185794034528
 21
1433.061145799199
 31
0.0
  0
LINE
  5
7E5B
330
7C97
100
AcDbEntity
  8
3
  6
Continuous
 62
     0
440
 16777216
100
AcDbLine
 10
796.1857940345279
 20
1423.061145799199
 30
0.0
 11
625.185794034528
 21
1423.061145799199
 31
0.0
  0
INSERT
  5
7E5C
330
7C97
100
AcDbEntity
  8
3
  6
Continuous
 62
     0
440
 16777216
100
AcDbBlockReference
  2
_OPEN
 10
816.185794034528
 20
1423.061145799199
 30
0.0
 41
20.0
 42
20.0
 43
20.0
  0
INSERT
  5
7E5D
330
7C97
100
AcDbEntity
  8
3
  6
Continuous
 62
     0
440
 16777216
100
AcDbBlockReference
  2
_OPEN
 10
605.185794034528
 20
1423.061145799199
 30
0.0
 41
20.0
 42
20.0
 43
20.0
 50
180.0
  0
MTEXT
  5
7E5E
330
7C97
100
AcDbEntity
  8
3
  6
Continuous
 62
     0
440
 16777216
100
AcDbMText
 10
688.525175034528
 20
1448.061145799199
 30
0.0
 40
30.0
 41
0.0
 46
0.0
 71
     5
 72
     5
  1
\A1;211
 73
     1
 44
1.0
  0
POINT
  5
7E5F
330
7C97
100
AcDbEntity
  8
DEFPOINTS
  6
Continuous
 62
     0
440
 16777216
100
AcDbPoint
 10
816.185794034528
 20
1290.263896799199
 30
0.0
  0
POINT
  5
7E60
330
7C97
100
AcDbEntity
  8
DEFPOINTS
  6
Continuous
 62
     0
440
 16777216
100
AcDbPoint
 10
605.185794034528
 20
1305.263896799199
 30
0.0
  0
POINT
  5
7E61
330
7C97
100
AcDbEntity
  8
DEFPOINTS
  6
Continuous
 62
     0
440
 16777216
100
AcDbPoint
 10
605.185794034528
 20
1423.061145799199
 30
0.0
  0
ENDBLK
  5
7CA2
330
7C97
100
AcDbEntity
  8
0
100
AcDbBlockEnd
  0
BLOCK
  5
7CA5
330
7CA4
100
AcDbEntity
  8
0
100
AcDbBlockBegin
  2
*D15
 70
     1
 10
0.0
 20
0.0
 30
0.0
  3
*D15
  1

  0
LINE
  5
7E62
330
7CA4
100
AcDbEntity
  8
3
  6
Continuous
 62
     0
440
 16777216
100
AcDbLine
 10
454.618606034528
 20
1150.263896799199
 30
0.0
 11
454.618606034528
 21
1433.061145799199
 31
0.0
  0
LINE
  5
7E63
330
7CA4
100
AcDbEntity
  8
3
  6
Continuous
 62
     0
440
 16777216
100
AcDbLine
 10
585.185794034528
 20
1423.061145799199
 30
0.0
 11
474.618606034528
 21
1423.061145799199
 31
0.0
  0
INSERT
  5
7E64
330
7CA4
100
AcDbEntity
  8
3
  6
Continuous
 62
     0
440
 16777216
100
AcDbBlockReference
  2
_OPEN
 10
605.185794034528
 20
1423.061145799199
 30
0.0
 41
20.0
 42
20.0
 43
20.0
  0
INSERT
  5
7E65
330
7CA4
100
AcDbEntity
  8
3
  6
Continuous
 62
     0
440
 16777216
100
AcDbBlockReference
  2
_OPEN
 10
454.618606034528
 20
1423.061145799199
 30
0.0
 41
20.0
 42
20.0
 43
20.0
 50
180.0
  0
MTEXT
  5
7E66
330
7CA4
100
AcDbEntity
  8
3
  6
Continuous
 62
     0
440
 16777216
100
AcDbMText
 10
529.9022000345281
 20
1448.061145799199
 30
0.0
 40
30.0
 41
0.0
 46
0.0
 71
     5
 72
     5
  1
\A1;151
 73
     1
 44
1.0
  0
POINT
  5
7E67
330
7CA4
100
AcDbEntity
  8
DEFPOINTS
  6
Continuous
 62
     0
440
 16777216
100
AcDbPoint
 10
605.185794034528
 20
1305.263896799199
 30
0.0
  0
POINT
  5
7E68
330
7CA4
100
AcDbEntity
  8
DEFPOINTS
  6
Continuous
 62
     0
440
 16777216
100
AcDbPoint
 10
454.618606034528
 20
1145.263896799199
 30
0.0
  0
POINT
  5
7E69
330
7CA4
100
AcDbEntity
  8
DEFPOINTS
  6
Continuous
 62
     0
440
 16777216
100
AcDbPoint
 10
454.618606034528
 20
1423.061145799199
 30
0.0
  0
ENDBLK
  5
7CAE
330
7CA4
100
AcDbEntity
  8
0
100
AcDbBlockEnd
  0
BLOCK
  5
7D4A
330
7D49
100
AcDbEntity
  8
0
100
AcDbBlockBegin
  2
_DOT
 70
     0
 10
0.0
 20
0.0
 30
0.0
  3
_DOT
  1

  0
LINE
  5
7D6A
330
7D49
100
AcDbEntity
  8
0
  6
ByBlock
 62
     0
100
AcDbLine
 10
0.0
 20
0.0
 30
0.0
 11
-1.0
 21
-0.0000000000000284
 31
0.0
  0
LWPOLYLINE
  5
7D6B
330
7D49
100
AcDbEntity
  8
0
  6
ByBlock
 62
     0
100
AcDbPolyline
 90
        2
 70
     1
 43
0.1666666666666666
 10
-0.0833333333333286
 20
-0.0000000000000284
 42
1.0
 10
0.0833333333333286
 20
-0.0000000000000284
 42
1.0
  0
ENDBLK
  5
7D50
330
7D49
100
AcDbEntity
  8
0
100
AcDbBlockEnd
  0
BLOCK
  5
7D85
330
7D84
100
AcDbEntity
  8
0
100
AcDbBlockBegin
  2
*D17
 70
     1
 10
0.0
 20
0.0
 30
0.0
  3
*D17
  1

  0
LINE
  5
7EF0
330
7D84
100
AcDbEntity
  8
3
 62
     0
440
 16777216
370
    -2
100
AcDbLine
 10
415.185794034528
 20
800.2638967991995
 30
0.0
 11
334.5890512540209
 21
800.2638967991995
 31
0.0
  0
LINE
  5
7EF1
330
7D84
100
AcDbEntity
  8
3
 62
     0
440
 16777216
370
    -2
100
AcDbLine
 10
415.185794034528
 20
750.2638967991995
 30
0.0
 11
334.5890512540209
 21
750.2638967991995
 31
0.0
  0
LINE
  5
7EF2
330
7D84
100
AcDbEntity
  8
3
 62
     0
440
 16777216
370
    -2
100
AcDbLine
 10
344.5890512540209
 20
820.2638967991996
 30
0.0
 11
344.5890512540209
 21
840.2638967991995
 31
0.0
  0
LINE
  5
7EF3
330
7D84
100
AcDbEntity
  8
3
 62
     0
440
 16777216
370
    -2
100
AcDbLine
 10
344.5890512540209
 20
730.2638967991995
 30
0.0
 11
344.5890512540209
 21
641.6924682277709
 31
0.0
  0
LINE
  5
7EF4
330
7D84
100
AcDbEntity
  8
3
 62
     0
440
 16777216
370
    -2
100
AcDbLine
 10
344.5890512540209
 20
800.2638967991995
 30
0.0
 11
344.5890512540209
 21
750.2638967991995
 31
0.0
  0
INSERT
  5
7EF5
330
7D84
100
AcDbEntity
  8
3
 62
     0
440
 16777216
370
    -2
100
AcDbBlockReference
  2
_DOT
 10
344.5890512540209
 20
800.2638967991995
 30
0.0
 41
20.0
 42
20.0
 43
20.0
 50
270.0
  0
INSERT
  5
7EF6
330
7D84
100
AcDbEntity
  8
3
 62
     0
440
 16777216
370
    -2
100
AcDbBlockReference
  2
_OPEN
 10
344.5890512540209
 20
750.2638967991995
 30
0.0
 41
20.0
 42
20.0
 43
20.0
 50
90.0
  0
MTEXT
  5
7EF7
330
7D84
100
AcDbEntity
  8
3
 62
     0
440
 16777216
100
AcDbMText
 10
319.5890512540208
 20
675.9781825134853
 30
0.0
 40
30.0
 41
0.0
 46
0.0
 71
     5
 72
     1
  1
\A1;50
 11
0.0000000000000001
 21
1.0
 31
0.0
 73
     1
 44
1.0
  0
POINT
  5
7EF8
330
7D84
100
AcDbEntity
  8
DEFPOINTS
 62
     0
440
 16777216
100
AcDbPoint
 10
420.185794034528
 20
800.2638967991995
 30
0.0
  0
POINT
  5
7EF9
330
7D84
100
AcDbEntity
  8
DEFPOINTS
 62
     0
440
 16777216
100
AcDbPoint
 10
420.185794034528
 20
750.2638967991995
 30
0.0
  0
POINT
  5
7EFA
330
7D84
100
AcDbEntity
  8
DEFPOINTS
 62
     0
440
 16777216
100
AcDbPoint
 10
344.5890512540209
 20
750.2638967991995
 30
0.0
  0
ENDBLK
  5
7D91
330
7D84
100
AcDbEntity
  8
0
100
AcDbBlockEnd
  0
BLOCK
  5
7D94
330
7D93
100
AcDbEntity
  8
0
100
AcDbBlockBegin
  2
*D18
 70
     1
 10
0.0
 20
0.0
 30
0.0
  3
*D18
  1

  0
LINE
  5
7F31
330
7D93
100
AcDbEntity
  8
3
 62
     0
440
 16777216
370
    -2
100
AcDbLine
 10
415.185794034528
 20
800.2638967991995
 30
0.0
 11
334.5890512540209
 21
800.2638967991995
 31
0.0
  0
LINE
  5
7F32
330
7D93
100
AcDbEntity
  8
3
 62
     0
440
 16777216
370
    -2
100
AcDbLine
 10
440.185794034528
 20
870.2638967991996
 30
0.0
 11
334.5890512540209
 21
870.2638967991996
 31
0.0
  0
LINE
  5
7F33
330
7D93
100
AcDbEntity
  8
3
 62
     0
440
 16777216
370
    -2
100
AcDbLine
 10
344.5890512540209
 20
820.2638967991996
 30
0.0
 11
344.5890512540209
 21
850.2638967991995
 31
0.0
  0
MTEXT
  5
7F34
330
7D93
100
AcDbEntity
  8
3
 62
     0
440
 16777216
100
AcDbMText
 10
305.7233224351003
 20
836.486005678339
 30
0.0
 40
30.0
 41
0.0
 46
0.0
 71
     5
 72
     1
  1
\A1;(70)
 11
0.0000000000000001
 21
1.0
 31
0.0
 73
     1
 44
1.0
  0
INSERT
  5
7F35
330
7D93
100
AcDbEntity
  8
3
 62
     0
440
 16777216
370
    -2
100
AcDbBlockReference
  2
_DOT
 10
344.5890512540209
 20
800.2638967991995
 30
0.0
 41
20.0
 42
20.0
 43
20.0
 50
270.0
  0
INSERT
  5
7F36
330
7D93
100
AcDbEntity
  8
3
 62
     0
440
 16777216
370
    -2
100
AcDbBlockReference
  2
_OPEN
 10
344.5890512540209
 20
870.2638967991996
 30
0.0
 41
20.0
 42
20.0
 43
20.0
 50
90.0
  0
POINT
  5
7F37
330
7D93
100
AcDbEntity
  8
DEFPOINTS
 62
     0
440
 16777216
100
AcDbPoint
 10
420.185794034528
 20
800.2638967991995
 30
0.0
  0
POINT
  5
7F38
330
7D93
100
AcDbEntity
  8
DEFPOINTS
 62
     0
440
 16777216
100
AcDbPoint
 10
445.185794034528
 20
870.2638967991996
 30
0.0
  0
POINT
  5
7F39
330
7D93
100
AcDbEntity
  8
DEFPOINTS
 62
     0
440
 16777216
100
AcDbPoint
 10
344.5890512540209
 20
870.2638967991996
 30
0.0
  0
ENDBLK
  5
7D9E
330
7D93
100
AcDbEntity
  8
0
100
AcDbBlockEnd
  0
BLOCK
  5
7DA1
330
7DA0
100
AcDbEntity
  8
0
100
AcDbBlockBegin
  2
*D19
 70
     1
 10
0.0
 20
0.0
 30
0.0
  3
*D19
  1

  0
LINE
  5
7F04
330
7DA0
100
AcDbEntity
  8
3
 62
     0
440
 16777216
370
    -2
100
AcDbLine
 10
579.185794034528
 20
1305.263896799199
 30
0.0
 11
236.6617809838882
 21
1305.2638967992
 31
0.0
  0
LINE
  5
7F05
330
7DA0
100
AcDbEntity
  8
3
 62
     0
440
 16777216
370
    -2
100
AcDbLine
 10
415.185794034528
 20
750.2638967991995
 30
0.0
 11
236.6617809838881
 21
750.2638967991996
 31
0.0
  0
LINE
  5
7F06
330
7DA0
100
AcDbEntity
  8
3
 62
     0
440
 16777216
370
    -2
100
AcDbLine
 10
246.6617809838882
 20
1285.2638967992
 30
0.0
 11
246.6617809838881
 21
770.2638967991996
 31
0.0
  0
INSERT
  5
7F07
330
7DA0
100
AcDbEntity
  8
3
 62
     0
440
 16777216
370
    -2
100
AcDbBlockReference
  2
_OPEN
 10
246.6617809838882
 20
1305.2638967992
 30
0.0
 41
20.0
 42
20.0
 43
20.0
 50
90.0
  0
INSERT
  5
7F08
330
7DA0
100
AcDbEntity
  8
3
 62
     0
440
 16777216
370
    -2
100
AcDbBlockReference
  2
_OPEN
 10
246.6617809838881
 20
750.2638967991996
 30
0.0
 41
20.0
 42
20.0
 43
20.0
 50
270.0
  0
MTEXT
  5
7F09
330
7DA0
100
AcDbEntity
  8
3
 62
     0
440
 16777216
100
AcDbMText
 10
213.8046381267451
 20
1027.763896799199
 30
0.0
 40
30.0
 41
0.0
 46
0.0
 71
     5
 72
     1
  1
\A1;(555)
 11
0.0000000000000001
 21
1.0
 31
0.0
 73
     1
 44
1.0
  0
POINT
  5
7F0A
330
7DA0
100
AcDbEntity
  8
DEFPOINTS
 62
     0
440
 16777216
100
AcDbPoint
 10
584.185794034528
 20
1305.263896799199
 30
0.0
  0
POINT
  5
7F0B
330
7DA0
100
AcDbEntity
  8
DEFPOINTS
 62
     0
440
 16777216
100
AcDbPoint
 10
420.185794034528
 20
750.2638967991995
 30
0.0
  0
POINT
  5
7F0C
330
7DA0
100
AcDbEntity
  8
DEFPOINTS
 62
     0
440
 16777216
100
AcDbPoint
 10
246.6617809838881
 20
750.2638967991996
 30
0.0
  0
ENDBLK
  5
7DAB
330
7DA0
100
AcDbEntity
  8
0
100
AcDbBlockEnd
  0
ENDSEC
  0
SECTION
  2
ENTITIES
  0
LINE
  5
7A94
330
19
100
AcDbEntity
  8
1
  6
Continuous
100
AcDbLine
 10
1100.185794034528
 20
800.2638967991995
 30
0.0
 11
420.185794034528
 21
800.2638967991995
 31
0.0
  0
LINE
  5
7A95
330
19
100
AcDbEntity
  8
1
  6
Continuous
100
AcDbLine
 10
1100.185794034528
 20
775.2638967991995
 30
0.0
 11
420.185794034528
 21
775.2638967991995
 31
0.0
  0
LINE
  5
7A96
330
19
100
AcDbEntity
  8
1
  6
Continuous
100
AcDbLine
 10
826.1857940345279
 20
1305.263896799199
 30
0.0
 11
584.185794034528
 21
1305.263896799199
 31
0.0
  0
ARC
  5
7A97
330
19
100
AcDbEntity
  8
1
  6
Continuous
100
AcDbCircle
 10
621.185794034528
 20
1161.263896799199
 30
0.0
 40
195.0
100
AcDbArc
 50
269.7
 51
0.0
  0
LINE
  5
7A98
330
19
100
AcDbEntity
  8
1
  6
Continuous
100
AcDbLine
 10
816.185794034528
 20
1290.263896799199
 30
0.0
 11
805.1857940345279
 21
1290.263896799199
 31
0.0
  0
LINE
  5
7A99
330
19
100
AcDbEntity
  8
1
  6
Continuous
100
AcDbLine
 10
1028.185794034528
 20
1255.263896799199
 30
0.0
 11
498.185794034528
 21
1255.263896799199
 31
0.0
  0
LINE
  5
7A9A
330
19
100
AcDbEntity
  8
1
  6
Continuous
100
AcDbLine
 10
1075.185794034528
 20
870.2638967991996
 30
0.0
 11
445.185794034528
 21
870.2638967991996
 31
0.0
  0
LINE
  5
7A9B
330
19
100
AcDbEntity
  8
1
  6
Continuous
100
AcDbLine
 10
1075.185794034528
 20
920.2638967991996
 30
0.0
 11
445.185794034528
 21
920.2638967991996
 31
0.0
  0
LINE
  5
7A9C
330
19
100
AcDbEntity
  8
1
  6
Continuous
100
AcDbLine
 10
626.3857940345279
 20
1190.563896799199
 30
0.0
 11
920.1857940345279
 21
1053.063896799199
 31
0.0
  0
LINE
  5
7A9D
330
19
100
AcDbEntity
  8
1
  6
Continuous
100
AcDbLine
 10
588.2857940345279
 20
1098.263896799199
 30
0.0
 11
893.4857940345279
 21
988.4638967991996
 31
0.0
  0
CIRCLE
  5
7A9E
330
19
100
AcDbEntity
  8
1
  6
Continuous
100
AcDbCircle
 10
605.185794034528
 20
1145.263896799199
 30
0.0
 40
100.0
  0
CIRCLE
  5
7A9F
330
19
100
AcDbEntity
  8
1
  6
Continuous
100
AcDbCircle
 10
605.185794034528
 20
1145.263896799199
 30
0.0
 40
120.0
  0
ARC
  5
7AA0
330
19
100
AcDbEntity
  8
1
  6
Continuous
100
AcDbCircle
 10
594.185794034528
 20
1134.263896799199
 30
0.0
 40
140.0
100
AcDbArc
 50
89.59999999999999
 51
180.5999999999999
  0
LINE
  5
7AA1
330
19
100
AcDbEntity
  8
1
  6
Continuous
100
AcDbLine
 10
740.1857940345279
 20
1198.963896799199
 30
0.0
 11
740.1857940345279
 21
920.2638967991996
 31
0.0
  0
LINE
  5
7AA2
330
19
100
AcDbEntity
  8
1
  6
Continuous
100
AcDbLine
 10
470.185794034528
 20
920.2638967991996
 30
0.0
 11
470.185794034528
 21
1198.963896799199
 31
0.0
  0
LINE
  5
7AA3
330
19
100
AcDbEntity
  8
1
  6
Continuous
100
AcDbLine
 10
498.185794034528
 20
920.2638967991996
 30
0.0
 11
498.185794034528
 21
1255.263896799199
 31
0.0
  0
LINE
  5
7AA4
330
19
100
AcDbEntity
  8
2
  6
CENTER
100
AcDbLine
 10
605.185794034528
 20
775.2638967991995
 30
0.0
 11
605.185794034528
 21
1316.7854427992
 31
0.0
  0
CIRCLE
  5
7AA5
330
19
100
AcDbEntity
  8
1
  6
Continuous
100
AcDbCircle
 10
605.185794034528
 20
1145.263896799199
 30
0.0
 40
50.0
  0
ARC
  5
7AA6
330
19
100
AcDbEntity
  8
1
  6
Continuous
100
AcDbCircle
 10
619.185794034528
 20
1131.263896799199
 30
0.0
 40
165.0
100
AcDbArc
 50
179.4
 51
270.3
  0
LINE
  5
7AA7
330
19
100
AcDbEntity
  8
1
  6
Continuous
100
AcDbLine
 10
740.1857940345279
 20
1111.963896799199
 30
0.0
 11
470.185794034528
 21
1111.963896799199
 31
0.0
  0
LINE
  5
7AA8
330
19
100
AcDbEntity
  8
2
  6
CENTER
100
AcDbLine
 10
1695.446309152806
 20
1145.263896799199
 30
0.0
 11
1264.300420152806
 21
1145.263896799199
 31
0.0
  0
LINE
  5
7AA9
330
19
100
AcDbEntity
  8
1
  6
Continuous
100
AcDbLine
 10
420.185794034528
 20
750.2638967991995
 30
0.0
 11
420.185794034528
 21
800.2638967991995
 31
0.0
  0
LINE
  5
7AAA
330
19
100
AcDbEntity
  8
1
  6
Continuous
100
AcDbLine
 10
420.185794034528
 20
750.2638967991995
 30
0.0
 11
445.185794034528
 21
750.2638967991995
 31
0.0
  0
LINE
  5
7AAB
330
19
100
AcDbEntity
  8
1
  6
Continuous
100
AcDbLine
 10
445.185794034528
 20
750.2638967991995
 30
0.0
 11
445.185794034528
 21
775.2638967991995
 31
0.0
  0
LINE
  5
7AAC
330
19
100
AcDbEntity
  8
1
  6
Continuous
100
AcDbLine
 10
445.185794034528
 20
870.2638967991996
 30
0.0
 11
445.185794034528
 21
920.2638967991996
 31
0.0
  0
LINE
  5
7AAD
330
19
100
AcDbEntity
  8
1
  6
Continuous
100
AcDbLine
 10
604.1857940345281
 20
1305.263896799199
 30
0.0
 11
619.185794034528
 21
1290.263896799199
 31
0.0
  0
LINE
  5
7AAE
330
19
100
AcDbEntity
  8
1
  6
Continuous
100
AcDbLine
 10
553.5857940345279
 20
1270.263896799199
 30
0.0
 11
656.7857940345279
 21
1270.263896799199
 31
0.0
  0
LINE
  5
7AAF
330
19
100
AcDbEntity
  8
1
  6
Continuous
100
AcDbLine
 10
553.5857940345279
 20
1270.263896799199
 30
0.0
 11
470.185794034528
 21
1198.963896799199
 31
0.0
  0
LINE
  5
7AB0
330
19
100
AcDbEntity
  8
1
  6
Continuous
100
AcDbLine
 10
595.185794034528
 20
1290.263896799199
 30
0.0
 11
595.185794034528
 21
1274.263896799199
 31
0.0
  0
LINE
  5
7AB1
330
19
100
AcDbEntity
  8
1
  6
Continuous
100
AcDbLine
 10
605.185794034528
 20
1305.263896799199
 30
0.0
 11
605.185794034528
 21
1290.263896799199
 31
0.0
  0
LINE
  5
7AB2
330
19
100
AcDbEntity
  8
1
  6
Continuous
100
AcDbLine
 10
605.185794034528
 20
1290.263896799199
 30
0.0
 11
595.185794034528
 21
1290.263896799199
 31
0.0
  0
LINE
  5
7AB3
330
19
100
AcDbEntity
  8
1
  6
Continuous
100
AcDbLine
 10
791.1857940345279
 20
1290.263896799199
 30
0.0
 11
619.185794034528
 21
1290.263896799199
 31
0.0
  0
LINE
  5
7AB4
330
19
100
AcDbEntity
  8
1
  6
Continuous
100
AcDbLine
 10
656.7857940345279
 20
1270.263896799199
 30
0.0
 11
740.1857940345279
 21
1198.963896799199
 31
0.0
  0
LINE
  5
7AB5
330
19
100
AcDbEntity
  8
1
  6
Continuous
100
AcDbLine
 10
806.1857940345278
 20
1305.263896799199
 30
0.0
 11
791.1857940345279
 21
1290.263896799199
 31
0.0
  0
LINE
  5
7AB6
330
19
100
AcDbEntity
  8
1
  6
Continuous
100
AcDbLine
 10
805.1857940345279
 20
1305.263896799199
 30
0.0
 11
805.1857940345279
 21
1290.263896799199
 31
0.0
  0
LINE
  5
7AB7
330
19
100
AcDbEntity
  8
1
  6
Continuous
100
AcDbLine
 10
816.185794034528
 20
1290.263896799199
 30
0.0
 11
816.185794034528
 21
1161.263896799199
 31
0.0
  0
LINE
  5
7AB8
330
19
100
AcDbEntity
  8
1
  6
Continuous
100
AcDbLine
 10
1028.185794034528
 20
920.2638967991996
 30
0.0
 11
1028.185794034528
 21
1255.263896799199
 31
0.0
  0
LINE
  5
7AB9
330
19
100
AcDbEntity
  8
1
  6
Continuous
100
AcDbLine
 10
816.8857940345279
 20
940.9638967991995
 30
0.0
 11
1067.885794034528
 21
940.9638967991995
 31
0.0
  0
LINE
  5
7ABA
330
19
100
AcDbEntity
  8
2
  6
CENTER
100
AcDbLine
 10
940.3857940345279
 20
1021.363896799199
 30
0.0
 11
870.385794034528
 21
1021.363896799199
 31
0.0
  0
ARC
  5
7ABB
330
19
100
AcDbEntity
  8
1
  6
Continuous
100
AcDbCircle
 10
909.6857940345278
 20
1020.963896799199
 30
0.0
 40
85.0
100
AcDbArc
 50
324.7
 51
215.3
  0
CIRCLE
  5
7ABC
330
19
100
AcDbEntity
  8
1
  6
Continuous
100
AcDbCircle
 10
905.3857940345279
 20
1021.363896799199
 30
0.0
 40
35.0
  0
LINE
  5
7ABD
330
19
100
AcDbEntity
  8
2
  6
CENTER
100
AcDbLine
 10
905.3857940345279
 20
986.3638967991995
 30
0.0
 11
905.3857940345279
 21
1056.363896799199
 31
0.0
  0
LINE
  5
7ABE
330
19
100
AcDbEntity
  8
1
  6
Continuous
100
AcDbLine
 10
832.1857940345278
 20
948.9638967991995
 30
0.0
 11
840.3857940345279
 21
971.7638967991995
 31
0.0
  0
LINE
  5
7ABF
330
19
100
AcDbEntity
  8
1
  6
Continuous
100
AcDbLine
 10
832.1857940345278
 20
940.9638967991995
 30
0.0
 11
832.1857940345278
 21
948.9638967991995
 31
0.0
  0
LINE
  5
7AC0
330
19
100
AcDbEntity
  8
1
  6
Continuous
100
AcDbLine
 10
816.8857940345279
 20
920.2638967991996
 30
0.0
 11
816.8857940345279
 21
940.9638967991995
 31
0.0
  0
LINE
  5
7AC1
330
19
100
AcDbEntity
  8
1
  6
Continuous
100
AcDbLine
 10
987.1857940345279
 20
940.9638967991995
 30
0.0
 11
987.1857940345279
 21
948.9638967991995
 31
0.0
  0
LINE
  5
7AC2
330
19
100
AcDbEntity
  8
1
  6
Continuous
100
AcDbLine
 10
987.1857940345279
 20
948.9638967991995
 30
0.0
 11
979.0857940345279
 21
971.7638967991995
 31
0.0
  0
LINE
  5
7AC3
330
19
100
AcDbEntity
  8
1
  6
Continuous
100
AcDbLine
 10
1100.185794034528
 20
750.2638967991995
 30
0.0
 11
1100.185794034528
 21
800.2638967991995
 31
0.0
  0
LINE
  5
7AC4
330
19
100
AcDbEntity
  8
1
  6
Continuous
100
AcDbLine
 10
1075.185794034528
 20
750.2638967991995
 30
0.0
 11
1075.185794034528
 21
775.2638967991995
 31
0.0
  0
LINE
  5
7AC5
330
19
100
AcDbEntity
  8
1
  6
Continuous
100
AcDbLine
 10
1100.185794034528
 20
750.2638967991995
 30
0.0
 11
1075.185794034528
 21
750.2638967991995
 31
0.0
  0
LINE
  5
7AC6
330
19
100
AcDbEntity
  8
1
  6
Continuous
100
AcDbLine
 10
1067.885794034528
 20
940.9638967991995
 30
0.0
 11
1067.885794034528
 21
920.2638967991996
 31
0.0
  0
LINE
  5
7AC7
330
19
100
AcDbEntity
  8
1
  6
Continuous
100
AcDbLine
 10
1075.185794034528
 20
870.2638967991996
 30
0.0
 11
1075.185794034528
 21
920.2638967991996
 31
0.0
  0
LINE
  5
7AC8
330
19
100
AcDbEntity
  8
1
  6
Continuous
100
AcDbLine
 10
805.1857940345279
 20
2063.664497163346
 30
0.0
 11
1075.185794034528
 21
2063.664497163346
 31
0.0
  0
LINE
  5
7AC9
330
19
100
AcDbEntity
  8
1
  6
Continuous
100
AcDbLine
 10
498.1857940345279
 20
1828.664497163346
 30
0.0
 11
1028.185794034528
 21
1828.664497163346
 31
0.0
  0
LINE
  5
7ACA
330
19
100
AcDbEntity
  8
1
  6
Continuous
100
AcDbLine
 10
498.1857940345279
 20
1753.664497163346
 30
0.0
 11
1028.185794034528
 21
1753.664497163346
 31
0.0
  0
LINE
  5
7ACB
330
19
100
AcDbEntity
  8
1
  6
Continuous
100
AcDbLine
 10
617.185794034528
 20
1839.664497163346
 30
0.0
 11
893.385794034528
 21
1839.664497163346
 31
0.0
  0
LINE
  5
7ACC
330
19
100
AcDbEntity
  8
1
  6
Continuous
100
AcDbLine
 10
445.185794034528
 20
1755.664497163346
 30
0.0
 11
445.185794034528
 21
2185.664497163346
 31
0.0
  0
LINE
  5
7ACD
330
19
100
AcDbEntity
  8
1
  6
Continuous
100
AcDbLine
 10
420.185794034528
 20
1755.664497163346
 30
0.0
 11
420.185794034528
 21
2185.664497163346
 31
0.0
  0
LINE
  5
7ACE
330
19
100
AcDbEntity
  8
1
  6
Continuous
100
AcDbLine
 10
805.1857940345279
 20
2123.664497163346
 30
0.0
 11
605.185794034528
 21
1983.664497163346
 31
0.0
  0
LINE
  5
7ACF
330
19
100
AcDbEntity
  8
1
  6
Continuous
100
AcDbLine
 10
805.1857940345279
 20
1983.664497163346
 30
0.0
 11
605.185794034528
 21
2123.664497163346
 31
0.0
  0
LINE
  5
7AD0
330
19
100
AcDbEntity
  8
1
  6
Continuous
100
AcDbLine
 10
805.1857940345279
 20
1983.664497163346
 30
0.0
 11
466.185794034528
 21
1983.664497163346
 31
0.0
  0
LINE
  5
7AD1
330
19
100
AcDbEntity
  8
1
  6
Continuous
100
AcDbLine
 10
466.185794034528
 20
2123.664497163346
 30
0.0
 11
805.1857940345279
 21
2123.664497163346
 31
0.0
  0
LINE
  5
7AD2
330
19
100
AcDbEntity
  8
1
  6
Continuous
100
AcDbLine
 10
725.1857940345279
 20
1975.864497163346
 30
0.0
 11
485.1857940345279
 21
1975.864497163346
 31
0.0
  0
LINE
  5
7AD3
330
19
100
AcDbEntity
  8
1
  6
Continuous
100
AcDbLine
 10
725.1857940345279
 20
2131.464497163346
 30
0.0
 11
485.1857940345279
 21
2131.464497163346
 31
0.0
  0
LINE
  5
7AD4
330
19
100
AcDbEntity
  8
1
  6
Continuous
100
AcDbLine
 10
655.185794034528
 20
1806.164497163346
 30
0.0
 11
555.185794034528
 21
1806.164497163346
 31
0.0
  0
LINE
  5
7AD5
330
19
100
AcDbEntity
  8
1
  6
Continuous
100
AcDbLine
 10
655.185794034528
 20
1776.164497163346
 30
0.0
 11
555.185794034528
 21
1776.164497163346
 31
0.0
  0
LINE
  5
7AD6
330
19
100
AcDbEntity
  8
1
  6
Continuous
100
AcDbLine
 10
593.185794034528
 20
1806.164497163346
 30
0.0
 11
593.185794034528
 21
1975.864497163346
 31
0.0
  0
LINE
  5
7AD7
330
19
100
AcDbEntity
  8
1
  6
Continuous
100
AcDbLine
 10
445.185794034528
 20
1839.664497163346
 30
0.0
 11
593.185794034528
 21
1839.664497163346
 31
0.0
  0
LINE
  5
7AD8
330
19
100
AcDbEntity
  8
1
  6
Continuous
100
AcDbLine
 10
498.1857940345279
 20
1753.664497163346
 30
0.0
 11
498.1857940345279
 21
1828.664497163346
 31
0.0
  0
LINE
  5
7AD9
330
19
100
AcDbEntity
  8
1
  6
Continuous
100
AcDbLine
 10
420.185794034528
 20
1755.664497163346
 30
0.0
 11
445.185794034528
 21
1755.664497163346
 31
0.0
  0
LINE
  5
7ADA
330
19
100
AcDbEntity
  8
1
  6
Continuous
100
AcDbLine
 10
555.185794034528
 20
1776.164497163346
 30
0.0
 11
555.185794034528
 21
1806.164497163346
 31
0.0
  0
ARC
  5
7ADB
330
19
100
AcDbEntity
  8
1
  6
Continuous
100
AcDbCircle
 10
466.185794034528
 20
2111.664497163346
 30
0.0
 40
12.0
100
AcDbArc
 50
90.0
 51
180.0
  0
ARC
  5
7ADC
330
19
100
AcDbEntity
  8
1
  6
Continuous
100
AcDbCircle
 10
466.185794034528
 20
1995.664497163346
 30
0.0
 40
12.0
100
AcDbArc
 50
180.0
 51
270.0
  0
LINE
  5
7ADD
330
19
100
AcDbEntity
  8
1
  6
Continuous
100
AcDbLine
 10
485.1857940345279
 20
1983.864497163346
 30
0.0
 11
485.1857940345279
 21
1975.864497163346
 31
0.0
  0
LINE
  5
7ADE
330
19
100
AcDbEntity
  8
1
  6
Continuous
100
AcDbLine
 10
485.1857940345279
 20
2123.464497163346
 30
0.0
 11
485.1857940345279
 21
2131.464497163346
 31
0.0
  0
LINE
  5
7ADF
330
19
100
AcDbEntity
  8
1
  6
Continuous
100
AcDbLine
 10
454.185794034528
 20
1995.664497163346
 30
0.0
 11
454.185794034528
 21
2111.664497163346
 31
0.0
  0
LINE
  5
7AE0
330
19
100
AcDbEntity
  8
1
  6
Continuous
100
AcDbLine
 10
445.185794034528
 20
2063.664497163346
 30
0.0
 11
454.185794034528
 21
2063.664497163346
 31
0.0
  0
LINE
  5
7AE1
330
19
100
AcDbEntity
  8
1
  6
Continuous
100
AcDbLine
 10
605.185794034528
 20
1983.664497163346
 30
0.0
 11
605.185794034528
 21
2123.664497163346
 31
0.0
  0
LINE
  5
7AE2
330
19
100
AcDbEntity
  8
1
  6
Continuous
100
AcDbLine
 10
617.185794034528
 20
1806.164497163346
 30
0.0
 11
617.185794034528
 21
1975.864497163346
 31
0.0
  0
LINE
  5
7AE3
330
19
100
AcDbEntity
  8
1
  6
Continuous
100
AcDbLine
 10
655.185794034528
 20
1776.164497163346
 30
0.0
 11
655.185794034528
 21
1806.164497163346
 31
0.0
  0
LINE
  5
7AE4
330
19
100
AcDbEntity
  8
1
  6
Continuous
100
AcDbLine
 10
805.1857940345279
 20
2123.664497163346
 30
0.0
 11
805.1857940345279
 21
1983.664497163346
 31
0.0
  0
LINE
  5
7AE5
330
19
100
AcDbEntity
  8
1
  6
Continuous
100
AcDbLine
 10
725.1857940345279
 20
1983.864497163346
 30
0.0
 11
725.1857940345279
 21
1975.864497163346
 31
0.0
  0
LINE
  5
7AE6
330
19
100
AcDbEntity
  8
1
  6
Continuous
100
AcDbLine
 10
725.1857940345279
 20
2123.464497163346
 30
0.0
 11
725.1857940345279
 21
2131.464497163346
 31
0.0
  0
LINE
  5
7AE7
330
19
100
AcDbEntity
  8
1
  6
Continuous
100
AcDbLine
 10
420.185794034528
 20
2185.664497163346
 30
0.0
 11
445.185794034528
 21
2185.664497163346
 31
0.0
  0
LINE
  5
7AE8
330
19
100
AcDbEntity
  8
1
  6
Continuous
100
AcDbLine
 10
1075.185794034528
 20
1755.664497163346
 30
0.0
 11
1075.185794034528
 21
2185.664497163346
 31
0.0
  0
LINE
  5
7AE9
330
19
100
AcDbEntity
  8
1
  6
Continuous
100
AcDbLine
 10
1100.185794034528
 20
1755.664497163346
 30
0.0
 11
1100.185794034528
 21
2185.664497163346
 31
0.0
  0
LINE
  5
7AEA
330
19
100
AcDbEntity
  8
1
  6
Continuous
100
AcDbLine
 10
917.385794034528
 20
1839.664497163346
 30
0.0
 11
1075.185794034528
 21
1839.664497163346
 31
0.0
  0
LINE
  5
7AEB
330
19
100
AcDbEntity
  8
1
  6
Continuous
100
AcDbLine
 10
893.385794034528
 20
1806.164497163346
 30
0.0
 11
893.385794034528
 21
1858.864497163346
 31
0.0
  0
LINE
  5
7AEC
330
19
100
AcDbEntity
  8
1
  6
Continuous
100
AcDbLine
 10
917.385794034528
 20
1806.164497163346
 30
0.0
 11
917.385794034528
 21
1858.864497163346
 31
0.0
  0
LINE
  5
7AED
330
19
100
AcDbEntity
  8
1
  6
Continuous
100
AcDbLine
 10
940.3857940345279
 20
1776.164497163346
 30
0.0
 11
870.385794034528
 21
1776.164497163346
 31
0.0
  0
LINE
  5
7AEE
330
19
100
AcDbEntity
  8
1
  6
Continuous
100
AcDbLine
 10
940.3857940345279
 20
1806.164497163346
 30
0.0
 11
870.385794034528
 21
1806.164497163346
 31
0.0
  0
LINE
  5
7AEF
330
19
100
AcDbEntity
  8
1
  6
Continuous
100
AcDbLine
 10
870.385794034528
 20
1776.164497163346
 30
0.0
 11
870.385794034528
 21
1806.164497163346
 31
0.0
  0
LINE
  5
7AF0
330
19
100
AcDbEntity
  8
1
  6
Continuous
100
AcDbLine
 10
940.3857940345279
 20
1776.164497163346
 30
0.0
 11
940.3857940345279
 21
1806.164497163346
 31
0.0
  0
LINE
  5
7AF1
330
19
100
AcDbEntity
  8
1
  6
Continuous
100
AcDbLine
 10
824.6857940345279
 20
1858.864497163346
 30
0.0
 11
994.685794034528
 21
1858.864497163346
 31
0.0
  0
LINE
  5
7AF2
330
19
100
AcDbEntity
  8
1
  6
Continuous
100
AcDbLine
 10
824.6857940345279
 20
2049.764497163346
 30
0.0
 11
994.685794034528
 21
2049.764497163346
 31
0.0
  0
LINE
  5
7AF3
330
19
100
AcDbEntity
  8
1
  6
Continuous
100
AcDbLine
 10
824.6857940345279
 20
1858.864497163346
 30
0.0
 11
824.6857940345279
 21
2049.764497163346
 31
0.0
  0
LINE
  5
7AF4
330
19
100
AcDbEntity
  8
1
  6
Continuous
100
AcDbLine
 10
994.685794034528
 20
1858.864497163346
 30
0.0
 11
994.685794034528
 21
2049.764497163346
 31
0.0
  0
LINE
  5
7AF5
330
19
100
AcDbEntity
  8
1
  6
Continuous
100
AcDbLine
 10
1100.185794034528
 20
1839.664497163346
 30
0.0
 11
1100.185794034528
 21
2063.664497163346
 31
0.0
  0
LINE
  5
7AF6
330
19
100
AcDbEntity
  8
1
  6
Continuous
100
AcDbLine
 10
1028.185794034528
 20
1753.664497163346
 30
0.0
 11
1028.185794034528
 21
1828.664497163346
 31
0.0
  0
LINE
  5
7AF7
330
19
100
AcDbEntity
  8
1
  6
Continuous
100
AcDbLine
 10
1100.185794034528
 20
1755.664497163346
 30
0.0
 11
1075.185794034528
 21
1755.664497163346
 31
0.0
  0
LINE
  5
7AF8
330
19
100
AcDbEntity
  8
1
  6
Continuous
100
AcDbLine
 10
1100.185794034528
 20
2185.664497163346
 30
0.0
 11
1075.185794034528
 21
2185.664497163346
 31
0.0
  0
LINE
  5
7AFA
330
19
100
AcDbEntity
  8
1
  6
Continuous
100
AcDbLine
 10
1301.808772152806
 20
750.2638967991995
 30
0.0
 11
1731.808772152806
 21
750.2638967991995
 31
0.0
  0
LINE
  5
7AFB
330
19
100
AcDbEntity
  8
1
  6
Continuous
100
AcDbLine
 10
1385.808772152806
 20
870.2638967991996
 30
0.0
 11
1609.808772152806
 21
870.2638967991996
 31
0.0
  0
LINE
  5
7AFC
330
19
100
AcDbEntity
  8
1
  6
Continuous
100
AcDbLine
 10
1299.808772152806
 20
920.2638967991996
 30
0.0
 11
1609.808772152806
 21
920.2638967991996
 31
0.0
  0
LINE
  5
7AFD
330
19
100
AcDbEntity
  8
1
  6
Continuous
100
AcDbLine
 10
1352.308772152806
 20
1033.363896799199
 30
0.0
 11
1409.808772152806
 21
1033.363896799199
 31
0.0
  0
LINE
  5
7AFE
330
19
100
AcDbEntity
  8
1
  6
Continuous
100
AcDbLine
 10
1352.308772152806
 20
1009.363896799199
 30
0.0
 11
1409.808772152806
 21
1009.363896799199
 31
0.0
  0
LINE
  5
7AFF
330
19
100
AcDbEntity
  8
1
  6
Continuous
100
AcDbLine
 10
1352.308772152806
 20
1157.263896799199
 30
0.0
 11
1468.108772152806
 21
1157.263896799199
 31
0.0
  0
LINE
  5
7B00
330
19
100
AcDbEntity
  8
1
  6
Continuous
100
AcDbLine
 10
1352.308772152806
 20
1133.263896799199
 30
0.0
 11
1437.208772152806
 21
1133.263896799199
 31
0.0
  0
LINE
  5
7B01
330
19
100
AcDbEntity
  8
1
  6
Continuous
100
AcDbLine
 10
1301.808772152806
 20
775.2638967991995
 30
0.0
 11
1731.808772152806
 21
775.2638967991995
 31
0.0
  0
LINE
  5
7B02
330
19
100
AcDbEntity
  8
1
  6
Continuous
100
AcDbLine
 10
1385.808772152806
 20
800.2638967991995
 30
0.0
 11
1609.808772152806
 21
800.2638967991995
 31
0.0
  0
LINE
  5
7B03
330
19
100
AcDbEntity
  8
1
  6
Continuous
100
AcDbLine
 10
1299.808772152806
 20
1255.263896799199
 30
0.0
 11
1299.808772152806
 21
920.2638967991996
 31
0.0
  0
LINE
  5
7B04
330
19
100
AcDbEntity
  8
1
  6
Continuous
100
AcDbLine
 10
1374.808772152806
 20
1255.263896799199
 30
0.0
 11
1374.808772152806
 21
920.2638967991996
 31
0.0
  0
LINE
  5
7B05
330
19
100
AcDbEntity
  8
1
  6
Continuous
100
AcDbLine
 10
1322.308772152806
 20
1195.263896799199
 30
0.0
 11
1322.308772152806
 21
1095.263896799199
 31
0.0
  0
LINE
  5
7B06
330
19
100
AcDbEntity
  8
1
  6
Continuous
100
AcDbLine
 10
1352.308772152806
 20
1195.263896799199
 30
0.0
 11
1352.308772152806
 21
1095.263896799199
 31
0.0
  0
LINE
  5
7B09
330
19
100
AcDbEntity
  8
1
  6
Continuous
100
AcDbLine
 10
1301.808772152806
 20
775.2638967991995
 30
0.0
 11
1301.808772152806
 21
750.2638967991995
 31
0.0
  0
LINE
  5
7B0A
330
19
100
AcDbEntity
  8
1
  6
Continuous
100
AcDbLine
 10
1385.808772152806
 20
800.2638967991995
 30
0.0
 11
1385.808772152806
 21
775.2638967991995
 31
0.0
  0
LINE
  5
7B0C
330
19
100
AcDbEntity
  8
1
  6
Continuous
100
AcDbLine
 10
1385.808772152806
 20
920.2638967991996
 30
0.0
 11
1385.808772152806
 21
870.2638967991996
 31
0.0
  0
LINE
  5
7B0D
330
19
100
AcDbEntity
  8
1
  6
Continuous
100
AcDbLine
 10
1322.308772152806
 20
1095.263896799199
 30
0.0
 11
1352.308772152806
 21
1095.263896799199
 31
0.0
  0
LINE
  5
7B0E
330
19
100
AcDbEntity
  8
1
  6
Continuous
100
AcDbLine
 10
1322.308772152806
 20
1056.363896799199
 30
0.0
 11
1322.308772152806
 21
986.3638967991995
 31
0.0
  0
LINE
  5
7B0F
330
19
100
AcDbEntity
  8
1
  6
Continuous
100
AcDbLine
 10
1352.308772152806
 20
1056.363896799199
 30
0.0
 11
1352.308772152806
 21
986.3638967991995
 31
0.0
  0
LINE
  5
7B10
330
19
100
AcDbEntity
  8
1
  6
Continuous
100
AcDbLine
 10
1322.308772152806
 20
1056.363896799199
 30
0.0
 11
1352.308772152806
 21
1056.363896799199
 31
0.0
  0
LINE
  5
7B11
330
19
100
AcDbEntity
  8
1
  6
Continuous
100
AcDbLine
 10
1322.308772152806
 20
986.3638967991995
 30
0.0
 11
1352.308772152806
 21
986.3638967991995
 31
0.0
  0
LINE
  5
7B12
330
19
100
AcDbEntity
  8
1
  6
Continuous
100
AcDbLine
 10
1299.808772152806
 20
1255.263896799199
 30
0.0
 11
1374.808772152806
 21
1255.263896799199
 31
0.0
  0
LINE
  5
7B13
330
19
100
AcDbEntity
  8
1
  6
Continuous
100
AcDbLine
 10
1322.308772152806
 20
1195.263896799199
 30
0.0
 11
1352.308772152806
 21
1195.263896799199
 31
0.0
  0
LINE
  5
7B14
330
19
100
AcDbEntity
  8
1
  6
Continuous
100
AcDbLine
 10
1677.808772152806
 20
1265.263896799199
 30
0.0
 11
1677.808772152806
 21
1025.263896799199
 31
0.0
  0
LINE
  5
7B15
330
19
100
AcDbEntity
  8
1
  6
Continuous
100
AcDbLine
 10
1529.808772152806
 20
1305.263896799199
 30
0.0
 11
1529.808772152806
 21
976.2638967991994
 31
0.0
  0
LINE
  5
7B16
330
19
100
AcDbEntity
  8
1
  6
Continuous
100
AcDbLine
 10
1669.808772152806
 20
1305.263896799199
 30
0.0
 11
1669.808772152806
 21
976.2638967991994
 31
0.0
  0
LINE
  5
7B17
330
19
100
AcDbEntity
  8
1
  6
Continuous
100
AcDbLine
 10
1409.808772152806
 20
1111.963896799199
 30
0.0
 11
1521.808772152806
 21
1198.963896799199
 31
0.0
  0
LINE
  5
7B18
330
19
100
AcDbEntity
  8
1
  6
Continuous
100
AcDbLine
 10
1521.808772152806
 20
1265.263896799199
 30
0.0
 11
1521.808772152806
 21
920.2638967991996
 31
0.0
  0
LINE
  5
7B19
330
19
100
AcDbEntity
  8
1
  6
Continuous
100
AcDbLine
 10
1539.808772152806
 20
966.2638967991995
 30
0.0
 11
1659.808772152806
 21
966.2638967991995
 31
0.0
  0
LINE
  5
7B1A
330
19
100
AcDbEntity
  8
1
  6
Continuous
100
AcDbLine
 10
1409.808772152806
 20
1111.963896799199
 30
0.0
 11
1409.808772152806
 21
920.2638967991996
 31
0.0
  0
ARC
  5
7B1B
330
19
100
AcDbEntity
  8
1
  6
Continuous
100
AcDbCircle
 10
1539.808772152806
 20
976.2638967991994
 30
0.0
 40
10.0
100
AcDbArc
 50
180.0
 51
270.0
  0
LINE
  5
7B1C
330
19
100
AcDbEntity
  8
1
  6
Continuous
100
AcDbLine
 10
1529.808772152806
 20
1025.263896799199
 30
0.0
 11
1521.808772152806
 21
1025.263896799199
 31
0.0
  0
LINE
  5
7B1D
330
19
100
AcDbEntity
  8
1
  6
Continuous
100
AcDbLine
 10
1609.808772152806
 20
800.2638967991995
 30
0.0
 11
1609.808772152806
 21
775.2638967991995
 31
0.0
  0
LINE
  5
7B1E
330
19
100
AcDbEntity
  8
1
  6
Continuous
100
AcDbLine
 10
1731.808772152806
 20
775.2638967991995
 30
0.0
 11
1731.808772152806
 21
750.2638967991995
 31
0.0
  0
LINE
  5
7B1F
330
19
100
AcDbEntity
  8
1
  6
Continuous
100
AcDbLine
 10
1669.808772152806
 20
1025.263896799199
 30
0.0
 11
1677.808772152806
 21
1025.263896799199
 31
0.0
  0
ARC
  5
7B20
330
19
100
AcDbEntity
  8
1
  6
Continuous
100
AcDbCircle
 10
1659.808772152806
 20
976.2638967991994
 30
0.0
 40
10.0
100
AcDbArc
 50
270.0
 51
0.0
  0
LINE
  5
7B21
330
19
100
AcDbEntity
  8
1
  6
Continuous
100
AcDbLine
 10
1609.808772152806
 20
920.2638967991996
 30
0.0
 11
1609.808772152806
 21
870.2638967991996
 31
0.0
  0
LINE
  5
7B22
330
19
100
AcDbEntity
  8
1
  6
Continuous
100
AcDbLine
 10
1543.808772152806
 20
1290.263896799199
 30
0.0
 11
1655.808772152806
 21
1290.263896799199
 31
0.0
  0
LINE
  5
7B23
330
19
100
AcDbEntity
  8
1
  6
Continuous
100
AcDbLine
 10
1508.808772152806
 20
1305.263896799199
 30
0.0
 11
1690.808772152806
 21
1305.263896799199
 31
0.0
  0
LINE
  5
7B24
330
19
100
AcDbEntity
  8
1
  6
Continuous
100
AcDbLine
 10
1528.808772152806
 20
1305.263896799199
 30
0.0
 11
1543.808772152806
 21
1290.263896799199
 31
0.0
  0
LINE
  5
7B25
330
19
100
AcDbEntity
  8
1
  6
Continuous
100
AcDbLine
 10
1529.808772152806
 20
1265.263896799199
 30
0.0
 11
1521.808772152806
 21
1265.263896799199
 31
0.0
  0
LINE
  5
7B26
330
19
100
AcDbEntity
  8
1
  6
Continuous
100
AcDbLine
 10
1669.808772152806
 20
1265.263896799199
 30
0.0
 11
1677.808772152806
 21
1265.263896799199
 31
0.0
  0
LINE
  5
7B27
330
19
100
AcDbEntity
  8
1
  6
Continuous
100
AcDbLine
 10
1670.808772152806
 20
1305.263896799199
 30
0.0
 11
1655.808772152806
 21
1290.263896799199
 31
0.0
  0
LINE
  5
7B28
330
19
100
AcDbEntity
  8
4
  6
Continuous
100
AcDbLine
 10
1850.0
 20
500.0
 30
0.0
 11
1850.0
 21
300.0
 31
0.0
  0
LINE
  5
7B29
330
19
100
AcDbEntity
  8
4
  6
Continuous
100
AcDbLine
 10
1150.0
 20
500.0
 30
0.0
 11
1150.0
 21
300.0
 31
0.0
  0
LINE
  5
7B2A
330
19
100
AcDbEntity
  8
4
  6
Continuous
100
AcDbLine
 10
650.0
 20
500.0
 30
0.0
 11
650.0
 21
300.0
 31
0.0
  0
LINE
  5
7B2D
330
19
100
AcDbEntity
  8
4
  6
Continuous
100
AcDbLine
 10
650.0
 20
300.0
 30
0.0
 11
1850.0
 21
300.0
 31
0.0
  0
LINE
  5
7B2E
330
19
100
AcDbEntity
  8
4
  6
Continuous
100
AcDbLine
 10
650.0
 20
400.0
 30
0.0
 11
1850.0
 21
400.0
 31
0.0
  0
TEXT
  5
7B2F
330
19
100
AcDbEntity
  8
4
  6
Continuous
100
AcDbText
 10
688.502081
 20
431.543026
 30
0.0
 40
50.0
  1
機器名称
100
AcDbText
  0
TEXT
  5
7B30
330
19
100
AcDbEntity
  8
4
  6
Continuous
100
AcDbText
 10
686.258106
 20
321.645157
 30
0.0
 40
50.0
  1
機器型番
100
AcDbText
  0
TEXT
  5
7B31
330
19
100
AcDbEntity
  8
4
  6
Continuous
100
AcDbText
 10
1177.678745
 20
422.571769
 30
0.0
 40
45.0
  1
ミツヤニューマルチファン
100
AcDbText
  0
TEXT
  5
7B32
330
19
100
AcDbEntity
  8
4
  6
Continuous
100
AcDbText
 10
1186.654496
 20
317.159584
 30
0.0
 40
50.0
  1
NM#1 1/4-1
100
AcDbText
  0
TEXT
  5
7B34
330
19
100
AcDbEntity
  8
4
  6
Continuous
100
AcDbText
 10
737.5005449999999
 20
2383.428841
 30
0.0
 40
54.0
  1
天井吊防振ベット
100
AcDbText
  0
TEXT
  5
7B35
330
19
100
AcDbEntity
  8
4
  6
Continuous
100
AcDbText
 10
316.167593
 20
2533.880976000001
 30
0.0
 40
72.0
  1
ベルト駆動式片吸込片持多翼ファン
100
AcDbText
  0
LINE
  5
7B36
330
19
100
AcDbEntity
  8
4
  6
Continuous
100
AcDbLine
 10
250.0
 20
2469.408754
 30
0.0
 11
1850.0
 21
2469.408754
 31
0.0
  0
LINE
  5
7B37
330
19
100
AcDbEntity
  8
4
  6
Continuous
100
AcDbLine
 10
250.0
 20
2669.408754
 30
0.0
 11
1850.0
 21
2669.408754
 31
0.0
  0
LINE
  5
7B38
330
19
100
AcDbEntity
  8
4
  6
Continuous
100
AcDbLine
 10
650.0
 20
500.0
 30
0.0
 11
1850.0
 21
500.0
 31
0.0
  0
LINE
  5
7B39
330
19
100
AcDbEntity
  8
4
  6
Continuous
100
AcDbLine
 10
250.0
 20
2669.408754
 30
0.0
 11
250.0
 21
2469.408754
 31
0.0
  0
TEXT
  5
7B3A
330
19
100
AcDbEntity
  8
4
  6
Continuous
100
AcDbText
 10
301.641713
 20
2382.319478000001
 30
0.0
 40
54.0
  1
左回転上向
100
AcDbText
  0
TEXT
  5
7B3B
330
19
100
AcDbEntity
  8
4
  6
Continuous
100
AcDbText
 10
1468.969559
 20
2706.061081
 30
0.0
 40
56.0
  1
No.
100
AcDbText
  0
TEXT
  5
7B3C
330
19
100
AcDbEntity
  8
4
  6
Continuous
100
AcDbText
 10
1420.395118
 20
2383.428841
 30
0.0
 40
54.0
  1
縮尺：1/10
100
AcDbText
  0
LINE
  5
7B3D
330
19
100
AcDbEntity
  8
4
  6
Continuous
100
AcDbLine
 10
1850.0
 20
2669.408754
 30
0.0
 11
1850.0
 21
2469.408754
 31
0.0
  0
LINE
  5
7B3F
330
19
100
AcDbEntity
  8
4
  6
Continuous
100
AcDbLine
 10
1440.617422
 20
2681.263583
 30
0.0
 11
1440.617422
 21
2786.652262
 31
0.0
  0
LINE
  5
7B40
330
19
100
AcDbEntity
  8
4
  6
Continuous
100
AcDbLine
 10
1440.617422
 20
2786.652262
 30
0.0
 11
1850.0
 21
2786.652262
 31
0.0
  0
LINE
  5
7B41
330
19
100
AcDbEntity
  8
4
  6
Continuous
100
AcDbLine
 10
1850.0
 20
2786.652262
 30
0.0
 11
1850.0
 21
2681.263583
 31
0.0
  0
LINE
  5
7B42
330
19
100
AcDbEntity
  8
4
  6
Continuous
100
AcDbLine
 10
1850.0
 20
2681.263583
 30
0.0
 11
1440.617422
 21
2681.263583
 31
0.0
  0
DIMENSION
  5
7B5B
330
19
100
AcDbEntity
  8
3
  6
Continuous
100
AcDbDimension
280
     0
  2
*D1
 10
605.185794034528
 20
696.7374727991995
 30
0.0
 11
513.314543034528
 21
696.7374727991995
 31
0.0
 70
   160
 71
     5
 42
185.0
 73
     0
 74
     0
 75
     0
  3
IGA
100
AcDbAlignedDimension
 13
420.185794034528
 23
750.2638967991995
 33
0.0
 14
605.185794034528
 24
775.2638967991995
 34
0.0
100
AcDbRotatedDimension
1001
ACAD
1000
DSTYLE
1002
{
1070
   287
1070
     3
1070
    40
1040
10.0
1070
   143
1040
0.039
1070
   172
1070
     1
1070
   271
1070
     0
1070
   279
1070
     0
1070
   288
1070
     1
1002
}
  0
DIMENSION
  5
7B67
330
19
100
AcDbEntity
  8
3
  6
Continuous
100
AcDbDimension
280
     0
  2
*D2
 10
1100.185794034528
 20
696.7374727991995
 30
0.0
 11
852.685794034528
 21
721.7374727991995
 31
0.0
 70
    32
 71
     5
 42
495.0
 73
     0
 74
     0
 75
     0
  3
IGA
100
AcDbAlignedDimension
 13
605.185794034528
 23
775.2638967991995
 33
0.0
 14
1100.185794034528
 24
750.2638967991995
 34
0.0
100
AcDbRotatedDimension
1001
ACAD
1000
DSTYLE
1002
{
1070
   287
1070
     4
1070
    40
1040
10.0
1070
    75
1070
     1
1070
   143
1040
0.039
1070
   172
1070
     1
1070
   271
1070
     0
1070
   279
1070
     1
1070
   288
1070
     1
1002
}
  0
DIMENSION
  5
7B8D
330
19
100
AcDbEntity
  8
3
  6
Continuous
100
AcDbDimension
280
     0
  2
*D3
 10
605.185794034528
 20
1353.797963799199
 30
0.0
 11
705.2324800345279
 21
1353.797963799199
 31
0.0
 70
   160
 71
     5
 42
-1.0
 73
     0
 74
     0
 75
     0
  3
IGA
100
AcDbAlignedDimension
 13
805.1857940345279
 23
1305.263896799199
 33
0.0
 14
605.185794034528
 24
1305.263896799199
 34
0.0
100
AcDbRotatedDimension
1001
ACAD
1000
DSTYLE
1002
{
1070
   287
1070
     3
1070
    40
1040
10.0
1070
   143
1040
0.039
1070
   172
1070
     1
1070
   271
1070
     0
1070
   279
1070
     0
1070
   288
1070
     1
1002
}
  0
DIMENSION
  5
7BA6
330
19
100
AcDbEntity
  8
3
  6
Continuous
100
AcDbDimension
280
     0
  2
*D4
 10
343.8656718502951
 20
1145.263896799199
 30
0.0
 11
343.8656718502949
 21
1228.8497377992
 31
0.0
 70
   160
 71
     5
 42
-1.0
 73
     0
 74
     0
 75
     0
  3
IGA
100
AcDbAlignedDimension
 13
584.185794034528
 23
1305.263896799199
 33
0.0
 14
454.618606034528
 24
1145.263896799199
 34
0.0
 50
90.0
100
AcDbRotatedDimension
1001
ACAD
1000
DSTYLE
1002
{
1070
   287
1070
     3
1070
    40
1040
10.0
1070
   143
1040
0.039
1070
   172
1070
     1
1070
   271
1070
     0
1070
   279
1070
     0
1070
   288
1070
     1
1002
}
  0
DIMENSION
  5
7BB2
330
19
100
AcDbEntity
  8
3
  6
Continuous
100
AcDbDimension
280
     0
  2
*D5
 10
343.8656718502949
 20
870.2638967991996
 30
0.0
 11
318.8656718502948
 21
1007.763896799199
 31
0.0
 70
    32
 71
     5
 42
-1.0
 73
     0
 74
     0
 75
     0
  3
IGA
100
AcDbAlignedDimension
 13
454.618606034528
 23
1145.263896799199
 33
0.0
 14
445.185794034528
 24
870.2638967991996
 34
0.0
 50
90.0
100
AcDbRotatedDimension
1001
ACAD
1000
DSTYLE
1002
{
1070
   287
1070
     4
1070
    40
1040
10.0
1070
    75
1070
     1
1070
   143
1040
0.039
1070
   172
1070
     1
1070
   271
1070
     0
1070
   279
1070
     1
1070
   288
1070
     1
1002
}
  0
LINE
  5
7C06
330
19
100
AcDbEntity
  8
2
  6
CENTER
100
AcDbLine
 10
605.185794034528
 20
1719.173507163346
 30
0.0
 11
605.185794034528
 21
2180.439778163346
 31
0.0
  0
DIMENSION
  5
7C13
330
19
100
AcDbEntity
  8
3
  6
Continuous
100
AcDbDimension
280
     0
  2
*D6
 10
1100.185794034528
 20
1664.588035163346
 30
0.0
 11
769.847773034528
 21
1664.588035163346
 31
0.0
 70
   160
 71
     5
 42
-1.0
 73
     0
 74
     0
 75
     0
  3
IGA
100
AcDbAlignedDimension
 13
420.185794034528
 23
1755.664497163346
 33
0.0
 14
1100.185794034528
 24
1755.664497163346
 34
0.0
100
AcDbRotatedDimension
1001
ACAD
1000
DSTYLE
1002
{
1070
   287
1070
     3
1070
    40
1040
10.0
1070
   143
1040
0.039
1070
   172
1070
     1
1070
   271
1070
     0
1070
   279
1070
     0
1070
   288
1070
     1
1002
}
  0
DIMENSION
  5
7C20
330
19
100
AcDbEntity
  8
3
  6
Continuous
100
AcDbDimension
280
     0
  2
*D7
 10
1179.545910034528
 20
1755.664497163346
 30
0.0
 11
1179.545910034528
 21
1997.550979163346
 31
0.0
 70
   160
 71
     5
 42
-1.0
 73
     0
 74
     0
 75
     0
  3
IGA
100
AcDbAlignedDimension
 13
1100.185794034528
 23
2185.664497163346
 33
0.0
 14
1100.185794034528
 24
1755.664497163346
 34
0.0
 50
90.0
100
AcDbRotatedDimension
1001
ACAD
1000
DSTYLE
1002
{
1070
   287
1070
     3
1070
    40
1040
10.0
1070
   143
1040
0.039
1070
   172
1070
     1
1070
   271
1070
     0
1070
   279
1070
     0
1070
   288
1070
     1
1002
}
  0
LINE
  5
7C21
330
19
100
AcDbEntity
  8
2
  6
CENTER
100
AcDbLine
 10
836.0159610345279
 20
2053.664497163346
 30
0.0
 11
400.227851034528
 21
2053.664497163346
 31
0.0
  0
LINE
  5
7C22
330
19
100
AcDbEntity
  8
2
  6
CENTER
100
AcDbLine
 10
1070.953694034528
 20
1145.263896799199
 30
0.0
 11
433.2958160345279
 21
1145.263896799199
 31
0.0
  0
LINE
  5
7C23
330
19
100
AcDbEntity
  8
2
  6
CENTER
100
AcDbLine
 10
1599.808772152806
 20
1338.069219799199
 30
0.0
 11
1599.808772152806
 21
747.0537207991996
 31
0.0
  0
DIMENSION
  5
7C30
330
19
100
AcDbEntity
  8
3
  6
Continuous
100
AcDbDimension
280
     0
  2
*D8
 10
1599.808772152806
 20
673.5207957991995
 30
0.0
 11
1454.590788152805
 21
673.5207957991995
 31
0.0
 70
   160
 71
     5
 42
298.0
 73
     0
 74
     0
 75
     0
  3
IGA
100
AcDbAlignedDimension
 13
1301.808772152806
 23
750.2638967991995
 33
0.0
 14
1599.808772152806
 24
750.2638967991995
 34
0.0
100
AcDbRotatedDimension
1001
ACAD
1000
DSTYLE
1002
{
1070
   287
1070
     3
1070
    40
1040
10.0
1070
   143
1040
0.039
1070
   172
1070
     1
1070
   271
1070
     0
1070
   279
1070
     0
1070
   288
1070
     1
1002
}
  0
DIMENSION
  5
7C3C
330
19
100
AcDbEntity
  8
3
  6
Continuous
100
AcDbDimension
280
     0
  2
*D9
 10
1731.808772152806
 20
673.5207957991995
 30
0.0
 11
1665.808772152806
 21
698.5207957991995
 31
0.0
 70
    32
 71
     5
 42
132.0
 73
     0
 74
     0
 75
     0
  3
IGA
100
AcDbAlignedDimension
 13
1599.808772152806
 23
750.2638967991995
 33
0.0
 14
1731.808772152806
 24
750.2638967991995
 34
0.0
100
AcDbRotatedDimension
1001
ACAD
1000
DSTYLE
1002
{
1070
   287
1070
     4
1070
    40
1040
10.0
1070
    75
1070
     1
1070
   143
1040
0.039
1070
   172
1070
     1
1070
   271
1070
     0
1070
   279
1070
     1
1070
   288
1070
     1
1002
}
  0
DIMENSION
  5
7C4A
330
19
100
AcDbEntity
  8
3
  6
Continuous
100
AcDbDimension
280
     0
  2
*D10
 10
1669.808772152806
 20
1334.522619799199
 30
0.0
 11
1595.523058152806
 21
1334.522619799199
 31
0.0
 70
   160
 71
     5
 42
-1.0
 73
     0
 74
     0
 75
     0
  3
IGA
100
AcDbAlignedDimension
 13
1529.808772152806
 23
1305.263896799199
 33
0.0
 14
1669.808772152806
 24
1305.263896799199
 34
0.0
100
AcDbRotatedDimension
1001
ACAD
1000
DSTYLE
1002
{
1070
   287
1070
     3
1070
    40
1040
10.0
1070
   143
1040
0.039
1070
   172
1070
     1
1070
   271
1070
     0
1070
   279
1070
     0
1070
   288
1070
     1
1002
}
  0
DIMENSION
  5
7C57
330
19
100
AcDbEntity
  8
3
  6
Continuous
100
AcDbDimension
280
     0
  2
*D11
 10
1599.808772152806
 20
1400.544493799199
 30
0.0
 11
1457.622077152806
 21
1400.544493799199
 31
0.0
 70
   160
  1
(300)
 71
     5
 42
300.0
 73
     0
 74
     0
 75
     0
  3
IGA
100
AcDbAlignedDimension
 13
1299.808772152806
 23
1255.263896799199
 33
0.0
 14
1599.808772152806
 24
1380.800145799199
 34
0.0
100
AcDbRotatedDimension
1001
ACAD
1000
DSTYLE
1002
{
1070
   287
1070
     3
1070
    40
1040
10.0
1070
   143
1040
0.039
1070
   172
1070
     1
1070
   271
1070
     0
1070
   279
1070
     0
1070
   288
1070
     1
1002
}
  0
DIMENSION
  5
7C65
330
19
100
AcDbEntity
  8
3
  6
Continuous
100
AcDbDimension
280
     0
  2
*D12
 10
1677.808772152806
 20
1400.544493799199
 30
0.0
 11
1635.842324152806
 21
1400.544493799199
 31
0.0
 70
   160
 71
     5
 42
-1.0
 73
     0
 74
     0
 75
     0
  3
IGA
100
AcDbAlignedDimension
 13
1599.808772152806
 23
1380.800145799199
 33
0.0
 14
1677.808772152806
 24
1265.263896799199
 34
0.0
100
AcDbRotatedDimension
1001
ACAD
1000
DSTYLE
1002
{
1070
   287
1070
     4
1070
    40
1040
10.0
1070
    75
1070
     1
1070
   143
1040
0.039
1070
   172
1070
     1
1070
   271
1070
     0
1070
   279
1070
     1
1070
   288
1070
     1
1002
}
  0
LINE
  5
7C7D
330
19
100
AcDbEntity
  8
3
  6
Continuous
100
AcDbLine
 10
1677.808772152806
 20
1245.2638967992
 30
0.0
 11
1686.556497152806
 21
1245.2638967992
 31
0.0
  0
LINE
  5
7C7F
330
19
100
AcDbEntity
  8
3
  6
Continuous
100
AcDbLine
 10
1677.808772152806
 20
1045.263896799199
 30
0.0
 11
1687.247963152806
 21
1045.263896799199
 31
0.0
  0
DIMENSION
  5
7C8C
330
19
100
AcDbEntity
  8
3
  6
Continuous
100
AcDbDimension
280
     0
  2
*D13
 10
1748.788692152806
 20
1045.263896799199
 30
0.0
 11
1748.788692152806
 21
1158.692468227771
 31
0.0
 70
   160
 71
     5
 42
-1.0
 73
     0
 74
     0
 75
     0
  3
IGA
100
AcDbAlignedDimension
 13
1677.808772152806
 23
1245.2638967992
 33
0.0
 14
1677.808772152806
 24
1045.263896799199
 34
0.0
 50
90.0
100
AcDbRotatedDimension
1001
ACAD
1000
DSTYLE
1002
{
1070
   287
1070
     3
1070
     3
1000
φ<>
1070
    40
1040
10.0
1070
   143
1040
0.039
1070
   172
1070
     1
1070
   271
1070
     0
1070
   279
1070
     0
1070
   288
1070
     1
1002
}
  0
DIMENSION
  5
7CA3
330
19
100
AcDbEntity
  8
3
  6
Continuous
100
AcDbDimension
280
     0
  2
*D14
 10
605.185794034528
 20
1423.061145799199
 30
0.0
 11
688.525175034528
 21
1423.061145799199
 31
0.0
 70
   160
 71
     5
 42
-1.0
 73
     0
 74
     0
 75
     0
  3
IGA
100
AcDbAlignedDimension
 13
816.185794034528
 23
1290.263896799199
 33
0.0
 14
605.185794034528
 24
1305.263896799199
 34
0.0
100
AcDbRotatedDimension
1001
ACAD
1000
DSTYLE
1002
{
1070
   287
1070
     3
1070
    40
1040
10.0
1070
   143
1040
0.039
1070
   172
1070
     1
1070
   271
1070
     0
1070
   279
1070
     0
1070
   288
1070
     1
1002
}
  0
DIMENSION
  5
7CAF
330
19
100
AcDbEntity
  8
3
  6
Continuous
100
AcDbDimension
280
     0
  2
*D15
 10
454.618606034528
 20
1423.061145799199
 30
0.0
 11
529.9022000345281
 21
1448.061145799199
 31
0.0
 70
    32
 71
     5
 42
-1.0
 73
     0
 74
     0
 75
     0
  3
IGA
100
AcDbAlignedDimension
 13
605.185794034528
 23
1305.263896799199
 33
0.0
 14
454.618606034528
 24
1145.263896799199
 34
0.0
100
AcDbRotatedDimension
1001
ACAD
1000
DSTYLE
1002
{
1070
   287
1070
     4
1070
    40
1040
10.0
1070
    75
1070
     1
1070
   143
1040
0.039
1070
   172
1070
     1
1070
   271
1070
     0
1070
   279
1070
     1
1070
   288
1070
     1
1002
}
  0
DIMENSION
  5
7D92
330
19
100
AcDbEntity
  8
3
100
AcDbDimension
280
     0
  2
*D17
 10
344.5890512540209
 20
750.2638967991995
 30
0.0
 11
319.5890512540208
 21
675.9781825134853
 31
0.0
 70
    32
 71
     5
 42
50.0
 73
     0
 74
     0
 75
     0
  3
IGA
100
AcDbAlignedDimension
 13
420.185794034528
 23
800.2638967991995
 33
0.0
 14
420.185794034528
 24
750.2638967991995
 34
0.0
 50
90.0
100
AcDbRotatedDimension
1001
ACAD
1000
DSTYLE
1002
{
1070
   287
1070
     3
1070
    40
1040
10.0
1070
   143
1040
0.039
1070
   172
1070
     1
1070
   271
1070
     0
1070
   279
1070
     0
1070
     6
1000
DOT
1002
}
  0
DIMENSION
  5
7D9F
330
19
100
AcDbEntity
  8
3
100
AcDbDimension
280
     0
  2
*D18
 10
344.5890512540209
 20
870.2638967991996
 30
0.0
 11
305.7233224351003
 21
836.486005678339
 31
0.0
 70
   160
 71
     5
 42
70.0
 73
     0
 74
     0
 75
     0
  3
IGA
100
AcDbAlignedDimension
 13
420.185794034528
 23
800.2638967991995
 33
0.0
 14
445.185794034528
 24
870.2638967991996
 34
0.0
 50
90.0
100
AcDbRotatedDimension
1001
ACAD
1000
DSTYLE
1002
{
1070
     3
1000
(<>)
1070
    40
1040
10.0
1070
   143
1040
0.039
1070
   172
1070
     1
1070
   271
1070
     0
1070
   343
1005
7D49
1002
}
  0
DIMENSION
  5
7DAC
330
19
100
AcDbEntity
  8
3
100
AcDbDimension
280
     0
  2
*D19
 10
246.6617809838881
 20
750.2638967991996
 30
0.0
 11
213.8046381267451
 21
1027.763896799199
 31
0.0
 70
    32
 71
     5
 42
555.0000000000001
 73
     0
 74
     0
 75
     0
  3
IGA
100
AcDbAlignedDimension
 13
584.185794034528
 23
1305.263896799199
 33
0.0
 14
420.185794034528
 24
750.2638967991995
 34
0.0
 50
90.0
100
AcDbRotatedDimension
1001
ACAD
1000
DSTYLE
1002
{
1070
   287
1070
     3
1070
     3
1000
(<>)
1070
    40
1040
10.0
1070
   143
1040
0.039
1070
   172
1070
     1
1070
   271
1070
     0
1070
   279
1070
     0
1002
}
  0
ENDSEC
  0
SECTION
  2
OBJECTS
  0
DICTIONARY
  5
C
330
0
100
AcDbDictionary
281
     1
  3
ACAD_CIP_PREVIOUS_PRODUCT_INFO
350
7EE0
  3
ACAD_COLOR
350
7EC3
  3
ACAD_DETAILVIEWSTYLE
350
7EDC
  3
ACAD_GROUP
350
D
  3
ACAD_LAYOUT
350
7DB5
  3
ACAD_MATERIAL
350
7E91
  3
ACAD_MLEADERSTYLE
350
7ED8
  3
ACAD_MLINESTYLE
350
E
  3
ACAD_PLOTSETTINGS
350
7DB6
  3
ACAD_PLOTSTYLENAME
350
7DB3
  3
ACAD_SCALELIST
350
7EC6
  3
ACAD_SECTIONVIEWSTYLE
350
7EDA
  3
ACAD_TABLESTYLE
350
7EC4
  3
ACAD_VISUALSTYLE
350
7EAA
  3
ACDB_RECOMPOSE_DATA
350
7F86
  3
AcDbVariableDictionary
350
7E83
  0
DICTIONARY
  5
7F47
330
2
100
AcDbDictionary
280
     1
281
     1
  3
ACAD_LAYERSTATES
360
7F48
  0
DICTIONARY
  5
7F3A
330
F
100
AcDbDictionary
280
     1
281
     1
  3
ADSK_XREC_LAYER_RECONCILED
360
7F3B
  0
DICTIONARY
  5
7F3C
330
31
100
AcDbDictionary
280
     1
281
     1
  3
ADSK_XREC_LAYER_RECONCILED
360
7F3D
  0
DICTIONARY
  5
7F3E
330
76D0
100
AcDbDictionary
280
     1
281
     1
  3
ADSK_XREC_LAYER_RECONCILED
360
7F3F
  0
DICTIONARY
  5
7F40
330
76D1
100
AcDbDictionary
280
     1
281
     1
  3
ADSK_XREC_LAYER_RECONCILED
360
7F41
  0
DICTIONARY
  5
7F42
330
76D2
100
AcDbDictionary
280
     1
281
     1
  3
ADSK_XREC_LAYER_RECONCILED
360
7F43
  0
DICTIONARY
  5
7DE2
330
19
100
AcDbDictionary
280
     1
281
     1
  3
ACAD_LAYOUTSELFREF
360
7DE3
  3
ACAD_SORTENTS
360
7EE6
  0
DICTIONARY
  5
7DE0
330
16
100
AcDbDictionary
280
     1
281
     1
  3
ACAD_LAYOUTSELFREF
360
7DE1
  0
XRECORD
  5
7EE0
102
{ACAD_REACTORS
330
C
102
}
330
C
100
AcDbXrecord
280
     1
300
ACDLT
300
2015
300
INVLTS_F_S
  0
DICTIONARY
  5
7EC3
102
{ACAD_REACTORS
330
C
102
}
330
C
100
AcDbDictionary
281
     1
  0
DICTIONARY
  5
7EDC
102
{ACAD_REACTORS
330
C
102
}
330
C
100
AcDbDictionary
281
     1
  3
Imperial24
350
7EDD
  0
DICTIONARY
  5
D
102
{ACAD_REACTORS
330
C
102
}
330
0
100
AcDbDictionary
281
     1
  0
DICTIONARY
  5
7DB5
102
{ACAD_REACTORS
330
C
102
}
330
C
100
AcDbDictionary
281
     1
  3
Model
350
7DB7
  3
ﾚｲｱｳﾄ1
350
7DB8
  0
DICTIONARY
  5
7E91
102
{ACAD_REACTORS
330
C
102
}
330
C
100
AcDbDictionary
281
     1
  3
ByBlock
350
7E9A
  3
ByLayer
350
7E92
  3
Global
350
7EA2
  0
DICTIONARY
  5
7ED8
102
{ACAD_REACTORS
330
C
102
}
330
C
100
AcDbDictionary
281
     1
  3
Standard
350
7ED9
  0
DICTIONARY
  5
E
102
{ACAD_REACTORS
330
C
102
}
330
0
100
AcDbDictionary
281
     1
  3
STANDARD
350
1C
  0
DICTIONARY
  5
7DB6
102
{ACAD_REACTORS
330
C
102
}
330
C
100
AcDbDictionary
281
     1
  0
ACDBDICTIONARYWDFLT
  5
7DB3
102
{ACAD_REACTORS
330
C
102
}
330
C
100
AcDbDictionary
281
     1
  3
Normal
350
7DB4
100
AcDbDictionaryWithDefault
340
7DB4
1001
ACAD
1000
TREAT_AS_HARD
1070
     0
  0
DICTIONARY
  5
7EC6
102
{ACAD_REACTORS
330
C
102
}
330
C
100
AcDbDictionary
281
     1
  3
A0
350
7EC7
  3
A1
350
7EC8
  3
A2
350
7EC9
  3
A3
350
7ECA
  3
A4
350
7ECB
  3
A5
350
7ECC
  3
A6
350
7ECD
  3
A7
350
7ECE
  3
A8
350
7ECF
  3
A9
350
7ED0
  3
B0
350
7ED1
  3
B1
350
7ED2
  3
B2
350
7ED3
  3
B3
350
7ED4
  3
B4
350
7ED5
  3
B5
350
7ED6
  3
B6
350
7ED7
  0
DICTIONARY
  5
7EDA
102
{ACAD_REACTORS
330
C
102
}
330
C
100
AcDbDictionary
281
     1
  3
Imperial24
350
7EDB
  0
DICTIONARY
  5
7EC4
102
{ACAD_REACTORS
330
C
102
}
330
C
100
AcDbDictionary
281
     1
  3
Standard
350
7EC5
  0
DICTIONARY
  5
7EAA
102
{ACAD_REACTORS
330
C
102
}
330
C
100
AcDbDictionary
281
     1
  3
2dWireframe
350
7EB0
  3
Basic
350
7EAF
  3
Brighten
350
7EB6
  3
ColorChange
350
7EBA
  3
Conceptual
350
7EB3
  3
Dim
350
7EB5
  3
EdgeColorOff
350
7EC2
  3
Facepattern
350
7EB9
  3
Flat
350
7EAB
  3
FlatWithEdges
350
7EAC
  3
Gouraud
350
7EAD
  3
GouraudWithEdges
350
7EAE
  3
Hidden
350
7EB2
  3
JitterOff
350
7EC0
  3
Linepattern
350
7EB8
  3
OverhangOff
350
7EC1
  3
Realistic
350
7EB4
  3
Shaded
350
7EBF
  3
Shaded with edges
350
7EBE
  3
Shades of Gray
350
7EBB
  3
Sketchy
350
7EBC
  3
Thicken
350
7EB7
  3
Wireframe
350
7EB1
  3
X-Ray
350
7EBD
  0
XRECORD
  5
7F86
102
{ACAD_REACTORS
330
C
102
}
330
C
100
AcDbXrecord
280
     1
 90
        1
330
7EC5
330
7EDB
330
7EDD
  0
DICTIONARY
  5
7E83
102
{ACAD_REACTORS
330
C
102
}
330
C
100
AcDbDictionary
281
     1
  3
CANNOSCALE
350
7F57
  3
CMLEADERSTYLE
350
7F53
  3
CTABLESTYLE
350
7F52
  3
CVIEWDETAILSTYLE
350
7F54
  3
CVIEWSECTIONSTYLE
350
7F55
  3
DIMASSOC
350
7E84
  3
LAYEREVAL
350
7F59
  3
LAYERNOTIFY
350
7F5A
  3
LIGHTINGUNITS
350
7F58
  3
MSLTSCALE
350
7F56
  0
DICTIONARY
  5
7F48
102
{ACAD_REACTORS
330
7F47
102
}
330
7F47
100
AcDbDictionary
281
     1
  0
XRECORD
  5
7F3B
102
{ACAD_REACTORS
330
7F3A
102
}
330
7F3A
100
AcDbXrecord
280
     1
290
     1
  0
XRECORD
  5
7F3D
102
{ACAD_REACTORS
330
7F3C
102
}
330
7F3C
100
AcDbXrecord
280
     1
290
     1
  0
XRECORD
  5
7F3F
102
{ACAD_REACTORS
330
7F3E
102
}
330
7F3E
100
AcDbXrecord
280
     1
290
     1
  0
XRECORD
  5
7F41
102
{ACAD_REACTORS
330
7F40
102
}
330
7F40
100
AcDbXrecord
280
     1
290
     1
  0
XRECORD
  5
7F43
102
{ACAD_REACTORS
330
7F42
102
}
330
7F42
100
AcDbXrecord
280
     1
290
     1
  0
XRECORD
  5
7DE3
102
{ACAD_REACTORS
330
7DE2
102
}
330
7DE2
100
AcDbXrecord
280
     1
340
19
  0
SORTENTSTABLE
  5
7EE6
102
{ACAD_REACTORS
330
7DE2
102
}
330
7DE2
100
AcDbSortentsTable
330
19
331
7A9E
  5
7AA0
331
7A9A
  5
7A9C
331
7AD5
  5
7AD7
331
7A96
  5
7A97
331
7AD1
  5
7AD3
331
7B17
  5
7B19
331
7B13
  5
7B15
331
7B0F
  5
7B11
331
7C30
  5
7C4A
331
7ACD
  5
7ACF
331
7AC9
  5
7ACB
331
7AC5
  5
7AC7
331
7AC1
  5
7AC3
331
7DAC
  5
7EE7
331
7C7F
  5
7CA3
331
7B03
  5
7B05
331
7B42
  5
7B67
331
7B8D
  5
7BB2
331
7AFF
  5
7B01
331
7AFB
  5
7AFD
331
7B3A
  5
7B3C
331
7C20
  5
7C22
331
7ABD
  5
7ABF
331
7AB9
  5
7ABB
331
7AB5
  5
7AB7
331
7AB1
  5
7AB3
331
7AF7
  5
7AFA
331
7B36
  5
7B38
331
7C57
  5
7C7D
331
7AF3
  5
7AF5
331
7B32
  5
7B35
331
7B2E
  5
7B30
331
7AEF
  5
7AF1
331
7B2A
  5
7B2E
331
7AEB
  5
7AED
331
7AAD
  5
7AAF
331
7AA9
  5
7AAB
331
7AA5
  5
7AA7
331
7AA1
  5
7AA3
331
7AE7
  5
7AE9
331
7B26
  5
7B28
331
7AE3
  5
7AE5
331
7B22
  5
7B24
331
7ADF
  5
7AE1
331
7B1E
  5
7B20
331
7B1A
  5
7B1C
331
7ADB
  5
7ADD
331
7A9D
  5
7A9F
331
7A99
  5
7A9B
331
7AD4
  5
7AD6
331
7A95
  5
7A96
331
7AD0
  5
7AD2
331
7B16
  5
7B18
331
7B12
  5
7B14
331
7B0E
  5
7B10
331
7B0A
  5
7B0D
331
7ACC
  5
7ACE
331
7AC8
  5
7ACA
331
7AC4
  5
7AC6
331
7AC0
  5
7AC2
331
7B06
  5
7B0A
331
7B02
  5
7B04
331
7B41
  5
7B5B
331
7B3D
  5
7B40
331
7C23
  5
7C3C
331
7AFE
  5
7B00
331
7AFA
  5
7AFC
331
7B39
  5
7B3B
331
7ABC
  5
7ABE
331
7AB8
  5
7ABA
331
7D9F
  5
7EE2
331
7AB4
  5
7AB6
331
7AB0
  5
7AB2
331
7AF6
  5
7AF8
331
7B35
  5
7B37
331
7AF2
  5
7AF4
331
7B31
  5
7B34
331
7B2D
  5
7B2F
331
7C13
  5
7C21
331
7AEE
  5
7AF0
331
7AEA
  5
7AEC
331
7B29
  5
7B2D
331
7AAC
  5
7AAE
331
7AA8
  5
7AAA
331
7AA4
  5
7AA6
331
7AA0
  5
7AA2
331
7C4A
  5
7C65
331
7AE6
  5
7AE8
331
7B25
  5
7B27
331
7AE2
  5
7AE4
331
7B21
  5
7B23
331
7B1D
  5
7B1F
331
7ADE
  5
7AE0
331
7B19
  5
7B1B
331
7ADA
  5
7ADC
331
7A9C
  5
7A9E
331
7A98
  5
7A99
331
7AD7
  5
7AD9
331
7AD3
  5
7AD5
331
7A94
  5
7A94
331
7B15
  5
7B17
331
7B11
  5
7B13
331
7B0D
  5
7B0F
331
7B09
  5
7B0C
331
7ACF
  5
7AD1
331
7ACB
  5
7ACD
331
7AC7
  5
7AC9
331
7AC3
  5
7AC5
331
7C7D
  5
7C8C
331
7B05
  5
7B09
331
7C65
  5
7C7F
331
7B01
  5
7B03
331
7B40
  5
7B42
331
7B3C
  5
7B3F
331
7C22
  5
7C30
331
7AFD
  5
7AFF
331
7B38
  5
7B3A
331
7ABF
  5
7AC1
331
7ABB
  5
7ABD
331
7AB7
  5
7AB9
331
7AB3
  5
7AB5
331
7AF5
  5
7AF7
331
7B34
  5
7B36
331
7B67
  5
7BA6
331
7D92
  5
7DAC
331
7AF1
  5
7AF3
331
7B30
  5
7B32
331
7AED
  5
7AEF
331
7AE9
  5
7AEB
331
7B28
  5
7B2A
331
7AAF
  5
7AB1
331
7AAB
  5
7AAD
331
7AA7
  5
7AA9
331
7AA3
  5
7AA5
331
7AE5
  5
7AE7
331
7B24
  5
7B26
331
7B5B
  5
7B8D
331
7C06
  5
7C20
331
7AE1
  5
7AE3
331
7B20
  5
7B22
331
7B1C
  5
7B1E
331
7ADD
  5
7ADF
331
7AD9
  5
7ADB
331
7B18
  5
7B1A
331
7A9F
  5
7AA1
331
7A9B
  5
7A9D
331
7A97
  5
7A98
331
7AD6
  5
7AD8
331
7AD2
  5
7AD4
331
7C8C
  5
7CAF
331
7BB2
  5
7C13
331
7B14
  5
7B16
331
7BA6
  5
7C06
331
7B10
  5
7B12
331
7B0C
  5
7B0E
331
7ACE
  5
7AD0
331
7ACA
  5
7ACC
331
7AC6
  5
7AC8
331
7AC2
  5
7AC4
331
7B04
  5
7B06
331
7B3F
  5
7B41
331
7B00
  5
7B02
331
7B3B
  5
7B3D
331
7C21
  5
7C23
331
7AFC
  5
7AFE
331
7AF8
  5
7AFB
331
7ABE
  5
7AC0
331
7ABA
  5
7ABC
331
7AB6
  5
7AB8
331
7CAF
  5
7D9F
331
7AB2
  5
7AB4
331
7B37
  5
7B39
331
7AF4
  5
7AF6
331
7CA3
  5
7D92
331
7AF0
  5
7AF2
331
7B2F
  5
7B31
331
7AEC
  5
7AEE
331
7AE8
  5
7AEA
331
7AAE
  5
7AB0
331
7AAA
  5
7AAC
331
7AA6
  5
7AA8
331
7AA2
  5
7AA4
331
7B27
  5
7B29
331
7AE4
  5
7AE6
331
7B23
  5
7B25
331
7C3C
  5
7C57
331
7AE0
  5
7AE2
331
7B1F
  5
7B21
331
7B1B
  5
7B1D
331
7ADC
  5
7ADE
331
7AD8
  5
7ADA
  0
XRECORD
  5
7DE1
102
{ACAD_REACTORS
330
7DE0
102
}
330
7DE0
100
AcDbXrecord
280
     1
340
16
  0
ACDBDETAILVIEWSTYLE
  5
7EDD
102
{ACAD_XDICTIONARY
360
7F4F
102
}
102
{ACAD_REACTORS
330
7EDC
102
}
330
7EDC
100
AcDbModelDocViewStyle
 70
     0
  3
Imperial24
290
     0
100
AcDbDetailViewStyle
 70
     0
 71
     0
 90
        3
 71
     1
340
10
 62
   256
 40
0.24
340
0
 62
   256
 40
0.24
300

 40
0.36
280
     3
 71
     2
340
15
 90
       25
 62
   256
 71
     3
340
10
 62
   256
 40
0.24
 90
        1
 40
0.75
 90
        1
300
%<\AcVar ViewType \f "%tc1">% %<\AcVar ViewDetailId>%\PSCALE %<\AcVar ViewScale \f "%sn">%
 71
     4
340
15
 90
       25
 62
   256
340
15
 90
       25
 62
   256
280
     0
  0
LAYOUT
  5
7DB7
102
{ACAD_REACTORS
330
7DB5
102
}
330
7DB5
100
AcDbPlotSettings
  1

  2
\\Txbo34x8944cqyd\EPSON LP-6100
  4

  6

 40
0.0
 41
0.0
 42
0.0
 43
0.0
 44
0.0
 45
0.0
 46
0.0
 47
0.0
 48
0.0
 49
0.0
140
0.0
141
0.0
142
1.0
143
1.0
 70
  1712
 72
     0
 73
     0
 74
     0
  7
GOD2000TABLE.ctb
 75
     0
147
1.0
 76
     0
 77
     2
 78
   300
148
0.0
149
0.0
100
AcDbLayout
  1
Model
 70
     1
 71
     0
 10
0.0
 20
0.0
 11
12.0
 21
9.0
 12
0.0
 22
0.0
 32
0.0
 14
0.0
 24
0.0
 34
0.0
 15
0.0
 25
0.0
 35
0.0
146
0.0
 13
0.0
 23
0.0
 33
0.0
 16
1.0
 26
0.0
 36
0.0
 17
0.0
 27
1.0
 37
0.0
 76
     0
330
19
331
7E8F
  0
LAYOUT
  5
7DB8
102
{ACAD_REACTORS
330
7DB5
102
}
330
7DB5
100
AcDbPlotSettings
  1

  2
\\Txbo34x8944cqyd\EPSON LP-6100
  4

  6

 40
0.0
 41
0.0
 42
0.0
 43
0.0
 44
0.0
 45
0.0
 46
0.0
 47
0.0
 48
0.0
 49
0.0
140
0.0
141
0.0
142
1.0
143
1.0
 70
   688
 72
     0
 73
     0
 74
     5
  7
GOD2000TABLE.ctb
 75
    16
147
1.0
 76
     0
 77
     2
 78
   300
148
0.0
149
0.0
100
AcDbLayout
  1
ﾚｲｱｳﾄ1
 70
     1
 71
     1
 10
0.0
 20
0.0
 11
12.0
 21
9.0
 12
0.0
 22
0.0
 32
0.0
 14
1.000000000000000E+20
 24
1.000000000000000E+20
 34
1.000000000000000E+20
 15
-1.000000000000000E+20
 25
-1.000000000000000E+20
 35
-1.000000000000000E+20
146
0.0
 13
0.0
 23
0.0
 33
0.0
 16
1.0
 26
0.0
 36
0.0
 17
0.0
 27
1.0
 37
0.0
 76
     0
330
16
  0
MATERIAL
  5
7E9A
102
{ACAD_XDICTIONARY
360
7E9B
102
}
102
{ACAD_REACTORS
330
7E91
102
}
330
7E91
100
AcDbMaterial
  1
ByBlock
 72
     0
 43
0.0208333333333333
 43
0.0
 43
0.0
 43
0.0
 43
0.0
 43
0.0208333333333333
 43
0.0
 43
0.0
 43
0.0
 43
0.0
 43
1.0
 43
0.0
 43
0.0
 43
0.0
 43
0.0
 43
1.0
 77
     0
 47
0.0208333333333333
 47
0.0
 47
0.0
 47
0.0
 47
0.0
 47
0.0208333333333333
 47
0.0
 47
0.0
 47
0.0
 47
0.0
 47
1.0
 47
0.0
 47
0.0
 47
0.0
 47
0.0
 47
1.0
171
     0
 49
0.0208333333333333
 49
0.0
 49
0.0
 49
0.0
 49
0.0
 49
0.0208333333333333
 49
0.0
 49
0.0
 49
0.0
 49
0.0
 49
1.0
 49
0.0
 49
0.0
 49
0.0
 49
0.0
 49
1.0
175
     0
142
0.0208333333333333
142
0.0
142
0.0
142
0.0
142
0.0
142
0.0208333333333333
142
0.0
142
0.0
142
0.0
142
0.0
142
1.0
142
0.0
142
0.0
142
0.0
142
0.0
142
1.0
179
     0
144
0.0208333333333333
144
0.0
144
0.0
144
0.0
144
0.0
144
0.0208333333333333
144
0.0
144
0.0
144
0.0
144
0.0
144
1.0
144
0.0
144
0.0
144
0.0
144
0.0
144
1.0
147
0.0208333333333333
147
0.0
147
0.0
147
0.0
147
0.0
147
0.0208333333333333
147
0.0
147
0.0
147
0.0
147
0.0
147
1.0
147
0.0
147
0.0
147
0.0
147
0.0
147
1.0
  0
MATERIAL
  5
7E92
102
{ACAD_XDICTIONARY
360
7E93
102
}
102
{ACAD_REACTORS
330
7E91
102
}
330
7E91
100
AcDbMaterial
  1
ByLayer
 72
     0
 43
0.0208333333333333
 43
0.0
 43
0.0
 43
0.0
 43
0.0
 43
0.0208333333333333
 43
0.0
 43
0.0
 43
0.0
 43
0.0
 43
1.0
 43
0.0
 43
0.0
 43
0.0
 43
0.0
 43
1.0
 77
     0
 47
0.0208333333333333
 47
0.0
 47
0.0
 47
0.0
 47
0.0
 47
0.0208333333333333
 47
0.0
 47
0.0
 47
0.0
 47
0.0
 47
1.0
 47
0.0
 47
0.0
 47
0.0
 47
0.0
 47
1.0
171
     0
 49
0.0208333333333333
 49
0.0
 49
0.0
 49
0.0
 49
0.0
 49
0.0208333333333333
 49
0.0
 49
0.0
 49
0.0
 49
0.0
 49
1.0
 49
0.0
 49
0.0
 49
0.0
 49
0.0
 49
1.0
175
     0
142
0.0208333333333333
142
0.0
142
0.0
142
0.0
142
0.0
142
0.0208333333333333
142
0.0
142
0.0
142
0.0
142
0.0
142
1.0
142
0.0
142
0.0
142
0.0
142
0.0
142
1.0
179
     0
144
0.0208333333333333
144
0.0
144
0.0
144
0.0
144
0.0
144
0.0208333333333333
144
0.0
144
0.0
144
0.0
144
0.0
144
1.0
144
0.0
144
0.0
144
0.0
144
0.0
144
1.0
147
0.0208333333333333
147
0.0
147
0.0
147
0.0
147
0.0
147
0.0208333333333333
147
0.0
147
0.0
147
0.0
147
0.0
147
1.0
147
0.0
147
0.0
147
0.0
147
0.0
147
1.0
  0
MATERIAL
  5
7EA2
102
{ACAD_XDICTIONARY
360
7EA3
102
}
102
{ACAD_REACTORS
330
7E91
102
}
330
7E91
100
AcDbMaterial
  1
Global
 72
     0
 43
0.0208333333333333
 43
0.0
 43
0.0
 43
0.0
 43
0.0
 43
0.0208333333333333
 43
0.0
 43
0.0
 43
0.0
 43
0.0
 43
1.0
 43
0.0
 43
0.0
 43
0.0
 43
0.0
 43
1.0
 77
     0
 47
0.0208333333333333
 47
0.0
 47
0.0
 47
0.0
 47
0.0
 47
0.0208333333333333
 47
0.0
 47
0.0
 47
0.0
 47
0.0
 47
1.0
 47
0.0
 47
0.0
 47
0.0
 47
0.0
 47
1.0
171
     0
 49
0.0208333333333333
 49
0.0
 49
0.0
 49
0.0
 49
0.0
 49
0.0208333333333333
 49
0.0
 49
0.0
 49
0.0
 49
0.0
 49
1.0
 49
0.0
 49
0.0
 49
0.0
 49
0.0
 49
1.0
175
     0
142
0.0208333333333333
142
0.0
142
0.0
142
0.0
142
0.0
142
0.0208333333333333
142
0.0
142
0.0
142
0.0
142
0.0
142
1.0
142
0.0
142
0.0
142
0.0
142
0.0
142
1.0
179
     0
144
0.0208333333333333
144
0.0
144
0.0
144
0.0
144
0.0
144
0.0208333333333333
144
0.0
144
0.0
144
0.0
144
0.0
144
1.0
144
0.0
144
0.0
144
0.0
144
0.0
144
1.0
147
0.0208333333333333
147
0.0
147
0.0
147
0.0
147
0.0
147
0.0208333333333333
147
0.0
147
0.0
147
0.0
147
0.0
147
1.0
147
0.0
147
0.0
147
0.0
147
0.0
147
1.0
  0
MLEADERSTYLE
  5
7ED9
102
{ACAD_REACTORS
330
7ED8
102
}
330
7ED8
100
AcDbMLeaderStyle
179
     2
170
     2
171
     1
172
     0
 90
        2
 40
0.0
 41
0.0
173
     1
 91
-1056964608
340
13
 92
       -2
290
     1
 42
0.09
291
     1
 43
0.36
  3
Standard
 44
0.18
300

342
10
174
     1
178
     6
175
     1
176
     0
 93
-1056964608
 45
0.18
292
     0
297
     0
 46
0.18
 94
-1056964608
 47
1.0
 49
1.0
140
1.0
293
     1
141
0.0
294
     1
177
     0
142
1.0
295
     1
296
     0
143
0.125
271
     0
272
     9
273
     9
298
     1
  0
MLINESTYLE
  5
1C
102
{ACAD_REACTORS
330
E
102
}
330
0
100
AcDbMlineStyle
  2
STANDARD
 70
     0
  3

 62
     0
 51
90.0
 52
90.0
 71
     2
 49
0.5
 62
   256
  6
BYLAYER
 49
-0.5
 62
   256
  6
BYLAYER
  0
ACDBPLACEHOLDER
  5
7DB4
102
{ACAD_REACTORS
330
7DB3
102
}
330
7DB3
  0
SCALE
  5
7EC7
102
{ACAD_REACTORS
330
7EC6
102
}
330
7EC6
100
AcDbScale
 70
     0
300
1:1
140
1.0
141
1.0
290
     1
  0
SCALE
  5
7EC8
102
{ACAD_REACTORS
330
7EC6
102
}
330
7EC6
100
AcDbScale
 70
     0
300
1/128" = 1'-0"
140
0.0078125
141
12.0
290
     0
  0
SCALE
  5
7EC9
102
{ACAD_REACTORS
330
7EC6
102
}
330
7EC6
100
AcDbScale
 70
     0
300
1/64" = 1'-0"
140
0.015625
141
12.0
290
     0
  0
SCALE
  5
7ECA
102
{ACAD_REACTORS
330
7EC6
102
}
330
7EC6
100
AcDbScale
 70
     0
300
1/32" = 1'-0"
140
0.03125
141
12.0
290
     0
  0
SCALE
  5
7ECB
102
{ACAD_REACTORS
330
7EC6
102
}
330
7EC6
100
AcDbScale
 70
     0
300
1/16" = 1'-0"
140
0.0625
141
12.0
290
     0
  0
SCALE
  5
7ECC
102
{ACAD_REACTORS
330
7EC6
102
}
330
7EC6
100
AcDbScale
 70
     0
300
3/32" = 1'-0"
140
0.09375
141
12.0
290
     0
  0
SCALE
  5
7ECD
102
{ACAD_REACTORS
330
7EC6
102
}
330
7EC6
100
AcDbScale
 70
     0
300
1/8" = 1'-0"
140
0.125
141
12.0
290
     0
  0
SCALE
  5
7ECE
102
{ACAD_REACTORS
330
7EC6
102
}
330
7EC6
100
AcDbScale
 70
     0
300
3/16" = 1'-0"
140
0.1875
141
12.0
290
     0
  0
SCALE
  5
7ECF
102
{ACAD_REACTORS
330
7EC6
102
}
330
7EC6
100
AcDbScale
 70
     0
300
1/4" = 1'-0"
140
0.25
141
12.0
290
     0
  0
SCALE
  5
7ED0
102
{ACAD_REACTORS
330
7EC6
102
}
330
7EC6
100
AcDbScale
 70
     0
300
3/8" = 1'-0"
140
0.375
141
12.0
290
     0
  0
SCALE
  5
7ED1
102
{ACAD_REACTORS
330
7EC6
102
}
330
7EC6
100
AcDbScale
 70
     0
300
1/2" = 1'-0"
140
0.5
141
12.0
290
     0
  0
SCALE
  5
7ED2
102
{ACAD_REACTORS
330
7EC6
102
}
330
7EC6
100
AcDbScale
 70
     0
300
3/4" = 1'-0"
140
0.75
141
12.0
290
     0
  0
SCALE
  5
7ED3
102
{ACAD_REACTORS
330
7EC6
102
}
330
7EC6
100
AcDbScale
 70
     0
300
1" = 1'-0"
140
1.0
141
12.0
290
     0
  0
SCALE
  5
7ED4
102
{ACAD_REACTORS
330
7EC6
102
}
330
7EC6
100
AcDbScale
 70
     0
300
1-1/2" = 1'-0"
140
1.5
141
12.0
290
     0
  0
SCALE
  5
7ED5
102
{ACAD_REACTORS
330
7EC6
102
}
330
7EC6
100
AcDbScale
 70
     0
300
3" = 1'-0"
140
3.0
141
12.0
290
     0
  0
SCALE
  5
7ED6
102
{ACAD_REACTORS
330
7EC6
102
}
330
7EC6
100
AcDbScale
 70
     0
300
6" = 1'-0"
140
6.0
141
12.0
290
     0
  0
SCALE
  5
7ED7
102
{ACAD_REACTORS
330
7EC6
102
}
330
7EC6
100
AcDbScale
 70
     0
300
1'-0" = 1'-0"
140
12.0
141
12.0
290
     0
  0
ACDBSECTIONVIEWSTYLE
  5
7EDB
102
{ACAD_XDICTIONARY
360
7F4D
102
}
102
{ACAD_REACTORS
330
7EDA
102
}
330
7EDA
100
AcDbModelDocViewStyle
 70
     0
  3
Imperial24
290
     0
100
AcDbSectionViewStyle
 70
     0
 71
     0
 90
       78
 71
     1
340
10
 62
   256
 40
0.24
340
0
340
0
 62
   256
 40
0.24
300
I, O, Q, S, X, Z
 40
0.48
 90
        3
 40
0.18
 90
        1
 71
     2
340
15
 90
       25
 62
   256
340
15
 90
       50
 62
   256
 40
0.24
 40
0.0
 40
0.24
 71
     3
340
10
 62
   256
 40
0.24
 90
        1
 40
0.75
 90
        1
300
%<\AcVar ViewType \f "%tc1">% %<\AcVar ViewSectionStartId>%-%<\AcVar ViewSectionEndId>%\PSCALE %<\AcVar ViewScale \f "%sn">%
 71
     4
 62
   256
 62
   257
300
ANSI31
 40
1.0
 90
        0
290
     0
290
     0
 90
        6
 40
0.0
 40
1.570796326794896
 40
0.2617993877991494
 40
1.308996938995747
 40
-0.2617993877991494
 40
1.832595714594046
  0
TABLESTYLE
  5
7EC5
102
{ACAD_XDICTIONARY
360
7F82
102
}
102
{ACAD_REACTORS
330
7EC4
102
}
330
7EC4
100
AcDbTableStyle
280
     0
  3
Standard
 70
     0
 71
     0
 40
0.06
 41
0.06
280
     0
281
     0
  7
STANDARD
140
0.18
170
     2
 62
     0
 63
     7
283
     0
 90
      512
 91
        0
  1

274
    -2
284
     1
 64
     0
275
    -2
285
     1
 65
     0
276
    -2
286
     1
 66
     0
277
    -2
287
     1
 67
     0
278
    -2
288
     1
 68
     0
279
    -2
289
     1
 69
     0
  7
STANDARD
140
0.25
170
     5
 62
     0
 63
     7
283
     0
 90
      512
 91
        0
  1

274
    -2
284
     1
 64
     0
275
    -2
285
     1
 65
     0
276
    -2
286
     1
 66
     0
277
    -2
287
     1
 67
     0
278
    -2
288
     1
 68
     0
279
    -2
289
     1
 69
     0
  7
STANDARD
140
0.18
170
     5
 62
     0
 63
     7
283
     0
 90
      512
 91
        0
  1

274
    -2
284
     1
 64
     0
275
    -2
285
     1
 65
     0
276
    -2
286
     1
 66
     0
277
    -2
287
     1
 67
     0
278
    -2
288
     1
 68
     0
279
    -2
289
     1
 69
     0
  0
VISUALSTYLE
  5
7EB0
102
{ACAD_REACTORS
330
7EAA
102
}
330
7EAA
100
AcDbVisualStyle
  2
2dWireframe
 70
     4
177
     3
291
     0
 70
    58
 90
        0
176
     1
 90
        2
176
     1
 90
        0
176
     1
 90
        0
176
     1
 40
0.6
176
     1
 40
30.0
176
     1
 62
     7
420
 16777215
176
     1
 90
        1
176
     1
 90
        4
176
     1
 62
     7
176
     1
 62
   257
176
     1
 90
        1
176
     1
 90
        1
176
     1
 40
1.0
176
     1
 90
        0
176
     1
 62
   257
176
     1
 40
1.0
176
     1
 90
        1
176
     1
 90
        6
176
     1
 90
        2
176
     1
 62
     7
176
     1
 90
        5
176
     1
 90
        0
176
     1
 90
        0
176
     1
290
     0
176
     1
 90
        1
176
     1
 40
0.0
176
     1
 90
        0
176
     1
290
     1
176
     1
290
     1
176
     1
290
     0
176
     1
290
     0
176
     1
290
     0
176
     1
290
     0
176
     1
290
     0
176
     1
290
     0
176
     1
290
     0
176
     1
 90
       50
176
     1
 40
0.0
176
     1
 40
1.0
176
     1
 90
        0
176
     1
 62
    18
420
        0
176
     1
 90
       50
176
     1
 90
        3
176
     1
 62
     5
420
      255
176
     1
290
     0
176
     1
 90
       50
176
     1
 90
       50
176
     1
 90
       50
176
     1
290
     0
176
     1
 90
       50
176
     1
 62
   256
176
     0
 40
1.0
176
     0
 90
        2
176
     1
  1
strokes_ogs.tif
176
     1
290
     0
176
     1
 40
1.0
176
     1
 40
1.0
176
     1
  0
VISUALSTYLE
  5
7EAF
102
{ACAD_REACTORS
330
7EAA
102
}
330
7EAA
100
AcDbVisualStyle
  2
Basic
 70
     7
177
     3
291
     1
 70
    58
 90
        1
176
     1
 90
        0
176
     1
 90
        1
176
     1
 90
        0
176
     1
 40
0.6
176
     1
 40
30.0
176
     1
 62
     7
420
 16777215
176
     1
 90
        0
176
     1
 90
        4
176
     1
 62
     7
176
     1
 62
   257
176
     1
 90
        1
176
     1
 90
        1
176
     1
 40
1.0
176
     1
 90
        8
176
     1
 62
     7
176
     1
 40
1.0
176
     1
 90
        1
176
     1
 90
        6
176
     1
 90
        2
176
     1
 62
     7
176
     1
 90
        5
176
     1
 90
        0
176
     1
 90
        0
176
     1
290
     0
176
     1
 90
        1
176
     1
 40
0.0
176
     1
 90
        0
176
     1
290
     0
176
     1
290
     1
176
     1
290
     1
176
     1
290
     0
176
     1
290
     0
176
     1
290
     0
176
     1
290
     0
176
     1
290
     0
176
     1
290
     0
176
     1
 90
       50
176
     1
 40
0.0
176
     1
 40
1.0
176
     1
 90
        0
176
     1
 62
    18
420
        0
176
     1
 90
       50
176
     1
 90
        3
176
     1
 62
     5
420
      255
176
     1
290
     0
176
     1
 90
       50
176
     1
 90
       50
176
     1
 90
       50
176
     1
290
     0
176
     1
 90
       50
176
     1
 62
   256
176
     0
 40
1.0
176
     0
 90
        2
176
     1
  1
strokes_ogs.tif
176
     1
290
     0
176
     1
 40
1.0
176
     1
 40
1.0
176
     1
  0
VISUALSTYLE
  5
7EB6
102
{ACAD_REACTORS
330
7EAA
102
}
330
7EAA
100
AcDbVisualStyle
  2
Brighten
 70
    12
177
     3
291
     1
 70
    58
 90
        2
176
     1
 90
        2
176
     1
 90
        0
176
     1
 90
        0
176
     1
 40
0.6
176
     1
 40
30.0
176
     1
 62
     7
420
 16777215
176
     1
 90
        1
176
     1
 90
        4
176
     1
 62
     7
176
     1
 62
   257
176
     1
 90
        1
176
     1
 90
        1
176
     1
 40
1.0
176
     1
 90
        8
176
     1
 62
     7
176
     1
 40
1.0
176
     1
 90
        1
176
     1
 90
        6
176
     1
 90
        2
176
     1
 62
     7
176
     1
 90
        5
176
     1
 90
        0
176
     1
 90
        0
176
     1
290
     0
176
     1
 90
        1
176
     1
 40
50.0
176
     1
 90
        0
176
     1
290
     0
176
     1
290
     1
176
     1
290
     1
176
     1
290
     0
176
     1
290
     0
176
     1
290
     0
176
     1
290
     0
176
     1
290
     0
176
     1
290
     0
176
     1
 90
       50
176
     1
 40
0.0
176
     1
 40
1.0
176
     1
 90
        0
176
     1
 62
    18
420
        0
176
     1
 90
       50
176
     1
 90
        3
176
     1
 62
     5
420
      255
176
     1
290
     0
176
     1
 90
       50
176
     1
 90
       50
176
     1
 90
       50
176
     1
290
     0
176
     1
 90
       50
176
     1
 62
   256
176
     0
 40
1.0
176
     0
 90
        2
176
     1
  1
strokes_ogs.tif
176
     1
290
     0
176
     1
 40
1.0
176
     1
 40
1.0
176
     1
  0
VISUALSTYLE
  5
7EBA
102
{ACAD_REACTORS
330
7EAA
102
}
330
7EAA
100
AcDbVisualStyle
  2
ColorChange
 70
    16
177
     3
291
     1
 70
    58
 90
        2
176
     1
 90
        2
176
     1
 90
        3
176
     1
 90
        0
176
     1
 40
0.6
176
     1
 40
30.0
176
     1
 62
     8
420
  8421504
176
     1
 90
        1
176
     1
 90
        4
176
     1
 62
     7
176
     1
 62
   257
176
     1
 90
        1
176
     1
 90
        1
176
     1
 40
1.0
176
     1
 90
        8
176
     1
 62
     8
420
  8421504
176
     1
 40
1.0
176
     1
 90
        1
176
     1
 90
        6
176
     1
 90
        2
176
     1
 62
     7
176
     1
 90
        5
176
     1
 90
        0
176
     1
 90
        0
176
     1
290
     0
176
     1
 90
        1
176
     1
 40
0.0
176
     1
 90
        0
176
     1
290
     0
176
     1
290
     1
176
     1
290
     1
176
     1
290
     0
176
     1
290
     0
176
     1
290
     0
176
     1
290
     0
176
     1
290
     0
176
     1
290
     0
176
     1
 90
       50
176
     1
 40
0.0
176
     1
 40
1.0
176
     1
 90
        0
176
     1
 62
    18
420
        0
176
     1
 90
       50
176
     1
 90
        3
176
     1
 62
     5
420
      255
176
     1
290
     0
176
     1
 90
       50
176
     1
 90
       50
176
     1
 90
       50
176
     1
290
     0
176
     1
 90
       50
176
     1
 62
   256
176
     0
 40
1.0
176
     0
 90
        2
176
     1
  1
strokes_ogs.tif
176
     1
290
     0
176
     1
 40
1.0
176
     1
 40
1.0
176
     1
  0
VISUALSTYLE
  5
7EB3
102
{ACAD_REACTORS
330
7EAA
102
}
330
7EAA
100
AcDbVisualStyle
  2
Conceptual
 70
     9
177
     3
291
     0
 70
    58
 90
        3
176
     1
 90
        2
176
     1
 90
        0
176
     1
 90
        0
176
     1
 40
0.6
176
     1
 40
30.0
176
     1
 62
     7
420
 16777215
176
     1
 90
        2
176
     1
 90
        2
176
     1
 62
     7
176
     1
 62
   257
176
     1
 90
        1
176
     1
 90
        1
176
     1
 40
179.0
176
     1
 90
        8
176
     1
 62
     7
176
     1
 40
1.0
176
     1
 90
        1
176
     1
 90
        6
176
     1
 90
        2
176
     1
 62
     7
176
     1
 90
        3
176
     1
 90
        0
176
     1
 90
        0
176
     1
290
     0
176
     1
 90
        1
176
     1
 40
0.0
176
     1
 90
        0
176
     1
290
     0
176
     1
290
     1
176
     1
290
     1
176
     1
290
     0
176
     1
290
     0
176
     1
290
     0
176
     1
290
     0
176
     1
290
     0
176
     1
290
     0
176
     1
 90
       50
176
     1
 40
0.0
176
     1
 40
1.0
176
     1
 90
        0
176
     1
 62
    18
420
        0
176
     1
 90
       50
176
     1
 90
        3
176
     1
 62
     5
420
      255
176
     1
290
     0
176
     1
 90
       50
176
     1
 90
       50
176
     1
 90
       50
176
     1
290
     0
176
     1
 90
       50
176
     1
 62
   256
176
     0
 40
1.0
176
     0
 90
        2
176
     1
  1
strokes_ogs.tif
176
     1
290
     0
176
     1
 40
1.0
176
     1
 40
1.0
176
     1
  0
VISUALSTYLE
  5
7EB5
102
{ACAD_REACTORS
330
7EAA
102
}
330
7EAA
100
AcDbVisualStyle
  2
Dim
 70
    11
177
     3
291
     1
 70
    58
 90
        2
176
     1
 90
        2
176
     1
 90
        0
176
     1
 90
        0
176
     1
 40
0.6
176
     1
 40
30.0
176
     1
 62
     7
420
 16777215
176
     1
 90
        1
176
     1
 90
        4
176
     1
 62
     7
176
     1
 62
   257
176
     1
 90
        1
176
     1
 90
        1
176
     1
 40
1.0
176
     1
 90
        8
176
     1
 62
     7
176
     1
 40
1.0
176
     1
 90
        1
176
     1
 90
        6
176
     1
 90
        2
176
     1
 62
     7
176
     1
 90
        5
176
     1
 90
        0
176
     1
 90
        0
176
     1
290
     0
176
     1
 90
        1
176
     1
 40
-50.0
176
     1
 90
        0
176
     1
290
     0
176
     1
290
     1
176
     1
290
     1
176
     1
290
     0
176
     1
290
     0
176
     1
290
     0
176
     1
290
     0
176
     1
290
     0
176
     1
290
     0
176
     1
 90
       50
176
     1
 40
0.0
176
     1
 40
1.0
176
     1
 90
        0
176
     1
 62
    18
420
        0
176
     1
 90
       50
176
     1
 90
        3
176
     1
 62
     5
420
      255
176
     1
290
     0
176
     1
 90
       50
176
     1
 90
       50
176
     1
 90
       50
176
     1
290
     0
176
     1
 90
       50
176
     1
 62
   256
176
     0
 40
1.0
176
     0
 90
        2
176
     1
  1
strokes_ogs.tif
176
     1
290
     0
176
     1
 40
1.0
176
     1
 40
1.0
176
     1
  0
VISUALSTYLE
  5
7EC2
102
{ACAD_REACTORS
330
7EAA
102
}
330
7EAA
100
AcDbVisualStyle
  2
EdgeColorOff
 70
    22
177
     3
291
     1
 70
    58
 90
        2
176
     0
 90
        2
176
     0
 90
        0
176
     0
 90
        0
176
     0
 40
0.6
176
     0
 40
30.0
176
     0
 62
     7
420
 16777215
176
     0
 90
        1
176
     0
 90
        4
176
     0
 62
     7
176
     0
 62
   257
176
     0
 90
        1
176
     0
 90
        1
176
     0
 40
1.0
176
     0
 90
        8
176
     2
 62
     7
176
     0
 40
1.0
176
     0
 90
        1
176
     0
 90
        6
176
     0
 90
        2
176
     0
 62
     7
176
     0
 90
        5
176
     0
 90
        0
176
     0
 90
        0
176
     0
290
     0
176
     0
 90
        1
176
     0
 40
0.0
176
     0
 90
        0
176
     0
290
     0
176
     0
290
     1
176
     0
290
     1
176
     0
290
     0
176
     0
290
     0
176
     0
290
     0
176
     0
290
     0
176
     0
290
     0
176
     0
290
     0
176
     0
 90
       50
176
     0
 40
0.0
176
     0
 40
1.0
176
     0
 90
        0
176
     0
 62
    18
420
        0
176
     0
 90
       50
176
     0
 90
        3
176
     0
 62
     5
420
      255
176
     0
290
     0
176
     0
 90
       50
176
     0
 90
       50
176
     0
 90
       50
176
     0
290
     0
176
     0
 90
       50
176
     0
 62
   256
176
     0
 40
1.0
176
     0
 90
        2
176
     0
  1
strokes_ogs.tif
176
     0
290
     0
176
     0
 40
1.0
176
     0
 40
1.0
176
     0
  0
VISUALSTYLE
  5
7EB9
102
{ACAD_REACTORS
330
7EAA
102
}
330
7EAA
100
AcDbVisualStyle
  2
Facepattern
 70
    15
177
     3
291
     1
 70
    58
 90
        2
176
     1
 90
        2
176
     1
 90
        0
176
     1
 90
        0
176
     1
 40
0.6
176
     1
 40
30.0
176
     1
 62
     7
420
 16777215
176
     1
 90
        1
176
     1
 90
        4
176
     1
 62
     7
176
     1
 62
   257
176
     1
 90
        1
176
     1
 90
        1
176
     1
 40
1.0
176
     1
 90
        8
176
     1
 62
     7
176
     1
 40
1.0
176
     1
 90
        1
176
     1
 90
        6
176
     1
 90
        2
176
     1
 62
     7
176
     1
 90
        5
176
     1
 90
        0
176
     1
 90
        0
176
     1
290
     0
176
     1
 90
        1
176
     1
 40
0.0
176
     1
 90
        0
176
     1
290
     0
176
     1
290
     1
176
     1
290
     1
176
     1
290
     0
176
     1
290
     0
176
     1
290
     0
176
     1
290
     0
176
     1
290
     0
176
     1
290
     0
176
     1
 90
       50
176
     1
 40
0.0
176
     1
 40
1.0
176
     1
 90
        0
176
     1
 62
    18
420
        0
176
     1
 90
       50
176
     1
 90
        3
176
     1
 62
     5
420
      255
176
     1
290
     0
176
     1
 90
       50
176
     1
 90
       50
176
     1
 90
       50
176
     1
290
     0
176
     1
 90
       50
176
     1
 62
   256
176
     0
 40
1.0
176
     0
 90
        2
176
     1
  1
strokes_ogs.tif
176
     1
290
     0
176
     1
 40
1.0
176
     1
 40
1.0
176
     1
  0
VISUALSTYLE
  5
7EAB
102
{ACAD_REACTORS
330
7EAA
102
}
330
7EAA
100
AcDbVisualStyle
  2
Flat
 70
     0
177
     3
291
     1
 70
    58
 90
        2
176
     1
 90
        1
176
     1
 90
        1
176
     1
 90
        2
176
     1
 40
0.6
176
     1
 40
30.0
176
     1
 62
     7
420
 16777215
176
     1
 90
        0
176
     1
 90
        0
176
     1
 62
     7
176
     1
 62
   257
176
     1
 90
        1
176
     1
 90
        1
176
     1
 40
1.0
176
     1
 90
        8
176
     1
 62
     7
176
     1
 40
1.0
176
     1
 90
        1
176
     1
 90
        6
176
     1
 90
        2
176
     1
 62
     7
176
     1
 90
        5
176
     1
 90
        0
176
     1
 90
        0
176
     1
290
     0
176
     1
 90
       13
176
     1
 40
0.0
176
     1
 90
        0
176
     1
290
     0
176
     1
290
     1
176
     1
290
     1
176
     1
290
     0
176
     1
290
     0
176
     1
290
     0
176
     1
290
     0
176
     1
290
     0
176
     1
290
     0
176
     1
 90
       50
176
     1
 40
0.0
176
     1
 40
1.0
176
     1
 90
        0
176
     1
 62
    18
420
        0
176
     1
 90
       50
176
     1
 90
        3
176
     1
 62
     5
420
      255
176
     1
290
     0
176
     1
 90
       50
176
     1
 90
       50
176
     1
 90
       50
176
     1
290
     0
176
     1
 90
       50
176
     1
 62
   256
176
     0
 40
1.0
176
     0
 90
        2
176
     1
  1
strokes_ogs.tif
176
     1
290
     0
176
     1
 40
1.0
176
     1
 40
1.0
176
     1
  0
VISUALSTYLE
  5
7EAC
102
{ACAD_REACTORS
330
7EAA
102
}
330
7EAA
100
AcDbVisualStyle
  2
FlatWithEdges
 70
     1
177
     3
291
     1
 70
    58
 90
        2
176
     1
 90
        1
176
     1
 90
        1
176
     1
 90
        2
176
     1
 40
0.6
176
     1
 40
30.0
176
     1
 62
     7
420
 16777215
176
     1
 90
        1
176
     1
 90
        0
176
     1
 62
     7
176
     1
 62
   257
176
     1
 90
        1
176
     1
 90
        1
176
     1
 40
1.0
176
     1
 90
        0
176
     1
 62
   257
176
     1
 40
1.0
176
     1
 90
        1
176
     1
 90
        6
176
     1
 90
        2
176
     1
 62
     7
176
     1
 90
        5
176
     1
 90
        0
176
     1
 90
        0
176
     1
290
     0
176
     1
 90
       13
176
     1
 40
0.0
176
     1
 90
        0
176
     1
290
     0
176
     1
290
     1
176
     1
290
     1
176
     1
290
     0
176
     1
290
     0
176
     1
290
     0
176
     1
290
     0
176
     1
290
     0
176
     1
290
     0
176
     1
 90
       50
176
     1
 40
0.0
176
     1
 40
1.0
176
     1
 90
        0
176
     1
 62
    18
420
        0
176
     1
 90
       50
176
     1
 90
        3
176
     1
 62
     5
420
      255
176
     1
290
     0
176
     1
 90
       50
176
     1
 90
       50
176
     1
 90
       50
176
     1
290
     0
176
     1
 90
       50
176
     1
 62
   256
176
     0
 40
1.0
176
     0
 90
        2
176
     1
  1
strokes_ogs.tif
176
     1
290
     0
176
     1
 40
1.0
176
     1
 40
1.0
176
     1
  0
VISUALSTYLE
  5
7EAD
102
{ACAD_REACTORS
330
7EAA
102
}
330
7EAA
100
AcDbVisualStyle
  2
Gouraud
 70
     2
177
     3
291
     1
 70
    58
 90
        2
176
     1
 90
        2
176
     1
 90
        1
176
     1
 90
        2
176
     1
 40
0.6
176
     1
 40
30.0
176
     1
 62
     7
420
 16777215
176
     1
 90
        0
176
     1
 90
        0
176
     1
 62
     7
176
     1
 62
   257
176
     1
 90
        1
176
     1
 90
        1
176
     1
 40
1.0
176
     1
 90
        0
176
     1
 62
     7
176
     1
 40
1.0
176
     1
 90
        1
176
     1
 90
        6
176
     1
 90
        2
176
     1
 62
     7
176
     1
 90
        5
176
     1
 90
        0
176
     1
 90
        0
176
     1
290
     0
176
     1
 90
       13
176
     1
 40
0.0
176
     1
 90
        0
176
     1
290
     0
176
     1
290
     1
176
     1
290
     1
176
     1
290
     0
176
     1
290
     0
176
     1
290
     0
176
     1
290
     0
176
     1
290
     0
176
     1
290
     0
176
     1
 90
       50
176
     1
 40
0.0
176
     1
 40
1.0
176
     1
 90
        0
176
     1
 62
    18
420
        0
176
     1
 90
       50
176
     1
 90
        3
176
     1
 62
     5
420
      255
176
     1
290
     0
176
     1
 90
       50
176
     1
 90
       50
176
     1
 90
       50
176
     1
290
     0
176
     1
 90
       50
176
     1
 62
   256
176
     0
 40
1.0
176
     0
 90
        2
176
     1
  1
strokes_ogs.tif
176
     1
290
     0
176
     1
 40
1.0
176
     1
 40
1.0
176
     1
  0
VISUALSTYLE
  5
7EAE
102
{ACAD_REACTORS
330
7EAA
102
}
330
7EAA
100
AcDbVisualStyle
  2
GouraudWithEdges
 70
     3
177
     3
291
     1
 70
    58
 90
        2
176
     1
 90
        2
176
     1
 90
        1
176
     1
 90
        2
176
     1
 40
0.6
176
     1
 40
30.0
176
     1
 62
     7
420
 16777215
176
     1
 90
        1
176
     1
 90
        0
176
     1
 62
     7
176
     1
 62
   257
176
     1
 90
        1
176
     1
 90
        1
176
     1
 40
1.0
176
     1
 90
        0
176
     1
 62
   257
176
     1
 40
1.0
176
     1
 90
        1
176
     1
 90
        6
176
     1
 90
        2
176
     1
 62
     7
176
     1
 90
        5
176
     1
 90
        0
176
     1
 90
        0
176
     1
290
     0
176
     1
 90
       13
176
     1
 40
0.0
176
     1
 90
        0
176
     1
290
     0
176
     1
290
     1
176
     1
290
     1
176
     1
290
     0
176
     1
290
     0
176
     1
290
     0
176
     1
290
     0
176
     1
290
     0
176
     1
290
     0
176
     1
 90
       50
176
     1
 40
0.0
176
     1
 40
1.0
176
     1
 90
        0
176
     1
 62
    18
420
        0
176
     1
 90
       50
176
     1
 90
        3
176
     1
 62
     5
420
      255
176
     1
290
     0
176
     1
 90
       50
176
     1
 90
       50
176
     1
 90
       50
176
     1
290
     0
176
     1
 90
       50
176
     1
 62
   256
176
     0
 40
1.0
176
     0
 90
        2
176
     1
  1
strokes_ogs.tif
176
     1
290
     0
176
     1
 40
1.0
176
     1
 40
1.0
176
     1
  0
VISUALSTYLE
  5
7EB2
102
{ACAD_REACTORS
330
7EAA
102
}
330
7EAA
100
AcDbVisualStyle
  2
Hidden
 70
     6
177
     3
291
     0
 70
    58
 90
        1
176
     1
 90
        2
176
     1
 90
        2
176
     1
 90
        0
176
     1
 40
0.6
176
     1
 40
30.0
176
     1
 62
     7
420
 16777215
176
     1
 90
        2
176
     1
 90
        2
176
     1
 62
     7
176
     1
 62
   257
176
     1
 90
        2
176
     1
 90
        1
176
     1
 40
40.0
176
     1
 90
        0
176
     1
 62
   257
176
     1
 40
1.0
176
     1
 90
        1
176
     1
 90
        6
176
     1
 90
        2
176
     1
 62
     7
176
     1
 90
        3
176
     1
 90
        0
176
     1
 90
        0
176
     1
290
     0
176
     1
 90
        1
176
     1
 40
0.0
176
     1
 90
        0
176
     1
290
     0
176
     1
290
     1
176
     1
290
     1
176
     1
290
     0
176
     1
290
     0
176
     1
290
     0
176
     1
290
     0
176
     1
290
     0
176
     1
290
     0
176
     1
 90
       50
176
     1
 40
0.0
176
     1
 40
1.0
176
     1
 90
        0
176
     1
 62
    18
420
        0
176
     1
 90
       50
176
     1
 90
        3
176
     1
 62
     5
420
      255
176
     1
290
     0
176
     1
 90
       50
176
     1
 90
       50
176
     1
 90
       50
176
     1
290
     0
176
     1
 90
       50
176
     1
 62
   256
176
     0
 40
1.0
176
     0
 90
        2
176
     1
  1
strokes_ogs.tif
176
     1
290
     0
176
     1
 40
1.0
176
     1
 40
1.0
176
     1
  0
VISUALSTYLE
  5
7EC0
102
{ACAD_REACTORS
330
7EAA
102
}
330
7EAA
100
AcDbVisualStyle
  2
JitterOff
 70
    20
177
     3
291
     1
 70
    58
 90
        2
176
     0
 90
        2
176
     0
 90
        0
176
     0
 90
        0
176
     0
 40
0.6
176
     0
 40
30.0
176
     0
 62
     7
420
 16777215
176
     0
 90
        1
176
     0
 90
        4
176
     0
 62
     7
176
     0
 62
   257
176
     0
 90
        1
176
     0
 90
        1
176
     0
 40
1.0
176
     0
 90
       10
176
     2
 62
     7
176
     0
 40
1.0
176
     0
 90
        1
176
     0
 90
        6
176
     0
 90
        2
176
     0
 62
     7
176
     0
 90
        5
176
     0
 90
        0
176
     0
 90
        0
176
     0
290
     0
176
     0
 90
        1
176
     0
 40
0.0
176
     0
 90
        0
176
     0
290
     0
176
     0
290
     1
176
     0
290
     1
176
     0
290
     0
176
     0
290
     0
176
     0
290
     0
176
     0
290
     0
176
     0
290
     0
176
     0
290
     0
176
     0
 90
       50
176
     0
 40
0.0
176
     0
 40
1.0
176
     0
 90
        0
176
     0
 62
    18
420
        0
176
     0
 90
       50
176
     0
 90
        3
176
     0
 62
     5
420
      255
176
     0
290
     0
176
     0
 90
       50
176
     0
 90
       50
176
     0
 90
       50
176
     0
290
     0
176
     0
 90
       50
176
     0
 62
   256
176
     0
 40
1.0
176
     0
 90
        2
176
     0
  1
strokes_ogs.tif
176
     0
290
     0
176
     0
 40
1.0
176
     0
 40
1.0
176
     0
  0
VISUALSTYLE
  5
7EB8
102
{ACAD_REACTORS
330
7EAA
102
}
330
7EAA
100
AcDbVisualStyle
  2
Linepattern
 70
    14
177
     3
291
     1
 70
    58
 90
        2
176
     1
 90
        2
176
     1
 90
        0
176
     1
 90
        0
176
     1
 40
0.6
176
     1
 40
30.0
176
     1
 62
     7
420
 16777215
176
     1
 90
        1
176
     1
 90
        4
176
     1
 62
     7
176
     1
 62
   257
176
     1
 90
        7
176
     1
 90
        7
176
     1
 40
1.0
176
     1
 90
        8
176
     1
 62
     7
176
     1
 40
1.0
176
     1
 90
        1
176
     1
 90
        6
176
     1
 90
        2
176
     1
 62
     7
176
     1
 90
        5
176
     1
 90
        0
176
     1
 90
        0
176
     1
290
     0
176
     1
 90
        1
176
     1
 40
0.0
176
     1
 90
        0
176
     1
290
     0
176
     1
290
     1
176
     1
290
     1
176
     1
290
     0
176
     1
290
     0
176
     1
290
     0
176
     1
290
     0
176
     1
290
     0
176
     1
290
     0
176
     1
 90
       50
176
     1
 40
0.0
176
     1
 40
1.0
176
     1
 90
        0
176
     1
 62
    18
420
        0
176
     1
 90
       50
176
     1
 90
        3
176
     1
 62
     5
420
      255
176
     1
290
     0
176
     1
 90
       50
176
     1
 90
       50
176
     1
 90
       50
176
     1
290
     0
176
     1
 90
       50
176
     1
 62
   256
176
     0
 40
1.0
176
     0
 90
        2
176
     1
  1
strokes_ogs.tif
176
     1
290
     0
176
     1
 40
1.0
176
     1
 40
1.0
176
     1
  0
VISUALSTYLE
  5
7EC1
102
{ACAD_REACTORS
330
7EAA
102
}
330
7EAA
100
AcDbVisualStyle
  2
OverhangOff
 70
    21
177
     3
291
     1
 70
    58
 90
        2
176
     0
 90
        2
176
     0
 90
        0
176
     0
 90
        0
176
     0
 40
0.6
176
     0
 40
30.0
176
     0
 62
     7
420
 16777215
176
     0
 90
        1
176
     0
 90
        4
176
     0
 62
     7
176
     0
 62
   257
176
     0
 90
        1
176
     0
 90
        1
176
     0
 40
1.0
176
     0
 90
        9
176
     2
 62
     7
176
     0
 40
1.0
176
     0
 90
        1
176
     0
 90
        6
176
     0
 90
        2
176
     0
 62
     7
176
     0
 90
        5
176
     0
 90
        0
176
     0
 90
        0
176
     0
290
     0
176
     0
 90
        1
176
     0
 40
0.0
176
     0
 90
        0
176
     0
290
     0
176
     0
290
     1
176
     0
290
     1
176
     0
290
     0
176
     0
290
     0
176
     0
290
     0
176
     0
290
     0
176
     0
290
     0
176
     0
290
     0
176
     0
 90
       50
176
     0
 40
0.0
176
     0
 40
1.0
176
     0
 90
        0
176
     0
 62
    18
420
        0
176
     0
 90
       50
176
     0
 90
        3
176
     0
 62
     5
420
      255
176
     0
290
     0
176
     0
 90
       50
176
     0
 90
       50
176
     0
 90
       50
176
     0
290
     0
176
     0
 90
       50
176
     0
 62
   256
176
     0
 40
1.0
176
     0
 90
        2
176
     0
  1
strokes_ogs.tif
176
     0
290
     0
176
     0
 40
1.0
176
     0
 40
1.0
176
     0
  0
VISUALSTYLE
  5
7EB4
102
{ACAD_REACTORS
330
7EAA
102
}
330
7EAA
100
AcDbVisualStyle
  2
Realistic
 70
     8
177
     3
291
     0
 70
    58
 90
        2
176
     1
 90
        3
176
     1
 90
        0
176
     1
 90
        2
176
     1
 40
0.6
176
     1
 40
30.0
176
     1
 62
     7
420
 16777215
176
     1
 90
        0
176
     1
 90
        0
176
     1
 62
     7
176
     1
 62
   257
176
     1
 90
        1
176
     1
 90
        1
176
     1
 40
1.0
176
     1
 90
        8
176
     1
 62
   257
176
     1
 40
1.0
176
     1
 90
        1
176
     1
 90
        6
176
     1
 90
        2
176
     1
 62
     7
176
     1
 90
        3
176
     1
 90
        0
176
     1
 90
        0
176
     1
290
     0
176
     1
 90
       13
176
     1
 40
0.0
176
     1
 90
        0
176
     1
290
     0
176
     1
290
     1
176
     1
290
     1
176
     1
290
     0
176
     1
290
     0
176
     1
290
     0
176
     1
290
     0
176
     1
290
     0
176
     1
290
     0
176
     1
 90
       50
176
     1
 40
0.0
176
     1
 40
1.0
176
     1
 90
        0
176
     1
 62
    18
420
        0
176
     1
 90
       50
176
     1
 90
        3
176
     1
 62
     5
420
      255
176
     1
290
     0
176
     1
 90
       50
176
     1
 90
       50
176
     1
 90
       50
176
     1
290
     0
176
     1
 90
       50
176
     1
 62
   256
176
     0
 40
1.0
176
     0
 90
        2
176
     1
  1
strokes_ogs.tif
176
     1
290
     0
176
     1
 40
1.0
176
     1
 40
1.0
176
     1
  0
VISUALSTYLE
  5
7EBF
102
{ACAD_REACTORS
330
7EAA
102
}
330
7EAA
100
AcDbVisualStyle
  2
Shaded
 70
    27
177
     3
291
     0
 70
    58
 90
        2
176
     1
 90
        2
176
     1
 90
        1
176
     1
 90
        2
176
     1
 40
0.6
176
     1
 40
30.0
176
     1
 62
     7
420
 16777215
176
     1
 90
        0
176
     1
 90
        4
176
     1
 62
     7
176
     1
 62
   257
176
     1
 90
        1
176
     1
 90
        1
176
     1
 40
1.0
176
     1
 90
        8
176
     1
 62
   257
176
     1
 40
1.0
176
     1
 90
        1
176
     1
 90
        6
176
     1
 90
        2
176
     1
 62
     8
420
  7895160
176
     1
 90
        3
176
     1
 90
        0
176
     1
 90
        0
176
     1
290
     0
176
     1
 90
        5
176
     1
 40
0.0
176
     1
 90
        0
176
     1
290
     0
176
     1
290
     1
176
     1
290
     1
176
     1
290
     0
176
     1
290
     0
176
     1
290
     0
176
     1
290
     0
176
     1
290
     0
176
     1
290
     0
176
     1
 90
       50
176
     1
 40
0.0
176
     1
 40
1.0
176
     1
 90
        0
176
     1
 62
    18
420
        0
176
     1
 90
       50
176
     1
 90
        3
176
     1
 62
     5
420
      255
176
     1
290
     0
176
     1
 90
       50
176
     1
 90
       50
176
     1
 90
       50
176
     1
290
     0
176
     1
 90
       50
176
     1
 62
   256
176
     0
 40
1.0
176
     0
 90
        2
176
     1
  1
strokes_ogs.tif
176
     1
290
     0
176
     1
 40
1.0
176
     1
 40
1.0
176
     1
  0
VISUALSTYLE
  5
7EBE
102
{ACAD_REACTORS
330
7EAA
102
}
330
7EAA
100
AcDbVisualStyle
  2
Shaded with edges
 70
    26
177
     3
291
     0
 70
    58
 90
        2
176
     1
 90
        2
176
     1
 90
        1
176
     1
 90
        2
176
     1
 40
0.6
176
     1
 40
30.0
176
     1
 62
     7
420
 16777215
176
     1
 90
        1
176
     1
 90
       10
176
     1
 62
     7
176
     1
 62
   257
176
     1
 90
        2
176
     1
 90
        1
176
     1
 40
1.0
176
     1
 90
        8
176
     1
 62
   257
176
     1
 40
1.0
176
     1
 90
        1
176
     1
 90
        6
176
     1
 90
        2
176
     1
 62
     7
176
     1
 90
        3
176
     1
 90
        0
176
     1
 90
        0
176
     1
290
     0
176
     1
 90
        5
176
     1
 40
0.0
176
     1
 90
        0
176
     1
290
     0
176
     1
290
     1
176
     1
290
     1
176
     1
290
     0
176
     1
290
     0
176
     1
290
     0
176
     1
290
     0
176
     1
290
     0
176
     1
290
     0
176
     1
 90
       50
176
     1
 40
0.0
176
     1
 40
1.0
176
     1
 90
        0
176
     1
 62
    18
420
        0
176
     1
 90
       50
176
     1
 90
        3
176
     1
 62
     5
420
      255
176
     1
290
     0
176
     1
 90
       50
176
     1
 90
       50
176
     1
 90
       50
176
     1
290
     0
176
     1
 90
       50
176
     1
 62
   256
176
     0
 40
1.0
176
     0
 90
        2
176
     1
  1
strokes_ogs.tif
176
     1
290
     0
176
     1
 40
1.0
176
     1
 40
1.0
176
     1
  0
VISUALSTYLE
  5
7EBB
102
{ACAD_REACTORS
330
7EAA
102
}
330
7EAA
100
AcDbVisualStyle
  2
Shades of Gray
 70
    23
177
     3
291
     0
 70
    58
 90
        2
176
     1
 90
        2
176
     1
 90
        3
176
     1
 90
        0
176
     1
 40
0.6
176
     1
 40
30.0
176
     1
 62
     7
420
 16777215
176
     1
 90
        2
176
     1
 90
        2
176
     1
 62
     7
176
     1
 62
     7
176
     1
 90
        1
176
     1
 90
        1
176
     1
 40
40.0
176
     1
 90
        8
176
     1
 62
     7
176
     1
 40
1.0
176
     1
 90
        1
176
     1
 90
        6
176
     1
 90
        2
176
     1
 62
     7
176
     1
 90
        3
176
     1
 90
        0
176
     1
 90
        0
176
     1
290
     0
176
     1
 90
        1
176
     1
 40
0.0
176
     1
 90
        0
176
     1
290
     0
176
     1
290
     1
176
     1
290
     1
176
     1
290
     0
176
     1
290
     0
176
     1
290
     0
176
     1
290
     0
176
     1
290
     0
176
     1
290
     0
176
     1
 90
       50
176
     1
 40
0.0
176
     1
 40
1.0
176
     1
 90
        0
176
     1
 62
    18
420
        0
176
     1
 90
       50
176
     1
 90
        3
176
     1
 62
     5
420
      255
176
     1
290
     0
176
     1
 90
       50
176
     1
 90
       50
176
     1
 90
       50
176
     1
290
     0
176
     1
 90
       50
176
     1
 62
   256
176
     0
 40
1.0
176
     0
 90
        2
176
     1
  1
strokes_ogs.tif
176
     1
290
     0
176
     1
 40
1.0
176
     1
 40
1.0
176
     1
  0
VISUALSTYLE
  5
7EBC
102
{ACAD_REACTORS
330
7EAA
102
}
330
7EAA
100
AcDbVisualStyle
  2
Sketchy
 70
    24
177
     3
291
     0
 70
    58
 90
        1
176
     1
 90
        2
176
     1
 90
        2
176
     1
 90
        0
176
     1
 40
0.6
176
     1
 40
30.0
176
     1
 62
     7
420
 16777215
176
     1
 90
        2
176
     1
 90
        2
176
     1
 62
     7
176
     1
 62
     7
176
     1
 90
        1
176
     1
 90
        1
176
     1
 40
40.0
176
     1
 90
       11
176
     1
 62
     7
176
     1
 40
1.0
176
     1
 90
        1
176
     1
 90
        6
176
     1
 90
        2
176
     1
 62
     7
176
     1
 90
        6
176
     1
 90
        0
176
     1
 90
        0
176
     1
290
     0
176
     1
 90
        1
176
     1
 40
0.0
176
     1
 90
        0
176
     1
290
     0
176
     1
290
     1
176
     1
290
     1
176
     1
290
     0
176
     1
290
     0
176
     1
290
     0
176
     1
290
     0
176
     1
290
     0
176
     1
290
     0
176
     1
 90
       50
176
     1
 40
0.0
176
     1
 40
1.0
176
     1
 90
        0
176
     1
 62
    18
420
        0
176
     1
 90
       50
176
     1
 90
        3
176
     1
 62
     5
420
      255
176
     1
290
     0
176
     1
 90
       50
176
     1
 90
       50
176
     1
 90
       50
176
     1
290
     0
176
     1
 90
       50
176
     1
 62
   256
176
     0
 40
1.0
176
     0
 90
        2
176
     1
  1
strokes_ogs.tif
176
     1
290
     0
176
     1
 40
1.0
176
     1
 40
1.0
176
     1
  0
VISUALSTYLE
  5
7EB7
102
{ACAD_REACTORS
330
7EAA
102
}
330
7EAA
100
AcDbVisualStyle
  2
Thicken
 70
    13
177
     3
291
     1
 70
    58
 90
        2
176
     1
 90
        2
176
     1
 90
        0
176
     1
 90
        0
176
     1
 40
0.6
176
     1
 40
30.0
176
     1
 62
     7
420
 16777215
176
     1
 90
        1
176
     1
 90
        4
176
     1
 62
     7
176
     1
 62
   257
176
     1
 90
        1
176
     1
 90
        1
176
     1
 40
1.0
176
     1
 90
       12
176
     1
 62
     7
176
     1
 40
1.0
176
     1
 90
        1
176
     1
 90
        6
176
     1
 90
        2
176
     1
 62
     7
176
     1
 90
        5
176
     1
 90
        0
176
     1
 90
        0
176
     1
290
     0
176
     1
 90
        1
176
     1
 40
0.0
176
     1
 90
        0
176
     1
290
     0
176
     1
290
     1
176
     1
290
     1
176
     1
290
     0
176
     1
290
     0
176
     1
290
     0
176
     1
290
     0
176
     1
290
     0
176
     1
290
     0
176
     1
 90
       50
176
     1
 40
0.0
176
     1
 40
1.0
176
     1
 90
        0
176
     1
 62
    18
420
        0
176
     1
 90
       50
176
     1
 90
        3
176
     1
 62
     5
420
      255
176
     1
290
     0
176
     1
 90
       50
176
     1
 90
       50
176
     1
 90
       50
176
     1
290
     0
176
     1
 90
       50
176
     1
 62
   256
176
     0
 40
1.0
176
     0
 90
        2
176
     1
  1
strokes_ogs.tif
176
     1
290
     0
176
     1
 40
1.0
176
     1
 40
1.0
176
     1
  0
VISUALSTYLE
  5
7EB1
102
{ACAD_REACTORS
330
7EAA
102
}
330
7EAA
100
AcDbVisualStyle
  2
Wireframe
 70
     5
177
     3
291
     0
 70
    58
 90
        0
176
     1
 90
        2
176
     1
 90
        0
176
     1
 90
        0
176
     1
 40
0.6
176
     1
 40
30.0
176
     1
 62
     7
420
 16777215
176
     1
 90
        1
176
     1
 90
        4
176
     1
 62
     7
176
     1
 62
   257
176
     1
 90
        1
176
     1
 90
        1
176
     1
 40
1.0
176
     1
 90
        0
176
     1
 62
   257
176
     1
 40
1.0
176
     1
 90
        1
176
     1
 90
        6
176
     1
 90
        2
176
     1
 62
     7
176
     1
 90
        3
176
     1
 90
        0
176
     1
 90
        0
176
     1
290
     0
176
     1
 90
        1
176
     1
 40
0.0
176
     1
 90
        0
176
     1
290
     0
176
     1
290
     1
176
     1
290
     1
176
     1
290
     0
176
     1
290
     0
176
     1
290
     0
176
     1
290
     0
176
     1
290
     0
176
     1
290
     0
176
     1
 90
       50
176
     1
 40
0.0
176
     1
 40
1.0
176
     1
 90
        0
176
     1
 62
    18
420
        0
176
     1
 90
       50
176
     1
 90
        3
176
     1
 62
     5
420
      255
176
     1
290
     0
176
     1
 90
       50
176
     1
 90
       50
176
     1
 90
       50
176
     1
290
     0
176
     1
 90
       50
176
     1
 62
   256
176
     0
 40
1.0
176
     0
 90
        2
176
     1
  1
strokes_ogs.tif
176
     1
290
     0
176
     1
 40
1.0
176
     1
 40
1.0
176
     1
  0
VISUALSTYLE
  5
7EBD
102
{ACAD_REACTORS
330
7EAA
102
}
330
7EAA
100
AcDbVisualStyle
  2
X-Ray
 70
    25
177
     3
291
     0
 70
    58
 90
        2
176
     1
 90
        2
176
     1
 90
        1
176
     1
 90
        1
176
     1
 40
0.5
176
     1
 40
30.0
176
     1
 62
     7
420
 16777215
176
     1
 90
        1
176
     1
 90
        0
176
     1
 62
     7
176
     1
 62
   257
176
     1
 90
        1
176
     1
 90
        1
176
     1
 40
1.0
176
     1
 90
        8
176
     1
 62
     7
176
     1
 40
1.0
176
     1
 90
        1
176
     1
 90
        6
176
     1
 90
        2
176
     1
 62
     7
176
     1
 90
        3
176
     1
 90
        0
176
     1
 90
        0
176
     1
290
     0
176
     1
 90
       13
176
     1
 40
0.0
176
     1
 90
        0
176
     1
290
     0
176
     1
290
     1
176
     1
290
     1
176
     1
290
     0
176
     1
290
     0
176
     1
290
     0
176
     1
290
     0
176
     1
290
     0
176
     1
290
     0
176
     1
 90
       50
176
     1
 40
0.0
176
     1
 40
1.0
176
     1
 90
        0
176
     1
 62
    18
420
        0
176
     1
 90
       50
176
     1
 90
        3
176
     1
 62
     5
420
      255
176
     1
290
     0
176
     1
 90
       50
176
     1
 90
       50
176
     1
 90
       50
176
     1
290
     0
176
     1
 90
       50
176
     1
 62
   256
176
     0
 40
1.0
176
     0
 90
        2
176
     1
  1
strokes_ogs.tif
176
     1
290
     0
176
     1
 40
1.0
176
     1
 40
1.0
176
     1
  0
DICTIONARYVAR
  5
7F57
102
{ACAD_REACTORS
330
7E83
102
}
330
7E83
100
DictionaryVariables
280
     0
  1
1:1
  0
DICTIONARYVAR
  5
7F53
102
{ACAD_REACTORS
330
7E83
102
}
330
7E83
100
DictionaryVariables
280
     0
  1
STANDARD
  0
DICTIONARYVAR
  5
7F52
102
{ACAD_REACTORS
330
7E83
102
}
330
7E83
100
DictionaryVariables
280
     0
  1
STANDARD
  0
DICTIONARYVAR
  5
7F54
102
{ACAD_REACTORS
330
7E83
102
}
330
7E83
100
DictionaryVariables
280
     0
  1
Imperial24
  0
DICTIONARYVAR
  5
7F55
102
{ACAD_REACTORS
330
7E83
102
}
330
7E83
100
DictionaryVariables
280
     0
  1
Imperial24
  0
DICTIONARYVAR
  5
7E84
102
{ACAD_REACTORS
330
7E83
102
}
330
7E83
100
DictionaryVariables
280
     0
  1
1
  0
DICTIONARYVAR
  5
7F59
102
{ACAD_REACTORS
330
7E83
102
}
330
7E83
100
DictionaryVariables
280
     0
  1
1
  0
DICTIONARYVAR
  5
7F5A
102
{ACAD_REACTORS
330
7E83
102
}
330
7E83
100
DictionaryVariables
280
     0
  1
15
  0
DICTIONARYVAR
  5
7F58
102
{ACAD_REACTORS
330
7E83
102
}
330
7E83
100
DictionaryVariables
280
     0
  1
0
  0
DICTIONARYVAR
  5
7F56
102
{ACAD_REACTORS
330
7E83
102
}
330
7E83
100
DictionaryVariables
280
     0
  1
0
  0
DICTIONARY
  5
7F4F
330
7EDD
100
AcDbDictionary
280
     1
281
     1
  3
ACAD_XREC_ROUNDTRIP
360
7F85
  0
DICTIONARY
  5
7E9B
330
7E9A
100
AcDbDictionary
280
     1
281
     1
  3
BUMPTILE
360
7E9D
  3
DIFFUSETILE
360
7E9C
  3
OPACITYTILE
360
7EA0
  3
REFLECTIONTILE
360
7E9F
  3
REFRACTIONTILE
360
7EA1
  3
SPECULARTILE
360
7E9E
  0
DICTIONARY
  5
7E93
330
7E92
100
AcDbDictionary
280
     1
281
     1
  3
BUMPTILE
360
7E95
  3
DIFFUSETILE
360
7E94
  3
OPACITYTILE
360
7E98
  3
REFLECTIONTILE
360
7E97
  3
REFRACTIONTILE
360
7E99
  3
SPECULARTILE
360
7E96
  0
DICTIONARY
  5
7EA3
330
7EA2
100
AcDbDictionary
280
     1
281
     1
  3
BUMPTILE
360
7EA5
  3
DIFFUSETILE
360
7EA4
  3
FBXASSET
360
7EE4
  3
OPACITYTILE
360
7EA8
  3
REFLECTIONTILE
360
7EA7
  3
REFRACTIONTILE
360
7EA9
  3
SPECULARTILE
360
7EA6
  0
DICTIONARY
  5
7F4D
330
7EDB
100
AcDbDictionary
280
     1
281
     1
  3
ACAD_XREC_ROUNDTRIP
360
7F84
  0
DICTIONARY
  5
7F82
330
7EC5
100
AcDbDictionary
280
     1
281
     1
  3
ACAD_ROUNDTRIP_2008_TABLESTYLE_CELLSTYLEMAP
360
7F83
  0
XRECORD
  5
7F85
102
{ACAD_REACTORS
330
7F4F
102
}
330
7F4F
100
AcDbXrecord
280
     1
102
DISPLAYNAME
  1
Imperial24
102
FLAGS
 90
        0
  0
XRECORD
  5
7E9D
102
{ACAD_REACTORS
330
7E9B
102
}
330
7E9B
100
AcDbXrecord
280
     1
270
     1
271
     1
  0
XRECORD
  5
7E9C
102
{ACAD_REACTORS
330
7E9B
102
}
330
7E9B
100
AcDbXrecord
280
     1
270
     1
271
     1
  0
XRECORD
  5
7EA0
102
{ACAD_REACTORS
330
7E9B
102
}
330
7E9B
100
AcDbXrecord
280
     1
270
     1
271
     1
  0
XRECORD
  5
7E9F
102
{ACAD_REACTORS
330
7E9B
102
}
330
7E9B
100
AcDbXrecord
280
     1
270
     1
271
     1
  0
XRECORD
  5
7EA1
102
{ACAD_REACTORS
330
7E9B
102
}
330
7E9B
100
AcDbXrecord
280
     1
270
     1
271
     1
  0
XRECORD
  5
7E9E
102
{ACAD_REACTORS
330
7E9B
102
}
330
7E9B
100
AcDbXrecord
280
     1
270
     1
271
     1
  0
XRECORD
  5
7E95
102
{ACAD_REACTORS
330
7E93
102
}
330
7E93
100
AcDbXrecord
280
     1
270
     1
271
     1
  0
XRECORD
  5
7E94
102
{ACAD_REACTORS
330
7E93
102
}
330
7E93
100
AcDbXrecord
280
     1
270
     1
271
     1
  0
XRECORD
  5
7E98
102
{ACAD_REACTORS
330
7E93
102
}
330
7E93
100
AcDbXrecord
280
     1
270
     1
271
     1
  0
XRECORD
  5
7E97
102
{ACAD_REACTORS
330
7E93
102
}
330
7E93
100
AcDbXrecord
280
     1
270
     1
271
     1
  0
XRECORD
  5
7E99
102
{ACAD_REACTORS
330
7E93
102
}
330
7E93
100
AcDbXrecord
280
     1
270
     1
271
     1
  0
XRECORD
  5
7E96
102
{ACAD_REACTORS
330
7E93
102
}
330
7E93
100
AcDbXrecord
280
     1
270
     1
271
     1
  0
XRECORD
  5
7EA5
102
{ACAD_REACTORS
330
7EA3
102
}
330
7EA3
100
AcDbXrecord
280
     1
270
     1
271
     1
  0
XRECORD
  5
7EA4
102
{ACAD_REACTORS
330
7EA3
102
}
330
7EA3
100
AcDbXrecord
280
     1
270
     1
271
     1
  0
XRECORD
  5
7EE4
102
{ACAD_REACTORS
330
7EA3
102
}
330
7EA3
100
AcDbXrecord
280
     1
 70
     1
 90
1959938040
 71
     1
  1
39B4C9DA-B992-4108-A590-D960147B26AE
311
504B03041400060808003659D250FDCD38E8BF000000200100004F00000043464346323242332D464542432D343534452D384238382D3737323737394246374146412F4173736574446174612F446566696E6974696F6E4974657261746F7250726F706572746965732E62696EEB606060F80F0540260323103700495E20ED
311
9E9A975A94991C9C9C919A9BC8C00612C9C94F4ACC6147C831019920AE4B6A5A62694E0948976F6671726A4E4E625E6A7E69B12042A9426E6209D0B8C41C3D90264E20860914834C48875806B2DF0F88414E02D189290556F689C5C5A925B6FA694915FACE2606462E4E168EBA2E162EAEBA26E62E86BA8E26964EBAE61666
311
6E968E162E964E868EFA45A9C5F9A545C9A9C5FA46FA06F15093E30BF2D219185EEC94BD1C07B404E40610260400504B03041400060808003659D250FA51C9D90D010000300200004500000043464346323242332D464542432D343534452D384238382D3737323737394246374146412F4173736574446174612F496E7374
311
616E636550726F706572746965732E62696EEB606060F80F0540260323103700495E20ED9E9A975A94991C9C9C919A9BA8021430B6743271B67471D475B2B434D2353134B0D07534B534D075B134333034317732327374654768046B313471713532B5D435353131D635313332D475727372D13534373670367376B67474B5
311
04EA00DBCBA019D37FE8ABC6157B20CD04146B0062181F4C03F940F0C11EA29A8141C08141002C0426541C106CAC2CA046088033B02A030AC2157C6006F21A8018AAF50194E6010A610250382264E08660284CD9E98021862280A91564B406929A0FF62C401E28B6F88038B83CB1243943D7A928312F25350524830B28A7E6
311
14A7F27229ECB0FCEF9853C1D0B0A154AEFA7F3D0343009286C39B0A4106630500504B03041400060808003659D25028BB58AF800100009E0500003D00000043464346323242332D464542432D343534452D384238382D3737323737394246374146412F536368656D61732F436F6D6D6F6E536368656D612E786D6CBD544D
311
4FC23018BEFB2B96DE15493C78601010A34B880709DEDFB52FD0D8B54BD70DF6EFED3AC0B12E6442E2716BFB3CEFF3D18E26FB440405EA8C2B1992E1C323095052C5B8DC842437EBFB673219DF8DA659866649B798C078B48AE6410122242F2A4994AC7F93815DF85C049C8564CA0A901499DD886B2EB9B1E02448F358701A
311
9235880C49A0119892A20C89D1B9FD768815CAD268CB5E0355B40B1E47F3E37A2020464BED06AA57CE8FCC20C3C3446D46761A2632A8C1283D07031EFF2AE7CCB1BFEEE916E406DFAC8E36FFD99A9D60A6944090EEDC3B670C7DC13DE86B6B2C5C240D6E503BB85ACD579D513F1B9F9A69DC9CC22AFA80C426D40AF0B21EA1
311
68559156B6276F0F726A6BFF04DCD513A87A62CAD41FB24FCB2858B3952E3D852084DA25B9303C15687973CC8E8AAE11DF2836C38C6A9E765E8C1BA1BFB1DC29CDFE518C8B5A7655A4ED7E77291ABEB80DBD82EC866ADE1B8D05AF9E35CF09D7A061F38A986D9EC412B8F0F65E5D81534D9B231D1E5A8FE577A241F3A5FD01
311
504B03041400060808003659D2502CCEBD668A040000E01200003E00000043464346323242332D464542432D343534452D384238382D3737323737394246374146412F536368656D61732F47656E65726963536368656D612E786D6CD5586D6FDB380CFE7EBF42F0F7A649B70E1B90744856B4970F450FCD7A5F05459613ED
311
E4174872DADCAF3F522F8ED3B88D2F1D06AC4050DBA2493EE4438AF2F8EB73AEC8466823CB62928C06C384888297A92C5693A4B6D9D9E7E4EBD51FE3A931C22EF85AE4EC6AFC38BF261BA626C9AD288496DC3F4FCEAFC63366845F7A10452AF41DB320C0D44EC26EAB20918735565582695670811A6A49643A49A6E9069FA4
311
604A64B29016DC4B48552F95E4932463CA888468C1D2B250DB4962750DF7CE273069CE8363F1FF4EDB00E0A21999574AE4A2B00C353B93F3BD4777B8A61ED8F604ABFEDD79CE56A2B7BDFBDBC50996E0ADDE16FED26223C5D30956C29BDF4A55EA686E5E58B112DA45CE67F76F4FA27EFA3FB672FD7372FC388FAECDCA5209
311
E693CAD167BADCD272F943701B3812F8A3D852008B1D2E32DB927B2F833C6EA95879925356D254582695095A3CE982924720BE5774A3CB9CDCDB350427D2DF20DA1B5532EBE2D5D6288D75D4F7E4FD9890A0EF8E3D93EBB8F8BA4758158EF6FB90A6F9520281C93DE7AAC6D24607DA296BB96018123F821A7D6A5C5884050C
311
475DA4865442732C8B95684A50165CBB3A32F25F783A4A480ED59AD7F924B968AEA50131F46303223E6A397B0E52976030DC1DCA81D7E7C1EDEEA42C19FF27635C505E2BD5198A599020DF50A2330FCB3AAF28CB0124108429553EF1B228802E2265D8F7CC2401042B155BCC7070F1E5C55F13B4A9577362CCCE46C32174E0
311
10C3C378C44841A4BDA00FE3A12006CE11EE6AEC59894D3526DDE1CD59D503ECC324017F8061B7F162162FA62EDD81AE3308617770796DCBDAD2B2625C5AE8A63DE20B2C8AA5E95E76E5730823955956E33E705425A2187C185D36489A1B44D3DCEC2172F6BA2105C3546287A7194B2331768EBBE64F6E70A9930ABE0ADEA8
311
9E9E2C38523B810287AD67A54A039C1606EAFE68F8304610BB9093DBDDABC0B2AE4E290DCDA15376D7E39F72B556F0B32EAB5D3D498B4C41ABADEC3A1434C422D87E8025A84BDCB2B1417ED750FAE4DA8976863974C577C7F902D3F156AD354DEA3540DE6BEAE2BEA52F7A2EB4CA43802ECE5BF2CE2EDC9347179FFB023CE4
311
12E60BE16DA0BE29B374988A553F561DC04615DD35F7D2C8979F60E5955CE93DF29DED8AFA1EE6642D53418086C03C47C377910F75F7E8F5EF665F70B60FFB22AEDF897D119E8423C773E819A3C1E55E550599EE6EDCA34D0C86FD72057DF2CD46F16A470682471C164E4346D5306BF12D7D12D82CFF673D41636C347443FE
311
B51B50D72EA171A8E4A58623A4A16E0FA2B8B10A0D23268D87C33896EE8FB73305A74BF224EDBADFA0BD674AB354D63DB7BD5D83426761C077DE767728235446A552754EB93B755891C3C4CC6CADE37CF0E912A7BB38DBA010F9DE1282EDF470CA69A9CDA482E334C4A6EA4107987980B17E72F31730EBF88BBD39E7C629F5
311
6797A3C0009C2C5AE7951D9A05A02773440F02EEB4DE396A3B6A570C72CCFBCD823B0B8ED3F1D5CEDDFED772FA70236C83FB7D86C385D570B87107535572A60A96035F8F7C6A7192F13007246BBE0521855E6AC46F3E27689CEE7D186A6FD679D98CDCAD13333E04EBE7ED6F55FF01504B03041400060808003659D2506180
311
134D5F0100006B0300004500000043464346323242332D464542432D343534452D384238382D3737323737394246374146412F536368656D61732F52656E6465724D6174657269616C536368656D612E786D6CA5934D6FC2300C86EFFB1551EEE343DBA41D1A103009551ADAD40EAE28A4A68D9426284961FCFBE5A340113B
311
2071746D3F765EBF4DC6BFB5407BD0862B49F0B037C0082453059725C18DDD3EBFE3F1E829991803366715D474942CD30FB4A782E00C64017A412D684E454CE3FE28995203B162A6EA5AC94B66997D225E109CD63B0135484BAD1B3C07E9080CA35DB3119C11BCA5C200461A68A1A438126C75E3E230D40FF81FB3F03C91D1
311
E3A3A0AF79FE28E25BC39EC3E17E4C2A2D94A0833A51AF55BCCA7D88572FCBAC529C4140B020FC3AAFA886621DCED7EAD7664CC86024E806DC297DA1BB393E4156543457A4537DB8817349A70F8ACBF09B3EEE2CB2F33E91B65D60786E4E3B39B77E3FEEEF5650424525DA657FB8B46BE6BF064646F0A0F7327C0BC1BC1B4C
311
BBC1C419FA3CCB23500007872A2580CAAE5461865565294E4EDB4617B62FF579DF9A5B2F54E834076A597573A020912FED777F9B3F504B03041400060808003659D250B9F975ED51000000570000004700000043464346323242332D464542432D343534452D384238382D3737323737394246374146412F41737365744461
311
74612F41737365745461626C654F66436F6E74656E74732E62696E5361606030B6743271B67471D475B2B434D2353134B0D07534B534D075B1343330343177323273741502AACB4D2C492DCA4CCC492C28484D2C4ACC4B4E050A82012F90744FCD03CA26072767A4E6260200504B03041400060808003659D250F865834058
311
000000680000004500000043464346323242332D464542432D343534452D384238382D3737323737394246374146412F4173736574446174612F53747265616D56657273696F6E5461626C652E696E66558CBD0A80300C06F73E4B117FB66E451741D041DC5BF98480A492E4FDD18EAEC7DD4555D89EF28DF51A0B1BD8340C
311
4DE7DD848B988C0ACF0649566493F2408C508DDEBB99D5129FF8F1AF8CF5B9503E20FAE5A16B5AF702504B03041400060808003659D25078E22BED350100009A0400003600000043464346323242332D464542432D343534452D384238382D3737323737394246374146412F4173736574446174612F636E782E786D6CCD94
311
314FC3301085FF4AE43D7652012A95E30AC1D209242A06B6AB7369AD3A76645F10FC7BEC3403A888A943D7F3BBF3F327BF93EBCFDE161F18A2F1AE6135AF58814EFBD6B87DC346EACA252BD64A06EFE9878C150E7A6C582E3325F7C18FC35C6AB183D1E6AA35EE38171F6244DAC2CEE273F7E81DA1A3C80A6D21C686457DC0
311
1E388CE45B8C47DE0201AF79C0E8C7A0314D22D3E33C490704C296A945B5A8CAEAAEAC97DBBA5E55F7AB9BDB7729B252C99DF776D69B7459F043A14FB7325549918F951C839935F92D4CFDE591EF8C932229958C141293B983BE86D401C3608D064AE884D784542611422FC549ACA4C80C7E9178C2CE38935B36C918900F2F
311
C91E0632787544FEF37A79321B17099CC6EBE571EEF0F2145EA71FF4760AE494986BCBC9B9436E5C77819488698DA4D0E4ADA2BE01504B03041400060808003659D250694FDCD8080100004F0300003400000043464346323242332D464542432D343534452D384238382D3737323737394246374146412F536368656D6173
311
2F636E782E786D6CCD933F4F432114C5BFCA0B7B81D7A8A90D8F0E0E4E2EEAE48670DB9202F7853F46BFBDF0646813371DBAC1E11772CEE122769FDE0D1F1093C5309191723240D0686C384CA4E4FD6A43869D1411319F616408CAC3449A4CA438442C73970CEC55714D75369CBAF880DE6378D147F08A0CDAA9942692962D
311
5525A38174A2466545471A2161891AEA0DD97AE837E8082A832172CDD77CC5EF56E3E6751CB7FC7E7B73FB265823A57847749DB72143C479D05817A1DAE182B563294AB49D6919883CF7466B1B8255428A9463EDA093F96BAEA49A6767B5CAB52AB6803F8C14AC45BD08FC0801A2D5D799F8C2DCBF457E8660203ED5578A56
311
B9EB4CFE9BC7BF15C096D9AF23D0BE82FC06504B03041400060808003659D250410A3D5871000000A40000002C00000043464346323242332D464542432D343534452D384238382D3737323737394246374146412F636E782E786D6C55CC4D0E82301086E1AB34B31774E7A22D31F1069E60020334B633A63FC6E34B0909B0
311
7DDE2F9FEE7EC1AB2FC5E4840DDC9A2B28E25E06C7938192C7CB1D54677514C9871928C640062A83D55394F2D968A0118BAFEA1DBF377CA444F98919176EAB9FEAAB9F2960DA5BBB1E2ED3FA6FFF504B03041400060808003659D250F70804827E000000A300000007000000636E782E786D6C4D8C4D0AC3201805AF22DFDE
311
FED8142DA8214ABC47684C901A2D36861CBF5AB2E8EAC1F06678BB2F1E6D367D5C0C02AEA70B201B9E7174611690D7093340ADE429C6F5EF06280C8B155031483EA798DF071AED34645FA977E175406DB42144DDB0E995C6CDBDE931538C614A09A50F656867BA629CAB52E6D72B5BF3F20B504B03041400060808003659D2
311
5016E99B5DA600000035010000130000005B436F6E74656E745F54797065735D2E786D6C9590410E82301045AFD2740F4517C6180A0BF5065E60AC53688469D30E066F6F91AD9AB89CF9FFFD3F99BA9DC7413C3026E749CB4D59498164FCCD51A7E5C4B6D84BD136F5E5193089ECA5A465CF1C0E4A25D3E308A9F401292BD6
311
C711388FB15301CC1D3A54DBAADA29E38991B8E0254336F5092D4C038BF39CD76B6FC6A538AEBEA54A4B08617006389FA516557DE4AE8E7E70DE30729138228C5F021CD93F02D4FB0DCD0B504B03041400060808003659D2503DEE336E64000000790000001B0000006175746F6465736B2D64657369676E2D7061636B6167
311
652E786D6C35CBC10E83200C00D05F21DCA56CA76D41FC96062B120735B69A7DBE268BB7777961F8D5AF396893C2ADB70FE7ADA196782C2DF776D7A97B5933C430F15651E5469C55D70F80A4992A3ADC954792C525AE70A1E4D6AD9816CC044FEFDF01FE3FDE907802504B03041400060808003659D2501CC91A00F8000000
311
960100003700000043464346323242332D464542432D343534452D384238382D3737323737394246374146412F4173736574446174612F636F72652E786D6C8550CB6EC32010FC158B3B3650ECDA1126726BE50B7AEA0D01715162B07854FDFC42EC4AEDA9A75DCDCECCEE0E3B7FADF7EA53FB609C1D01AE11A8B4954E19BB
311
8C20C52BEC4175E6CC3B177FD14065C5AA475060C0D9E25DDA0E483A1BB52DA8754A1FA008414750C97B6E4610E4875E452D52CC8C70AB37216F62D135AE771E67291975488DCA6EE66AB4079C107AE9D065860369274829EEE030B43D9C5E5BFA426782C8F0CC9A22E62C9AF567BBF45A44ADB21E1104510771FF86F1090D
311
27DABEB3A630390BD1E79F8FA5E53BC0A772F52CA260CD3EFDE39A36F5BF6B32363E91C3755704C0713EF231E0AC2929E5F28830D79228FF06504B03041400060808003659D2500291EECFF7000000940100003500000043464346323242332D464542432D343534452D384238382D3737323737394246374146412F536368
311
656D61732F636F72652E786D6C8550CB6EC32010FC158B3B3650ECDA11264A1BE507DA536F0888831283C5A3EAE7176C576A4F3DED6A76667677D8F16B7E549FDA07E3EC08708D40A5AD74CAD86904295E610FAA2367DEB9F88B062A2B663D820203CE26EFD2B243D2D9A86D41AD537A0745083A824A3E723382206F7A16B5
311
483133C2BD5E84BC8B49D7B8DE789CA564D42E352ABB99ABD11E7042E8A54397331C487B8294E20E0E43DBC3D36B4B5FE89920323CB3A688398B66FED92EBD1651ABAC470441D441DCBF637C40C381B61FAC294CCE42F4F9E77D69F90EF0B7F5CEC09A6DF6C7332DEA7FCF646C7C22BBE7A60880E37CE23AE0AC2919E5B206
311
986BC9937F03504B03041400060808003659D250DA42D66703010000D70100002D00000043464346323242332D464542432D343534452D384238382D3737323737394246374146412F636F72652E786D6C95914D6EC3201085AF82668F7F88533B11268AADF8045D754761E2A0C460195CF5F8C5B5ABB6BB76057A7C6F8637
311
C34FEFC383BCE1E48DB335E4490604AD72DAD8BE86395C6905E424F8E45CF88101B172C01A161904EF27378F9BA49C0D6817D53A8D9B28BDC700443DE2A506AF6E38C844CE2112FE9E8C52DD658F499EAC9CE0C10C5F5635A10CA841B08C65347BA279F59CE7C7EC702CF62F3C5D48C16763C38E6DCD7078454DDC18622410
311
7B9EAEAF919A8DDE18A3E31FCDD5E004A2EDDA8EB16647BB4BD3D2625F5C68D554152D4B569687A62BCFDD39168966C17D98E264B622CB0CFE6A5F8DBF92CDA3FE67B2D5E141E4DFA1D265CC82A79F3B88E7B212F101504B03041400060808003659D2501027A28106010000B201000008000000636F72652E786D6C8D504B
311
6EC32014BC0A628F0D2E76E30813A58D7282AEBAA386382836587CA2F6F685984AEDAEAB87E6F36678ECF0B9CCE0AE9CD7D60C9054180265462BB5990618C305ED203870E6AC0DBF641018B1A80166187236391BD7028DD60465326AAC540514DEAB00C138A7C700FD78558BA8440C49E16FD52AC69B985445AA4DC759D0CB
311
8F75744A0425216F708311EE10D9BD11B2C7FD9EB6EFACCE4ACE62D4B2446999D2F5452B972C0D3D77F87C427DD31E11A5A4437DDFEED0F1B5A52FF49436F6CFACCE66CE7C70E9CF6549EA198017F79CCBEA8DE2ECC3DAB908522909AC99BF20C7ACCEC49FD27195FF28AD4D786ACAC2CDE12127A9D08348C1F982693CCE9B
311
66BE36FF06504B010214001400060808003659D250FDCD38E8BF000000200100004F000000000000000000000000000000000043464346323242332D464542432D343534452D384238382D3737323737394246374146412F4173736574446174612F446566696E6974696F6E4974657261746F7250726F706572746965732E
311
62696E504B010214001400060808003659D250FA51C9D90D0100003002000045000000000000000000000000002C01000043464346323242332D464542432D343534452D384238382D3737323737394246374146412F4173736574446174612F496E7374616E636550726F706572746965732E62696E504B01021400140006
311
0808003659D25028BB58AF800100009E0500003D000000000000000000000000009C02000043464346323242332D464542432D343534452D384238382D3737323737394246374146412F536368656D61732F436F6D6D6F6E536368656D612E786D6C504B010214001400060808003659D2502CCEBD668A040000E01200003E
311
000000000000000000000000007704000043464346323242332D464542432D343534452D384238382D3737323737394246374146412F536368656D61732F47656E65726963536368656D612E786D6C504B010214001400060808003659D2506180134D5F0100006B03000045000000000000000000000000005D0900004346
311
4346323242332D464542432D343534452D384238382D3737323737394246374146412F536368656D61732F52656E6465724D6174657269616C536368656D612E786D6C504B010214001400060808003659D250B9F975ED510000005700000047000000000000000000000000001F0B000043464346323242332D464542432D
311
343534452D384238382D3737323737394246374146412F4173736574446174612F41737365745461626C654F66436F6E74656E74732E62696E504B010214001400060808003659D250F865834058000000680000004500000000000000000000000000D50B000043464346323242332D464542432D343534452D384238382D
311
3737323737394246374146412F4173736574446174612F53747265616D56657273696F6E5461626C652E696E66504B010214001400060808003659D25078E22BED350100009A0400003600000000000000000000000000900C000043464346323242332D464542432D343534452D384238382D373732373739424637414641
311
2F4173736574446174612F636E782E786D6C504B010214001400060808003659D250694FDCD8080100004F0300003400000000000000000000000000190E000043464346323242332D464542432D343534452D384238382D3737323737394246374146412F536368656D61732F636E782E786D6C504B010214001400060808
311
003659D250410A3D5871000000A40000002C00000000000000000000000000730F000043464346323242332D464542432D343534452D384238382D3737323737394246374146412F636E782E786D6C504B010214001400060808003659D250F70804827E000000A300000007000000000000000000000000002E100000636E
311
782E786D6C504B010214001400060808003659D25016E99B5DA6000000350100001300000000000000000000000000D11000005B436F6E74656E745F54797065735D2E786D6C504B010214001400060808003659D2503DEE336E64000000790000001B00000000000000000000000000A81100006175746F6465736B2D6465
311
7369676E2D7061636B6167652E786D6C504B010214001400060808003659D2501CC91A00F80000009601000037000000000000000000000000004512000043464346323242332D464542432D343534452D384238382D3737323737394246374146412F4173736574446174612F636F72652E786D6C504B0102140014000608
311
08003659D2500291EECFF70000009401000035000000000000000000000000009213000043464346323242332D464542432D343534452D384238382D3737323737394246374146412F536368656D61732F636F72652E786D6C504B010214001400060808003659D250DA42D66703010000D70100002D000000000000000000
311
00000000DC14000043464346323242332D464542432D343534452D384238382D3737323737394246374146412F636F72652E786D6C504B010214001400060808003659D2501027A28106010000B201000008000000000000000000000000002A160000636F72652E786D6C504B050600000000110011005A06000056170000
311
0000
310
504B03041400060808003659D250000000000000000000000000370000006662782F33434234383035452D384431312D343344342D413038442D3639453232353841433732302F617474726962757465732E62696E504B03041400060808003659D250000000000000000000000000350000006662782F3343423438303545
310
2D384431312D343344342D413038442D3639453232353841433732302F76657274696365732E62696E504B03041400060808003659D250F270F1330600000004000000360000006662782F33434234383035452D384431312D343344342D413038442D3639453232353841433732302F747269616E676C65732E62696E6366
310
60600000504B03041400060808003659D25051464CB48900000043010000360000006662782F33434234383035452D384431312D343344342D413038442D3639453232353841433732302F6469726563746F72792E786D6C9D8F310EC2300C45AF127987122606C71DD918B841D4B851A43646695A717C52A85029031293A5
310
A76FBF6FACEF7DA7264E43906840EF0FA03836E242F406C6DCEE4EA06AC22492573150D1F66C60C640E8938CB705396EEDD86DE9B5042FE27813D640EA63BB001C722AF6E55CB61E4863F58284D5D3F53DD715CE1C3985E63FD7F1B7EBDD617E9F1E504B03041400060808003659D25082B133CC3E070000201C0000340000
310
006662782F33434234383035452D384431312D343344342D413038442D3639453232353841433732302F6F626A656374732E786D6CDD59596FDB3810FE2B84F665F74196E42B56E1B8F091144691B668D0C5BE09B44C3BDC5007282971F6D7EF90226551916DA507B0D804881D8A1CCE7C738FA6EF0F11434F84673489AF2D
310
AFE75A88C461B2A5F1FEDA2AF29D3DB1D0FB199AF224C96BFB2C14E3885C5B62D99A4DF73C2952B5B4253B5CB0E6EAEDE22F94852426160A19CEB26B2B0B1F48847BB8C8932DC91E7B5B9CE3DE7E77E879BD72A34976CF71FAD0B82AC59CC439B00AEB3150511C78E6BF2092339B3A6283B16DD06D5BFFCC36470A6E324AE3
310
2CC771F88AABC675FD135C35AE1B78C3D54D7FE4DBA3E170600FC77DCF5EDC2E56B677357097E3E5D29FDFF8169A4D3749C22A05A424DE82165FAC993775C4934A7C85421BDF6112C7245468B66DD812459792AC898901AC2745AB29A494B5B630E828FC896D9D40315832D0D6C2E9CFBAF5269BBF0184AC8B95F28C082BCF
310
720EBA56D897FEE04E9D72D5D00BCD508473C2296688D10DC71C14045B4B05196484B70852486026B5A8E9D57905C3BEEC4B6D5CEE0AC684FF5A33E96901F823C933C919FD87F023F7F5DB802790B6A0713E51C2E62F2990F0A78E5C2C9F0DFAEA610924DA31BC076B0131C5A641BF81D752C482F5CA9A7DBCDD1CEE457C68
310
BF3CE5494A782E2C4F3AB3F23BADC19A6981F17500A5C4D5D4DD1195AF00FD2740BEE2054D41739C1E8687A1969DE338DB253C02ED2017D92EFC7191F8FAEADBD4A90ECF103262E5294CC16D7F12A68618C6DD354867D32730FA840F9470F7216660D37734167E0E868258024B10EF779B83355B43308545388519480FBF53
310
477C45F051D28178D3D0505BF8EDA028ED304D3F3BEAEA03D80CA761A52A43C653F88E7E0ABEF3D5FDC7FB82EF7048EE9463AFC88EC6348764DACE9001BAE1F2DFD69FA4477E60C906B3E369635308D7EC1311375AD472AFD482A45E801391864BCDC8953B0ADECE188E4952646ABD2D4E85094B78B079094A176EBDEB4F6D
310
03E565CA005A631924F790D3546062CD94B6AA40D8AB090A1686B9B2C07DA9D56053446980A3A48845A87D6D8A4D3E20CE084B04AA929A366CEDB59AEC96EE764506C1AB95E4D20052F9B3265C5AF810E2581BBF9CEC3886249AC401851C0CCED27A83714105DE799E33C2760165AC88821D6590478208A727E87794A09EB9
310
1EC9CB73C2B7AD044DCBD23EA96D4800AE80D520E96C55C67CA5534E9EA82833653ED3D9C0D8A1EA506B363C912E44A66801541BA334F381BF182EFDD5DC5EF87EDF1E7AEEC49E8F7CD75EF963D71B5E2DFAE3F94D934F1DADEAF90E5429CA1CC3FFF28722DAC498327820C4C6DBF4DD7B993DAF1D088DCE72E8F6578BC9DC
310
5E4D5637F6F06AE5D9F3A1BFB0AF26E35B7F3E59F90B6FEE709225050F49E6F41D37D02699C6FB535C69EE5EC750286B2E273BADAFA630FFE318DACC098612FFAB41B48A5D2D0561D7202A8E3643280E1F458A0A42A8FA5ADDA711449B7CB4C5B937C665B73770E58FE7F97DD7EF4FFC7165EC6703B5BCE787E35C9B0421F4
310
9D451E24290E69DE9E501BB8748CD36FCA2DBD813742804EF5B7BAE47C9E51970434C27B12ECB0E8125A02E325095A73D89E2559466392C92EEF55F5D7A0E9F6A09832736E8B11D22C88488EBFC7FE64DBD0B06988CD2C807E341713818B554165D0AA0339455174BF90B8A5FC2F4186A394959DEE250CBCBE8640F7386D16
310
279816573C81BD05380FDC2D91838B4BD42BF6757DD0AAB52675FFBBC99F8047D735BF101E7D45F7D2A937F27CF13381A0321E79832BAD884B58E9AB72D1C7B1023ACFF025782674FFD0A9D0ECA6935AC95616D53989A08DC579C13BF9EB78E4BEBA48C5858643D46E7A637128FB37DDC1017AB2813B55DED6AE813A94C630
310
E7EA24C82B295A4D58EA42CEF4C4E8EA0D7E7D56D975AA3F1C2F7F79C55C77BE480E7F2EE300D572198055F4316AEAD6AADBA887B2679C871048EFE5A7BD008FD892EDB13133C8B595E8BA3EBD543DAF45408D60628B459CBD135FD8570CAA86EE39733E94459B53AEAF4562EBC170FAC887C1B449EBF387FB061558E97CFA
310
8BC0883C3728A8D5A5E886CF90FAB63EF6FC0D0A4AA26FEB33C7FF131D8556606D8C06D3E02C611486F2648BF62481EC0D63870EDD068F4826B33218AF0A52FA8D4087D34FE54C35C71BA64F870F1806D34CF56245084351C898D7965A47BFC118544C22E570AAF7086D988A61162A38BDB6C062730ADD566F03E32C393C94
310
D41BE34A706C1CEF45BE2F4F55FF1F8F0974202A1DE5AAF674C1454966381314B6A97C4F00555FF96036FD7ED1353B08E7F07553E49530C785A3340A04FD42A0140EA67E8F0ADE031414E7E5F27A728F0149A7C9FC593B28A9DA39E67B395EAFE13D5F7D71C4647CFD19A5ACD80B759EEB7E0D4AB6E8BA59514EA1A660184A
310
CC148B1A72F9CEF9C21378C514A15B0A46807E3F4CC67F38CB248A92B85C72E6EA4515BA7F80D74E5B478FFCA08D77BD9123A7006AAC1F6C70467A789B3DC202A89653311B2D21360CA08AA63503D01A11BA8063C6FEF50AA9DAA83621A9875D018F9CE9237024F12E47B84D7D436D0009BE005CC987C72F7A61EA701882CF
310
FE05504B03041400060808003659D250DE13B6AC3E01000046050000300000006662782F33434234383035452D384431312D343344342D413038442D3639453232353841433732302F636E782E786D6CCD94C14E032110865F85705F76B751531B96261E7C020FC61BCB4E572C0B1B188C7D7BA1D2AA31351E9AD81B19FE49
310
FE6FE6CFF0F5DB64C82BF8A09DED68CB1A4AC02A37683B7634E2A65A52B216DC3B875F64945839414773990A3E7A17E7521A6023A3C955A3EDB61425A2D77D440894282343E86850CF30492623BA01C2960D12256B9987E0A25790FA514F50FA9507893050B168164DD5DC54EDF2A16D57CDEDEAEAFA89D7592978EF9C297A
310
6D11BC9B8972E961939986D7F95BF0E875D164022A3E9DB15E5B5EA77FC143726BC7A2C3DD9C75F36CB49298C6543B85805512819C78FD2116BCCEBCDFA8EFEF1E0F0EC8A03D28747EF74F03684F0DE0688CA524FC8D7F2FFC1DDBF52F09F7BFB67D12B6D83A1BEA21AD21C5F5E7FE538AA41DCDE585FE68ECFC994FA704B5
310
BA3CE483AF3311D7FB9397969E2FA07807504B03041400060808003659D250E102C1897E000000A30000000B0000006662782F636E782E786D6C4D8CD10E822018465F85FDF71420166D8233F1415CA263223492D6E307CD8BAEBEEDEC3BA7693F9B436F135F367809F4440019FF0893F58B84B4CF58006A551343D8FF6E80
310
FCB8190905836A9618D2F3409399C7E40A75D6AF07ACFA3B17A41EB0D094625E698E3B2234BEDC06C66AD1F55746B2712E4A9E5F2F6FC9AB2F504B03041400060808003659D250A6D797065F0000008200000007000000636E782E786D6C4DCB3B0E80201045D1AD90E9FD7516806B51190811670C8A61F982B1B0BAC9C97B
310
72CA7B1037C6D3332918DA1E04D2CAC69353902EDB8C20262D23F3F59B81A079470595414B17391D1F19B4730A5583A7ED43BBE4025D9592775E5ADFFA01504B03041400060808003659D2504FEB6A7CA0000000F4000000130000005B436F6E74656E745F54797065735D2E786D6C7D8F4B0EC2300C44AF1279DFA6B04008
310
35ED02B8011730C16D239A8F121795DB93D02D6269CFBC19BBED573B8B17C564BC53B0AB1B10E4B47F18372A5878A88E20FAAEBDBD032591BD2E299898C349CAA427B2986A1FC86565F0D122E7318E32A07EE24872DF3407A9BD63725C71C980AEBDD080CBCCE2BAE6F5D69B7110E7CD57AA146008B3D1C8F92C5954F993BB
310
1BF787F39A89ABC491D09600F9FDA2FB00504B03041400060808003659D2503DEE336E64000000790000001B0000006175746F6465736B2D64657369676E2D7061636B6167652E786D6C35CBC10E83200C00D05F21DCA56CA76D41FC96062B120735B69A7DBE268BB7777961F8D5AF396893C2ADB70FE7ADA196782C2DF776
310
D7A97B5933C430F15651E5469C55D70F80A4992A3ADC954792C525AE70A1E4D6AD9816CC044FEFDF01FE3FDE907802504B03041400060808003659D250D3B599FFF9000000960100003B0000006662782F33434234383035452D384431312D343344342D413038442D3639453232353841433732302F7265736F7572636573
310
2F636F72652E786D6C8550496EC3300CFC8AC1BB17B9F116C80ADC347E414FBD0932E3088925434BD1E7578A5DA03DF54462383324879EBE9647F289C64AAD7A205901092AA127A9E61EBCBBA62D2427468DD6EE170D12C517EC21C2C0E86CB45F774868E5504554E90977905B8B0E12F1084D0F56DC70E119F72E30EC3D5B
310
B9B8F31933926D3C46BD97D32E95537093578906587D1E86E13276695B3597F4508C75E86A9256E5D83455F7D69DBB579A4731A34E2E3FDB8541EE70025616659116754ADA77428E45773C541F348F4C46AD33E1E77D69FC0E9841ABBD116869BE4DFFB8FA75FADFD54BE55ECADD75535860241CF91C309AC794427946186A
310
4C947D03504B03041400060808003659D2501B69FFADF2000000B1010000310000006662782F33434234383035452D384431312D343344342D413038442D3639453232353841433732302F636F72652E786D6C8D504B6EC32014BC8AC51E1BB09D920813A5716ED055770888831283C5A7EAF10BB12BB5BBAC1E9A37C3CC1B
310
76FC9E1FD597F6C1383B005C2350692B9D32761A408A57484175E4CC3B17FFD04065C5AC075060C0D9E45D5A36483A1BB52DA8754A6FA008414750C9477E0C20C89B9E452D52CC8C70AF1721EF62D235AE571E67D1CCBF52E9B5885A014E104110ED20A61F181FD0FED0F59FAC294CCE52326AB3322ABB9BABD11EF0F6FCDE
310
51D45F201D31865D3B76F084E80877FB0B213D3D9DDF08624D117316A2CF376F9F94EB5E95AFC27F99D3A25EC86C6C6CC966B82A02E038E7792E386B4A81793CDBCDB394CD7F00504B03041400060808003659D250677C252D54010000DD0200000C0000006662782F636F72652E786D6C8D52CB6E833010FC15E43BCF0612
310
22E3284D932FE8A937C738C40AD8C8D8289FDF350F510E4D2B2458CDEECEEC8CC08767537B3DD79D50B2407110218F4BA64A21AB025973F377C83B10AC95323FC6902769C30BE4604470A5956D27882969B874A854259F40DA75DC208FD55014A86377DED0805A0313DD2368297BD08A077130CE116CAD28A75551029BB809
310
AE11C94EC7E3F17CC9FD5DBA3DFB9BE8924195C57E9A5CB6DB34FFC84FF93B0EDD32C14634B33AD39C1A5E22924449E447991FEF3EE3781FE5FB4DFA85433749706734789E449D3B446ED7270E477CC567DBF26F3E2BA4794B26BE71A3432486F38606C1A1CB073E4378EB0C4118F233F45ACF161E00F59C19A537D029955D
310
5A3DAD2D07EAC81B1E1C8E5D601E087EE3495EF0BCE680A0A8ACE0346AA0BC5AE3D4D737B55CFBBD797A52E986D6CB71E389CB7B115A599AD799AA95FECFF66C750E33743F26F906504B03041400060808003659D25079C9DA4108010000B201000008000000636F72652E786D6C8D50CB6E833010FC156BEF804DC32B328E
310
681ABEA0A7DE5CEC502B60236C47EDDFD70E546A6F3DED6A66766776E9E9739ED05DAE5619DD02493120A90723941E5BF0EE9AD4804E8CAEC6B85F32409ACFB2850803A3E36AFCB24383D14EEA886A23E40E726BA503344CA169C10E1F72E629F72E28EC2D5DF870E3A34C49BAE918756AFE191D56C99D14C0729CE3049709
310
A95F0939E2E67828DE6816958C7AAFC46EA544705757255760E5B9EBBA4BDF2475515D9203EECBD0952429F2BEAA8AE6A53937CF348BC38C5AB7869BF72521A74396DFA32FCD368AD17763A65D10420964F4F4050CD32C127F42FB45FC23B4D2EE29DF176E13161809811E44308E1F0CE5F1DE50E3B7D937504B0102140014
310
00060808003659D2500000000000000000000000003700000000000000000000000000000000006662782F33434234383035452D384431312D343344342D413038442D3639453232353841433732302F617474726962757465732E62696E504B010214001400060808003659D2500000000000000000000000003500000000
310
000000000000000000550000006662782F33434234383035452D384431312D343344342D413038442D3639453232353841433732302F76657274696365732E62696E504B010214001400060808003659D250F270F13306000000040000003600000000000000000000000000A80000006662782F33434234383035452D3844
310
31312D343344342D413038442D3639453232353841433732302F747269616E676C65732E62696E504B010214001400060808003659D25051464CB489000000430100003600000000000000000000000000020100006662782F33434234383035452D384431312D343344342D413038442D3639453232353841433732302F64
310
69726563746F72792E786D6C504B010214001400060808003659D25082B133CC3E070000201C00003400000000000000000000000000DF0100006662782F33434234383035452D384431312D343344342D413038442D3639453232353841433732302F6F626A656374732E786D6C504B010214001400060808003659D250DE
310
13B6AC3E0100004605000030000000000000000000000000006F0900006662782F33434234383035452D384431312D343344342D413038442D3639453232353841433732302F636E782E786D6C504B010214001400060808003659D250E102C1897E000000A30000000B00000000000000000000000000FB0A00006662782F
310
636E782E786D6C504B010214001400060808003659D250A6D797065F000000820000000700000000000000000000000000A20B0000636E782E786D6C504B010214001400060808003659D2504FEB6A7CA0000000F40000001300000000000000000000000000260C00005B436F6E74656E745F54797065735D2E786D6C504B
310
010214001400060808003659D2503DEE336E64000000790000001B00000000000000000000000000F70C00006175746F6465736B2D64657369676E2D7061636B6167652E786D6C504B010214001400060808003659D250D3B599FFF9000000960100003B00000000000000000000000000940D00006662782F334342343830
310
35452D384431312D343344342D413038442D3639453232353841433732302F7265736F75726365732F636F72652E786D6C504B010214001400060808003659D2501B69FFADF2000000B10100003100000000000000000000000000E60E00006662782F33434234383035452D384431312D343344342D413038442D36394532
310
32353841433732302F636F72652E786D6C504B010214001400060808003659D250677C252D54010000DD0200000C00000000000000000000000000271000006662782F636F72652E786D6C504B010214001400060808003659D25079C9DA4108010000B20100000800000000000000000000000000A5110000636F72652E78
310
6D6C504B0506000000000E000E0080040000D31200000000
  0
XRECORD
  5
7EA8
102
{ACAD_REACTORS
330
7EA3
102
}
330
7EA3
100
AcDbXrecord
280
     1
270
     1
271
     1
  0
XRECORD
  5
7EA7
102
{ACAD_REACTORS
330
7EA3
102
}
330
7EA3
100
AcDbXrecord
280
     1
270
     1
271
     1
  0
XRECORD
  5
7EA9
102
{ACAD_REACTORS
330
7EA3
102
}
330
7EA3
100
AcDbXrecord
280
     1
270
     1
271
     1
  0
XRECORD
  5
7EA6
102
{ACAD_REACTORS
330
7EA3
102
}
330
7EA3
100
AcDbXrecord
280
     1
270
     1
271
     1
  0
XRECORD
  5
7F84
102
{ACAD_REACTORS
330
7F4D
102
}
330
7F4D
100
AcDbXrecord
280
     1
102
DISPLAYNAME
  1
Imperial24
102
FLAGS
 90
        0
  0
CELLSTYLEMAP
  5
7F83
102
{ACAD_REACTORS
330
7F82
102
}
330
7F82
100
AcDbCellStyleMap
 90
        3
300
CELLSTYLE
  1
TABLEFORMAT_BEGIN
 90
        5
170
     1
 91
        0
 92
    32768
 62
   257
 93
        1
300
CONTENTFORMAT
  1
CONTENTFORMAT_BEGIN
 90
        0
 91
        0
 92
      512
 93
        0
300

 40
0.0
140
1.0
 94
        5
 62
     0
340
10
144
0.25
309
CONTENTFORMAT_END
171
     0
 94
        0
309
TABLEFORMAT_END
  1
CELLSTYLE_BEGIN
 90
        1
 91
        1
300
_TITLE
309
CELLSTYLE_END
300
CELLSTYLE
  1
TABLEFORMAT_BEGIN
 90
        5
170
     1
 91
        0
 92
        0
 62
   257
 93
        1
300
CONTENTFORMAT
  1
CONTENTFORMAT_BEGIN
 90
        0
 91
        0
 92
      512
 93
        0
300

 40
0.0
140
1.0
 94
        5
 62
     0
340
10
144
0.18
309
CONTENTFORMAT_END
171
     0
 94
        0
309
TABLEFORMAT_END
  1
CELLSTYLE_BEGIN
 90
        2
 91
        1
300
_HEADER
309
CELLSTYLE_END
300
CELLSTYLE
  1
TABLEFORMAT_BEGIN
 90
        5
170
     1
 91
        0
 92
        0
 62
   257
 93
        1
300
CONTENTFORMAT
  1
CONTENTFORMAT_BEGIN
 90
        0
 91
        0
 92
      512
 93
        0
300

 40
0.0
140
1.0
 94
        2
 62
     0
340
10
144
0.18
309
CONTENTFORMAT_END
171
     0
 94
        0
309
TABLEFORMAT_END
  1
CELLSTYLE_BEGIN
 90
        3
 91
        2
300
_DATA
309
CELLSTYLE_END
  0
ENDSEC
  0
SECTION
  2
ACDSDATA
 70
     2
 71
     8
  0
ACDSSCHEMA
 90
        0
  1
AcDb_Thumbnail_Schema
  2
AcDbDs::ID
280
    10
 91
        8
  2
Thumbnail_Data
280
    15
 91
        0
101
ACDSRECORD
 95
        0
 90
        1
  2
AcDbDs::TreatedAsObjectData
280
     1
291
     1
101
ACDSRECORD
 95
        0
 90
        2
  2
AcDbDs::Legacy
280
     1
291
     1
101
ACDSRECORD
  1
AcDbDs::ID
 90
        3
  2
AcDs:Indexable
280
     1
291
     1
101
ACDSRECORD
  1
AcDbDs::ID
 90
        4
  2
AcDbDs::HandleAttribute
280
     7
282
     1
  0
ACDSSCHEMA
 90
        1
  1
AcDbDs::TreatedAsObjectDataSchema
  2
AcDbDs::TreatedAsObjectData
280
     1
 91
        0
  0
ACDSSCHEMA
 90
        2
  1
AcDbDs::LegacySchema
  2
AcDbDs::Legacy
280
     1
 91
        0
  0
ACDSSCHEMA
 90
        3
  1
AcDbDs::IndexedPropertySchema
  2
AcDs:Indexable
280
     1
 91
        0
  0
ACDSSCHEMA
 90
        4
  1
AcDbDs::HandleAttributeSchema
  2
AcDbDs::HandleAttribute
280
     7
 91
        1
284
     1
  0
ACDSRECORD
 90
        0
  2
AcDbDs::ID
280
    10
320
7DB7
  2
Thumbnail_Data
280
    15
 94
     1846
310
89504E470D0A1A0A0000000D49484452000001000000008208030000009EA3E63300000300504C5445000000000000C8C8C80000000000000000000000000000000000000000000000000000330000660000990000CC0000FF0033000033330033660033990033CC0033FF0066000066330066660066990066CC0066FF0099
310
000099330099660099990099CC0099FF00CC0000CC3300CC6600CC9900CCCC00CCFF00FF0000FF3300FF6600FF9900FFCC00FFFF3300003300333300663300993300CC3300FF3333003333333333663333993333CC3333FF3366003366333366663366993366CC3366FF3399003399333399663399993399CC3399FF33CC00
310
33CC3333CC6633CC9933CCCC33CCFF33FF0033FF3333FF6633FF9933FFCC33FFFF6600006600336600666600996600CC6600FF6633006633336633666633996633CC6633FF6666006666336666666666996666CC6666FF6699006699336699666699996699CC6699FF66CC0066CC3366CC6666CC9966CCCC66CCFF66FF0066
310
FF3366FF6666FF9966FFCC66FFFF9900009900339900669900999900CC9900FF9933009933339933669933999933CC9933FF9966009966339966669966999966CC9966FF9999009999339999669999999999CC9999FF99CC0099CC3399CC6699CC9999CCCC99CCFF99FF0099FF3399FF6699FF9999FFCC99FFFFCC0000CC00
310
33CC0066CC0099CC00CCCC00FFCC3300CC3333CC3366CC3399CC33CCCC33FFCC6600CC6633CC6666CC6699CC66CCCC66FFCC9900CC9933CC9966CC9999CC99CCCC99FFCCCC00CCCC33CCCC66CCCC99CCCCCCCCCCFFCCFF00CCFF33CCFF66CCFF99CCFFCCCCFFFFFF0000FF0033FF0066FF0099FF00CCFF00FFFF3300FF3333
310
FF3366FF3399FF33CCFF33FFFF6600FF6633FF6666FF6699FF66CCFF66FFFF9900FF9933FF9966FF9999FF99CCFF99FFFFCC00FFCC33FFCC66FFCC99FFCCCCFFCCFFFFFF00FFFF33FFFF66FFFF99FFFFCCFFFFFF0000000D0D0D1A1A1A2828283535354343435050505D5D5D6B6B6B787878868686939393A1A1A1AEAEAEBB
310
BBBBC9C9C9D6D6D6E4E4E4F1F1F1FFFFFF00000000000000000000000000000000000000000000000000000000000008F1915C000003F14944415478DAED9D576EC3300C86791CBDF0FE97D135F45E47935AB65C2040387EA44DEDC445F999432B15C02F2AAC056A145E9C150A202CCCD50560E1F30A0104DD213086812600
310
FCAB40F886F817B2DFFB9D06E0CB00423B247E1C427AA46F29E74139DAFB3A3F00C99E01402886979FFA970897F22BD8024877B7DDF340BCA05A0AD50DBAD7A14208CC438098D3DF68988F2083C87E93C95912340006802300ED2DC1273CADD373F77A4B8481A595A4EA75957D7D6BC3782974ED26DE0488072FCCAF4D83FE
310
42C8CDA4CD0011BF3430DDDDD0B576427F257400148D05B0CEFD2693C96432994C4488F8F80EFF9158005000B8DB771800C90030CAA5278500B0033041D01302D970B500303ECA931600EEA3F43D2B1D2091A62A90DCBFC500E6776869079410500AA025416500E632A8D2032E0040EDEE00807A0060000C8001D004809603
310
8DBDC15E5AC603F6E6CB07109DDE75FDE0D21C5203A0F605FACE3198074807E07118139C7380EC61F166983B788F6800E5C47CB7F501F09A009C48950768CB012693C96432994CBA559ABB67CD5E69ED639F0DF704C429001120DEF47EFC028017E001D413FC9D0788EC2BBE02301C7DDE2D07C069080CB953920754C34E00
310
480C817700200EA43205B04A667524FC0800FA3494CE1540BBD3D9003A1770E401652E812D8012BDFE6172B4BB8C9CC114022200C41962876DAD00B9CFDD6548CE54002C13E1E0017572B44C08BE00C0730D190550578254027B008B10409695D0B76AE7B3FD71A5283E01A8EB68913F805205A2D17819439605DD01200B67
310
D803B8E4FC7AC13C392EFAACA2FF3CAEE7FC1517D673F7006C1ED00E1E3C40460EC8CD9AC58A08A42B44E61C8043156007A01FF8A9819F568451E3715D05702A83AC0164CB933179C5542976B86C0720FB7640EAC77BDF05B62BFE9F11385C00587800C796E004007253B845C495E39700DA074A880770EC0C7700A20D8ED2
310
B89E4E01800000D16C977FCCB18F0ECE4280E968C81C02B415D87A853749705A5CC9B41D50A2D891964FEBF03C56019008603B242212C0F3E705861C40C41D80A7EEBEFF070AFB139C014CA3C1EE6854B07703F600E8A9FF18C31D00A80600DA018CF341EE706E00045581CE1A7F00602A839B3CC9A3355C3C803259954132
310
F73342F20F53693F4F812E8BF08B219311CDE6B3249E711C78582C74F0F700DACB798100DB197278FB89118900B6EEBDF400499FA9F9CFDF2D3007984C2693C9648A52BFC90AD9626BD833221C5ECE1E40B7AFC88026EFA8D1790CB4ADC78401081B006DB7B9504FD4ADDA6484C00600D96AAD6EBC523759096CF71AB22478
310
98C5F425C13056811AEEA164BC71BB41E149906E48551FB201EC5EA93561CCFCB27340DB7CABBAFF788955816FFC4D7F10F487FA7440DA840000000049454E44AE426082
  0
ENDSEC
  0
EOF
