  0
SECTION
  2
HEADER
  9
$ACADVER
  1
AC1009
  9
$INSBASE
 10
0.0
 20
0.0
 30
0.0
  9
$EXTMIN
 10
248.8841685763542
 20
300.0
 30
0.0
  9
$EXTMAX
 10
1850.0
 20
2786.6522620000001
 30
0.0
  9
$LIMMIN
 10
0.0
 20
0.0
  9
$LIMMAX
 10
297.0
 20
210.0
  9
$ORTHOMODE
 70
     0
  9
$REGENMODE
 70
     1
  9
$FILLMODE
 70
     0
  9
$QTEXTMODE
 70
     0
  9
$MIRRTEXT
 70
     1
  9
$DRAGMODE
 70
     2
  9
$LTSCALE
 40
100.0
  9
$OSMODE
 70
    37
  9
$ATTMODE
 70
     1
  9
$TEXTSIZE
 40
180.0
  9
$TRACEWID
 40
0.05
  9
$TEXTSTYLE
  7
STANDARD
  9
$CLAYER
  8
3
  9
$CELTYPE
  6
BYLAYER
  9
$CECOLOR
 62
   256
  9
$DIMSCALE
 40
10.0
  9
$DIMASZ
 40
2.0
  9
$DIMEXO
 40
0.5
  9
$DIMDLI
 40
10.0
  9
$DIMRND
 40
0.0
  9
$DIMDLE
 40
0.0
  9
$DIMEXE
 40
1.0
  9
$DIMTP
 40
1.0
  9
$DIMTM
 40
1.0
  9
$DIMTXT
 40
3.0
  9
$DIMCEN
 40
0.0
  9
$DIMTSZ
 40
0.0
  9
$DIMTOL
 70
     0
  9
$DIMLIM
 70
     0
  9
$DIMTIH
 70
     0
  9
$DIMTOH
 70
     0
  9
$DIMSE1
 70
     0
  9
$DIMSE2
 70
     0
  9
$DIMTAD
 70
     1
  9
$DIMZIN
 70
     8
  9
$DIMBLK
  1

  9
$DIMASO
 70
     1
  9
$DIMSHO
 70
     1
  9
$DIMPOST
  1

  9
$DIMAPOST
  1

  9
$DIMALT
 70
     0
  9
$DIMALTD
 70
     2
  9
$DIMALTF
 40
0.039
  9
$DIMLFAC
 40
1.0
  9
$DIMTOFL
 70
     1
  9
$DIMTVP
 40
0.0
  9
$DIMTIX
 70
     0
  9
$DIMSOXD
 70
     0
  9
$DIMSAH
 70
     1
  9
$DIMBLK1
  1
OPEN
  9
$DIMBLK2
  1
OPEN
  9
$DIMSTYLE
  2
IGA
  9
$DIMCLRD
 70
     0
  9
$DIMCLRE
 70
     0
  9
$DIMCLRT
 70
     0
  9
$DIMTFAC
 40
10.0
  9
$DIMGAP
 40
1.0
  9
$LUNITS
 70
     2
  9
$LUPREC
 70
     3
  9
$SKETCHINC
 40
0.1
  9
$FILLETRAD
 40
50.0
  9
$AUNITS
 70
     0
  9
$AUPREC
 70
     0
  9
$MENU
  1
acad
  9
$ELEVATION
 40
0.0
  9
$PELEVATION
 40
0.0
  9
$THICKNESS
 40
0.0
  9
$LIMCHECK
 70
     0
  9
$BLIPMODE
 70
     0
  9
$CHAMFERA
 40
0.5
  9
$CHAMFERB
 40
0.5
  9
$SKPOLY
 70
     0
  9
$TDCREATE
 40
2450738.6541193281
  9
$TDUPDATE
 40
2454953.8610344441
  9
$TDINDWG
 40
0.0051165162
  9
$TDUSRTIMER
 40
0.0051165162
  9
$USRTIMER
 70
     1
  9
$ANGBASE
 50
0.0
  9
$ANGDIR
 70
     0
  9
$PDMODE
 70
     0
  9
$PDSIZE
 40
0.0
  9
$PLINEWID
 40
0.0
  9
$COORDS
 70
     1
  9
$SPLFRAME
 70
     0
  9
$SPLINETYPE
 70
     6
  9
$SPLINESEGS
 70
     8
  9
$ATTDIA
 70
     0
  9
$ATTREQ
 70
     1
  9
$HANDLING
 70
 10241
  9
$HANDSEED
  5
7F19
  9
$SURFTAB1
 70
     6
  9
$SURFTAB2
 70
     6
  9
$SURFTYPE
 70
     6
  9
$SURFU
 70
     6
  9
$SURFV
 70
     6
  9
$UCSNAME
  2

  9
$UCSORG
 10
0.0
 20
0.0
 30
0.0
  9
$UCSXDIR
 10
1.0
 20
0.0
 30
0.0
  9
$UCSYDIR
 10
0.0
 20
1.0
 30
0.0
  9
$PUCSNAME
  2

  9
$PUCSORG
 10
0.0
 20
0.0
 30
0.0
  9
$PUCSXDIR
 10
1.0
 20
0.0
 30
0.0
  9
$PUCSYDIR
 10
0.0
 20
1.0
 30
0.0
  9
$USERI1
 70
     0
  9
$USERI2
 70
     0
  9
$USERI3
 70
     0
  9
$USERI4
 70
     0
  9
$USERI5
 70
     0
  9
$USERR1
 40
0.0
  9
$USERR2
 40
0.0
  9
$USERR3
 40
0.0
  9
$USERR4
 40
0.0
  9
$USERR5
 40
0.0
  9
$WORLDVIEW
 70
     1
  9
$SHADEDGE
 70
     3
  9
$SHADEDIF
 70
    70
  9
$TILEMODE
 70
     1
  9
$MAXACTVP
 70
    16
  9
$PLIMCHECK
 70
     0
  9
$PEXTMIN
 10
1.0000000000000000E+020
 20
1.0000000000000000E+020
 30
1.0000000000000000E+020
  9
$PEXTMAX
 10
-1.0000000000000000E+020
 20
-1.0000000000000000E+020
 30
-1.0000000000000000E+020
  9
$PLIMMIN
 10
0.0
 20
0.0
  9
$PLIMMAX
 10
12.0
 20
9.0
  9
$UNITMODE
 70
     0
  9
$VISRETAIN
 70
     0
  9
$PLINEGEN
 70
     0
  9
$PSLTSCALE
 70
     1
  0
ENDSEC
  0
SECTION
  2
TABLES
  0
TABLE
  2
VPORT
 70
     2
  0
VPORT
  2
*ACTIVE
 70
     0
 10
0.0
 20
0.0
 11
1.0
 21
1.0
 12
2697.5931589900861
 22
1815.1186397189331
 13
0.0
 23
0.0
 14
10.0
 24
10.0
 15
10.0
 25
10.0
 16
0.0
 26
0.0
 36
1.0
 17
0.0
 27
0.0
 37
0.0
 40
3552.212848928405
 41
1.5051150895140659
 42
50.0
 43
0.0
 44
0.0
 50
0.0
 51
0.0
 71
     0
 72
   100
 73
     1
 74
     0
 75
     0
 76
     0
 77
     0
 78
     0
  0
ENDTAB
  0
TABLE
  2
LTYPE
 70
     2
  0
LTYPE
  2
CONTINUOUS
 70
     0
  3
Solid line
 72
    65
 73
     0
 40
0.0
  0
LTYPE
  2
CENTER
 70
     0
  3
____ _ ____ _ ____ _ ____ _ ____ _ ____ _ ____ 
 72
    65
 73
     4
 40
2.0
 49
1.25
 49
-0.25
 49
0.25
 49
-0.25
  0
ENDTAB
  0
TABLE
  2
LAYER
 70
     6
  0
LAYER
  2
0
 70
     0
 62
     7
  6
CONTINUOUS
  0
LAYER
  2
3
 70
     0
 62
     2
  6
CONTINUOUS
  0
LAYER
  2
2
 70
     0
 62
     3
  6
CENTER
  0
LAYER
  2
1
 70
     0
 62
     4
  6
CONTINUOUS
  0
LAYER
  2
4
 70
     0
 62
     7
  6
CONTINUOUS
  0
LAYER
  2
DEFPOINTS
 70
     0
 62
     7
  6
CONTINUOUS
  0
ENDTAB
  0
TABLE
  2
STYLE
 70
     1
  0
STYLE
  2
STANDARD
 70
     0
 40
0.0
 41
1.0
 50
0.0
 71
     0
 42
180.0
  3
simplex.shx
  4
extfont.shx
  0
ENDTAB
  0
TABLE
  2
VIEW
 70
     0
  0
ENDTAB
  0
TABLE
  2
UCS
 70
     0
  0
ENDTAB
  0
TABLE
  2
APPID
 70
     1
  0
APPID
  2
ACAD
 70
     0
  0
ENDTAB
  0
TABLE
  2
DIMSTYLE
 70
     1
  0
DIMSTYLE
  2
IGA
 70
     0
  3

  4

  5

  6
OPEN
  7
OPEN
 40
2.0
 41
2.0
 42
0.5
 43
10.0
 44
1.0
 45
0.0
 46
0.0
 47
1.0
 48
1.0
140
3.0
141
0.0
142
0.0
143
0.03937
144
1.0
145
0.0
146
10.0
147
1.0
 71
     0
 72
     0
 73
     0
 74
     0
 75
     0
 76
     0
 77
     1
 78
     8
170
     0
171
     2
172
     0
173
     1
174
     0
175
     0
176
     0
177
     0
178
     0
  0
ENDTAB
  0
ENDSEC
  0
SECTION
  2
BLOCKS
  0
BLOCK
  8
0
  2
$MODEL_SPACE
 70
     0
 10
0.0
 20
0.0
 30
0.0
  3
$MODEL_SPACE
  1

  0
ENDBLK
  5
1B
  8
0
  0
BLOCK
 67
     1
  8
0
  2
$PAPER_SPACE
 70
     0
 10
0.0
 20
0.0
 30
0.0
  3
$PAPER_SPACE
  1

  0
ENDBLK
  5
18
 67
     1
  8
0
  0
BLOCK
  8
0
  2
_OPEN
 70
     0
 10
0.0
 20
0.0
 30
0.0
  3
_OPEN
  1

  0
LINE
  5
7B45
  8
0
  6
BYBLOCK
 62
     0
 10
-1.0
 20
0.166667
 30
0.0
 11
0.0
 21
0.0
 31
0.0
  0
LINE
  5
7B46
  8
0
  6
BYBLOCK
 62
     0
 10
0.0
 20
0.0
 30
0.0
 11
-1.0
 21
-0.166667
 31
0.0
  0
LINE
  5
7B47
  8
0
  6
BYBLOCK
 62
     0
 10
0.0
 20
0.0
 30
0.0
 11
-1.0
 21
0.0
 31
0.0
  0
ENDBLK
  5
7B48
  8
0
  0
BLOCK
  8
0
  2
*D1
 70
     1
 10
0.0
 20
0.0
 30
0.0
  3
*D1
  1

  0
LINE
  5
7E4F
  8
3
  6
CONTINUOUS
 62
     0
 10
505.09130157635423
 20
716.19584505358227
 30
0.0
 11
505.09130157635423
 21
661.50561605358223
 31
0.0
  0
LINE
  5
7E50
  8
3
  6
CONTINUOUS
 62
     0
 10
690.09130157635411
 20
741.19584505358227
 30
0.0
 11
690.09130157635411
 21
661.50561605358223
 31
0.0
  0
LINE
  5
7E51
  8
3
  6
CONTINUOUS
 62
     0
 10
525.09130157635423
 20
671.50561605358223
 30
0.0
 11
670.09130157635411
 21
671.50561605358223
 31
0.0
  0
INSERT
  5
7E52
  8
3
  6
CONTINUOUS
 62
     0
  2
_OPEN
 10
505.09130157635423
 20
671.50561605358223
 30
0.0
 41
20.0
 42
20.0
 43
20.0
 50
180.0
  0
INSERT
  5
7E53
  8
3
  6
CONTINUOUS
 62
     0
  2
_OPEN
 10
690.09130157635411
 20
671.50561605358223
 30
0.0
 41
20.0
 42
20.0
 43
20.0
  0
TEXT
  8
3
  40
30
  5
7F04
  62
0
  72
0
  71
0
 10
533.821
 20
643.406
 30
0.000000
  1
185
  0
POINT
  5
7E55
  8
DEFPOINTS
  6
CONTINUOUS
 62
     0
 10
505.09130157635423
 20
721.19584505358216
 30
0.0
  0
POINT
  5
7E56
  8
DEFPOINTS
  6
CONTINUOUS
 62
     0
 10
690.09130157635411
 20
746.19584505358216
 30
0.0
  0
POINT
  5
7E57
  8
DEFPOINTS
  6
CONTINUOUS
 62
     0
 10
690.09130157635411
 20
671.50561605358223
 30
0.0
  0
ENDBLK
  5
7B55
  8
0
  0
BLOCK
  8
0
  2
*D2
 70
     1
 10
0.0
 20
0.0
 30
0.0
  3
*D2
  1

  0
LINE
  5
7E58
  8
3
  6
CONTINUOUS
 62
     0
 10
1185.091301576354
 20
716.19584505358227
 30
0.0
 11
1185.091301576354
 21
661.50561605358223
 31
0.0
  0
LINE
  5
7E59
  8
3
  6
CONTINUOUS
 62
     0
 10
710.091301576354
 20
671.50561605358223
 30
0.0
 11
1165.091301576354
 21
671.50561605358223
 31
0.0
  0
INSERT
  5
7E5A
  8
3
  6
CONTINUOUS
 62
     0
  2
_OPEN
 10
690.09130157635411
 20
671.50561605358223
 30
0.0
 41
20.0
 42
20.0
 43
20.0
 50
180.0
  0
INSERT
  5
7E5B
  8
3
  6
CONTINUOUS
 62
     0
  2
_OPEN
 10
1185.091301576354
 20
671.50561605358223
 30
0.0
 41
20.0
 42
20.0
 43
20.0
  0
TEXT
  8
3
  40
30
  5
7F05
  62
0
  72
0
  71
0
 10
877.591
 20
643.406
 30
0.000000
  1
495
  0
POINT
  5
7E5D
  8
DEFPOINTS
  6
CONTINUOUS
 62
     0
 10
690.09130157635411
 20
746.19584505358216
 30
0.0
  0
POINT
  5
7E5E
  8
DEFPOINTS
  6
CONTINUOUS
 62
     0
 10
1185.091301576354
 20
721.19584505358216
 30
0.0
  0
POINT
  5
7E5F
  8
DEFPOINTS
  6
CONTINUOUS
 62
     0
 10
1185.091301576354
 20
671.50561605358223
 30
0.0
  0
ENDBLK
  5
7B61
  8
0
  0
BLOCK
  8
0
  2
*D3
 70
     1
 10
0.0
 20
0.0
 30
0.0
  3
*D3
  1

  0
LINE
  5
7E60
  8
3
  6
CONTINUOUS
 62
     0
 10
530.09130157635423
 20
1094.1958450535819
 30
0.0
 11
530.09130157635423
 21
1266.156502053582
 31
0.0
  0
LINE
  5
7E61
  8
3
  6
CONTINUOUS
 62
     0
 10
690.09130157635411
 20
1223.763034053582
 30
0.0
 11
690.09130157635411
 21
1266.156502053582
 31
0.0
  0
LINE
  5
7E62
  8
3
  6
CONTINUOUS
 62
     0
 10
550.09130157635423
 20
1256.156502053582
 30
0.0
 11
670.09130157635411
 21
1256.156502053582
 31
0.0
  0
INSERT
  5
7E63
  8
3
  6
CONTINUOUS
 62
     0
  2
_OPEN
 10
530.09130157635423
 20
1256.156502053582
 30
0.0
 41
20.0
 42
20.0
 43
20.0
 50
180.0
  0
INSERT
  5
7E64
  8
3
  6
CONTINUOUS
 62
     0
  2
_OPEN
 10
690.09130157635411
 20
1256.156502053582
 30
0.0
 41
20.0
 42
20.0
 43
20.0
  0
TEXT
  8
3
  40
30
  5
7F06
  62
0
  72
0
  71
0
 10
550.655
 20
1228.06
 30
0.000000
  1
160
  0
POINT
  5
7E66
  8
DEFPOINTS
  6
CONTINUOUS
 62
     0
 10
530.09130157635423
 20
1089.1958450535819
 30
0.0
  0
POINT
  5
7E67
  8
DEFPOINTS
  6
CONTINUOUS
 62
     0
 10
690.09130157635411
 20
1218.763034053582
 30
0.0
  0
POINT
  5
7E68
  8
DEFPOINTS
  6
CONTINUOUS
 62
     0
 10
690.09130157635411
 20
1256.156502053582
 30
0.0
  0
ENDBLK
  5
7B6E
  8
0
  0
BLOCK
  8
0
  2
*D4
 70
     1
 10
0.0
 20
0.0
 30
0.0
  3
*D4
  1

  0
LINE
  5
7E69
  8
3
  6
CONTINUOUS
 62
     0
 10
869.09130157635411
 20
1073.1958450535819
 30
0.0
 11
869.09130157635411
 21
1266.156502053582
 31
0.0
  0
LINE
  5
7E6A
  8
3
  6
CONTINUOUS
 62
     0
 10
710.091301576354
 20
1256.156502053582
 30
0.0
 11
849.091301576354
 21
1256.156502053582
 31
0.0
  0
INSERT
  5
7E6B
  8
3
  6
CONTINUOUS
 62
     0
  2
_OPEN
 10
690.09130157635411
 20
1256.156502053582
 30
0.0
 41
20.0
 42
20.0
 43
20.0
 50
180.0
  0
INSERT
  5
7E6C
  8
3
  6
CONTINUOUS
 62
     0
  2
_OPEN
 10
869.09130157635411
 20
1256.156502053582
 30
0.0
 41
20.0
 42
20.0
 43
20.0
  0
TEXT
  8
3
  40
30
  5
7F07
  62
0
  72
0
  71
0
 10
719.591
 20
1228.06
 30
0.000000
  1
179
  0
POINT
  5
7E6E
  8
DEFPOINTS
  6
CONTINUOUS
 62
     0
 10
690.09130157635411
 20
1218.763034053582
 30
0.0
  0
POINT
  5
7E6F
  8
DEFPOINTS
  6
CONTINUOUS
 62
     0
 10
869.09130157635411
 20
1068.1958450535819
 30
0.0
  0
POINT
  5
7E70
  8
DEFPOINTS
  6
CONTINUOUS
 62
     0
 10
869.09130157635411
 20
1256.156502053582
 30
0.0
  0
ENDBLK
  5
7D42
  8
0
  0
BLOCK
  8
0
  2
*D5
 70
     1
 10
0.0
 20
0.0
 30
0.0
  3
*D5
  1

  0
LINE
  5
7E71
  8
3
  6
CONTINUOUS
 62
     0
 10
525.09130157635423
 20
1068.1958450535819
 30
0.0
 11
459.04620457635428
 21
1068.1958450535819
 31
0.0
  0
LINE
  5
7E72
  8
3
  6
CONTINUOUS
 62
     0
 10
525.09130157635423
 20
868.19584505358227
 30
0.0
 11
459.04620457635423
 21
868.19584505358227
 31
0.0
  0
LINE
  5
7E73
  8
3
  6
CONTINUOUS
 62
     0
 10
469.04620457635428
 20
1048.1958450535819
 30
0.0
 11
469.04620457635428
 21
888.19584505358216
 31
0.0
  0
INSERT
  5
7E74
  8
3
  6
CONTINUOUS
 62
     0
  2
_OPEN
 10
469.04620457635428
 20
1068.1958450535819
 30
0.0
 41
20.0
 42
20.0
 43
20.0
 50
90.0
  0
INSERT
  5
7E75
  8
3
  6
CONTINUOUS
 62
     0
  2
_OPEN
 10
469.04620457635428
 20
868.19584505358227
 30
0.0
 41
20.0
 42
20.0
 43
20.0
 50
270.0
  0
TEXT
  8
3
  40
30
  5
7F08
  62
0
  72
0
  71
0
 10
384.046
 20
919.434
 30
0.000000
  1
200
  0
POINT
  5
7E77
  8
DEFPOINTS
  6
CONTINUOUS
 62
     0
 10
530.09130157635423
 20
1068.1958450535819
 30
0.0
  0
POINT
  5
7E78
  8
DEFPOINTS
  6
CONTINUOUS
 62
     0
 10
530.09130157635423
 20
868.19584505358227
 30
0.0
  0
POINT
  5
7E79
  8
DEFPOINTS
  6
CONTINUOUS
 62
     0
 10
469.04620457635428
 20
868.19584505358227
 30
0.0
  0
ENDBLK
  5
7B87
  8
0
  0
BLOCK
  8
0
  2
*D6
 70
     1
 10
0.0
 20
0.0
 30
0.0
  3
*D6
  1

  0
LINE
  5
7E7A
  8
3
  6
CONTINUOUS
 62
     0
 10
525.09130157635423
 20
1068.1958450535819
 30
0.0
 11
402.94511957635427
 21
1068.1958450535819
 31
0.0
  0
LINE
  5
7E7B
  8
3
  6
CONTINUOUS
 62
     0
 10
540.09130157635423
 20
857.19584505358216
 30
0.0
 11
402.94511957635427
 21
857.19584505358216
 31
0.0
  0
LINE
  5
7E7C
  8
3
  6
CONTINUOUS
 62
     0
 10
412.94511957635427
 20
1048.1958450535819
 30
0.0
 11
412.94511957635422
 21
877.19584505358227
 31
0.0
  0
INSERT
  5
7E7D
  8
3
  6
CONTINUOUS
 62
     0
  2
_OPEN
 10
412.94511957635427
 20
1068.1958450535819
 30
0.0
 41
20.0
 42
20.0
 43
20.0
 50
90.0
  0
INSERT
  5
7E7E
  8
3
  6
CONTINUOUS
 62
     0
  2
_OPEN
 10
412.94511957635422
 20
857.19584505358216
 30
0.0
 41
20.0
 42
20.0
 43
20.0
 50
270.0
  0
TEXT
  8
3
  40
30
  5
7F09
  62
0
  72
0
  71
0
 10
327.945
 20
913.511
 30
0.000000
  1
211
  0
POINT
  5
7E80
  8
DEFPOINTS
  6
CONTINUOUS
 62
     0
 10
530.09130157635423
 20
1068.1958450535819
 30
0.0
  0
POINT
  5
7E81
  8
DEFPOINTS
  6
CONTINUOUS
 62
     0
 10
545.09130157635423
 20
857.19584505358216
 30
0.0
  0
POINT
  5
7E82
  8
DEFPOINTS
  6
CONTINUOUS
 62
     0
 10
412.94511957635422
 20
857.19584505358216
 30
0.0
  0
ENDBLK
  5
7B94
  8
0
  0
BLOCK
  8
0
  2
*D7
 70
     1
 10
0.0
 20
0.0
 30
0.0
  3
*D7
  1

  0
LINE
  5
7E83
  8
3
  6
CONTINUOUS
 62
     0
 10
685.091301576354
 20
1218.763034053582
 30
0.0
 11
342.73906957635438
 21
1218.763034053582
 31
0.0
  0
LINE
  5
7E84
  8
3
  6
CONTINUOUS
 62
     0
 10
525.09130157635423
 20
1068.1958450535819
 30
0.0
 11
342.73906957635432
 21
1068.1958450535819
 31
0.0
  0
LINE
  5
7E85
  8
3
  6
CONTINUOUS
 62
     0
 10
352.73906957635432
 20
1198.763034053582
 30
0.0
 11
352.73906957635432
 21
1088.1958450535819
 31
0.0
  0
INSERT
  5
7E86
  8
3
  6
CONTINUOUS
 62
     0
  2
_OPEN
 10
352.73906957635432
 20
1218.763034053582
 30
0.0
 41
20.0
 42
20.0
 43
20.0
 50
90.0
  0
INSERT
  5
7E87
  8
3
  6
CONTINUOUS
 62
     0
  2
_OPEN
 10
352.73906957635432
 20
1068.1958450535819
 30
0.0
 41
20.0
 42
20.0
 43
20.0
 50
270.0
  0
TEXT
  8
3
  40
30
  5
7F0A
  62
0
  72
0
  71
0
 10
267.739
 20
1106.38
 30
0.000000
  1
151
  0
POINT
  5
7E89
  8
DEFPOINTS
  6
CONTINUOUS
 62
     0
 10
690.09130157635411
 20
1218.763034053582
 30
0.0
  0
POINT
  5
7E8A
  8
DEFPOINTS
  6
CONTINUOUS
 62
     0
 10
530.09130157635423
 20
1068.1958450535819
 30
0.0
  0
POINT
  5
7E8B
  8
DEFPOINTS
  6
CONTINUOUS
 62
     0
 10
352.73906957635432
 20
1068.1958450535819
 30
0.0
  0
ENDBLK
  5
7BA1
  8
0
  0
BLOCK
  8
0
  2
*D8
 70
     1
 10
0.0
 20
0.0
 30
0.0
  3
*D8
  1

  0
LINE
  5
7E8C
  8
3
  6
CONTINUOUS
 62
     0
 10
525.09130157635423
 20
793.19584505358216
 30
0.0
 11
342.7390695763541
 21
793.19584505358216
 31
0.0
  0
LINE
  5
7E8D
  8
3
  6
CONTINUOUS
 62
     0
 10
352.73906957635421
 20
1048.1958450535819
 30
0.0
 11
352.7390695763541
 21
813.19584505358216
 31
0.0
  0
INSERT
  5
7E8E
  8
3
  6
CONTINUOUS
 62
     0
  2
_OPEN
 10
352.73906957635421
 20
1068.1958450535819
 30
0.0
 41
20.0
 42
20.0
 43
20.0
 50
90.0
  0
INSERT
  5
7E8F
  8
3
  6
CONTINUOUS
 62
     0
  2
_OPEN
 10
352.7390695763541
 20
793.19584505358216
 30
0.0
 41
20.0
 42
20.0
 43
20.0
 50
270.0
  0
TEXT
  8
3
  40
30
  5
7F0B
  62
0
  72
0
  71
0
 10
267.739
 20
877.596
 30
0.000000
  1
275
  0
POINT
  5
7E91
  8
DEFPOINTS
  6
CONTINUOUS
 62
     0
 10
530.09130157635423
 20
1068.1958450535819
 30
0.0
  0
POINT
  5
7E92
  8
DEFPOINTS
  6
CONTINUOUS
 62
     0
 10
530.09130157635423
 20
793.19584505358216
 30
0.0
  0
POINT
  5
7E93
  8
DEFPOINTS
  6
CONTINUOUS
 62
     0
 10
352.7390695763541
 20
793.19584505358216
 30
0.0
  0
ENDBLK
  5
7BAD
  8
0
  0
BLOCK
  8
0
  2
*D9
 70
     1
 10
0.0
 20
0.0
 30
0.0
  3
*D9
  1

  0
LINE
  5
7E94
  8
3
  6
CONTINUOUS
 62
     0
 10
500.09130157635423
 20
746.19584505358216
 30
0.0
 11
342.7390695763541
 21
746.19584505358216
 31
0.0
  0
LINE
  5
7E95
  8
3
  6
CONTINUOUS
 62
     0
 10
352.7390695763541
 20
813.19584505358216
 30
0.0
 11
352.7390695763541
 21
833.19584505358216
 31
0.0
  0
LINE
  5
7E96
  8
3
  6
CONTINUOUS
 62
     0
 10
352.7390695763541
 20
726.19584505358216
 30
0.0
 11
352.7390695763541
 21
706.19584505358216
 31
0.0
  0
TEXT
  8
3
  40
30
  5
7F0C
  62
0
  72
0
  71
0
 10
267.739
 20
722.137
 30
0.000000
  1
47
  0
LINE
  5
7E98
  8
3
  6
CONTINUOUS
 62
     0
 10
352.7390695763541
 20
793.19584505358216
 30
0.0
 11
352.7390695763541
 21
746.19584505358216
 31
0.0
  0
INSERT
  5
7E99
  8
3
  6
CONTINUOUS
 62
     0
  2
_OPEN
 10
352.7390695763541
 20
793.19584505358216
 30
0.0
 41
20.0
 42
20.0
 43
20.0
 50
270.0
  0
INSERT
  5
7E9A
  8
3
  6
CONTINUOUS
 62
     0
  2
_DOT
 10
352.7390695763541
 20
746.19584505358216
 30
0.0
 41
20.0
 42
20.0
 43
20.0
 50
90.0
  0
POINT
  5
7E9B
  8
DEFPOINTS
  6
CONTINUOUS
 62
     0
 10
530.09130157635423
 20
793.19584505358216
 30
0.0
  0
POINT
  5
7E9C
  8
DEFPOINTS
  6
CONTINUOUS
 62
     0
 10
505.09130157635423
 20
746.19584505358216
 30
0.0
  0
POINT
  5
7E9D
  8
DEFPOINTS
  6
CONTINUOUS
 62
     0
 10
352.7390695763541
 20
746.19584505358216
 30
0.0
  0
ENDBLK
  5
7D21
  8
0
  0
BLOCK
  8
0
  2
*D10
 70
     1
 10
0.0
 20
0.0
 30
0.0
  3
*D10
  1

  0
LINE
  5
7E9E
  8
3
  6
CONTINUOUS
 62
     0
 10
500.09130157635423
 20
746.19584505358216
 30
0.0
 11
342.73906957635421
 21
746.19584505358216
 31
0.0
  0
LINE
  5
7E9F
  8
3
  6
CONTINUOUS
 62
     0
 10
500.09130157635423
 20
721.19584505358216
 30
0.0
 11
342.73906957635421
 21
721.19584505358216
 31
0.0
  0
LINE
  5
7EA0
  8
3
  6
CONTINUOUS
 62
     0
 10
352.73906957635421
 20
766.19584505358227
 30
0.0
 11
352.73906957635421
 21
786.19584505358227
 31
0.0
  0
LINE
  5
7EA1
  8
3
  6
CONTINUOUS
 62
     0
 10
352.73906957635421
 20
701.19584505358216
 30
0.0
 11
352.73906957635421
 21
612.62441648215372
 31
0.0
  0
LINE
  5
7EA2
  8
3
  6
CONTINUOUS
 62
     0
 10
352.73906957635421
 20
746.19584505358216
 30
0.0
 11
352.73906957635421
 21
721.19584505358216
 31
0.0
  0
INSERT
  5
7EA3
  8
3
  6
CONTINUOUS
 62
     0
  2
_DOT
 10
352.73906957635421
 20
746.19584505358216
 30
0.0
 41
20.0
 42
20.0
 43
20.0
 50
270.0
  0
INSERT
  5
7EA4
  8
3
  6
CONTINUOUS
 62
     0
  2
_OPEN
 10
352.73906957635421
 20
721.19584505358216
 30
0.0
 41
20.0
 42
20.0
 43
20.0
 50
90.0
  0
TEXT
  8
3
  40
30
  5
7F0D
  62
0
  72
0
  71
0
 10
267.739
 20
593.810
 30
0.000000
  1
25
  0
POINT
  5
7EA6
  8
DEFPOINTS
  6
CONTINUOUS
 62
     0
 10
505.09130157635423
 20
746.19584505358216
 30
0.0
  0
POINT
  5
7EA7
  8
DEFPOINTS
  6
CONTINUOUS
 62
     0
 10
505.09130157635423
 20
721.19584505358216
 30
0.0
  0
POINT
  5
7EA8
  8
DEFPOINTS
  6
CONTINUOUS
 62
     0
 10
352.73906957635421
 20
721.19584505358216
 30
0.0
  0
ENDBLK
  5
7D2E
  8
0
  0
BLOCK
  8
0
  2
*D11
 70
     1
 10
0.0
 20
0.0
 30
0.0
  3
*D11
  1

  0
LINE
  5
7EA9
  8
3
  6
CONTINUOUS
 62
     0
 10
685.091301576354
 20
1218.763034053582
 30
0.0
 11
278.8841685763544
 21
1218.763034053582
 31
0.0
  0
LINE
  5
7EAA
  8
3
  6
CONTINUOUS
 62
     0
 10
500.09130157635423
 20
721.19584505358216
 30
0.0
 11
278.88416857635428
 21
721.19584505358216
 31
0.0
  0
LINE
  5
7EAB
  8
3
  6
CONTINUOUS
 62
     0
 10
288.8841685763544
 20
1198.763034053582
 30
0.0
 11
288.88416857635428
 21
741.19584505358227
 31
0.0
  0
INSERT
  5
7EAC
  8
3
  6
CONTINUOUS
 62
     0
  2
_OPEN
 10
288.8841685763544
 20
1218.763034053582
 30
0.0
 41
20.0
 42
20.0
 43
20.0
 50
90.0
  0
INSERT
  5
7EAD
  8
3
  6
CONTINUOUS
 62
     0
  2
_OPEN
 10
288.88416857635428
 20
721.19584505358216
 30
0.0
 41
20.0
 42
20.0
 43
20.0
 50
270.0
  0
TEXT
  8
3
  40
30
  5
7F0E
  62
0
  72
0
  71
0
 10
203.884
 20
924.446
 30
0.000000
  1
498
  0
POINT
  5
7EAF
  8
DEFPOINTS
  6
CONTINUOUS
 62
     0
 10
690.09130157635411
 20
1218.763034053582
 30
0.0
  0
POINT
  5
7EB0
  8
DEFPOINTS
  6
CONTINUOUS
 62
     0
 10
505.09130157635423
 20
721.19584505358216
 30
0.0
  0
POINT
  5
7EB1
  8
DEFPOINTS
  6
CONTINUOUS
 62
     0
 10
288.88416857635428
 20
721.19584505358216
 30
0.0
  0
ENDBLK
  5
7C00
  8
0
  0
BLOCK
  8
0
  2
*D12
 70
     1
 10
0.0
 20
0.0
 30
0.0
  3
*D12
  1

  0
LINE
  5
7EB2
  8
3
  6
CONTINUOUS
 62
     0
 10
505.09130157635423
 20
1736.050829874107
 30
0.0
 11
505.09130157635423
 21
1618.4167838741071
 31
0.0
  0
LINE
  5
7EB3
  8
3
  6
CONTINUOUS
 62
     0
 10
1185.091301576354
 20
1736.050829874107
 30
0.0
 11
1185.091301576354
 21
1618.4167838741071
 31
0.0
  0
LINE
  5
7EB4
  8
3
  6
CONTINUOUS
 62
     0
 10
525.09130157635423
 20
1628.4167838741071
 30
0.0
 11
1165.091301576354
 21
1628.4167838741071
 31
0.0
  0
INSERT
  5
7EB5
  8
3
  6
CONTINUOUS
 62
     0
  2
_OPEN
 10
505.09130157635423
 20
1628.4167838741071
 30
0.0
 41
20.0
 42
20.0
 43
20.0
 50
180.0
  0
INSERT
  5
7EB6
  8
3
  6
CONTINUOUS
 62
     0
  2
_OPEN
 10
1185.091301576354
 20
1628.4167838741071
 30
0.0
 41
20.0
 42
20.0
 43
20.0
  0
TEXT
  8
3
  40
30
  5
7F0F
  62
0
  72
0
  71
0
 10
771.651
 20
1600.32
 30
0.000000
  1
680
  0
POINT
  5
7EB8
  8
DEFPOINTS
  6
CONTINUOUS
 62
     0
 10
505.09130157635423
 20
1741.050829874107
 30
0.0
  0
POINT
  5
7EB9
  8
DEFPOINTS
  6
CONTINUOUS
 62
     0
 10
1185.091301576354
 20
1741.050829874107
 30
0.0
  0
POINT
  5
7EBA
  8
DEFPOINTS
  6
CONTINUOUS
 62
     0
 10
1185.091301576354
 20
1628.4167838741071
 30
0.0
  0
ENDBLK
  5
7C1A
  8
0
  0
BLOCK
  8
0
  2
*D13
 70
     1
 10
0.0
 20
0.0
 30
0.0
  3
*D13
  1

  0
LINE
  5
7EBB
  8
3
  6
CONTINUOUS
 62
     0
 10
1190.091301576354
 20
2171.050829874107
 30
0.0
 11
1290.4595245763539
 21
2171.050829874107
 31
0.0
  0
LINE
  5
7EBC
  8
3
  6
CONTINUOUS
 62
     0
 10
1190.091301576354
 20
1741.050829874107
 30
0.0
 11
1290.4595245763539
 21
1741.050829874107
 31
0.0
  0
LINE
  5
7EBD
  8
3
  6
CONTINUOUS
 62
     0
 10
1280.4595245763539
 20
2151.050829874107
 30
0.0
 11
1280.4595245763539
 21
1761.050829874107
 31
0.0
  0
INSERT
  5
7EBE
  8
3
  6
CONTINUOUS
 62
     0
  2
_OPEN
 10
1280.4595245763539
 20
2171.050829874107
 30
0.0
 41
20.0
 42
20.0
 43
20.0
 50
90.0
  0
INSERT
  5
7EBF
  8
3
  6
CONTINUOUS
 62
     0
  2
_OPEN
 10
1280.4595245763539
 20
1741.050829874107
 30
0.0
 41
20.0
 42
20.0
 43
20.0
 50
270.0
  0
TEXT
  8
3
  40
30
  5
7F10
  62
0
  72
0
  71
0
 10
1195.46
 20
1892.45
 30
0.000000
  1
430
  0
POINT
  5
7EC1
  8
DEFPOINTS
  6
CONTINUOUS
 62
     0
 10
1185.091301576354
 20
2171.050829874107
 30
0.0
  0
POINT
  5
7EC2
  8
DEFPOINTS
  6
CONTINUOUS
 62
     0
 10
1185.091301576354
 20
1741.050829874107
 30
0.0
  0
POINT
  5
7EC3
  8
DEFPOINTS
  6
CONTINUOUS
 62
     0
 10
1280.4595245763539
 20
1741.050829874107
 30
0.0
  0
ENDBLK
  5
7C27
  8
0
  0
BLOCK
  8
0
  2
*D14
 70
     1
 10
0.0
 20
0.0
 30
0.0
  3
*D14
  1

  0
LINE
  5
7EC4
  8
3
  6
CONTINUOUS
 62
     0
 10
1591.1510831181811
 20
1212.1958450535819
 30
0.0
 11
1591.1510831181811
 21
1274.966443053582
 31
0.0
  0
LINE
  5
7EC5
  8
3
  6
CONTINUOUS
 62
     0
 10
1731.1510831181811
 20
1212.1958450535819
 30
0.0
 11
1731.1510831181811
 21
1274.966443053582
 31
0.0
  0
LINE
  5
7EC6
  8
3
  6
CONTINUOUS
 62
     0
 10
1611.1510831181811
 20
1264.966443053582
 30
0.0
 11
1711.1510831181811
 21
1264.966443053582
 31
0.0
  0
INSERT
  5
7EC7
  8
3
  6
CONTINUOUS
 62
     0
  2
_OPEN
 10
1591.1510831181811
 20
1264.966443053582
 30
0.0
 41
20.0
 42
20.0
 43
20.0
 50
180.0
  0
INSERT
  5
7EC8
  8
3
  6
CONTINUOUS
 62
     0
  2
_OPEN
 10
1731.1510831181811
 20
1264.966443053582
 30
0.0
 41
20.0
 42
20.0
 43
20.0
  0
TEXT
  8
3
  40
30
  5
7F11
  62
0
  72
0
  71
0
 10
1596.87
 20
1236.87
 30
0.000000
  1
140
  0
POINT
  5
7ECA
  8
DEFPOINTS
  6
CONTINUOUS
 62
     0
 10
1591.1510831181811
 20
1207.1958450535819
 30
0.0
  0
POINT
  5
7ECB
  8
DEFPOINTS
  6
CONTINUOUS
 62
     0
 10
1731.1510831181811
 20
1207.1958450535819
 30
0.0
  0
POINT
  5
7ECC
  8
DEFPOINTS
  6
CONTINUOUS
 62
     0
 10
1731.1510831181811
 20
1264.966443053582
 30
0.0
  0
ENDBLK
  5
7C39
  8
0
  0
BLOCK
  8
0
  2
*D15
 70
     1
 10
0.0
 20
0.0
 30
0.0
  3
*D15
  1

  0
LINE
  5
7ECD
  8
3
  6
CONTINUOUS
 62
     0
 10
1361.1510831181811
 20
1183.1958450535819
 30
0.0
 11
1361.1510831181811
 21
1333.2897890535819
 31
0.0
  0
LINE
  5
7ECE
  8
3
  6
CONTINUOUS
 62
     0
 10
1661.1510831181811
 20
1313.7694270535819
 30
0.0
 11
1661.1510831181811
 21
1333.2897890535819
 31
0.0
  0
LINE
  5
7ECF
  8
3
  6
CONTINUOUS
 62
     0
 10
1381.1510831181811
 20
1323.2897890535819
 30
0.0
 11
1641.1510831181811
 21
1323.2897890535819
 31
0.0
  0
INSERT
  5
7ED0
  8
3
  6
CONTINUOUS
 62
     0
  2
_OPEN
 10
1361.1510831181811
 20
1323.2897890535819
 30
0.0
 41
20.0
 42
20.0
 43
20.0
 50
180.0
  0
INSERT
  5
7ED1
  8
3
  6
CONTINUOUS
 62
     0
  2
_OPEN
 10
1661.1510831181811
 20
1323.2897890535819
 30
0.0
 41
20.0
 42
20.0
 43
20.0
  0
TEXT
  8
3
  40
30
  5
7F12
  62
0
  72
0
  71
0
 10
1453.81
 20
1320.19
 30
0.000000
  1
MAX
  0
TEXT
  8
3
  40
30
  5
7F13
  62
0
  72
0
  71
0
 10
1453.81
 20
1281.19
 30
0.000000
  1
300
  0
POINT
  5
7ED3
  8
DEFPOINTS
  6
CONTINUOUS
 62
     0
 10
1361.1510831181811
 20
1178.1958450535819
 30
0.0
  0
POINT
  5
7ED4
  8
DEFPOINTS
  6
CONTINUOUS
 62
     0
 10
1661.1510831181811
 20
1308.7694270535819
 30
0.0
  0
POINT
  5
7ED5
  8
DEFPOINTS
  6
CONTINUOUS
 62
     0
 10
1661.1510831181811
 20
1323.2897890535819
 30
0.0
  0
ENDBLK
  5
7CD4
  8
0
  0
BLOCK
  8
0
  2
*D16
 70
     1
 10
0.0
 20
0.0
 30
0.0
  3
*D16
  1

  0
LINE
  5
7ED6
  8
3
  6
CONTINUOUS
 62
     0
 10
1739.1510831181811
 20
1193.1958450535819
 30
0.0
 11
1739.1510831181811
 21
1333.2897890535819
 31
0.0
  0
LINE
  5
7ED7
  8
3
  6
CONTINUOUS
 62
     0
 10
1681.1510831181811
 20
1323.2897890535819
 30
0.0
 11
1719.1510831181811
 21
1323.2897890535819
 31
0.0
  0
TEXT
  8
3
  40
30
  5
7F14
  62
0
  72
0
  71
0
 10
1636.78
 20
1295.40
 30
0.000000
  1
78
  0
INSERT
  5
7ED9
  8
3
  6
CONTINUOUS
 62
     0
  2
_OPEN
 10
1661.1510831181811
 20
1323.2897890535819
 30
0.0
 41
20.0
 42
20.0
 43
20.0
 50
180.0
  0
INSERT
  5
7EDA
  8
3
  6
CONTINUOUS
 62
     0
  2
_OPEN
 10
1739.1510831181811
 20
1323.2897890535819
 30
0.0
 41
20.0
 42
20.0
 43
20.0
  0
POINT
  5
7EDB
  8
DEFPOINTS
  6
CONTINUOUS
 62
     0
 10
1661.1510831181811
 20
1308.7694270535819
 30
0.0
  0
POINT
  5
7EDC
  8
DEFPOINTS
  6
CONTINUOUS
 62
     0
 10
1739.1510831181811
 20
1188.1958450535819
 30
0.0
  0
POINT
  5
7EDD
  8
DEFPOINTS
  6
CONTINUOUS
 62
     0
 10
1739.1510831181811
 20
1323.2897890535819
 30
0.0
  0
ENDBLK
  5
7CBA
  8
0
  0
BLOCK
  8
0
  2
*D17
 70
     1
 10
0.0
 20
0.0
 30
0.0
  3
*D17
  1

  0
LINE
  5
7EDE
  8
3
  6
CONTINUOUS
 62
     0
 10
1363.1510831181811
 20
716.19584505358227
 30
0.0
 11
1363.1510831181811
 21
646.0172490535823
 31
0.0
  0
LINE
  5
7EDF
  8
3
  6
CONTINUOUS
 62
     0
 10
1661.1510831181811
 20
716.19584505358227
 30
0.0
 11
1661.1510831181811
 21
646.0172490535823
 31
0.0
  0
LINE
  5
7EE0
  8
3
  6
CONTINUOUS
 62
     0
 10
1383.1510831181811
 20
656.0172490535823
 30
0.0
 11
1641.1510831181811
 21
656.0172490535823
 31
0.0
  0
INSERT
  5
7EE1
  8
3
  6
CONTINUOUS
 62
     0
  2
_OPEN
 10
1363.1510831181811
 20
656.0172490535823
 30
0.0
 41
20.0
 42
20.0
 43
20.0
 50
180.0
  0
INSERT
  5
7EE2
  8
3
  6
CONTINUOUS
 62
     0
  2
_OPEN
 10
1661.1510831181811
 20
656.0172490535823
 30
0.0
 41
20.0
 42
20.0
 43
20.0
  0
TEXT
  8
3
  40
30
  5
7F15
  62
0
  72
0
  71
0
 10
1451.83
 20
627.917
 30
0.000000
  1
298
  0
POINT
  5
7EE4
  8
DEFPOINTS
  6
CONTINUOUS
 62
     0
 10
1363.1510831181811
 20
721.19584505358216
 30
0.0
  0
POINT
  5
7EE5
  8
DEFPOINTS
  6
CONTINUOUS
 62
     0
 10
1661.1510831181811
 20
721.19584505358216
 30
0.0
  0
POINT
  5
7EE6
  8
DEFPOINTS
  6
CONTINUOUS
 62
     0
 10
1661.1510831181811
 20
656.0172490535823
 30
0.0
  0
ENDBLK
  5
7C77
  8
0
  0
BLOCK
  8
0
  2
*D18
 70
     1
 10
0.0
 20
0.0
 30
0.0
  3
*D18
  1

  0
LINE
  5
7EE7
  8
3
  6
CONTINUOUS
 62
     0
 10
1793.1510831181811
 20
716.19584505358227
 30
0.0
 11
1793.1510831181811
 21
646.0172490535823
 31
0.0
  0
LINE
  5
7EE8
  8
3
  6
CONTINUOUS
 62
     0
 10
1681.1510831181811
 20
656.0172490535823
 30
0.0
 11
1773.1510831181811
 21
656.0172490535823
 31
0.0
  0
INSERT
  5
7EE9
  8
3
  6
CONTINUOUS
 62
     0
  2
_OPEN
 10
1661.1510831181811
 20
656.0172490535823
 30
0.0
 41
20.0
 42
20.0
 43
20.0
 50
180.0
  0
INSERT
  5
7EEA
  8
3
  6
CONTINUOUS
 62
     0
  2
_OPEN
 10
1793.1510831181811
 20
656.0172490535823
 30
0.0
 41
20.0
 42
20.0
 43
20.0
  0
TEXT
  8
3
  40
30
  5
7F16
  62
0
  72
0
  71
0
 10
1667.15
 20
627.917
 30
0.000000
  1
132
  0
POINT
  5
7EEC
  8
DEFPOINTS
  6
CONTINUOUS
 62
     0
 10
1661.1510831181811
 20
721.19584505358216
 30
0.0
  0
POINT
  5
7EED
  8
DEFPOINTS
  6
CONTINUOUS
 62
     0
 10
1793.1510831181811
 20
721.19584505358216
 30
0.0
  0
POINT
  5
7EEE
  8
DEFPOINTS
  6
CONTINUOUS
 62
     0
 10
1793.1510831181811
 20
656.0172490535823
 30
0.0
  0
ENDBLK
  5
7C83
  8
0
  0
BLOCK
  8
0
  2
*D19
 70
     1
 10
0.0
 20
0.0
 30
0.0
  3
*D19
  1

  0
LINE
  5
7EEF
  8
3
  6
CONTINUOUS
 62
     0
 10
1744.1510831181811
 20
1168.1958450535819
 30
0.0
 11
1821.0396961181809
 21
1168.1958450535819
 31
0.0
  0
LINE
  5
7EF0
  8
3
  6
CONTINUOUS
 62
     0
 10
1744.1510831181811
 20
968.19584505358205
 30
0.0
 11
1821.0396961181809
 21
968.19584505358205
 31
0.0
  0
LINE
  5
7EF1
  8
3
  6
CONTINUOUS
 62
     0
 10
1811.0396961181809
 20
1148.1958450535819
 30
0.0
 11
1811.0396961181809
 21
988.19584505358205
 31
0.0
  0
INSERT
  5
7EF2
  8
3
  6
CONTINUOUS
 62
     0
  2
_OPEN
 10
1811.0396961181809
 20
1168.1958450535819
 30
0.0
 41
20.0
 42
20.0
 43
20.0
 50
90.0
  0
INSERT
  5
7EF3
  8
3
  6
CONTINUOUS
 62
     0
  2
_OPEN
 10
1811.0396961181809
 20
968.19584505358205
 30
0.0
 41
20.0
 42
20.0
 43
20.0
 50
270.0
  0
TEXT
  8
3
  40
30
  5
7F17
  62
0
  72
0
  71
0
 10
1726.04
 20
1012.63
 30
0.000000
  1
φ200
  0
POINT
  5
7EF5
  8
DEFPOINTS
  6
CONTINUOUS
 62
     0
 10
1739.1510831181811
 20
1168.1958450535819
 30
0.0
  0
POINT
  5
7EF6
  8
DEFPOINTS
  6
CONTINUOUS
 62
     0
 10
1739.1510831181811
 20
968.19584505358205
 30
0.0
  0
POINT
  5
7EF7
  8
DEFPOINTS
  6
CONTINUOUS
 62
     0
 10
1811.0396961181809
 20
968.19584505358205
 30
0.0
  0
ENDBLK
  5
7CDF
  8
0
  0
BLOCK
  8
0
  2
*D20
 70
     1
 10
0.0
 20
0.0
 30
0.0
  3
*D20
  1

  0
LINE
  5
7EF8
  8
3
 62
     0
 10
530.09130157635423
 20
1094.1958450535819
 30
0.0
 11
530.09130157635423
 21
1322.2899561673239
 31
0.0
  0
LINE
  5
7EF9
  8
3
 62
     0
 10
1185.091301576354
 20
776.19584505358216
 30
0.0
 11
1185.091301576354
 21
1322.2899561673239
 31
0.0
  0
LINE
  5
7EFA
  8
3
 62
     0
 10
550.09130157635423
 20
1312.2899561673239
 30
0.0
 11
1165.091301576354
 21
1312.2899561673239
 31
0.0
  0
INSERT
  5
7EFB
  8
3
 62
     0
  2
_OPEN
 10
530.09130157635423
 20
1312.2899561673239
 30
0.0
 41
20.0
 42
20.0
 43
20.0
 50
180.0
  0
INSERT
  5
7EFC
  8
3
 62
     0
  2
_OPEN
 10
1185.091301576354
 20
1312.2899561673239
 30
0.0
 41
20.0
 42
20.0
 43
20.0
  0
TEXT
  8
3
  40
30
  5
7F18
  62
0
  72
0
  71
0
 10
788.210
 20
1284.19
 30
0.000000
  1
655
  0
POINT
  5
7EFE
  8
DEFPOINTS
 62
     0
 10
530.09130157635423
 20
1089.1958450535819
 30
0.0
  0
POINT
  5
7EFF
  8
DEFPOINTS
 62
     0
 10
1185.091301576354
 20
771.19584505358216
 30
0.0
  0
POINT
  5
7F00
  8
DEFPOINTS
 62
     0
 10
1185.091301576354
 20
1312.2899561673239
 30
0.0
  0
ENDBLK
  5
7CEB
  8
0
  0
BLOCK
  8
0
  2
_DOT
 70
     0
 10
0.0
 20
0.0
 30
0.0
  3
_DOT
  1

  0
LINE
  5
7D2F
  8
0
  6
BYBLOCK
 62
     0
 10
0.0
 20
0.0
 30
0.0
 11
-1.0
 21
-0.0000000000000284
 31
0.0
  0
POLYLINE
  5
7D30
  8
0
  6
BYBLOCK
 62
     0
 66
     1
 10
0.0
 20
0.0
 30
0.0
 70
     1
 40
0.1666666666666666
 41
0.1666666666666666
  0
VERTEX
  5
7F01
  8
0
  6
BYBLOCK
 62
     0
 10
-0.0833333333333286
 20
-0.0000000000000284
 30
0.0
 42
1.0
  0
VERTEX
  5
7F02
  8
0
  6
BYBLOCK
 62
     0
 10
0.0833333333333286
 20
-0.0000000000000284
 30
0.0
 42
1.0
  0
SEQEND
  5
7F03
  8
0
  6
BYBLOCK
 62
     0
  0
ENDBLK
  5
7D15
  8
0
  0
ENDSEC
  0
SECTION
  2
ENTITIES
  0
CIRCLE
  5
7A92
  8
1
  6
CONTINUOUS
 10
690.09130157635411
 20
1068.1958450535819
 30
0.0
 40
120.0
  0
LINE
  5
7A93
  8
1
  6
CONTINUOUS
 10
1185.091301576354
 20
746.19584505358216
 30
0.0
 11
505.09130157635423
 21
746.19584505358216
 31
0.0
  0
LINE
  5
7A94
  8
1
  6
CONTINUOUS
 10
1185.091301576354
 20
771.19584505358216
 30
0.0
 11
505.09130157635423
 21
771.19584505358216
 31
0.0
  0
LINE
  5
7A95
  8
1
  6
CONTINUOUS
 10
545.09130157635423
 20
857.19584505358216
 30
0.0
 11
674.09130157635411
 21
857.19584505358216
 31
0.0
  0
ARC
  5
7A96
  8
1
  6
CONTINUOUS
 10
701.09130157635411
 20
1079.1958450535819
 30
0.0
 40
140.0
 50
89.400000000000006
 51
180.39999999999989
  0
LINE
  5
7A97
  8
1
  6
CONTINUOUS
 10
825.091301576354
 20
1101.4958450535819
 30
0.0
 11
555.09130157635411
 21
1101.4958450535819
 31
0.0
  0
LINE
  5
7A98
  8
1
  6
CONTINUOUS
 10
638.49130157635398
 20
1193.1958450535819
 30
0.0
 11
555.09130157635411
 21
1121.895845053582
 31
0.0
  0
LINE
  5
7A99
  8
1
  6
CONTINUOUS
 10
1160.091301576354
 20
793.19584505358216
 30
0.0
 11
530.09130157635423
 21
793.19584505358216
 31
0.0
  0
LINE
  5
7A9A
  8
1
  6
CONTINUOUS
 10
1160.091301576354
 20
843.19584505358227
 30
0.0
 11
530.09130157635423
 21
843.19584505358227
 31
0.0
  0
LINE
  5
7A9B
  8
1
  6
CONTINUOUS
 10
555.09130157635411
 20
843.19584505358227
 30
0.0
 11
555.09130157635411
 21
1121.895845053582
 31
0.0
  0
LINE
  5
7A9C
  8
1
  6
CONTINUOUS
 10
505.09130157635423
 20
721.19584505358216
 30
0.0
 11
505.09130157635423
 21
771.19584505358216
 31
0.0
  0
LINE
  5
7A9D
  8
1
  6
CONTINUOUS
 10
505.09130157635423
 20
721.19584505358216
 30
0.0
 11
530.09130157635423
 21
721.19584505358216
 31
0.0
  0
LINE
  5
7A9E
  8
1
  6
CONTINUOUS
 10
530.09130157635423
 20
721.19584505358216
 30
0.0
 11
530.09130157635423
 21
746.19584505358216
 31
0.0
  0
LINE
  5
7A9F
  8
1
  6
CONTINUOUS
 10
545.09130157635423
 20
1078.1958450535819
 30
0.0
 11
561.09130157635411
 21
1078.1958450535819
 31
0.0
  0
LINE
  5
7AA0
  8
1
  6
CONTINUOUS
 10
530.09130157635423
 20
847.19584505358216
 30
0.0
 11
530.09130157635423
 21
1089.1958450535819
 31
0.0
  0
LINE
  5
7AA1
  8
1
  6
CONTINUOUS
 10
530.09130157635423
 20
1068.1958450535819
 30
0.0
 11
545.09130157635423
 21
1068.1958450535819
 31
0.0
  0
LINE
  5
7AA2
  8
1
  6
CONTINUOUS
 10
530.09130157635423
 20
867.19584505358227
 30
0.0
 11
545.09130157635423
 21
882.19584505358216
 31
0.0
  0
LINE
  5
7AA3
  8
1
  6
CONTINUOUS
 10
545.09130157635423
 20
882.19584505358216
 30
0.0
 11
545.09130157635423
 21
1054.1958450535819
 31
0.0
  0
LINE
  5
7AA4
  8
1
  6
CONTINUOUS
 10
530.09130157635423
 20
1069.1958450535819
 30
0.0
 11
545.09130157635423
 21
1054.1958450535819
 31
0.0
  0
LINE
  5
7AA5
  8
1
  6
CONTINUOUS
 10
530.09130157635423
 20
868.19584505358227
 30
0.0
 11
545.09130157635423
 21
868.19584505358227
 31
0.0
  0
LINE
  5
7AA6
  8
1
  6
CONTINUOUS
 10
545.09130157635423
 20
857.19584505358216
 30
0.0
 11
545.09130157635423
 21
868.19584505358227
 31
0.0
  0
LINE
  5
7AA7
  8
1
  6
CONTINUOUS
 10
545.09130157635423
 20
1068.1958450535819
 30
0.0
 11
545.09130157635423
 21
1078.1958450535819
 31
0.0
  0
LINE
  5
7AA8
  8
1
  6
CONTINUOUS
 10
530.09130157635423
 20
793.19584505358216
 30
0.0
 11
530.09130157635423
 21
843.19584505358227
 31
0.0
  0
LINE
  5
7AA9
  8
2
  6
CENTER
 10
1025.291301576354
 20
944.29584505358218
 30
0.0
 11
955.29130157635427
 21
944.29584505358218
 31
0.0
  0
ARC
  5
7AAA
  8
1
  6
CONTINUOUS
 10
994.59130157635423
 20
943.89584505358209
 30
0.0
 40
85.0
 50
324.69999999999987
 51
215.30000000000001
  0
CIRCLE
  5
7AAB
  8
1
  6
CONTINUOUS
 10
990.29130157635427
 20
944.29584505358218
 30
0.0
 40
35.0
  0
LINE
  5
7AAC
  8
1
  6
CONTINUOUS
 10
1113.091301576354
 20
1178.1958450535819
 30
0.0
 11
583.09130157635411
 21
1178.1958450535819
 31
0.0
  0
LINE
  5
7AAD
  8
1
  6
CONTINUOUS
 10
901.79130157635427
 20
863.89584505358221
 30
0.0
 11
1152.791301576354
 21
863.89584505358221
 31
0.0
  0
LINE
  5
7AAE
  8
1
  6
CONTINUOUS
 10
711.29130157635404
 20
1113.4958450535819
 30
0.0
 11
1005.091301576354
 21
975.99584505358234
 31
0.0
  0
CIRCLE
  5
7AAF
  8
1
  6
CONTINUOUS
 10
690.09130157635411
 20
1068.1958450535819
 30
0.0
 40
100.0
  0
ARC
  5
7AB0
  8
1
  6
CONTINUOUS
 10
704.09130157635411
 20
1054.1958450535819
 30
0.0
 40
165.0
 50
359.69999999999999
 51
90.599999999999994
  0
LINE
  5
7AB1
  8
1
  6
CONTINUOUS
 10
825.091301576354
 20
1121.895845053582
 30
0.0
 11
825.091301576354
 21
843.19584505358227
 31
0.0
  0
LINE
  5
7AB2
  8
1
  6
CONTINUOUS
 10
583.09130157635411
 20
843.19584505358227
 30
0.0
 11
583.09130157635411
 21
1178.1958450535819
 31
0.0
  0
LINE
  5
7AB3
  8
2
  6
CENTER
 10
690.09130157635411
 20
738.41100305358225
 30
0.0
 11
690.09130157635411
 21
1237.2448310535819
 31
0.0
  0
CIRCLE
  5
7AB4
  8
1
  6
CONTINUOUS
 10
690.09130157635411
 20
1068.1958450535819
 30
0.0
 40
50.0
  0
ARC
  5
7AB5
  8
1
  6
CONTINUOUS
 10
674.09130157635411
 20
1052.1958450535819
 30
0.0
 40
195.0
 50
270.0
 51
0.3
  0
LINE
  5
7AB6
  8
1
  6
CONTINUOUS
 10
673.19130157635414
 20
1021.195845053582
 30
0.0
 11
978.39130157635429
 21
911.39584505358232
 31
0.0
  0
LINE
  5
7AB7
  8
2
  6
CENTER
 10
1749.4195541181809
 20
1068.1958450535819
 30
0.0
 11
1304.3167961181809
 21
1068.1958450535819
 31
0.0
  0
LINE
  5
7AB8
  8
1
  6
CONTINUOUS
 10
917.09130157635423
 20
871.89584505358221
 30
0.0
 11
925.29130157635416
 21
894.69584505358216
 31
0.0
  0
LINE
  5
7AB9
  8
1
  6
CONTINUOUS
 10
917.09130157635423
 20
863.89584505358221
 30
0.0
 11
917.09130157635423
 21
871.89584505358221
 31
0.0
  0
LINE
  5
7ABA
  8
1
  6
CONTINUOUS
 10
901.79130157635427
 20
843.19584505358227
 30
0.0
 11
901.79130157635427
 21
863.89584505358221
 31
0.0
  0
LINE
  5
7ABB
  8
1
  6
CONTINUOUS
 10
741.69130157635414
 20
1193.1958450535819
 30
0.0
 11
825.091301576354
 21
1121.895845053582
 31
0.0
  0
LINE
  5
7ABC
  8
1
  6
CONTINUOUS
 10
638.49130157635398
 20
1193.1958450535819
 30
0.0
 11
741.69130157635414
 21
1193.1958450535819
 31
0.0
  0
LINE
  5
7ABD
  8
1
  6
CONTINUOUS
 10
1113.091301576354
 20
843.19584505358227
 30
0.0
 11
1113.091301576354
 21
1178.1958450535819
 31
0.0
  0
LINE
  5
7ABE
  8
1
  6
CONTINUOUS
 10
1185.091301576354
 20
721.19584505358216
 30
0.0
 11
1160.091301576354
 21
721.19584505358216
 31
0.0
  0
LINE
  5
7ABF
  8
1
  6
CONTINUOUS
 10
1160.091301576354
 20
721.19584505358216
 30
0.0
 11
1160.091301576354
 21
746.19584505358216
 31
0.0
  0
LINE
  5
7AC0
  8
2
  6
CENTER
 10
990.29130157635427
 20
909.2958450535823
 30
0.0
 11
990.29130157635427
 21
979.29584505358218
 31
0.0
  0
LINE
  5
7AC1
  8
1
  6
CONTINUOUS
 10
1072.091301576354
 20
863.89584505358221
 30
0.0
 11
1072.091301576354
 21
871.89584505358221
 31
0.0
  0
LINE
  5
7AC2
  8
1
  6
CONTINUOUS
 10
1072.091301576354
 20
871.89584505358221
 30
0.0
 11
1063.9913015763541
 21
894.69584505358216
 31
0.0
  0
LINE
  5
7AC3
  8
1
  6
CONTINUOUS
 10
1152.791301576354
 20
863.89584505358221
 30
0.0
 11
1152.791301576354
 21
843.19584505358227
 31
0.0
  0
LINE
  5
7AC4
  8
1
  6
CONTINUOUS
 10
1160.091301576354
 20
793.19584505358216
 30
0.0
 11
1160.091301576354
 21
843.19584505358227
 31
0.0
  0
LINE
  5
7AC5
  8
1
  6
CONTINUOUS
 10
1185.091301576354
 20
721.19584505358216
 30
0.0
 11
1185.091301576354
 21
771.19584505358216
 31
0.0
  0
LINE
  5
7AC6
  8
1
  6
CONTINUOUS
 10
530.09130157635423
 20
1825.050829874107
 30
0.0
 11
678.09130157635411
 21
1825.050829874107
 31
0.0
  0
LINE
  5
7AC7
  8
1
  6
CONTINUOUS
 10
570.09130157635411
 20
1961.050829874107
 30
0.0
 11
810.09130157635411
 21
1961.050829874107
 31
0.0
  0
LINE
  5
7AC8
  8
1
  6
CONTINUOUS
 10
530.09130157635423
 20
2109.050829874107
 30
0.0
 11
859.09130157635423
 21
2109.050829874107
 31
0.0
  0
LINE
  5
7AC9
  8
1
  6
CONTINUOUS
 10
530.09130157635423
 20
1969.050829874107
 30
0.0
 11
859.09130157635423
 21
1969.050829874107
 31
0.0
  0
LINE
  5
7ACA
  8
1
  6
CONTINUOUS
 10
570.09130157635411
 20
2117.050829874107
 30
0.0
 11
810.09130157635411
 21
2117.050829874107
 31
0.0
  0
LINE
  5
7ACB
  8
1
  6
CONTINUOUS
 10
530.09130157635423
 20
1741.050829874107
 30
0.0
 11
530.09130157635423
 21
2171.050829874107
 31
0.0
  0
LINE
  5
7ACC
  8
1
  6
CONTINUOUS
 10
505.09130157635423
 20
1741.050829874107
 30
0.0
 11
505.09130157635423
 21
2171.050829874107
 31
0.0
  0
LINE
  5
7ACD
  8
1
  6
CONTINUOUS
 10
505.09130157635423
 20
1825.050829874107
 30
0.0
 11
505.09130157635423
 21
2049.050829874107
 31
0.0
  0
LINE
  5
7ACE
  8
1
  6
CONTINUOUS
 10
505.09130157635423
 20
1741.050829874107
 30
0.0
 11
530.09130157635423
 21
1741.050829874107
 31
0.0
  0
LINE
  5
7ACF
  8
1
  6
CONTINUOUS
 10
570.09130157635411
 20
1969.050829874107
 30
0.0
 11
570.09130157635411
 21
1961.050829874107
 31
0.0
  0
LINE
  5
7AD0
  8
1
  6
CONTINUOUS
 10
530.09130157635423
 20
1968.050829874107
 30
0.0
 11
545.09130157635423
 21
1983.050829874107
 31
0.0
  0
LINE
  5
7AD1
  8
1
  6
CONTINUOUS
 10
545.09130157635423
 20
2095.050829874107
 30
0.0
 11
545.09130157635423
 21
1983.050829874107
 31
0.0
  0
LINE
  5
7AD2
  8
1
  6
CONTINUOUS
 10
530.09130157635423
 20
2110.050829874107
 30
0.0
 11
545.09130157635423
 21
2095.050829874107
 31
0.0
  0
LINE
  5
7AD3
  8
1
  6
CONTINUOUS
 10
530.09130157635423
 20
2130.050829874107
 30
0.0
 11
530.09130157635423
 21
1948.050829874107
 31
0.0
  0
LINE
  5
7AD4
  8
1
  6
CONTINUOUS
 10
570.09130157635411
 20
2109.050829874107
 30
0.0
 11
570.09130157635411
 21
2117.050829874107
 31
0.0
  0
LINE
  5
7AD5
  8
1
  6
CONTINUOUS
 10
505.09130157635423
 20
2171.050829874107
 30
0.0
 11
530.09130157635423
 21
2171.050829874107
 31
0.0
  0
LINE
  5
7AD6
  8
1
  6
CONTINUOUS
 10
869.09130157635411
 20
2049.050829874107
 30
0.0
 11
1160.091301576354
 21
2049.050829874107
 31
0.0
  0
LINE
  5
7AD7
  8
1
  6
CONTINUOUS
 10
909.59130157635423
 20
1844.250829874107
 30
0.0
 11
1079.591301576354
 21
1844.250829874107
 31
0.0
  0
LINE
  5
7AD8
  8
1
  6
CONTINUOUS
 10
909.59130157635423
 20
2035.1508298741071
 30
0.0
 11
1079.591301576354
 21
2035.1508298741071
 31
0.0
  0
LINE
  5
7AD9
  8
1
  6
CONTINUOUS
 10
1025.291301576354
 20
1761.550829874107
 30
0.0
 11
955.29130157635427
 21
1761.550829874107
 31
0.0
  0
LINE
  5
7ADA
  8
1
  6
CONTINUOUS
 10
1025.291301576354
 20
1791.550829874107
 30
0.0
 11
955.29130157635427
 21
1791.550829874107
 31
0.0
  0
LINE
  5
7ADB
  8
1
  6
CONTINUOUS
 10
583.09130157635411
 20
1814.0508298741081
 30
0.0
 11
1113.091301576354
 21
1814.0508298741081
 31
0.0
  0
LINE
  5
7ADC
  8
1
  6
CONTINUOUS
 10
583.09130157635411
 20
1739.050829874107
 30
0.0
 11
1113.091301576354
 21
1739.050829874107
 31
0.0
  0
LINE
  5
7ADD
  8
1
  6
CONTINUOUS
 10
702.091301576354
 20
1825.050829874107
 30
0.0
 11
978.29130157635416
 21
1825.050829874107
 31
0.0
  0
LINE
  5
7ADE
  8
1
  6
CONTINUOUS
 10
702.091301576354
 20
1961.050829874107
 30
0.0
 11
702.091301576354
 21
1791.550829874107
 31
0.0
  0
LINE
  5
7ADF
  8
1
  6
CONTINUOUS
 10
678.09130157635411
 20
1961.050829874107
 30
0.0
 11
678.09130157635411
 21
1791.550829874107
 31
0.0
  0
LINE
  5
7AE0
  8
1
  6
CONTINUOUS
 10
740.09130157635411
 20
1791.550829874107
 30
0.0
 11
640.09130157635411
 21
1791.550829874107
 31
0.0
  0
LINE
  5
7AE1
  8
1
  6
CONTINUOUS
 10
740.09130157635411
 20
1761.550829874107
 30
0.0
 11
640.09130157635411
 21
1761.550829874107
 31
0.0
  0
LINE
  5
7AE2
  8
1
  6
CONTINUOUS
 10
640.09130157635411
 20
1761.550829874107
 30
0.0
 11
640.09130157635411
 21
1791.550829874107
 31
0.0
  0
LINE
  5
7AE3
  8
1
  6
CONTINUOUS
 10
583.09130157635411
 20
1739.050829874107
 30
0.0
 11
583.09130157635411
 21
1814.0508298741081
 31
0.0
  0
LINE
  5
7AE4
  8
1
  6
CONTINUOUS
 10
740.09130157635411
 20
1761.550829874107
 30
0.0
 11
740.09130157635411
 21
1791.550829874107
 31
0.0
  0
LINE
  5
7AE5
  8
1
  6
CONTINUOUS
 10
978.29130157635416
 20
1791.550829874107
 30
0.0
 11
978.29130157635416
 21
1844.250829874107
 31
0.0
  0
LINE
  5
7AE6
  8
1
  6
CONTINUOUS
 10
955.29130157635427
 20
1761.550829874107
 30
0.0
 11
955.29130157635427
 21
1791.550829874107
 31
0.0
  0
LINE
  5
7AE7
  8
1
  6
CONTINUOUS
 10
810.09130157635411
 20
1969.050829874107
 30
0.0
 11
810.09130157635411
 21
1961.050829874107
 31
0.0
  0
ARC
  5
7AE8
  8
1
  6
CONTINUOUS
 10
859.09130157635423
 20
1979.050829874107
 30
0.0
 40
10.0
 50
270.0
 51
0.0
  0
ARC
  5
7AE9
  8
1
  6
CONTINUOUS
 10
859.09130157635423
 20
2099.050829874107
 30
0.0
 40
10.0
 50
0.0
 51
90.0
  0
LINE
  5
7AEA
  8
1
  6
CONTINUOUS
 10
869.09130157635411
 20
2099.050829874107
 30
0.0
 11
869.09130157635411
 21
1979.050829874107
 31
0.0
  0
LINE
  5
7AEB
  8
1
  6
CONTINUOUS
 10
810.09130157635411
 20
2109.050829874107
 30
0.0
 11
810.09130157635411
 21
2117.050829874107
 31
0.0
  0
LINE
  5
7AEC
  8
1
  6
CONTINUOUS
 10
909.59130157635423
 20
1844.250829874107
 30
0.0
 11
909.59130157635423
 21
2035.1508298741071
 31
0.0
  0
LINE
  5
7AED
  8
1
  6
CONTINUOUS
 10
1160.091301576354
 20
1741.050829874107
 30
0.0
 11
1160.091301576354
 21
2171.050829874107
 31
0.0
  0
LINE
  5
7AEE
  8
1
  6
CONTINUOUS
 10
1185.091301576354
 20
1741.050829874107
 30
0.0
 11
1185.091301576354
 21
2171.050829874107
 31
0.0
  0
LINE
  5
7AEF
  8
1
  6
CONTINUOUS
 10
1185.091301576354
 20
1741.050829874107
 30
0.0
 11
1160.091301576354
 21
1741.050829874107
 31
0.0
  0
LINE
  5
7AF0
  8
1
  6
CONTINUOUS
 10
1002.291301576354
 20
1791.550829874107
 30
0.0
 11
1002.291301576354
 21
1844.250829874107
 31
0.0
  0
LINE
  5
7AF1
  8
1
  6
CONTINUOUS
 10
1002.291301576354
 20
1825.050829874107
 30
0.0
 11
1160.091301576354
 21
1825.050829874107
 31
0.0
  0
LINE
  5
7AF2
  8
1
  6
CONTINUOUS
 10
1025.291301576354
 20
1761.550829874107
 30
0.0
 11
1025.291301576354
 21
1791.550829874107
 31
0.0
  0
LINE
  5
7AF3
  8
1
  6
CONTINUOUS
 10
1113.091301576354
 20
1739.050829874107
 30
0.0
 11
1113.091301576354
 21
1814.0508298741081
 31
0.0
  0
LINE
  5
7AF4
  8
1
  6
CONTINUOUS
 10
1079.591301576354
 20
1844.250829874107
 30
0.0
 11
1079.591301576354
 21
2035.1508298741071
 31
0.0
  0
LINE
  5
7AF5
  8
1
  6
CONTINUOUS
 10
1185.091301576354
 20
1825.050829874107
 30
0.0
 11
1185.091301576354
 21
2049.050829874107
 31
0.0
  0
LINE
  5
7AF6
  8
1
  6
CONTINUOUS
 10
1185.091301576354
 20
2171.050829874107
 30
0.0
 11
1160.091301576354
 21
2171.050829874107
 31
0.0
  0
LINE
  5
7AF7
  8
1
  6
CONTINUOUS
 10
1363.1510831181811
 20
721.19584505358216
 30
0.0
 11
1793.1510831181811
 21
721.19584505358216
 31
0.0
  0
LINE
  5
7AF8
  8
1
  6
CONTINUOUS
 10
1447.1510831181811
 20
793.19584505358216
 30
0.0
 11
1671.1510831181811
 21
793.19584505358216
 31
0.0
  0
LINE
  5
7AF9
  8
1
  6
CONTINUOUS
 10
1361.1510831181811
 20
843.19584505358227
 30
0.0
 11
1671.1510831181811
 21
843.19584505358227
 31
0.0
  0
LINE
  5
7AFA
  8
1
  6
CONTINUOUS
 10
1471.1510831181811
 20
1034.895845053582
 30
0.0
 11
1583.1510831181811
 21
1121.895845053582
 31
0.0
  0
LINE
  5
7AFB
  8
1
  6
CONTINUOUS
 10
1447.1510831181811
 20
771.19584505358216
 30
0.0
 11
1671.1510831181811
 21
771.19584505358216
 31
0.0
  0
LINE
  5
7AFC
  8
1
  6
CONTINUOUS
 10
1363.1510831181811
 20
746.19584505358216
 30
0.0
 11
1793.1510831181811
 21
746.19584505358216
 31
0.0
  0
LINE
  5
7AFD
  8
1
  6
CONTINUOUS
 10
1361.1510831181811
 20
1178.1958450535819
 30
0.0
 11
1361.1510831181811
 21
843.19584505358227
 31
0.0
  0
LINE
  5
7AFE
  8
1
  6
CONTINUOUS
 10
1436.1510831181811
 20
1178.1958450535819
 30
0.0
 11
1436.1510831181811
 21
843.19584505358227
 31
0.0
  0
LINE
  5
7AFF
  8
1
  6
CONTINUOUS
 10
1383.6510831181811
 20
1118.1958450535819
 30
0.0
 11
1383.6510831181811
 21
1018.195845053582
 31
0.0
  0
LINE
  5
7B00
  8
1
  6
CONTINUOUS
 10
1413.6510831181811
 20
1118.1958450535819
 30
0.0
 11
1413.6510831181811
 21
1018.195845053582
 31
0.0
  0
LINE
  5
7B03
  8
1
  6
CONTINUOUS
 10
1363.1510831181811
 20
746.19584505358216
 30
0.0
 11
1363.1510831181811
 21
721.19584505358216
 31
0.0
  0
LINE
  5
7B04
  8
1
  6
CONTINUOUS
 10
1447.1510831181811
 20
771.19584505358216
 30
0.0
 11
1447.1510831181811
 21
746.19584505358216
 31
0.0
  0
LINE
  5
7B05
  8
1
  6
CONTINUOUS
 10
1413.6510831181811
 20
956.29584505358218
 30
0.0
 11
1471.1510831181811
 21
956.29584505358218
 31
0.0
  0
LINE
  5
7B06
  8
1
  6
CONTINUOUS
 10
1413.6510831181811
 20
932.29584505358207
 30
0.0
 11
1471.1510831181811
 21
932.29584505358207
 31
0.0
  0
LINE
  5
7B07
  8
1
  6
CONTINUOUS
 10
1413.6510831181811
 20
1080.1958450535819
 30
0.0
 11
1529.451083118181
 21
1080.1958450535819
 31
0.0
  0
LINE
  5
7B08
  8
1
  6
CONTINUOUS
 10
1413.6510831181811
 20
1056.1958450535819
 30
0.0
 11
1498.5510831181809
 21
1056.1958450535819
 31
0.0
  0
LINE
  5
7B09
  8
1
  6
CONTINUOUS
 10
1383.6510831181811
 20
1018.195845053582
 30
0.0
 11
1413.6510831181811
 21
1018.195845053582
 31
0.0
  0
LINE
  5
7B0A
  8
1
  6
CONTINUOUS
 10
1383.6510831181811
 20
979.29584505358218
 30
0.0
 11
1383.6510831181811
 21
909.2958450535823
 31
0.0
  0
LINE
  5
7B0B
  8
1
  6
CONTINUOUS
 10
1413.6510831181811
 20
979.29584505358218
 30
0.0
 11
1413.6510831181811
 21
909.2958450535823
 31
0.0
  0
LINE
  5
7B0C
  8
1
  6
CONTINUOUS
 10
1383.6510831181811
 20
979.29584505358218
 30
0.0
 11
1413.6510831181811
 21
979.29584505358218
 31
0.0
  0
LINE
  5
7B0D
  8
1
  6
CONTINUOUS
 10
1383.6510831181811
 20
909.2958450535823
 30
0.0
 11
1413.6510831181811
 21
909.2958450535823
 31
0.0
  0
LINE
  5
7B0E
  8
1
  6
CONTINUOUS
 10
1447.1510831181811
 20
843.19584505358227
 30
0.0
 11
1447.1510831181811
 21
793.19584505358216
 31
0.0
  0
LINE
  5
7B0F
  8
1
  6
CONTINUOUS
 10
1471.1510831181811
 20
1034.895845053582
 30
0.0
 11
1471.1510831181811
 21
843.19584505358227
 31
0.0
  0
LINE
  5
7B10
  8
1
  6
CONTINUOUS
 10
1361.1510831181811
 20
1178.1958450535819
 30
0.0
 11
1436.1510831181811
 21
1178.1958450535819
 31
0.0
  0
LINE
  5
7B11
  8
1
  6
CONTINUOUS
 10
1383.6510831181811
 20
1118.1958450535819
 30
0.0
 11
1413.6510831181811
 21
1118.1958450535819
 31
0.0
  0
LINE
  5
7B12
  8
1
  6
CONTINUOUS
 10
1739.1510831181811
 20
948.19584505358216
 30
0.0
 11
1739.1510831181811
 21
1188.1958450535819
 31
0.0
  0
LINE
  5
7B13
  8
1
  6
CONTINUOUS
 10
1731.1510831181811
 20
1207.1958450535819
 30
0.0
 11
1731.1510831181811
 21
868.19584505358227
 31
0.0
  0
LINE
  5
7B14
  8
1
  6
CONTINUOUS
 10
1591.1510831181811
 20
868.19584505358227
 30
0.0
 11
1591.1510831181811
 21
1207.1958450535819
 31
0.0
  0
LINE
  5
7B15
  8
1
  6
CONTINUOUS
 10
1583.3510831181809
 20
843.19584505358227
 30
0.0
 11
1583.3510831181809
 21
1188.1958450535819
 31
0.0
  0
LINE
  5
7B16
  8
1
  6
CONTINUOUS
 10
1671.1510831181811
 20
771.19584505358216
 30
0.0
 11
1671.1510831181811
 21
746.19584505358216
 31
0.0
  0
LINE
  5
7B17
  8
1
  6
CONTINUOUS
 10
1591.1510831181811
 20
1068.1958450535819
 30
0.0
 11
1731.1510831181811
 21
1068.1958450535819
 31
0.0
  0
LINE
  5
7B18
  8
1
  6
CONTINUOUS
 10
1731.1510831181811
 20
868.19584505358227
 30
0.0
 11
1591.1510831181811
 21
868.19584505358227
 31
0.0
  0
LINE
  5
7B19
  8
1
  6
CONTINUOUS
 10
1591.1510831181811
 20
868.19584505358227
 30
0.0
 11
1731.1510831181811
 21
1068.1958450535819
 31
0.0
  0
LINE
  5
7B1A
  8
1
  6
CONTINUOUS
 10
1731.1510831181811
 20
868.19584505358227
 30
0.0
 11
1591.1510831181811
 21
1068.1958450535819
 31
0.0
  0
LINE
  5
7B1B
  8
1
  6
CONTINUOUS
 10
1591.3510831181809
 20
948.19584505358216
 30
0.0
 11
1583.3510831181809
 21
948.19584505358216
 31
0.0
  0
LINE
  5
7B1C
  8
1
  6
CONTINUOUS
 10
1730.951083118181
 20
948.19584505358216
 30
0.0
 11
1739.1510831181811
 21
948.19584505358216
 31
0.0
  0
LINE
  5
7B1D
  8
1
  6
CONTINUOUS
 10
1671.1510831181811
 20
843.19584505358227
 30
0.0
 11
1671.1510831181811
 21
793.19584505358216
 31
0.0
  0
LINE
  5
7B1E
  8
1
  6
CONTINUOUS
 10
1793.1510831181811
 20
746.19584505358216
 30
0.0
 11
1793.1510831181811
 21
721.19584505358216
 31
0.0
  0
LINE
  5
7B1F
  8
1
  6
CONTINUOUS
 10
1603.1510831181811
 20
1219.1958450535819
 30
0.0
 11
1719.1510831181811
 21
1219.1958450535819
 31
0.0
  0
LINE
  5
7B20
  8
1
  6
CONTINUOUS
 10
1591.3510831181809
 20
1188.1958450535819
 30
0.0
 11
1583.3510831181809
 21
1188.1958450535819
 31
0.0
  0
ARC
  5
7B21
  8
1
  6
CONTINUOUS
 10
1603.1510831181811
 20
1207.1958450535819
 30
0.0
 40
12.0
 50
90.0
 51
180.0
  0
LINE
  5
7B22
  8
1
  6
CONTINUOUS
 10
1730.951083118181
 20
1188.1958450535819
 30
0.0
 11
1739.1510831181811
 21
1188.1958450535819
 31
0.0
  0
ARC
  5
7B23
  8
1
  6
CONTINUOUS
 10
1719.1510831181811
 20
1207.1958450535819
 30
0.0
 40
12.0
 50
0.0
 51
90.0
  0
LINE
  5
7B24
  8
4
  6
CONTINUOUS
 10
1850.0
 20
500.0
 30
0.0
 11
1850.0
 21
300.0
 31
0.0
  0
LINE
  5
7B25
  8
4
  6
CONTINUOUS
 10
1150.0
 20
500.0
 30
0.0
 11
1150.0
 21
300.0
 31
0.0
  0
LINE
  5
7B26
  8
4
  6
CONTINUOUS
 10
650.0
 20
500.0
 30
0.0
 11
650.0
 21
300.0
 31
0.0
  0
LINE
  5
7B29
  8
4
  6
CONTINUOUS
 10
650.0
 20
300.0
 30
0.0
 11
1850.0
 21
300.0
 31
0.0
  0
LINE
  5
7B2A
  8
4
  6
CONTINUOUS
 10
650.0
 20
400.0
 30
0.0
 11
1850.0
 21
400.0
 31
0.0
  0
TEXT
  5
7B2B
  8
4
  6
CONTINUOUS
 10
688.50208099999998
 20
431.543026
 30
0.0
 40
50.0
  1
機器名称
  0
TEXT
  5
7B2C
  8
4
  6
CONTINUOUS
 10
686.258106
 20
321.64515699999993
 30
0.0
 40
50.0
  1
機器型番
  0
TEXT
  5
7B2D
  8
4
  6
CONTINUOUS
 10
1177.678744999999
 20
422.57176900000002
 30
0.0
 40
45.0
  1
ミツヤニューマルチファン
  0
TEXT
  5
7B2E
  8
4
  6
CONTINUOUS
 10
1186.6544960000001
 20
317.159584
 30
0.0
 40
50.0
  1
NM#1 1/4-1
  0
TEXT
  5
7B30
  8
4
  6
CONTINUOUS
 10
708.40746899999999
 20
2383.4288409999999
 30
0.0
 40
54.0
  1
天井吊防振ベット
  0
TEXT
  5
7B31
  8
4
  6
CONTINUOUS
 10
316.16759300000001
 20
2533.8809759999999
 30
0.0
 40
72.0
  1
ベルト駆動式片吸込片持多翼ファン
  0
LINE
  5
7B32
  8
4
  6
CONTINUOUS
 10
250.0
 20
2469.408754
 30
0.0
 11
1850.0
 21
2469.408754
 31
0.0
  0
LINE
  5
7B33
  8
4
  6
CONTINUOUS
 10
250.0
 20
2669.408754
 30
0.0
 11
1850.0
 21
2669.408754
 31
0.0
  0
LINE
  5
7B34
  8
4
  6
CONTINUOUS
 10
650.0
 20
500.0
 30
0.0
 11
1850.0
 21
500.0
 31
0.0
  0
LINE
  5
7B35
  8
4
  6
CONTINUOUS
 10
250.0
 20
2669.408754
 30
0.0
 11
250.0
 21
2469.408754
 31
0.0
  0
TEXT
  5
7B36
  8
4
  6
CONTINUOUS
 10
272.54863599999999
 20
2382.3194779999999
 30
0.0
 40
54.0
  1
右回転左横向
  0
TEXT
  5
7B37
  8
4
  6
CONTINUOUS
 10
1468.9695589999999
 20
2706.0610809999998
 30
0.0
 40
56.0
  1
No.
  0
TEXT
  5
7B38
  8
4
  6
CONTINUOUS
 10
1391.3020289999999
 20
2383.4288409999999
 30
0.0
 40
54.0
  1
縮尺：1/10
  0
LINE
  5
7B39
  8
4
  6
CONTINUOUS
 10
1850.0
 20
2669.408754
 30
0.0
 11
1850.0
 21
2469.408754
 31
0.0
  0
LINE
  5
7B3B
  8
4
  6
CONTINUOUS
 10
1440.617422
 20
2681.2635829999999
 30
0.0
 11
1440.617422
 21
2786.6522620000001
 31
0.0
  0
LINE
  5
7B3C
  8
4
  6
CONTINUOUS
 10
1440.617422
 20
2786.6522620000001
 30
0.0
 11
1850.0
 21
2786.6522620000001
 31
0.0
  0
LINE
  5
7B3D
  8
4
  6
CONTINUOUS
 10
1850.0
 20
2786.6522620000001
 30
0.0
 11
1850.0
 21
2681.2635829999999
 31
0.0
  0
LINE
  5
7B3E
  8
4
  6
CONTINUOUS
 10
1850.0
 20
2681.2635829999999
 30
0.0
 11
1440.617422
 21
2681.2635829999999
 31
0.0
  0
DIMENSION
  5
7B56
  8
3
  6
CONTINUOUS
  2
*D1
 10
690.09130157635411
 20
671.50561605358223
 30
0.0
 11
593.82080757635424
 21
671.50561605358223
 31
0.0
 70
   128
 13
505.09130157635423
 23
721.19584505358216
 33
0.0
 14
690.09130157635411
 24
746.19584505358216
 34
0.0
1001
ACAD
1000
DSTYLE
1002
{
1070
   287
1070
     3
1070
   287
1070
     3
1070
    40
1040
10.0
1070
   143
1040
0.039
1070
   172
1070
     1
1070
   271
1070
     0
1070
   279
1070
     0
1070
   288
1070
     1
1002
}
  0
DIMENSION
  5
7B62
  8
3
  6
CONTINUOUS
  2
*D2
 10
1185.091301576354
 20
671.50561605358223
 30
0.0
 11
937.59130157635423
 21
696.50561605358223
 31
0.0
 70
     0
 13
690.09130157635411
 23
746.19584505358216
 33
0.0
 14
1185.091301576354
 24
721.19584505358216
 34
0.0
1001
ACAD
1000
DSTYLE
1002
{
1070
   287
1070
     4
1070
   287
1070
     4
1070
    40
1040
10.0
1070
    75
1070
     1
1070
   143
1040
0.039
1070
   172
1070
     1
1070
   271
1070
     0
1070
   279
1070
     1
1070
   288
1070
     1
1002
}
  0
DIMENSION
  5
7B6F
  8
3
  6
CONTINUOUS
  2
*D3
 10
690.09130157635411
 20
1256.156502053582
 30
0.0
 11
610.65527757635425
 21
1256.156502053582
 31
0.0
 70
   128
 13
530.09130157635423
 23
1089.1958450535819
 33
0.0
 14
690.09130157635411
 24
1218.763034053582
 34
0.0
1001
ACAD
1000
DSTYLE
1002
{
1070
   287
1070
     3
1070
   287
1070
     3
1070
    40
1040
10.0
1070
   143
1040
0.039
1070
   172
1070
     1
1070
   271
1070
     0
1070
   279
1070
     0
1070
   288
1070
     1
1002
}
  0
DIMENSION
  5
7B7B
  8
3
  6
CONTINUOUS
  2
*D4
 10
869.09130157635411
 20
1256.156502053582
 30
0.0
 11
779.59130157635411
 21
1281.156502053582
 31
0.0
 70
     0
 13
690.09130157635411
 23
1218.763034053582
 33
0.0
 14
869.09130157635411
 24
1068.1958450535819
 34
0.0
1001
ACAD
1000
DSTYLE
1002
{
1070
   287
1070
     4
1070
   287
1070
     4
1070
    40
1040
10.0
1070
    75
1070
     1
1070
   143
1040
0.039
1070
   172
1070
     1
1070
   271
1070
     0
1070
   279
1070
     1
1070
   288
1070
     1
1002
}
  0
DIMENSION
  5
7B88
  8
3
  6
CONTINUOUS
  2
*D5
 10
469.04620457635428
 20
868.19584505358227
 30
0.0
 11
469.04620457635411
 21
972.53402705358224
 31
0.0
 70
   128
 13
530.09130157635423
 23
1068.1958450535819
 33
0.0
 14
530.09130157635423
 24
868.19584505358227
 34
0.0
 50
90.0
1001
ACAD
1000
DSTYLE
1002
{
1070
   287
1070
     3
1070
   287
1070
     3
1070
    40
1040
10.0
1070
   143
1040
0.039
1070
   172
1070
     1
1070
   271
1070
     0
1070
   279
1070
     0
1070
   288
1070
     1
1002
}
  0
DIMENSION
  5
7B95
  8
3
  6
CONTINUOUS
  2
*D6
 10
412.94511957635422
 20
857.19584505358216
 30
0.0
 11
412.9451195763541
 21
966.61056005358228
 31
0.0
 70
   128
 13
530.09130157635423
 23
1068.1958450535819
 33
0.0
 14
545.09130157635423
 24
857.19584505358216
 34
0.0
 50
90.0
1001
ACAD
1000
DSTYLE
1002
{
1070
   287
1070
     3
1070
   287
1070
     3
1070
    40
1040
10.0
1070
   143
1040
0.039
1070
   172
1070
     1
1070
   271
1070
     0
1070
   279
1070
     0
1070
   288
1070
     1
1002
}
  0
DIMENSION
  5
7BA2
  8
3
  6
CONTINUOUS
  2
*D7
 10
352.73906957635432
 20
1068.1958450535819
 30
0.0
 11
352.7390695763541
 21
1159.4773190535821
 31
0.0
 70
   128
 13
690.09130157635411
 23
1218.763034053582
 33
0.0
 14
530.09130157635423
 24
1068.1958450535819
 34
0.0
 50
90.0
1001
ACAD
1000
DSTYLE
1002
{
1070
   287
1070
     3
1070
   287
1070
     3
1070
    40
1040
10.0
1070
   143
1040
0.039
1070
   172
1070
     1
1070
   271
1070
     0
1070
   279
1070
     0
1070
   288
1070
     1
1002
}
  0
DIMENSION
  5
7BAE
  8
3
  6
CONTINUOUS
  2
*D8
 10
352.7390695763541
 20
793.19584505358216
 30
0.0
 11
327.73906957635398
 21
930.69584505358227
 31
0.0
 70
     0
 13
530.09130157635423
 23
1068.1958450535819
 33
0.0
 14
530.09130157635423
 24
793.19584505358216
 34
0.0
 50
90.0
1001
ACAD
1000
DSTYLE
1002
{
1070
   287
1070
     4
1070
   287
1070
     4
1070
    40
1040
10.0
1070
    75
1070
     1
1070
   143
1040
0.039
1070
   172
1070
     1
1070
   271
1070
     0
1070
   279
1070
     1
1070
   288
1070
     1
1002
}
  0
DIMENSION
  5
7BBE
  8
3
  6
CONTINUOUS
  2
*D9
 10
352.7390695763541
 20
746.19584505358216
 30
0.0
 11
352.7390695763541
 21
775.23709505358215
 31
0.0
 70
   128
 13
530.09130157635423
 23
793.19584505358216
 33
0.0
 14
505.09130157635423
 24
746.19584505358216
 34
0.0
 50
90.0
1001
ACAD
1000
DSTYLE
1002
{
1070
   287
1070
     4
1070
   287
1070
     4
1070
    40
1040
10.0
1070
    75
1070
     1
1070
   143
1040
0.039
1070
   172
1070
     1
1070
   271
1070
     0
1070
   279
1070
     1
1070
   288
1070
     1
1070
     7
1000
DOT
1002
}
  0
DIMENSION
  5
7BCE
  8
3
  6
CONTINUOUS
  2
*D10
 10
352.73906957635421
 20
721.19584505358216
 30
0.0
 11
352.7390695763541
 21
646.91013076786805
 31
0.0
 70
   128
 13
505.09130157635423
 23
746.19584505358216
 33
0.0
 14
505.09130157635423
 24
721.19584505358216
 34
0.0
 50
90.0
1001
ACAD
1000
DSTYLE
1002
{
1070
   287
1070
     3
1070
   287
1070
     3
1070
    40
1040
10.0
1070
   143
1040
0.039
1070
   172
1070
     1
1070
   271
1070
     0
1070
   279
1070
     0
1070
   288
1070
     1
1070
     6
1000
DOT
1002
}
  0
DIMENSION
  5
7C01
  8
3
  6
CONTINUOUS
  2
*D11
 10
288.88416857635428
 20
721.19584505358216
 30
0.0
 11
288.88416857635423
 21
977.54618705358223
 31
0.0
 70
   128
 13
690.09130157635411
 23
1218.763034053582
 33
0.0
 14
505.09130157635423
 24
721.19584505358216
 34
0.0
 50
90.0
1001
ACAD
1000
DSTYLE
1002
{
1070
   287
1070
     3
1070
   287
1070
     3
1070
    40
1040
10.0
1070
   143
1040
0.039
1070
   172
1070
     1
1070
   271
1070
     0
1070
   279
1070
     0
1070
   288
1070
     1
1002
}
  0
DIMENSION
  5
7C1B
  8
3
  6
CONTINUOUS
  2
*D12
 10
1185.091301576354
 20
1628.4167838741071
 30
0.0
 11
831.65080357635418
 21
1628.4167838741071
 31
0.0
 70
   128
 13
505.09130157635423
 23
1741.050829874107
 33
0.0
 14
1185.091301576354
 24
1741.050829874107
 34
0.0
1001
ACAD
1000
DSTYLE
1002
{
1070
   287
1070
     3
1070
   287
1070
     3
1070
    40
1040
10.0
1070
   143
1040
0.039
1070
   172
1070
     1
1070
   271
1070
     0
1070
   279
1070
     0
1070
   288
1070
     1
1002
}
  0
DIMENSION
  5
7C28
  8
3
  6
CONTINUOUS
  2
*D13
 10
1280.4595245763539
 20
1741.050829874107
 30
0.0
 11
1280.4595245763539
 21
1945.5499618741071
 31
0.0
 70
   128
 13
1185.091301576354
 23
2171.050829874107
 33
0.0
 14
1185.091301576354
 24
1741.050829874107
 34
0.0
 50
90.0
1001
ACAD
1000
DSTYLE
1002
{
1070
   287
1070
     3
1070
   287
1070
     3
1070
    40
1040
10.0
1070
   143
1040
0.039
1070
   172
1070
     1
1070
   271
1070
     0
1070
   279
1070
     0
1070
   288
1070
     1
1002
}
  0
LINE
  5
7C29
  8
2
  6
CENTER
 10
923.82407557635429
 20
2039.050829874107
 30
0.0
 11
488.6587805763541
 21
2039.050829874107
 31
0.0
  0
LINE
  5
7C2A
  8
2
  6
CENTER
 10
690.09130157635411
 20
1694.0305448741069
 30
0.0
 11
690.09130157635411
 21
2156.0676838741069
 31
0.0
  0
LINE
  5
7C2B
  8
2
  6
CENTER
 10
1661.1510831181811
 20
682.29019005358225
 30
0.0
 11
1661.1510831181811
 21
1268.363763053582
 31
0.0
  0
DIMENSION
  5
7C3A
  8
3
  6
CONTINUOUS
  2
*D14
 10
1731.1510831181811
 20
1264.966443053582
 30
0.0
 11
1656.865369118181
 21
1264.966443053582
 31
0.0
 70
   128
 13
1591.1510831181811
 23
1207.1958450535819
 33
0.0
 14
1731.1510831181811
 24
1207.1958450535819
 34
0.0
1001
ACAD
1000
DSTYLE
1002
{
1070
   287
1070
     3
1070
   287
1070
     3
1070
    40
1040
10.0
1070
   143
1040
0.039
1070
   172
1070
     1
1070
   271
1070
     0
1070
   279
1070
     0
1070
   288
1070
     1
1002
}
  0
DIMENSION
  5
7C47
  8
3
  6
CONTINUOUS
  2
*D15
 10
1661.1510831181811
 20
1323.2897890535819
 30
0.0
 11
1513.8140501181811
 21
1323.2897890535819
 31
0.0
 70
   128
  1
MAX\P300
 13
1361.1510831181811
 23
1178.1958450535819
 33
0.0
 14
1661.1510831181811
 24
1308.7694270535819
 34
0.0
1001
ACAD
1000
DSTYLE
1002
{
1070
   287
1070
     3
1070
   287
1070
     3
1070
    40
1040
10.0
1070
   143
1040
0.039
1070
   172
1070
     1
1070
   271
1070
     0
1070
   279
1070
     0
1070
   288
1070
     1
1002
}
  0
DIMENSION
  5
7C55
  8
3
  6
CONTINUOUS
  2
*D16
 10
1739.1510831181811
 20
1323.2897890535819
 30
0.0
 11
1696.7778671181809
 21
1323.495521053582
 31
0.0
 70
   128
 13
1661.1510831181811
 23
1308.7694270535819
 33
0.0
 14
1739.1510831181811
 24
1188.1958450535819
 34
0.0
1001
ACAD
1000
DSTYLE
1002
{
1070
   287
1070
     4
1070
   287
1070
     4
1070
    40
1040
10.0
1070
    75
1070
     1
1070
   143
1040
0.039
1070
   172
1070
     1
1070
   271
1070
     0
1070
   279
1070
     1
1070
   288
1070
     1
1002
}
  0
DIMENSION
  5
7C78
  8
3
  6
CONTINUOUS
  2
*D17
 10
1661.1510831181811
 20
656.0172490535823
 30
0.0
 11
1511.8338601181811
 21
656.0172490535823
 31
0.0
 70
   128
 13
1363.1510831181811
 23
721.19584505358216
 33
0.0
 14
1661.1510831181811
 24
721.19584505358216
 34
0.0
1001
ACAD
1000
DSTYLE
1002
{
1070
   287
1070
     3
1070
   287
1070
     3
1070
    40
1040
10.0
1070
   143
1040
0.039
1070
   172
1070
     1
1070
   271
1070
     0
1070
   279
1070
     0
1070
   288
1070
     1
1002
}
  0
DIMENSION
  5
7C84
  8
3
  6
CONTINUOUS
  2
*D18
 10
1793.1510831181811
 20
656.0172490535823
 30
0.0
 11
1727.1510831181811
 21
681.0172490535823
 31
0.0
 70
     0
 13
1661.1510831181811
 23
721.19584505358216
 33
0.0
 14
1793.1510831181811
 24
721.19584505358216
 34
0.0
1001
ACAD
1000
DSTYLE
1002
{
1070
   287
1070
     4
1070
   287
1070
     4
1070
    40
1040
10.0
1070
    75
1070
     1
1070
   143
1040
0.039
1070
   172
1070
     1
1070
   271
1070
     0
1070
   279
1070
     1
1070
   288
1070
     1
1002
}
  0
LINE
  5
7C86
  8
3
  6
CONTINUOUS
 10
1739.1510831181811
 20
1168.1958450535819
 30
0.0
 11
1752.6580721181811
 21
1168.1958450535819
 31
0.0
  0
LINE
  5
7C88
  8
3
  6
CONTINUOUS
 10
1739.1510831181811
 20
968.19584505358205
 30
0.0
 11
1750.5730141181809
 21
968.19584505358205
 31
0.0
  0
DIMENSION
  5
7C95
  8
3
  6
CONTINUOUS
  2
*D19
 10
1811.0396961181809
 20
968.19584505358205
 30
0.0
 11
1811.0396961181809
 21
1065.733602053582
 31
0.0
 70
   128
 13
1739.1510831181811
 23
1168.1958450535819
 33
0.0
 14
1739.1510831181811
 24
968.19584505358205
 34
0.0
 50
90.0
1001
ACAD
1000
DSTYLE
1002
{
1070
   287
1070
     3
1070
   287
1070
     3
1070
     3
1000
φ<>
1070
    40
1040
10.0
1070
   143
1040
0.039
1070
   172
1070
     1
1070
   271
1070
     0
1070
   279
1070
     0
1070
   288
1070
     1
1002
}
  0
LINE
  5
7C96
  8
2
  6
CENTER
 10
1131.0743215763539
 20
1068.1958450535819
 30
0.0
 11
534.84003357635424
 21
1068.1958450535819
 31
0.0
  0
DIMENSION
  5
7CEC
  8
3
  2
*D20
 10
1185.091301576354
 20
1312.2899561673239
 30
0.0
 11
848.21044714786512
 21
1312.2899561673239
 31
0.0
 70
   128
 13
530.09130157635423
 23
1089.1958450535819
 33
0.0
 14
1185.091301576354
 24
771.19584505358216
 34
0.0
1001
ACAD
1000
DSTYLE
1002
{
1070
   287
1070
     3
1070
   287
1070
     3
1070
    40
1040
10.0
1070
   143
1040
0.039
1070
   172
1070
     1
1070
   271
1070
     0
1070
   279
1070
     0
1070
   288
1070
     1
1002
}
  0
ENDSEC
  0
EOF
