  0
SECTION
  2
HEADER
  9
$ACADVER
  1
AC1009
  9
$INSBASE
 10
0.0
 20
0.0
 30
0.0
  9
$EXTMIN
 10
250.0
 20
300.0
 30
0.0
  9
$EXTMAX
 10
1850.0
 20
2786.6522620000001
 30
0.0
  9
$LIMMIN
 10
0.0
 20
0.0
  9
$LIMMAX
 10
297.0
 20
210.0
  9
$ORTHOMODE
 70
     0
  9
$REGENMODE
 70
     1
  9
$FILLMODE
 70
     0
  9
$QTEXTMODE
 70
     0
  9
$MIRRTEXT
 70
     1
  9
$DRAGMODE
 70
     2
  9
$LTSCALE
 40
100.0
  9
$OSMODE
 70
    37
  9
$ATTMODE
 70
     1
  9
$TEXTSIZE
 40
180.0
  9
$TRACEWID
 40
0.05
  9
$TEXTSTYLE
  7
STANDARD
  9
$CLAYER
  8
3
  9
$CELTYPE
  6
BYLAYER
  9
$CECOLOR
 62
   256
  9
$DIMSCALE
 40
10.0
  9
$DIMASZ
 40
2.0
  9
$DIMEXO
 40
0.5
  9
$DIMDLI
 40
10.0
  9
$DIMRND
 40
0.0
  9
$DIMDLE
 40
0.0
  9
$DIMEXE
 40
1.0
  9
$DIMTP
 40
1.0
  9
$DIMTM
 40
1.0
  9
$DIMTXT
 40
3.0
  9
$DIMCEN
 40
0.0
  9
$DIMTSZ
 40
0.0
  9
$DIMTOL
 70
     0
  9
$DIMLIM
 70
     0
  9
$DIMTIH
 70
     0
  9
$DIMTOH
 70
     0
  9
$DIMSE1
 70
     0
  9
$DIMSE2
 70
     0
  9
$DIMTAD
 70
     1
  9
$DIMZIN
 70
     8
  9
$DIMBLK
  1

  9
$DIMASO
 70
     1
  9
$DIMSHO
 70
     1
  9
$DIMPOST
  1

  9
$DIMAPOST
  1

  9
$DIMALT
 70
     0
  9
$DIMALTD
 70
     2
  9
$DIMALTF
 40
0.039
  9
$DIMLFAC
 40
1.0
  9
$DIMTOFL
 70
     1
  9
$DIMTVP
 40
0.0
  9
$DIMTIX
 70
     0
  9
$DIMSOXD
 70
     0
  9
$DIMSAH
 70
     1
  9
$DIMBLK1
  1
OPEN
  9
$DIMBLK2
  1
OPEN
  9
$DIMSTYLE
  2
IGA
  9
$DIMCLRD
 70
     0
  9
$DIMCLRE
 70
     0
  9
$DIMCLRT
 70
     0
  9
$DIMTFAC
 40
10.0
  9
$DIMGAP
 40
1.0
  9
$LUNITS
 70
     2
  9
$LUPREC
 70
     3
  9
$SKETCHINC
 40
0.1
  9
$FILLETRAD
 40
50.0
  9
$AUNITS
 70
     0
  9
$AUPREC
 70
     0
  9
$MENU
  1
acad
  9
$ELEVATION
 40
0.0
  9
$PELEVATION
 40
0.0
  9
$THICKNESS
 40
0.0
  9
$LIMCHECK
 70
     0
  9
$BLIPMODE
 70
     0
  9
$CHAMFERA
 40
0.5
  9
$CHAMFERB
 40
0.5
  9
$SKPOLY
 70
     0
  9
$TDCREATE
 40
2450738.586247569
  9
$TDUPDATE
 40
2454953.8609137498
  9
$TDINDWG
 40
0.0059234028
  9
$TDUSRTIMER
 40
0.0059234028
  9
$USRTIMER
 70
     1
  9
$ANGBASE
 50
0.0
  9
$ANGDIR
 70
     0
  9
$PDMODE
 70
     0
  9
$PDSIZE
 40
0.0
  9
$PLINEWID
 40
0.0
  9
$COORDS
 70
     1
  9
$SPLFRAME
 70
     0
  9
$SPLINETYPE
 70
     6
  9
$SPLINESEGS
 70
     8
  9
$ATTDIA
 70
     0
  9
$ATTREQ
 70
     1
  9
$HANDLING
 70
 10241
  9
$HANDSEED
  5
7FCD
  9
$SURFTAB1
 70
     6
  9
$SURFTAB2
 70
     6
  9
$SURFTYPE
 70
     6
  9
$SURFU
 70
     6
  9
$SURFV
 70
     6
  9
$UCSNAME
  2

  9
$UCSORG
 10
0.0
 20
0.0
 30
0.0
  9
$UCSXDIR
 10
1.0
 20
0.0
 30
0.0
  9
$UCSYDIR
 10
0.0
 20
1.0
 30
0.0
  9
$PUCSNAME
  2

  9
$PUCSORG
 10
0.0
 20
0.0
 30
0.0
  9
$PUCSXDIR
 10
1.0
 20
0.0
 30
0.0
  9
$PUCSYDIR
 10
0.0
 20
1.0
 30
0.0
  9
$USERI1
 70
     0
  9
$USERI2
 70
     0
  9
$USERI3
 70
     0
  9
$USERI4
 70
     0
  9
$USERI5
 70
     0
  9
$USERR1
 40
0.0
  9
$USERR2
 40
0.0
  9
$USERR3
 40
0.0
  9
$USERR4
 40
0.0
  9
$USERR5
 40
0.0
  9
$WORLDVIEW
 70
     1
  9
$SHADEDGE
 70
     3
  9
$SHADEDIF
 70
    70
  9
$TILEMODE
 70
     1
  9
$MAXACTVP
 70
    16
  9
$PLIMCHECK
 70
     0
  9
$PEXTMIN
 10
1.0000000000000000E+020
 20
1.0000000000000000E+020
 30
1.0000000000000000E+020
  9
$PEXTMAX
 10
-1.0000000000000000E+020
 20
-1.0000000000000000E+020
 30
-1.0000000000000000E+020
  9
$PLIMMIN
 10
0.0
 20
0.0
  9
$PLIMMAX
 10
12.0
 20
9.0
  9
$UNITMODE
 70
     0
  9
$VISRETAIN
 70
     0
  9
$PLINEGEN
 70
     0
  9
$PSLTSCALE
 70
     1
  0
ENDSEC
  0
SECTION
  2
TABLES
  0
TABLE
  2
VPORT
 70
     2
  0
VPORT
  2
*ACTIVE
 70
     0
 10
0.0
 20
0.0
 11
1.0
 21
1.0
 12
2724.1281157123658
 22
1815.1186434806989
 13
0.0
 23
0.0
 14
10.0
 24
10.0
 15
10.0
 25
10.0
 16
0.0
 26
0.0
 36
1.0
 17
0.0
 27
0.0
 37
0.0
 40
3552.2128564519362
 41
1.5051150895140659
 42
50.0
 43
0.0
 44
0.0
 50
0.0
 51
0.0
 71
     0
 72
   100
 73
     1
 74
     0
 75
     0
 76
     0
 77
     0
 78
     0
  0
ENDTAB
  0
TABLE
  2
LTYPE
 70
     2
  0
LTYPE
  2
CONTINUOUS
 70
     0
  3
Solid line
 72
    65
 73
     0
 40
0.0
  0
LTYPE
  2
CENTER
 70
     0
  3
____ _ ____ _ ____ _ ____ _ ____ _ ____ _ ____ 
 72
    65
 73
     4
 40
2.0
 49
1.25
 49
-0.25
 49
0.25
 49
-0.25
  0
ENDTAB
  0
TABLE
  2
LAYER
 70
     6
  0
LAYER
  2
0
 70
     0
 62
     7
  6
CONTINUOUS
  0
LAYER
  2
3
 70
     0
 62
     2
  6
CONTINUOUS
  0
LAYER
  2
2
 70
     0
 62
     3
  6
CENTER
  0
LAYER
  2
1
 70
     0
 62
     4
  6
CONTINUOUS
  0
LAYER
  2
4
 70
     0
 62
     7
  6
CONTINUOUS
  0
LAYER
  2
DEFPOINTS
 70
     0
 62
     7
  6
CONTINUOUS
  0
ENDTAB
  0
TABLE
  2
STYLE
 70
     1
  0
STYLE
  2
STANDARD
 70
     0
 40
0.0
 41
1.0
 50
0.0
 71
     0
 42
180.0
  3
simplex.shx
  4
extfont.shx
  0
ENDTAB
  0
TABLE
  2
VIEW
 70
     0
  0
ENDTAB
  0
TABLE
  2
UCS
 70
     0
  0
ENDTAB
  0
TABLE
  2
APPID
 70
     1
  0
APPID
  2
ACAD
 70
     0
  0
ENDTAB
  0
TABLE
  2
DIMSTYLE
 70
     1
  0
DIMSTYLE
  2
IGA
 70
     0
  3

  4

  5

  6
OPEN
  7
OPEN
 40
2.0
 41
2.0
 42
0.5
 43
10.0
 44
1.0
 45
0.0
 46
0.0
 47
1.0
 48
1.0
140
3.0
141
0.0
142
0.0
143
0.03937
144
1.0
145
0.0
146
10.0
147
1.0
 71
     0
 72
     0
 73
     0
 74
     0
 75
     0
 76
     0
 77
     1
 78
     8
170
     0
171
     2
172
     0
173
     1
174
     0
175
     0
176
     0
177
     0
178
     0
  0
ENDTAB
  0
ENDSEC
  0
SECTION
  2
BLOCKS
  0
BLOCK
  8
0
  2
$MODEL_SPACE
 70
     0
 10
0.0
 20
0.0
 30
0.0
  3
$MODEL_SPACE
  1

  0
ENDBLK
  5
1B
  8
0
  0
BLOCK
 67
     1
  8
0
  2
$PAPER_SPACE
 70
     0
 10
0.0
 20
0.0
 30
0.0
  3
$PAPER_SPACE
  1

  0
ENDBLK
  5
18
 67
     1
  8
0
  0
BLOCK
  8
0
  2
_OPEN
 70
     0
 10
0.0
 20
0.0
 30
0.0
  3
_OPEN
  1

  0
LINE
  5
7B47
  8
0
  6
BYBLOCK
 62
     0
 10
-1.0
 20
0.166667
 30
0.0
 11
0.0
 21
0.0
 31
0.0
  0
LINE
  5
7B48
  8
0
  6
BYBLOCK
 62
     0
 10
0.0
 20
0.0
 30
0.0
 11
-1.0
 21
-0.166667
 31
0.0
  0
LINE
  5
7B49
  8
0
  6
BYBLOCK
 62
     0
 10
0.0
 20
0.0
 30
0.0
 11
-1.0
 21
0.0
 31
0.0
  0
ENDBLK
  5
7B4A
  8
0
  0
BLOCK
  8
0
  2
*D1
 70
     1
 10
0.0
 20
0.0
 30
0.0
  3
*D1
  1

  0
LINE
  5
7F18
  8
3
  6
CONTINUOUS
 62
     0
 10
327.46319799999992
 20
763.48451345543833
 30
0.0
 11
327.46319799999992
 21
704.95657945543815
 31
0.0
  0
LINE
  5
7F19
  8
3
  6
CONTINUOUS
 62
     0
 10
822.46319799999992
 20
788.48451345543833
 30
0.0
 11
822.46319799999992
 21
704.95657945543815
 31
0.0
  0
LINE
  5
7F1A
  8
3
  6
CONTINUOUS
 62
     0
 10
347.46319799999992
 20
714.95657945543826
 30
0.0
 11
802.46319799999981
 21
714.95657945543826
 31
0.0
  0
INSERT
  5
7F1B
  8
3
  6
CONTINUOUS
 62
     0
  2
_OPEN
 10
327.46319799999992
 20
714.95657945543826
 30
0.0
 41
20.0
 42
20.0
 43
20.0
 50
180.0
  0
INSERT
  5
7F1C
  8
3
  6
CONTINUOUS
 62
     0
  2
_OPEN
 10
822.46319799999992
 20
714.95657945543826
 30
0.0
 41
20.0
 42
20.0
 43
20.0
  0
TEXT
  8
3
  40
30
  5
7FBA
  62
0
  72
0
  71
0
 10
523.471
 20
686.857
 30
0.000000
  1
495
  0
POINT
  5
7F1E
  8
DEFPOINTS
  6
CONTINUOUS
 62
     0
 10
327.46319799999992
 20
768.48451345543833
 30
0.0
  0
POINT
  5
7F1F
  8
DEFPOINTS
  6
CONTINUOUS
 62
     0
 10
822.46319799999992
 20
793.48451345543833
 30
0.0
  0
POINT
  5
7F20
  8
DEFPOINTS
  6
CONTINUOUS
 62
     0
 10
822.46319799999992
 20
714.95657945543826
 30
0.0
  0
ENDBLK
  5
7B64
  8
0
  0
BLOCK
  8
0
  2
*D2
 70
     1
 10
0.0
 20
0.0
 30
0.0
  3
*D2
  1

  0
LINE
  5
7F21
  8
3
  6
CONTINUOUS
 62
     0
 10
1007.463198
 20
763.48451345543833
 30
0.0
 11
1007.463198
 21
704.95657945543815
 31
0.0
  0
LINE
  5
7F22
  8
3
  6
CONTINUOUS
 62
     0
 10
842.46319799999992
 20
714.95657945543826
 30
0.0
 11
987.46319800000003
 21
714.95657945543826
 31
0.0
  0
INSERT
  5
7F23
  8
3
  6
CONTINUOUS
 62
     0
  2
_OPEN
 10
822.46319799999992
 20
714.95657945543826
 30
0.0
 41
20.0
 42
20.0
 43
20.0
 50
180.0
  0
INSERT
  5
7F24
  8
3
  6
CONTINUOUS
 62
     0
  2
_OPEN
 10
1007.463198
 20
714.95657945543826
 30
0.0
 41
20.0
 42
20.0
 43
20.0
  0
TEXT
  8
3
  40
30
  5
7FBB
  62
0
  72
0
  71
0
 10
854.963
 20
686.857
 30
0.000000
  1
185
  0
POINT
  5
7F26
  8
DEFPOINTS
  6
CONTINUOUS
 62
     0
 10
822.46319799999992
 20
793.48451345543833
 30
0.0
  0
POINT
  5
7F27
  8
DEFPOINTS
  6
CONTINUOUS
 62
     0
 10
1007.463198
 20
768.48451345543833
 30
0.0
  0
POINT
  5
7F28
  8
DEFPOINTS
  6
CONTINUOUS
 62
     0
 10
1007.463198
 20
714.95657945543826
 30
0.0
  0
ENDBLK
  5
7B70
  8
0
  0
BLOCK
  8
0
  2
*D3
 70
     1
 10
0.0
 20
0.0
 30
0.0
  3
*D3
  1

  0
LINE
  5
7F29
  8
3
  6
CONTINUOUS
 62
     0
 10
987.46319800000003
 20
1315.484513455438
 30
0.0
 11
1057.9916780000001
 21
1315.484513455438
 31
0.0
  0
LINE
  5
7F2A
  8
3
  6
CONTINUOUS
 62
     0
 10
987.46319800000003
 20
1115.484513455438
 30
0.0
 11
1057.9916780000001
 21
1115.484513455438
 31
0.0
  0
LINE
  5
7F2B
  8
3
  6
CONTINUOUS
 62
     0
 10
1047.9916780000001
 20
1295.484513455438
 30
0.0
 11
1047.9916780000001
 21
1135.484513455438
 31
0.0
  0
INSERT
  5
7F2C
  8
3
  6
CONTINUOUS
 62
     0
  2
_OPEN
 10
1047.9916780000001
 20
1315.484513455438
 30
0.0
 41
20.0
 42
20.0
 43
20.0
 50
90.0
  0
INSERT
  5
7F2D
  8
3
  6
CONTINUOUS
 62
     0
  2
_OPEN
 10
1047.9916780000001
 20
1115.484513455438
 30
0.0
 41
20.0
 42
20.0
 43
20.0
 50
270.0
  0
TEXT
  8
3
  40
30
  5
7FBC
  62
0
  72
0
  71
0
 10
962.992
 20
1173.84
 30
0.000000
  1
200
  0
POINT
  5
7F2F
  8
DEFPOINTS
  6
CONTINUOUS
 62
     0
 10
982.46319799999992
 20
1315.484513455438
 30
0.0
  0
POINT
  5
7F30
  8
DEFPOINTS
  6
CONTINUOUS
 62
     0
 10
982.46319799999992
 20
1115.484513455438
 30
0.0
  0
POINT
  5
7F31
  8
DEFPOINTS
  6
CONTINUOUS
 62
     0
 10
1047.9916780000001
 20
1115.484513455438
 30
0.0
  0
ENDBLK
  5
7B7D
  8
0
  0
BLOCK
  8
0
  2
*D4
 70
     1
 10
0.0
 20
0.0
 30
0.0
  3
*D4
  1

  0
LINE
  5
7F32
  8
3
  6
CONTINUOUS
 62
     0
 10
972.46319799999992
 20
1326.484513455438
 30
0.0
 11
1111.1168525245839
 21
1326.484513455438
 31
0.0
  0
LINE
  5
7F33
  8
3
  6
CONTINUOUS
 62
     0
 10
986.46319799999981
 20
1115.484513455438
 30
0.0
 11
1111.1168525245839
 21
1115.484513455438
 31
0.0
  0
LINE
  5
7F34
  8
3
  6
CONTINUOUS
 62
     0
 10
1101.1168525245839
 20
1306.484513455438
 30
0.0
 11
1101.1168525245839
 21
1135.484513455438
 31
0.0
  0
INSERT
  5
7F35
  8
3
  6
CONTINUOUS
 62
     0
  2
_OPEN
 10
1101.1168525245839
 20
1326.484513455438
 30
0.0
 41
20.0
 42
20.0
 43
20.0
 50
90.0
  0
INSERT
  5
7F36
  8
3
  6
CONTINUOUS
 62
     0
  2
_OPEN
 10
1101.1168525245839
 20
1115.484513455438
 30
0.0
 41
20.0
 42
20.0
 43
20.0
 50
270.0
  0
TEXT
  8
3
  40
30
  5
7FBD
  62
0
  72
0
  71
0
 10
1016.12
 20
1180.65
 30
0.000000
  1
211
  0
POINT
  5
7F38
  8
DEFPOINTS
  6
CONTINUOUS
 62
     0
 10
967.46319799999992
 20
1326.484513455438
 30
0.0
  0
POINT
  5
7F39
  8
DEFPOINTS
  6
CONTINUOUS
 62
     0
 10
981.46319799999992
 20
1115.484513455438
 30
0.0
  0
POINT
  5
7F3A
  8
DEFPOINTS
  6
CONTINUOUS
 62
     0
 10
1101.1168525245839
 20
1115.484513455438
 30
0.0
  0
ENDBLK
  5
7D30
  8
0
  0
BLOCK
  8
0
  2
*D5
 70
     1
 10
0.0
 20
0.0
 30
0.0
  3
*D5
  1

  0
LINE
  5
7F3B
  8
3
  6
CONTINUOUS
 62
     0
 10
987.46319800000003
 20
840.48451345543833
 30
0.0
 11
1111.1168525245839
 21
840.48451345543833
 31
0.0
  0
LINE
  5
7F3C
  8
3
  6
CONTINUOUS
 62
     0
 10
1101.1168525245839
 20
1095.484513455438
 30
0.0
 11
1101.1168525245839
 21
860.48451345543822
 31
0.0
  0
INSERT
  5
7F3D
  8
3
  6
CONTINUOUS
 62
     0
  2
_OPEN
 10
1101.1168525245839
 20
1115.484513455438
 30
0.0
 41
20.0
 42
20.0
 43
20.0
 50
90.0
  0
INSERT
  5
7F3E
  8
3
  6
CONTINUOUS
 62
     0
  2
_OPEN
 10
1101.1168525245839
 20
840.48451345543833
 30
0.0
 41
20.0
 42
20.0
 43
20.0
 50
270.0
  0
TEXT
  8
3
  40
30
  5
7FBE
  62
0
  72
0
  71
0
 10
1016.12
 20
924.885
 30
0.000000
  1
275
  0
POINT
  5
7F40
  8
DEFPOINTS
  6
CONTINUOUS
 62
     0
 10
981.46319799999992
 20
1115.484513455438
 30
0.0
  0
POINT
  5
7F41
  8
DEFPOINTS
  6
CONTINUOUS
 62
     0
 10
982.46319799999992
 20
840.48451345543833
 30
0.0
  0
POINT
  5
7F42
  8
DEFPOINTS
  6
CONTINUOUS
 62
     0
 10
1101.1168525245839
 20
840.48451345543833
 30
0.0
  0
ENDBLK
  5
7D3A
  8
0
  0
BLOCK
  8
0
  2
*D6
 70
     1
 10
0.0
 20
0.0
 30
0.0
  3
*D6
  1

  0
LINE
  5
7DAD
  8
0
  6
BYBLOCK
 62
     0
 10
1012.463198
 20
793.48451345543833
 30
0.0
 11
1111.1168525245839
 21
793.48451345543833
 31
0.0
  0
LINE
  5
7DAE
  8
0
  6
BYBLOCK
 62
     0
 10
1101.1168525245839
 20
860.48451345543822
 30
0.0
 11
1101.1168525245839
 21
880.48451345543833
 31
0.0
  0
LINE
  5
7DAF
  8
0
  6
BYBLOCK
 62
     0
 10
1101.1168525245839
 20
773.48451345543833
 30
0.0
 11
1101.1168525245839
 21
753.48451345543833
 31
0.0
  0
TEXT
  5
7DB0
  8
3
 62
     0
 10
1156.8035866453749
 20
788.84043437395792
 30
0.0
 40
30.0
  1
47
 50
90.0
  0
LINE
  5
7DB1
  8
0
  6
BYBLOCK
 62
     0
 10
1101.1168525245839
 20
840.48451345543833
 30
0.0
 11
1101.1168525245839
 21
793.48451345543833
 31
0.0
  0
INSERT
  5
7DB2
  8
0
  6
BYBLOCK
 62
     0
  2
_OPEN
 10
1101.1168525245839
 20
840.48451345543833
 30
0.0
 41
20.0
 42
20.0
 43
20.0
 50
270.0
  0
INSERT
  5
7DB3
  8
0
  6
BYBLOCK
 62
     0
  2
_DOT
 10
1101.1168525245839
 20
793.48451345543833
 30
0.0
 41
20.0
 42
20.0
 43
20.0
 50
90.0
  0
POINT
  5
7DB4
  8
DEFPOINTS
  6
BYBLOCK
 62
     0
 10
982.46319799999992
 20
840.48451345543833
 30
0.0
  0
POINT
  5
7DB5
  8
DEFPOINTS
  6
BYBLOCK
 62
     0
 10
1007.463198
 20
793.48451345543833
 30
0.0
  0
POINT
  5
7DB6
  8
DEFPOINTS
  6
BYBLOCK
 62
     0
 10
1101.1168525245839
 20
793.48451345543833
 30
0.0
  0
ENDBLK
  5
7DB7
  8
0
  0
BLOCK
  8
0
  2
*D7
 70
     1
 10
0.0
 20
0.0
 30
0.0
  3
*D7
  1

  0
LINE
  5
7F43
  8
3
  6
CONTINUOUS
 62
     0
 10
1012.463198
 20
793.48451345543833
 30
0.0
 11
1111.1168525245839
 21
793.48451345543833
 31
0.0
  0
LINE
  5
7F44
  8
3
  6
CONTINUOUS
 62
     0
 10
1012.463198
 20
768.48451345543833
 30
0.0
 11
1111.1168525245839
 21
768.48451345543833
 31
0.0
  0
LINE
  5
7F45
  8
3
  6
CONTINUOUS
 62
     0
 10
1101.1168525245839
 20
813.48451345543833
 30
0.0
 11
1101.1168525245839
 21
833.48451345543833
 31
0.0
  0
LINE
  5
7F46
  8
3
  6
CONTINUOUS
 62
     0
 10
1101.1168525245839
 20
748.48451345543833
 30
0.0
 11
1101.1168525245839
 21
659.91308488400955
 31
0.0
  0
LINE
  5
7F47
  8
3
  6
CONTINUOUS
 62
     0
 10
1101.1168525245839
 20
793.48451345543833
 30
0.0
 11
1101.1168525245839
 21
768.48451345543833
 31
0.0
  0
INSERT
  5
7F48
  8
3
  6
CONTINUOUS
 62
     0
  2
_DOT
 10
1101.1168525245839
 20
793.48451345543833
 30
0.0
 41
20.0
 42
20.0
 43
20.0
 50
270.0
  0
INSERT
  5
7F49
  8
3
  6
CONTINUOUS
 62
     0
  2
_OPEN
 10
1101.1168525245839
 20
768.48451345543833
 30
0.0
 41
20.0
 42
20.0
 43
20.0
 50
90.0
  0
TEXT
  8
3
  40
30
  5
7FBF
  62
0
  72
0
  71
0
 10
1016.12
 20
641.099
 30
0.000000
  1
25
  0
POINT
  5
7F4B
  8
DEFPOINTS
  6
CONTINUOUS
 62
     0
 10
1007.463198
 20
793.48451345543833
 30
0.0
  0
POINT
  5
7F4C
  8
DEFPOINTS
  6
CONTINUOUS
 62
     0
 10
1007.463198
 20
768.48451345543833
 30
0.0
  0
POINT
  5
7F4D
  8
DEFPOINTS
  6
CONTINUOUS
 62
     0
 10
1101.1168525245839
 20
768.48451345543833
 30
0.0
  0
ENDBLK
  5
7DEA
  8
0
  0
BLOCK
  8
0
  2
*D8
 70
     1
 10
0.0
 20
0.0
 30
0.0
  3
*D8
  1

  0
LINE
  5
7F4E
  8
3
  6
CONTINUOUS
 62
     0
 10
987.46319800000003
 20
1336.484513455438
 30
0.0
 11
1199.304231880667
 21
1336.484513455438
 31
0.0
  0
LINE
  5
7F4F
  8
3
  6
CONTINUOUS
 62
     0
 10
1012.463198
 20
768.48451345543833
 30
0.0
 11
1199.304231880667
 21
768.48451345543833
 31
0.0
  0
LINE
  5
7F50
  8
3
  6
CONTINUOUS
 62
     0
 10
1189.304231880667
 20
1316.484513455438
 30
0.0
 11
1189.304231880667
 21
788.48451345543833
 31
0.0
  0
INSERT
  5
7F51
  8
3
  6
CONTINUOUS
 62
     0
  2
_OPEN
 10
1189.304231880667
 20
1336.484513455438
 30
0.0
 41
20.0
 42
20.0
 43
20.0
 50
90.0
  0
INSERT
  5
7F52
  8
3
  6
CONTINUOUS
 62
     0
  2
_OPEN
 10
1189.304231880667
 20
768.48451345543833
 30
0.0
 41
20.0
 42
20.0
 43
20.0
 50
270.0
  0
TEXT
  8
3
  40
30
  5
7FC0
  62
0
  72
0
  71
0
 10
1104.30
 20
988.471
 30
0.000000
  1
568
  0
POINT
  5
7F54
  8
DEFPOINTS
  6
CONTINUOUS
 62
     0
 10
982.46319799999992
 20
1336.484513455438
 30
0.0
  0
POINT
  5
7F55
  8
DEFPOINTS
  6
CONTINUOUS
 62
     0
 10
1007.463198
 20
768.48451345543833
 30
0.0
  0
POINT
  5
7F56
  8
DEFPOINTS
  6
CONTINUOUS
 62
     0
 10
1189.304231880667
 20
768.48451345543833
 30
0.0
  0
ENDBLK
  5
7D25
  8
0
  0
BLOCK
  8
0
  2
*D9
 70
     1
 10
0.0
 20
0.0
 30
0.0
  3
*D9
  1

  0
LINE
  5
7F57
  8
3
  6
CONTINUOUS
 62
     0
 10
327.46319799999992
 20
1742.427504490629
 30
0.0
 11
327.46319799999992
 21
1639.0459504906289
 31
0.0
  0
LINE
  5
7F58
  8
3
  6
CONTINUOUS
 62
     0
 10
1007.463198
 20
1742.427504490629
 30
0.0
 11
1007.463198
 21
1639.0459504906289
 31
0.0
  0
LINE
  5
7F59
  8
3
  6
CONTINUOUS
 62
     0
 10
347.46319799999992
 20
1649.0459504906289
 30
0.0
 11
987.46319800000003
 21
1649.0459504906289
 31
0.0
  0
INSERT
  5
7F5A
  8
3
  6
CONTINUOUS
 62
     0
  2
_OPEN
 10
327.46319799999992
 20
1649.0459504906289
 30
0.0
 41
20.0
 42
20.0
 43
20.0
 50
180.0
  0
INSERT
  5
7F5B
  8
3
  6
CONTINUOUS
 62
     0
  2
_OPEN
 10
1007.463198
 20
1649.0459504906289
 30
0.0
 41
20.0
 42
20.0
 43
20.0
  0
TEXT
  8
3
  40
30
  5
7FC1
  62
0
  72
0
  71
0
 10
587.400
 20
1620.95
 30
0.000000
  1
680
  0
POINT
  5
7F5D
  8
DEFPOINTS
  6
CONTINUOUS
 62
     0
 10
327.46319799999992
 20
1747.427504490629
 30
0.0
  0
POINT
  5
7F5E
  8
DEFPOINTS
  6
CONTINUOUS
 62
     0
 10
1007.463198
 20
1747.427504490629
 30
0.0
  0
POINT
  5
7F5F
  8
DEFPOINTS
  6
CONTINUOUS
 62
     0
 10
1007.463198
 20
1649.0459504906289
 30
0.0
  0
ENDBLK
  5
7C3F
  8
0
  0
BLOCK
  8
0
  2
*D10
 70
     1
 10
0.0
 20
0.0
 30
0.0
  3
*D10
  1

  0
LINE
  5
7F60
  8
3
  6
CONTINUOUS
 62
     0
 10
1012.463198
 20
2177.427504490629
 30
0.0
 11
1093.8700269999999
 21
2177.427504490629
 31
0.0
  0
LINE
  5
7F61
  8
3
  6
CONTINUOUS
 62
     0
 10
1012.463198
 20
1747.427504490629
 30
0.0
 11
1093.8700269999999
 21
1747.427504490629
 31
0.0
  0
LINE
  5
7F62
  8
3
  6
CONTINUOUS
 62
     0
 10
1083.8700269999999
 20
2157.427504490629
 30
0.0
 11
1083.8700269999999
 21
1767.427504490629
 31
0.0
  0
INSERT
  5
7F63
  8
3
  6
CONTINUOUS
 62
     0
  2
_OPEN
 10
1083.8700269999999
 20
2177.427504490629
 30
0.0
 41
20.0
 42
20.0
 43
20.0
 50
90.0
  0
INSERT
  5
7F64
  8
3
  6
CONTINUOUS
 62
     0
  2
_OPEN
 10
1083.8700269999999
 20
1747.427504490629
 30
0.0
 41
20.0
 42
20.0
 43
20.0
 50
270.0
  0
TEXT
  8
3
  40
30
  5
7FC2
  62
0
  72
0
  71
0
 10
998.870
 20
1915.86
 30
0.000000
  1
430
  0
POINT
  5
7F66
  8
DEFPOINTS
  6
CONTINUOUS
 62
     0
 10
1007.463198
 20
2177.427504490629
 30
0.0
  0
POINT
  5
7F67
  8
DEFPOINTS
  6
CONTINUOUS
 62
     0
 10
1007.463198
 20
1747.427504490629
 30
0.0
  0
POINT
  5
7F68
  8
DEFPOINTS
  6
CONTINUOUS
 62
     0
 10
1083.8700269999999
 20
1747.427504490629
 30
0.0
  0
ENDBLK
  5
7C4C
  8
0
  0
BLOCK
  8
0
  2
*D11
 70
     1
 10
0.0
 20
0.0
 30
0.0
  3
*D11
  1

  0
LINE
  5
7F69
  8
3
  6
CONTINUOUS
 62
     0
 10
1389.1877571350831
 20
763.48451345543833
 30
0.0
 11
1389.1877571350831
 21
687.95657145543828
 31
0.0
  0
LINE
  5
7F6A
  8
3
  6
CONTINUOUS
 62
     0
 10
1687.1877571350831
 20
763.48451345543833
 30
0.0
 11
1687.1877571350831
 21
687.95657145543828
 31
0.0
  0
LINE
  5
7F6B
  8
3
  6
CONTINUOUS
 62
     0
 10
1409.1877571350831
 20
697.95657145543817
 30
0.0
 11
1667.1877571350831
 21
697.95657145543817
 31
0.0
  0
INSERT
  5
7F6C
  8
3
  6
CONTINUOUS
 62
     0
  2
_OPEN
 10
1389.1877571350831
 20
697.95657145543817
 30
0.0
 41
20.0
 42
20.0
 43
20.0
 50
180.0
  0
INSERT
  5
7F6D
  8
3
  6
CONTINUOUS
 62
     0
  2
_OPEN
 10
1687.1877571350831
 20
697.95657145543817
 30
0.0
 41
20.0
 42
20.0
 43
20.0
  0
TEXT
  8
3
  40
30
  5
7FC3
  62
0
  72
0
  71
0
 10
1484.31
 20
669.857
 30
0.000000
  1
298
  0
POINT
  5
7F6F
  8
DEFPOINTS
  6
CONTINUOUS
 62
     0
 10
1389.1877571350831
 20
768.48451345543833
 30
0.0
  0
POINT
  5
7F70
  8
DEFPOINTS
  6
CONTINUOUS
 62
     0
 10
1687.1877571350831
 20
768.48451345543833
 30
0.0
  0
POINT
  5
7F71
  8
DEFPOINTS
  6
CONTINUOUS
 62
     0
 10
1687.1877571350831
 20
697.95657145543817
 30
0.0
  0
ENDBLK
  5
7C5D
  8
0
  0
BLOCK
  8
0
  2
*D12
 70
     1
 10
0.0
 20
0.0
 30
0.0
  3
*D12
  1

  0
LINE
  5
7F72
  8
3
  6
CONTINUOUS
 62
     0
 10
1819.1877571350831
 20
763.48451345543833
 30
0.0
 11
1819.1877571350831
 21
687.95657145543828
 31
0.0
  0
LINE
  5
7F73
  8
3
  6
CONTINUOUS
 62
     0
 10
1707.1877571350831
 20
697.95657145543817
 30
0.0
 11
1799.1877571350831
 21
697.95657145543817
 31
0.0
  0
INSERT
  5
7F74
  8
3
  6
CONTINUOUS
 62
     0
  2
_OPEN
 10
1687.1877571350831
 20
697.95657145543817
 30
0.0
 41
20.0
 42
20.0
 43
20.0
 50
180.0
  0
INSERT
  5
7F75
  8
3
  6
CONTINUOUS
 62
     0
  2
_OPEN
 10
1819.1877571350831
 20
697.95657145543817
 30
0.0
 41
20.0
 42
20.0
 43
20.0
  0
TEXT
  8
3
  40
30
  5
7FC4
  62
0
  72
0
  71
0
 10
1693.19
 20
669.857
 30
0.000000
  1
132
  0
POINT
  5
7F77
  8
DEFPOINTS
  6
CONTINUOUS
 62
     0
 10
1687.1877571350831
 20
768.48451345543833
 30
0.0
  0
POINT
  5
7F78
  8
DEFPOINTS
  6
CONTINUOUS
 62
     0
 10
1819.1877571350831
 20
768.48451345543833
 30
0.0
  0
POINT
  5
7F79
  8
DEFPOINTS
  6
CONTINUOUS
 62
     0
 10
1819.1877571350831
 20
697.95657145543817
 30
0.0
  0
ENDBLK
  5
7C69
  8
0
  0
BLOCK
  8
0
  2
*D13
 70
     1
 10
0.0
 20
0.0
 30
0.0
  3
*D13
  1

  0
LINE
  5
7F7A
  8
3
  6
CONTINUOUS
 62
     0
 10
1617.1877571350831
 20
1320.484513455438
 30
0.0
 11
1617.1877571350831
 21
1378.5969724554379
 31
0.0
  0
LINE
  5
7F7B
  8
3
  6
CONTINUOUS
 62
     0
 10
1757.1877571350831
 20
1320.484513455438
 30
0.0
 11
1757.1877571350831
 21
1378.5969724554379
 31
0.0
  0
LINE
  5
7F7C
  8
3
  6
CONTINUOUS
 62
     0
 10
1637.1877571350831
 20
1368.5969724554379
 30
0.0
 11
1737.1877571350831
 21
1368.5969724554379
 31
0.0
  0
INSERT
  5
7F7D
  8
3
  6
CONTINUOUS
 62
     0
  2
_OPEN
 10
1617.1877571350831
 20
1368.5969724554379
 30
0.0
 41
20.0
 42
20.0
 43
20.0
 50
180.0
  0
INSERT
  5
7F7E
  8
3
  6
CONTINUOUS
 62
     0
  2
_OPEN
 10
1757.1877571350831
 20
1368.5969724554379
 30
0.0
 41
20.0
 42
20.0
 43
20.0
  0
TEXT
  8
3
  40
30
  5
7FC5
  62
0
  72
0
  71
0
 10
1622.90
 20
1340.50
 30
0.000000
  1
140
  0
POINT
  5
7F80
  8
DEFPOINTS
  6
CONTINUOUS
 62
     0
 10
1617.1877571350831
 20
1315.484513455438
 30
0.0
  0
POINT
  5
7F81
  8
DEFPOINTS
  6
CONTINUOUS
 62
     0
 10
1757.1877571350831
 20
1315.484513455438
 30
0.0
  0
POINT
  5
7F82
  8
DEFPOINTS
  6
CONTINUOUS
 62
     0
 10
1757.1877571350831
 20
1368.5969724554379
 30
0.0
  0
ENDBLK
  5
7C76
  8
0
  0
BLOCK
  8
0
  2
*D14
 70
     1
 10
0.0
 20
0.0
 30
0.0
  3
*D14
  1

  0
LINE
  5
7F83
  8
3
  6
CONTINUOUS
 62
     0
 10
1387.1877571350831
 20
1230.484513455438
 30
0.0
 11
1387.1877571350831
 21
1446.807080268864
 31
0.0
  0
LINE
  5
7F84
  8
3
  6
CONTINUOUS
 62
     0
 10
1687.1877571350831
 20
1422.8919504554381
 30
0.0
 11
1687.1877571350831
 21
1446.807080268864
 31
0.0
  0
LINE
  5
7F85
  8
3
  6
CONTINUOUS
 62
     0
 10
1407.1877571350831
 20
1436.807080268864
 30
0.0
 11
1667.1877571350831
 21
1436.807080268864
 31
0.0
  0
INSERT
  5
7F86
  8
3
  6
CONTINUOUS
 62
     0
  2
_OPEN
 10
1387.1877571350831
 20
1436.807080268864
 30
0.0
 41
20.0
 42
20.0
 43
20.0
 50
180.0
  0
INSERT
  5
7F87
  8
3
  6
CONTINUOUS
 62
     0
  2
_OPEN
 10
1687.1877571350831
 20
1436.807080268864
 30
0.0
 41
20.0
 42
20.0
 43
20.0
  0
TEXT
  8
3
  40
30
  5
7FC6
  62
0
  72
0
  71
0
 10
1465.34
 20
1433.71
 30
0.000000
  1
MAX
  0
TEXT
  8
3
  40
30
  5
7FC7
  62
0
  72
0
  71
0
 10
1465.34
 20
1394.71
 30
0.000000
  1
300
  0
POINT
  5
7F89
  8
DEFPOINTS
  6
CONTINUOUS
 62
     0
 10
1387.1877571350831
 20
1225.484513455438
 30
0.0
  0
POINT
  5
7F8A
  8
DEFPOINTS
  6
CONTINUOUS
 62
     0
 10
1687.1877571350831
 20
1417.8919504554381
 30
0.0
  0
POINT
  5
7F8B
  8
DEFPOINTS
  6
CONTINUOUS
 62
     0
 10
1687.1877571350831
 20
1436.807080268864
 30
0.0
  0
ENDBLK
  5
7E07
  8
0
  0
BLOCK
  8
0
  2
*D15
 70
     1
 10
0.0
 20
0.0
 30
0.0
  3
*D15
  1

  0
LINE
  5
7F8C
  8
3
  6
CONTINUOUS
 62
     0
 10
1765.1877571350831
 20
1240.484513455438
 30
0.0
 11
1765.1877571350831
 21
1446.807080268864
 31
0.0
  0
LINE
  5
7F8D
  8
3
  6
CONTINUOUS
 62
     0
 10
1707.1877571350831
 20
1436.807080268864
 30
0.0
 11
1745.1877571350831
 21
1436.807080268864
 31
0.0
  0
TEXT
  8
3
  40
30
  5
7FC8
  62
0
  72
0
  71
0
 10
1664.59
 20
1408.71
 30
0.000000
  1
78
  0
INSERT
  5
7F8F
  8
3
  6
CONTINUOUS
 62
     0
  2
_OPEN
 10
1687.1877571350831
 20
1436.807080268864
 30
0.0
 41
20.0
 42
20.0
 43
20.0
 50
180.0
  0
INSERT
  5
7F90
  8
3
  6
CONTINUOUS
 62
     0
  2
_OPEN
 10
1765.1877571350831
 20
1436.807080268864
 30
0.0
 41
20.0
 42
20.0
 43
20.0
  0
POINT
  5
7F91
  8
DEFPOINTS
  6
CONTINUOUS
 62
     0
 10
1687.1877571350831
 20
1417.8919504554381
 30
0.0
  0
POINT
  5
7F92
  8
DEFPOINTS
  6
CONTINUOUS
 62
     0
 10
1765.1877571350831
 20
1235.484513455438
 30
0.0
  0
POINT
  5
7F93
  8
DEFPOINTS
  6
CONTINUOUS
 62
     0
 10
1765.1877571350831
 20
1436.807080268864
 30
0.0
  0
ENDBLK
  5
7E11
  8
0
  0
BLOCK
  8
0
  2
*D16
 70
     1
 10
0.0
 20
0.0
 30
0.0
  3
*D16
  1

  0
LINE
  5
7F94
  8
3
  6
CONTINUOUS
 62
     0
 10
1770.1877571350831
 20
1215.484513455438
 30
0.0
 11
1839.6447081350841
 21
1215.484513455438
 31
0.0
  0
LINE
  5
7F95
  8
3
  6
CONTINUOUS
 62
     0
 10
1770.1877571350831
 20
1015.484513455438
 30
0.0
 11
1839.6447081350841
 21
1015.484513455438
 31
0.0
  0
LINE
  5
7F96
  8
3
  6
CONTINUOUS
 62
     0
 10
1829.6447081350841
 20
1195.484513455438
 30
0.0
 11
1829.6447081350841
 21
1035.484513455438
 31
0.0
  0
INSERT
  5
7F97
  8
3
  6
CONTINUOUS
 62
     0
  2
_OPEN
 10
1829.6447081350841
 20
1215.484513455438
 30
0.0
 41
20.0
 42
20.0
 43
20.0
 50
90.0
  0
INSERT
  5
7F98
  8
3
  6
CONTINUOUS
 62
     0
  2
_OPEN
 10
1829.6447081350841
 20
1015.484513455438
 30
0.0
 41
20.0
 42
20.0
 43
20.0
 50
270.0
  0
TEXT
  8
3
  40
30
  5
7FC9
  62
0
  72
0
  71
0
 10
1744.64
 20
1048.96
 30
0.000000
  1
φ200
  0
POINT
  5
7F9A
  8
DEFPOINTS
  6
CONTINUOUS
 62
     0
 10
1765.1877571350831
 20
1215.484513455438
 30
0.0
  0
POINT
  5
7F9B
  8
DEFPOINTS
  6
CONTINUOUS
 62
     0
 10
1765.1877571350831
 20
1015.484513455438
 30
0.0
  0
POINT
  5
7F9C
  8
DEFPOINTS
  6
CONTINUOUS
 62
     0
 10
1829.6447081350841
 20
1015.484513455438
 30
0.0
  0
ENDBLK
  5
7D66
  8
0
  0
BLOCK
  8
0
  2
*D17
 70
     1
 10
0.0
 20
0.0
 30
0.0
  3
*D17
  1

  0
LINE
  5
7F9D
  8
3
  6
CONTINUOUS
 62
     0
 10
643.46319799999981
 20
1120.484513455438
 30
0.0
 11
643.46319799999981
 21
1380.350982455438
 31
0.0
  0
LINE
  5
7F9E
  8
3
  6
CONTINUOUS
 62
     0
 10
822.46319799999992
 20
1370.2617294554379
 30
0.0
 11
822.46319799999992
 21
1380.350982455438
 31
0.0
  0
LINE
  5
7F9F
  8
3
  6
CONTINUOUS
 62
     0
 10
663.46319799999992
 20
1370.350982455438
 30
0.0
 11
802.46319799999981
 21
1370.350982455438
 31
0.0
  0
INSERT
  5
7FA0
  8
3
  6
CONTINUOUS
 62
     0
  2
_OPEN
 10
643.46319799999981
 20
1370.350982455438
 30
0.0
 41
20.0
 42
20.0
 43
20.0
 50
180.0
  0
INSERT
  5
7FA1
  8
3
  6
CONTINUOUS
 62
     0
  2
_OPEN
 10
822.46319799999992
 20
1370.350982455438
 30
0.0
 41
20.0
 42
20.0
 43
20.0
  0
TEXT
  8
3
  40
30
  5
7FCA
  62
0
  72
0
  71
0
 10
664.891
 20
1342.25
 30
0.000000
  1
179
  0
POINT
  5
7FA3
  8
DEFPOINTS
  6
CONTINUOUS
 62
     0
 10
643.46319799999981
 20
1115.484513455438
 30
0.0
  0
POINT
  5
7FA4
  8
DEFPOINTS
  6
CONTINUOUS
 62
     0
 10
822.46319799999992
 20
1365.2617294554379
 30
0.0
  0
POINT
  5
7FA5
  8
DEFPOINTS
  6
CONTINUOUS
 62
     0
 10
822.46319799999992
 20
1370.350982455438
 30
0.0
  0
ENDBLK
  5
7E21
  8
0
  0
BLOCK
  8
0
  2
*D18
 70
     1
 10
0.0
 20
0.0
 30
0.0
  3
*D18
  1

  0
LINE
  5
7FA6
  8
3
  6
CONTINUOUS
 62
     0
 10
982.46319799999992
 20
1341.484513455438
 30
0.0
 11
982.46319799999992
 21
1380.350982455438
 31
0.0
  0
LINE
  5
7FA7
  8
3
  6
CONTINUOUS
 62
     0
 10
842.46319799999992
 20
1370.350982455438
 30
0.0
 11
962.46319800000003
 21
1370.350982455438
 31
0.0
  0
INSERT
  5
7FA8
  8
3
  6
CONTINUOUS
 62
     0
  2
_OPEN
 10
822.46319799999992
 20
1370.350982455438
 30
0.0
 41
20.0
 42
20.0
 43
20.0
 50
180.0
  0
INSERT
  5
7FA9
  8
3
  6
CONTINUOUS
 62
     0
  2
_OPEN
 10
982.46319799999992
 20
1370.350982455438
 30
0.0
 41
20.0
 42
20.0
 43
20.0
  0
TEXT
  8
3
  40
30
  5
7FCB
  62
0
  72
0
  71
0
 10
842.463
 20
1342.25
 30
0.000000
  1
160
  0
POINT
  5
7FAB
  8
DEFPOINTS
  6
CONTINUOUS
 62
     0
 10
822.46319799999992
 20
1365.2617294554379
 30
0.0
  0
POINT
  5
7FAC
  8
DEFPOINTS
  6
CONTINUOUS
 62
     0
 10
982.46319799999992
 20
1336.484513455438
 30
0.0
  0
POINT
  5
7FAD
  8
DEFPOINTS
  6
CONTINUOUS
 62
     0
 10
982.46319799999992
 20
1370.350982455438
 30
0.0
  0
ENDBLK
  5
7CDB
  8
0
  0
BLOCK
  8
0
  2
_DOT
 70
     0
 10
0.0
 20
0.0
 30
0.0
  3
_DOT
  1

  0
LINE
  5
7DF8
  8
0
  6
BYBLOCK
 62
     0
 10
0.0
 20
0.0
 30
0.0
 11
-1.0
 21
-0.0000000000000284
 31
0.0
  0
POLYLINE
  5
7DF9
  8
0
  6
BYBLOCK
 62
     0
 66
     1
 10
0.0
 20
0.0
 30
0.0
 70
     1
 40
0.1666666666666666
 41
0.1666666666666666
  0
VERTEX
  5
7FB7
  8
0
  6
BYBLOCK
 62
     0
 10
-0.0833333333333286
 20
-0.0000000000000284
 30
0.0
 42
1.0
  0
VERTEX
  5
7FB8
  8
0
  6
BYBLOCK
 62
     0
 10
0.0833333333333286
 20
-0.0000000000000284
 30
0.0
 42
1.0
  0
SEQEND
  5
7FB9
  8
0
  6
BYBLOCK
 62
     0
  0
ENDBLK
  5
7DAB
  8
0
  0
BLOCK
  8
0
  2
*D20
 70
     1
 10
0.0
 20
0.0
 30
0.0
  3
*D20
  1

  0
LINE
  5
7FAE
  8
3
 62
     0
 10
982.46319799999992
 20
1341.484513455438
 30
0.0
 11
982.46319799999992
 21
1446.7979264328881
 31
0.0
  0
LINE
  5
7FAF
  8
3
 62
     0
 10
327.46319799999992
 20
823.48451345543833
 30
0.0
 11
327.46319799999992
 21
1446.7979264328881
 31
0.0
  0
LINE
  5
7FB0
  8
3
 62
     0
 10
962.46319800000003
 20
1436.7979264328881
 30
0.0
 11
347.46319799999992
 21
1436.7979264328881
 31
0.0
  0
INSERT
  5
7FB1
  8
3
 62
     0
  2
_OPEN
 10
982.46319799999992
 20
1436.7979264328881
 30
0.0
 41
20.0
 42
20.0
 43
20.0
  0
INSERT
  5
7FB2
  8
3
 62
     0
  2
_OPEN
 10
327.46319799999992
 20
1436.7979264328881
 30
0.0
 41
20.0
 42
20.0
 43
20.0
 50
180.0
  0
TEXT
  8
3
  40
30
  5
7FCC
  62
0
  72
0
  71
0
 10
600.814
 20
1408.70
 30
0.000000
  1
655
  0
POINT
  5
7FB4
  8
DEFPOINTS
 62
     0
 10
982.46319799999992
 20
1336.484513455438
 30
0.0
  0
POINT
  5
7FB5
  8
DEFPOINTS
 62
     0
 10
327.46319799999992
 20
818.48451345543822
 30
0.0
  0
POINT
  5
7FB6
  8
DEFPOINTS
 62
     0
 10
327.46319799999992
 20
1436.7979264328881
 30
0.0
  0
ENDBLK
  5
7DF6
  8
0
  0
ENDSEC
  0
SECTION
  2
ENTITIES
  0
LINE
  5
7A93
  8
1
  6
CONTINUOUS
 10
1389.1877571350831
 20
793.48451345543833
 30
0.0
 11
1819.1877571350831
 21
793.48451345543833
 31
0.0
  0
LINE
  5
7A94
  8
1
  6
CONTINUOUS
 10
1389.1877571350831
 20
768.48451345543833
 30
0.0
 11
1819.1877571350831
 21
768.48451345543833
 31
0.0
  0
CIRCLE
  5
7A95
  8
1
  6
CONTINUOUS
 10
822.46319799999992
 20
1115.484513455438
 30
0.0
 40
100.0
  0
LINE
  5
7A96
  8
1
  6
CONTINUOUS
 10
399.46319799999992
 20
1225.484513455438
 30
0.0
 11
929.46319800000003
 21
1225.484513455438
 31
0.0
  0
CIRCLE
  5
7A97
  8
1
  6
CONTINUOUS
 10
822.46319799999992
 20
1115.484513455438
 30
0.0
 40
120.0
  0
LINE
  5
7A98
  8
1
  6
CONTINUOUS
 10
967.46319799999992
 20
1326.484513455438
 30
0.0
 11
838.46319799999992
 21
1326.484513455438
 31
0.0
  0
ARC
  5
7A99
  8
1
  6
CONTINUOUS
 10
811.46319799999981
 20
1104.484513455438
 30
0.0
 40
140.0
 50
269.39999999999992
 51
0.4
  0
LINE
  5
7A9A
  8
1
  6
CONTINUOUS
 10
687.46319799999992
 20
1082.184513455438
 30
0.0
 11
957.46319799999992
 21
1082.184513455438
 31
0.0
  0
LINE
  5
7A9B
  8
1
  6
CONTINUOUS
 10
874.06319800000006
 20
1240.484513455438
 30
0.0
 11
957.46319799999992
 21
1169.184513455438
 31
0.0
  0
LINE
  5
7A9C
  8
1
  6
CONTINUOUS
 10
352.46319799999992
 20
840.48451345543833
 30
0.0
 11
982.46319799999992
 21
840.48451345543833
 31
0.0
  0
LINE
  5
7A9E
  8
1
  6
CONTINUOUS
 10
327.46319799999992
 20
818.48451345543822
 30
0.0
 11
1007.463198
 21
818.48451345543822
 31
0.0
  0
LINE
  5
7A9F
  8
1
  6
CONTINUOUS
 10
327.46319799999992
 20
793.48451345543833
 30
0.0
 11
1007.463198
 21
793.48451345543833
 31
0.0
  0
LINE
  5
7AA0
  8
2
  6
CENTER
 10
487.2631980000001
 20
991.58451345543835
 30
0.0
 11
557.2631980000001
 21
991.58451345543835
 31
0.0
  0
ARC
  5
7AA1
  8
1
  6
CONTINUOUS
 10
517.86319800000001
 20
991.18451345543826
 30
0.0
 40
85.0
 50
324.69999999999987
 51
215.30000000000001
  0
CIRCLE
  5
7AA2
  8
1
  6
CONTINUOUS
 10
522.26319799999999
 20
991.58451345543835
 30
0.0
 40
35.0
  0
LINE
  5
7AA3
  8
1
  6
CONTINUOUS
 10
610.76319799999999
 20
911.18451345543815
 30
0.0
 11
359.76319799999999
 21
911.18451345543815
 31
0.0
  0
LINE
  5
7AA4
  8
1
  6
CONTINUOUS
 10
507.46319799999992
 20
1023.2845134554379
 30
0.0
 11
801.2631980000001
 21
1160.7845134554379
 31
0.0
  0
LINE
  5
7AA5
  8
1
  6
CONTINUOUS
 10
399.46319799999992
 20
890.48451345543833
 30
0.0
 11
399.46319799999992
 21
1225.484513455438
 31
0.0
  0
LINE
  5
7AA6
  8
1
  6
CONTINUOUS
 10
352.46319799999992
 20
768.48451345543833
 30
0.0
 11
352.46319799999992
 21
793.48451345543833
 31
0.0
  0
LINE
  5
7AA7
  8
1
  6
CONTINUOUS
 10
327.46319799999992
 20
768.48451345543833
 30
0.0
 11
352.46319799999992
 21
768.48451345543833
 31
0.0
  0
LINE
  5
7AA8
  8
1
  6
CONTINUOUS
 10
327.46319799999992
 20
768.48451345543833
 30
0.0
 11
327.46319799999992
 21
818.48451345543822
 31
0.0
  0
LINE
  5
7AA9
  8
1
  6
CONTINUOUS
 10
359.76319799999999
 20
911.18451345543815
 30
0.0
 11
359.76319799999999
 21
890.48451345543833
 31
0.0
  0
LINE
  5
7AAA
  8
1
  6
CONTINUOUS
 10
352.46319799999992
 20
840.48451345543833
 30
0.0
 11
352.46319799999992
 21
890.48451345543833
 31
0.0
  0
LINE
  5
7AAB
  8
1
  6
CONTINUOUS
 10
440.36319800000001
 20
911.18451345543815
 30
0.0
 11
440.36319800000001
 21
919.18451345543815
 31
0.0
  0
LINE
  5
7AAC
  8
1
  6
CONTINUOUS
 10
440.36319800000001
 20
919.18451345543815
 30
0.0
 11
448.563198
 21
941.98451345543845
 31
0.0
  0
ARC
  5
7AAD
  8
1
  6
CONTINUOUS
 10
838.46319799999992
 20
1131.484513455438
 30
0.0
 40
195.0
 50
90.0
 51
180.30000000000001
  0
LINE
  5
7AAE
  8
1
  6
CONTINUOUS
 10
687.46319799999992
 20
1169.184513455438
 30
0.0
 11
687.46319799999992
 21
890.48451345543833
 31
0.0
  0
CIRCLE
  5
7AAF
  8
1
  6
CONTINUOUS
 10
822.46319799999992
 20
1115.484513455438
 30
0.0
 40
50.0
  0
LINE
  5
7AB0
  8
2
  6
CENTER
 10
822.46319799999992
 20
771.69431745543829
 30
0.0
 11
822.46319799999992
 21
1365.2617294554379
 31
0.0
  0
ARC
  5
7AB1
  8
1
  6
CONTINUOUS
 10
808.46319799999992
 20
1129.484513455438
 30
0.0
 40
165.0
 50
179.6999999999999
 51
270.60000000000002
  0
LINE
  5
7AB2
  8
1
  6
CONTINUOUS
 10
534.16319800000008
 20
958.68451345543815
 30
0.0
 11
839.36319800000001
 21
1068.484513455438
 31
0.0
  0
LINE
  5
7AB3
  8
2
  6
CENTER
 10
522.26319799999999
 20
956.58451345543835
 30
0.0
 11
522.26319799999999
 21
1026.5845134554379
 31
0.0
  0
LINE
  5
7AB4
  8
1
  6
CONTINUOUS
 10
595.3631979999999
 20
919.18451345543815
 30
0.0
 11
587.2631980000001
 21
941.98451345543845
 31
0.0
  0
LINE
  5
7AB5
  8
1
  6
CONTINUOUS
 10
595.3631979999999
 20
911.18451345543815
 30
0.0
 11
595.3631979999999
 21
919.18451345543815
 31
0.0
  0
LINE
  5
7AB6
  8
1
  6
CONTINUOUS
 10
610.76319799999999
 20
890.48451345543833
 30
0.0
 11
610.76319799999999
 21
911.18451345543815
 31
0.0
  0
LINE
  5
7AB7
  8
2
  6
CENTER
 10
375.19214799999997
 20
1115.484513455438
 30
0.0
 11
1017.9243289999999
 21
1115.484513455438
 31
0.0
  0
LINE
  5
7AB8
  8
1
  6
CONTINUOUS
 10
770.86319800000001
 20
1240.484513455438
 30
0.0
 11
687.46319799999992
 21
1169.184513455438
 31
0.0
  0
LINE
  5
7AB9
  8
1
  6
CONTINUOUS
 10
874.06319800000006
 20
1240.484513455438
 30
0.0
 11
770.86319800000001
 21
1240.484513455438
 31
0.0
  0
LINE
  5
7ABC
  8
1
  6
CONTINUOUS
 10
1387.1877571350831
 20
1225.484513455438
 30
0.0
 11
1462.1877571350831
 21
1225.484513455438
 31
0.0
  0
LINE
  5
7ABD
  8
1
  6
CONTINUOUS
 10
1387.1877571350831
 20
890.48451345543833
 30
0.0
 11
1697.1877571350831
 21
890.48451345543833
 31
0.0
  0
LINE
  5
7ABE
  8
1
  6
CONTINUOUS
 10
929.46319800000003
 20
890.48451345543833
 30
0.0
 11
929.46319800000003
 21
1225.484513455438
 31
0.0
  0
LINE
  5
7ABF
  8
1
  6
CONTINUOUS
 10
1387.1877571350831
 20
1225.484513455438
 30
0.0
 11
1387.1877571350831
 21
890.48451345543833
 31
0.0
  0
LINE
  5
7AC0
  8
1
  6
CONTINUOUS
 10
982.46319799999992
 20
1336.484513455438
 30
0.0
 11
982.46319799999992
 21
1094.484513455438
 31
0.0
  0
LINE
  5
7AC1
  8
1
  6
CONTINUOUS
 10
967.46319799999992
 20
1301.484513455438
 30
0.0
 11
967.46319799999992
 21
1129.484513455438
 31
0.0
  0
LINE
  5
7AC2
  8
1
  6
CONTINUOUS
 10
957.46319799999992
 20
890.48451345543833
 30
0.0
 11
957.46319799999992
 21
1169.184513455438
 31
0.0
  0
LINE
  5
7AC3
  8
1
  6
CONTINUOUS
 10
1007.463198
 20
768.48451345543833
 30
0.0
 11
982.46319799999992
 21
768.48451345543833
 31
0.0
  0
LINE
  5
7AC4
  8
1
  6
CONTINUOUS
 10
982.46319799999992
 20
768.48451345543833
 30
0.0
 11
982.46319799999992
 21
793.48451345543833
 31
0.0
  0
LINE
  5
7AC5
  8
1
  6
CONTINUOUS
 10
1007.463198
 20
768.48451345543833
 30
0.0
 11
1007.463198
 21
818.48451345543822
 31
0.0
  0
LINE
  5
7AC6
  8
1
  6
CONTINUOUS
 10
982.46319799999992
 20
840.48451345543833
 30
0.0
 11
982.46319799999992
 21
890.48451345543833
 31
0.0
  0
LINE
  5
7AC7
  8
1
  6
CONTINUOUS
 10
967.46319799999992
 20
1105.484513455438
 30
0.0
 11
951.46319799999981
 21
1105.484513455438
 31
0.0
  0
LINE
  5
7AC8
  8
1
  6
CONTINUOUS
 10
982.46319799999992
 20
1115.484513455438
 30
0.0
 11
967.46319799999992
 21
1115.484513455438
 31
0.0
  0
LINE
  5
7AC9
  8
1
  6
CONTINUOUS
 10
982.46319799999992
 20
1114.484513455438
 30
0.0
 11
967.46319799999992
 21
1129.484513455438
 31
0.0
  0
LINE
  5
7ACA
  8
1
  6
CONTINUOUS
 10
967.46319799999992
 20
1115.484513455438
 30
0.0
 11
967.46319799999992
 21
1105.484513455438
 31
0.0
  0
LINE
  5
7ACC
  8
1
  6
CONTINUOUS
 10
1389.1877571350831
 20
793.48451345543833
 30
0.0
 11
1389.1877571350831
 21
768.48451345543833
 31
0.0
  0
LINE
  5
7ACD
  8
1
  6
CONTINUOUS
 10
982.46319799999992
 20
1316.484513455438
 30
0.0
 11
967.46319799999992
 21
1301.484513455438
 31
0.0
  0
LINE
  5
7ACE
  8
1
  6
CONTINUOUS
 10
982.46319799999992
 20
1315.484513455438
 30
0.0
 11
967.46319799999992
 21
1315.484513455438
 31
0.0
  0
LINE
  5
7ACF
  8
1
  6
CONTINUOUS
 10
967.46319799999992
 20
1326.484513455438
 30
0.0
 11
967.46319799999992
 21
1315.484513455438
 31
0.0
  0
LINE
  5
7AD0
  8
1
  6
CONTINUOUS
 10
1757.1877571350831
 20
1315.484513455438
 30
0.0
 11
1617.1877571350831
 21
1115.484513455438
 31
0.0
  0
LINE
  5
7AD1
  8
1
  6
CONTINUOUS
 10
1617.1877571350831
 20
1315.484513455438
 30
0.0
 11
1757.1877571350831
 21
1115.484513455438
 31
0.0
  0
LINE
  5
7AD2
  8
1
  6
CONTINUOUS
 10
1617.1877571350831
 20
1315.484513455438
 30
0.0
 11
1617.1877571350831
 21
976.48451345543822
 31
0.0
  0
LINE
  5
7AD3
  8
1
  6
CONTINUOUS
 10
1757.1877571350831
 20
976.48451345543822
 30
0.0
 11
1757.1877571350831
 21
1315.484513455438
 31
0.0
  0
LINE
  5
7AD4
  8
1
  6
CONTINUOUS
 10
1765.1877571350831
 20
1235.484513455438
 30
0.0
 11
1765.1877571350831
 21
995.48451345543822
 31
0.0
  0
LINE
  5
7AD5
  8
1
  6
CONTINUOUS
 10
1439.6877571350831
 20
1165.484513455438
 30
0.0
 11
1439.6877571350831
 21
1065.484513455438
 31
0.0
  0
LINE
  5
7AD6
  8
1
  6
CONTINUOUS
 10
1409.6877571350831
 20
1165.484513455438
 30
0.0
 11
1409.6877571350831
 21
1065.484513455438
 31
0.0
  0
LINE
  5
7AD7
  8
1
  6
CONTINUOUS
 10
1462.1877571350831
 20
1225.484513455438
 30
0.0
 11
1462.1877571350831
 21
890.48451345543833
 31
0.0
  0
LINE
  5
7AD8
  8
1
  6
CONTINUOUS
 10
1497.1877571350831
 20
1082.184513455438
 30
0.0
 11
1609.1877571350831
 21
1169.184513455438
 31
0.0
  0
LINE
  5
7AD9
  8
1
  6
CONTINUOUS
 10
1609.1877571350831
 20
1235.484513455438
 30
0.0
 11
1609.1877571350831
 21
890.48451345543833
 31
0.0
  0
LINE
  5
7ADA
  8
1
  6
CONTINUOUS
 10
1473.1877571350831
 20
840.48451345543833
 30
0.0
 11
1697.1877571350831
 21
840.48451345543833
 31
0.0
  0
LINE
  5
7ADB
  8
1
  6
CONTINUOUS
 10
1473.1877571350831
 20
818.48451345543822
 30
0.0
 11
1697.1877571350831
 21
818.48451345543822
 31
0.0
  0
LINE
  5
7ADC
  8
1
  6
CONTINUOUS
 10
1473.1877571350831
 20
793.48451345543833
 30
0.0
 11
1697.1877571350831
 21
793.48451345543833
 31
0.0
  0
LINE
  5
7ADD
  8
1
  6
CONTINUOUS
 10
1473.1877571350831
 20
818.48451345543822
 30
0.0
 11
1473.1877571350831
 21
793.48451345543833
 31
0.0
  0
LINE
  5
7ADE
  8
1
  6
CONTINUOUS
 10
1439.6877571350831
 20
1103.484513455438
 30
0.0
 11
1524.5877571350829
 21
1103.484513455438
 31
0.0
  0
LINE
  5
7ADF
  8
1
  6
CONTINUOUS
 10
1439.6877571350831
 20
1127.484513455438
 30
0.0
 11
1555.487757135083
 21
1127.484513455438
 31
0.0
  0
LINE
  5
7AE0
  8
1
  6
CONTINUOUS
 10
1439.6877571350831
 20
979.58451345543835
 30
0.0
 11
1497.1877571350831
 21
979.58451345543835
 31
0.0
  0
LINE
  5
7AE1
  8
1
  6
CONTINUOUS
 10
1439.6877571350831
 20
1003.584513455438
 30
0.0
 11
1497.1877571350831
 21
1003.584513455438
 31
0.0
  0
LINE
  5
7AE2
  8
1
  6
CONTINUOUS
 10
1409.6877571350831
 20
956.58451345543835
 30
0.0
 11
1439.6877571350831
 21
956.58451345543835
 31
0.0
  0
LINE
  5
7AE3
  8
1
  6
CONTINUOUS
 10
1409.6877571350831
 20
1026.5845134554379
 30
0.0
 11
1439.6877571350831
 21
1026.5845134554379
 31
0.0
  0
LINE
  5
7AE4
  8
1
  6
CONTINUOUS
 10
1439.6877571350831
 20
1026.5845134554379
 30
0.0
 11
1439.6877571350831
 21
956.58451345543835
 31
0.0
  0
LINE
  5
7AE5
  8
1
  6
CONTINUOUS
 10
1409.6877571350831
 20
1026.5845134554379
 30
0.0
 11
1409.6877571350831
 21
956.58451345543835
 31
0.0
  0
LINE
  5
7AE6
  8
1
  6
CONTINUOUS
 10
1409.6877571350831
 20
1065.484513455438
 30
0.0
 11
1439.6877571350831
 21
1065.484513455438
 31
0.0
  0
LINE
  5
7AE7
  8
1
  6
CONTINUOUS
 10
1497.1877571350831
 20
1082.184513455438
 30
0.0
 11
1497.1877571350831
 21
890.48451345543833
 31
0.0
  0
LINE
  5
7AE8
  8
1
  6
CONTINUOUS
 10
1473.1877571350831
 20
890.48451345543833
 30
0.0
 11
1473.1877571350831
 21
840.48451345543833
 31
0.0
  0
LINE
  5
7AE9
  8
1
  6
CONTINUOUS
 10
1697.1877571350831
 20
818.48451345543822
 30
0.0
 11
1697.1877571350831
 21
793.48451345543833
 31
0.0
  0
LINE
  5
7AEA
  8
1
  6
CONTINUOUS
 10
1617.1877571350831
 20
1115.484513455438
 30
0.0
 11
1757.1877571350831
 21
1115.484513455438
 31
0.0
  0
LINE
  5
7AEB
  8
1
  6
CONTINUOUS
 10
1629.1877571350831
 20
964.48451345543845
 30
0.0
 11
1745.1877571350831
 21
964.48451345543845
 31
0.0
  0
ARC
  5
7AEC
  8
1
  6
CONTINUOUS
 10
1629.1877571350831
 20
976.48451345543822
 30
0.0
 40
12.0
 50
180.0
 51
270.0
  0
LINE
  5
7AED
  8
1
  6
CONTINUOUS
 10
1617.387757135084
 20
995.48451345543822
 30
0.0
 11
1609.1877571350831
 21
995.48451345543822
 31
0.0
  0
LINE
  5
7AEE
  8
1
  6
CONTINUOUS
 10
1697.1877571350831
 20
890.48451345543833
 30
0.0
 11
1697.1877571350831
 21
840.48451345543833
 31
0.0
  0
ARC
  5
7AEF
  8
1
  6
CONTINUOUS
 10
1745.1877571350831
 20
976.48451345543822
 30
0.0
 40
12.0
 50
270.0
 51
0.0
  0
LINE
  5
7AF0
  8
1
  6
CONTINUOUS
 10
1756.987757135083
 20
995.48451345543822
 30
0.0
 11
1765.1877571350831
 21
995.48451345543822
 31
0.0
  0
ARC
  5
7AF1
  8
1
  6
CONTINUOUS
 10
1745.1877571350831
 20
976.48451345543822
 30
0.0
 40
12.0
 50
270.0
 51
0.0
  0
LINE
  5
7AF2
  8
1
  6
CONTINUOUS
 10
1409.6877571350831
 20
1165.484513455438
 30
0.0
 11
1439.6877571350831
 21
1165.484513455438
 31
0.0
  0
LINE
  5
7AF3
  8
1
  6
CONTINUOUS
 10
1757.1877571350831
 20
1315.484513455438
 30
0.0
 11
1617.1877571350831
 21
1315.484513455438
 31
0.0
  0
LINE
  5
7AF4
  8
1
  6
CONTINUOUS
 10
1617.387757135084
 20
1235.484513455438
 30
0.0
 11
1609.1877571350831
 21
1235.484513455438
 31
0.0
  0
LINE
  5
7AF5
  8
1
  6
CONTINUOUS
 10
1756.987757135083
 20
1235.484513455438
 30
0.0
 11
1765.1877571350831
 21
1235.484513455438
 31
0.0
  0
LINE
  5
7AF6
  8
1
  6
CONTINUOUS
 10
942.46319799999992
 20
1967.427504490629
 30
0.0
 11
702.46319799999992
 21
1967.427504490629
 31
0.0
  0
LINE
  5
7AF7
  8
1
  6
CONTINUOUS
 10
982.46319799999992
 20
2115.427504490629
 30
0.0
 11
653.46319799999992
 21
2115.427504490629
 31
0.0
  0
LINE
  5
7AF8
  8
1
  6
CONTINUOUS
 10
982.46319799999992
 20
1975.427504490629
 30
0.0
 11
653.46319799999992
 21
1975.427504490629
 31
0.0
  0
LINE
  5
7AF9
  8
1
  6
CONTINUOUS
 10
942.46319799999992
 20
2123.427504490629
 30
0.0
 11
702.46319799999992
 21
2123.427504490629
 31
0.0
  0
LINE
  5
7AFA
  8
1
  6
CONTINUOUS
 10
929.46319800000003
 20
1820.427504490629
 30
0.0
 11
399.46319799999992
 21
1820.427504490629
 31
0.0
  0
LINE
  5
7AFB
  8
1
  6
CONTINUOUS
 10
929.46319800000003
 20
1745.427504490629
 30
0.0
 11
399.46319799999992
 21
1745.427504490629
 31
0.0
  0
LINE
  5
7AFC
  8
1
  6
CONTINUOUS
 10
982.46319799999992
 20
1831.427504490629
 30
0.0
 11
834.46319799999992
 21
1831.427504490629
 31
0.0
  0
LINE
  5
7AFD
  8
1
  6
CONTINUOUS
 10
602.86319800000001
 20
1850.627504490629
 30
0.0
 11
432.8631979999999
 21
1850.627504490629
 31
0.0
  0
LINE
  5
7AFE
  8
1
  6
CONTINUOUS
 10
602.86319800000001
 20
2041.5275044906291
 30
0.0
 11
432.8631979999999
 21
2041.5275044906291
 31
0.0
  0
LINE
  5
7AFF
  8
1
  6
CONTINUOUS
 10
487.2631980000001
 20
1767.927504490629
 30
0.0
 11
557.2631980000001
 21
1767.927504490629
 31
0.0
  0
LINE
  5
7B00
  8
1
  6
CONTINUOUS
 10
487.2631980000001
 20
1797.9275044906301
 30
0.0
 11
557.2631980000001
 21
1797.9275044906301
 31
0.0
  0
LINE
  5
7B01
  8
1
  6
CONTINUOUS
 10
643.46319799999981
 20
2055.427504490629
 30
0.0
 11
352.46319799999992
 21
2055.427504490629
 31
0.0
  0
LINE
  5
7B02
  8
1
  6
CONTINUOUS
 10
352.46319799999992
 20
1747.427504490629
 30
0.0
 11
352.46319799999992
 21
2177.427504490629
 31
0.0
  0
LINE
  5
7B03
  8
1
  6
CONTINUOUS
 10
327.46319799999992
 20
1747.427504490629
 30
0.0
 11
327.46319799999992
 21
2177.427504490629
 31
0.0
  0
LINE
  5
7B04
  8
1
  6
CONTINUOUS
 10
510.26319799999999
 20
1797.9275044906301
 30
0.0
 11
510.26319799999999
 21
1850.627504490629
 31
0.0
  0
LINE
  5
7B05
  8
1
  6
CONTINUOUS
 10
510.26319799999999
 20
1831.427504490629
 30
0.0
 11
352.46319799999992
 21
1831.427504490629
 31
0.0
  0
LINE
  5
7B06
  8
1
  6
CONTINUOUS
 10
327.46319799999992
 20
1747.427504490629
 30
0.0
 11
352.46319799999992
 21
1747.427504490629
 31
0.0
  0
LINE
  5
7B07
  8
1
  6
CONTINUOUS
 10
399.46319799999992
 20
1745.427504490629
 30
0.0
 11
399.46319799999992
 21
1820.427504490629
 31
0.0
  0
LINE
  5
7B08
  8
1
  6
CONTINUOUS
 10
487.2631980000001
 20
1767.927504490629
 30
0.0
 11
487.2631980000001
 21
1797.9275044906301
 31
0.0
  0
LINE
  5
7B09
  8
1
  6
CONTINUOUS
 10
432.8631979999999
 20
1850.627504490629
 30
0.0
 11
432.8631979999999
 21
2041.5275044906291
 31
0.0
  0
LINE
  5
7B0A
  8
1
  6
CONTINUOUS
 10
327.46319799999992
 20
2177.427504490629
 30
0.0
 11
352.46319799999992
 21
2177.427504490629
 31
0.0
  0
LINE
  5
7B0B
  8
1
  6
CONTINUOUS
 10
810.46319799999981
 20
1831.427504490629
 30
0.0
 11
534.2631980000001
 21
1831.427504490629
 31
0.0
  0
LINE
  5
7B0C
  8
1
  6
CONTINUOUS
 10
534.2631980000001
 20
1797.9275044906301
 30
0.0
 11
534.2631980000001
 21
1850.627504490629
 31
0.0
  0
LINE
  5
7B0D
  8
1
  6
CONTINUOUS
 10
557.2631980000001
 20
1767.927504490629
 30
0.0
 11
557.2631980000001
 21
1797.9275044906301
 31
0.0
  0
LINE
  5
7B0E
  8
1
  6
CONTINUOUS
 10
602.86319800000001
 20
1850.627504490629
 30
0.0
 11
602.86319800000001
 21
2041.5275044906291
 31
0.0
  0
LINE
  5
7B0F
  8
1
  6
CONTINUOUS
 10
702.46319799999992
 20
1975.427504490629
 30
0.0
 11
702.46319799999992
 21
1967.427504490629
 31
0.0
  0
ARC
  5
7B10
  8
1
  6
CONTINUOUS
 10
653.46319799999992
 20
1985.427504490629
 30
0.0
 40
10.0
 50
180.0
 51
270.0
  0
ARC
  5
7B11
  8
1
  6
CONTINUOUS
 10
653.46319799999992
 20
2105.427504490629
 30
0.0
 40
10.0
 50
90.0
 51
180.0
  0
LINE
  5
7B12
  8
1
  6
CONTINUOUS
 10
643.46319799999981
 20
2105.427504490629
 30
0.0
 11
643.46319799999981
 21
1985.427504490629
 31
0.0
  0
LINE
  5
7B13
  8
1
  6
CONTINUOUS
 10
702.46319799999992
 20
2115.427504490629
 30
0.0
 11
702.46319799999992
 21
2123.427504490629
 31
0.0
  0
LINE
  5
7B14
  8
1
  6
CONTINUOUS
 10
834.46319799999992
 20
1967.427504490629
 30
0.0
 11
834.46319799999992
 21
1797.9275044906301
 31
0.0
  0
LINE
  5
7B15
  8
1
  6
CONTINUOUS
 10
810.46319799999981
 20
1967.427504490629
 30
0.0
 11
810.46319799999981
 21
1797.9275044906301
 31
0.0
  0
LINE
  5
7B16
  8
1
  6
CONTINUOUS
 10
772.46319799999981
 20
1797.9275044906301
 30
0.0
 11
872.46319799999992
 21
1797.9275044906301
 31
0.0
  0
LINE
  5
7B17
  8
1
  6
CONTINUOUS
 10
772.46319799999981
 20
1767.927504490629
 30
0.0
 11
872.46319799999992
 21
1767.927504490629
 31
0.0
  0
LINE
  5
7B18
  8
1
  6
CONTINUOUS
 10
772.46319799999981
 20
1767.927504490629
 30
0.0
 11
772.46319799999981
 21
1797.9275044906301
 31
0.0
  0
LINE
  5
7B19
  8
1
  6
CONTINUOUS
 10
872.46319799999992
 20
1767.927504490629
 30
0.0
 11
872.46319799999992
 21
1797.9275044906301
 31
0.0
  0
LINE
  5
7B1A
  8
1
  6
CONTINUOUS
 10
982.46319799999992
 20
1747.427504490629
 30
0.0
 11
982.46319799999992
 21
2177.427504490629
 31
0.0
  0
LINE
  5
7B1B
  8
1
  6
CONTINUOUS
 10
1007.463198
 20
1747.427504490629
 30
0.0
 11
1007.463198
 21
2177.427504490629
 31
0.0
  0
LINE
  5
7B1C
  8
1
  6
CONTINUOUS
 10
1007.463198
 20
1747.427504490629
 30
0.0
 11
982.46319799999992
 21
1747.427504490629
 31
0.0
  0
LINE
  5
7B1D
  8
1
  6
CONTINUOUS
 10
929.46319800000003
 20
1745.427504490629
 30
0.0
 11
929.46319800000003
 21
1820.427504490629
 31
0.0
  0
LINE
  5
7B1E
  8
1
  6
CONTINUOUS
 10
942.46319799999992
 20
1975.427504490629
 30
0.0
 11
942.46319799999992
 21
1967.427504490629
 31
0.0
  0
LINE
  5
7B1F
  8
1
  6
CONTINUOUS
 10
982.46319799999992
 20
1974.427504490629
 30
0.0
 11
967.46319799999992
 21
1989.427504490629
 31
0.0
  0
LINE
  5
7B20
  8
1
  6
CONTINUOUS
 10
967.46319799999992
 20
2101.427504490629
 30
0.0
 11
967.46319799999992
 21
1989.427504490629
 31
0.0
  0
LINE
  5
7B21
  8
1
  6
CONTINUOUS
 10
982.46319799999992
 20
2116.427504490629
 30
0.0
 11
967.46319799999992
 21
2101.427504490629
 31
0.0
  0
LINE
  5
7B22
  8
1
  6
CONTINUOUS
 10
982.46319799999992
 20
2136.427504490629
 30
0.0
 11
982.46319799999992
 21
1954.427504490629
 31
0.0
  0
LINE
  5
7B23
  8
1
  6
CONTINUOUS
 10
942.46319799999992
 20
2115.427504490629
 30
0.0
 11
942.46319799999992
 21
2123.427504490629
 31
0.0
  0
LINE
  5
7B24
  8
1
  6
CONTINUOUS
 10
1007.463198
 20
2177.427504490629
 30
0.0
 11
982.46319799999992
 21
2177.427504490629
 31
0.0
  0
LINE
  5
7B25
  8
1
  6
CONTINUOUS
 10
1819.1877571350831
 20
793.48451345543833
 30
0.0
 11
1819.1877571350831
 21
768.48451345543833
 31
0.0
  0
LINE
  5
7B26
  8
4
  6
CONTINUOUS
 10
1850.0
 20
500.0
 30
0.0
 11
1850.0
 21
300.0
 31
0.0
  0
LINE
  5
7B27
  8
4
  6
CONTINUOUS
 10
1150.0
 20
500.0
 30
0.0
 11
1150.0
 21
300.0
 31
0.0
  0
LINE
  5
7B28
  8
4
  6
CONTINUOUS
 10
650.0
 20
500.0
 30
0.0
 11
650.0
 21
300.0
 31
0.0
  0
LINE
  5
7B2B
  8
4
  6
CONTINUOUS
 10
650.0
 20
300.0
 30
0.0
 11
1850.0
 21
300.0
 31
0.0
  0
LINE
  5
7B2C
  8
4
  6
CONTINUOUS
 10
650.0
 20
400.0
 30
0.0
 11
1850.0
 21
400.0
 31
0.0
  0
TEXT
  5
7B2D
  8
4
  6
CONTINUOUS
 10
688.50208099999998
 20
431.543026
 30
0.0
 40
50.0
  1
機器名称
  0
TEXT
  5
7B2E
  8
4
  6
CONTINUOUS
 10
686.258106
 20
321.64515699999993
 30
0.0
 40
50.0
  1
機器型番
  0
TEXT
  5
7B2F
  8
4
  6
CONTINUOUS
 10
1177.678744999999
 20
422.57176900000002
 30
0.0
 40
45.0
  1
ミツヤニューマルチファン
  0
TEXT
  5
7B30
  8
4
  6
CONTINUOUS
 10
1186.6544960000001
 20
317.159584
 30
0.0
 40
50.0
  1
NM#1 1/4-1
  0
TEXT
  5
7B32
  8
4
  6
CONTINUOUS
 10
708.40745700000002
 20
2383.4288409999999
 30
0.0
 40
54.0
  1
天井吊防振ベット
  0
TEXT
  5
7B33
  8
4
  6
CONTINUOUS
 10
316.16759300000001
 20
2533.8809759999999
 30
0.0
 40
72.0
  1
ベルト駆動式片吸込片持多翼ファン
  0
LINE
  5
7B34
  8
4
  6
CONTINUOUS
 10
250.0
 20
2469.408754
 30
0.0
 11
1850.0
 21
2469.408754
 31
0.0
  0
LINE
  5
7B35
  8
4
  6
CONTINUOUS
 10
250.0
 20
2669.408754
 30
0.0
 11
1850.0
 21
2669.408754
 31
0.0
  0
LINE
  5
7B36
  8
4
  6
CONTINUOUS
 10
650.0
 20
500.0
 30
0.0
 11
1850.0
 21
500.0
 31
0.0
  0
LINE
  5
7B37
  8
4
  6
CONTINUOUS
 10
250.0
 20
2669.408754
 30
0.0
 11
250.0
 21
2469.408754
 31
0.0
  0
TEXT
  5
7B38
  8
4
  6
CONTINUOUS
 10
272.54862500000002
 20
2382.3194779999999
 30
0.0
 40
54.0
  1
右回転右横向
  0
TEXT
  5
7B39
  8
4
  6
CONTINUOUS
 10
1468.9695589999999
 20
2706.0610809999998
 30
0.0
 40
56.0
  1
No.
  0
TEXT
  5
7B3A
  8
4
  6
CONTINUOUS
 10
1398.5753159999999
 20
2383.4288409999999
 30
0.0
 40
54.0
  1
縮尺：1/10
  0
LINE
  5
7B3B
  8
4
  6
CONTINUOUS
 10
1850.0
 20
2669.408754
 30
0.0
 11
1850.0
 21
2469.408754
 31
0.0
  0
LINE
  5
7B3D
  8
4
  6
CONTINUOUS
 10
1440.617422
 20
2681.2635829999999
 30
0.0
 11
1440.617422
 21
2786.6522620000001
 31
0.0
  0
LINE
  5
7B3E
  8
4
  6
CONTINUOUS
 10
1440.617422
 20
2786.6522620000001
 30
0.0
 11
1850.0
 21
2786.6522620000001
 31
0.0
  0
LINE
  5
7B3F
  8
4
  6
CONTINUOUS
 10
1850.0
 20
2786.6522620000001
 30
0.0
 11
1850.0
 21
2681.2635829999999
 31
0.0
  0
LINE
  5
7B40
  8
4
  6
CONTINUOUS
 10
1850.0
 20
2681.2635829999999
 30
0.0
 11
1440.617422
 21
2681.2635829999999
 31
0.0
  0
DIMENSION
  5
7B65
  8
3
  6
CONTINUOUS
  2
*D1
 10
822.46319799999992
 20
714.95657945543826
 30
0.0
 11
583.47089099999994
 21
714.95657945543826
 31
0.0
 70
   128
 13
327.46319799999992
 23
768.48451345543833
 33
0.0
 14
822.46319799999992
 24
793.48451345543833
 34
0.0
1001
ACAD
1000
DSTYLE
1002
{
1070
   287
1070
     3
1070
   287
1070
     3
1070
    40
1040
10.0
1070
   143
1040
0.039
1070
   172
1070
     1
1070
   271
1070
     0
1070
   279
1070
     0
1070
   288
1070
     1
1002
}
  0
DIMENSION
  5
7B71
  8
3
  6
CONTINUOUS
  2
*D2
 10
1007.463198
 20
714.95657945543826
 30
0.0
 11
914.96319799999981
 21
739.95657945543826
 31
0.0
 70
     0
 13
822.46319799999992
 23
793.48451345543833
 33
0.0
 14
1007.463198
 24
768.48451345543833
 34
0.0
1001
ACAD
1000
DSTYLE
1002
{
1070
   287
1070
     4
1070
   287
1070
     4
1070
    40
1040
10.0
1070
    75
1070
     1
1070
   143
1040
0.039
1070
   172
1070
     1
1070
   271
1070
     0
1070
   279
1070
     1
1070
   288
1070
     1
1002
}
  0
DIMENSION
  5
7B7E
  8
3
  6
CONTINUOUS
  2
*D3
 10
1047.9916780000001
 20
1115.484513455438
 30
0.0
 11
1047.991677999999
 21
1226.9419284554381
 31
0.0
 70
   128
 13
982.46319799999992
 23
1315.484513455438
 33
0.0
 14
982.46319799999992
 24
1115.484513455438
 34
0.0
 50
90.0
1001
ACAD
1000
DSTYLE
1002
{
1070
   287
1070
     3
1070
   287
1070
     3
1070
    40
1040
10.0
1070
   143
1040
0.039
1070
   172
1070
     1
1070
   271
1070
     0
1070
   279
1070
     0
1070
   288
1070
     1
1002
}
  0
DIMENSION
  5
7B8B
  8
3
  6
CONTINUOUS
  2
*D4
 10
1101.1168525245839
 20
1115.484513455438
 30
0.0
 11
1101.1168525245839
 21
1233.7549754554379
 31
0.0
 70
   128
 13
967.46319799999992
 23
1326.484513455438
 33
0.0
 14
981.46319799999992
 24
1115.484513455438
 34
0.0
 50
90.0
1001
ACAD
1000
DSTYLE
1002
{
1070
   287
1070
     3
1070
   287
1070
     3
1070
    40
1040
10.0
1070
   143
1040
0.039
1070
   172
1070
     1
1070
   271
1070
     0
1070
   279
1070
     0
1070
   288
1070
     1
1002
}
  0
DIMENSION
  5
7B97
  8
3
  6
CONTINUOUS
  2
*D5
 10
1101.1168525245839
 20
840.48451345543833
 30
0.0
 11
1076.116852524583
 21
977.98451345543833
 31
0.0
 70
     0
 13
981.46319799999992
 23
1115.484513455438
 33
0.0
 14
982.46319799999992
 24
840.48451345543833
 34
0.0
 50
90.0
1001
ACAD
1000
DSTYLE
1002
{
1070
   287
1070
     4
1070
   287
1070
     4
1070
    40
1040
10.0
1070
    75
1070
     1
1070
   143
1040
0.039
1070
   172
1070
     1
1070
   271
1070
     0
1070
   279
1070
     1
1070
   288
1070
     1
1002
}
  0
DIMENSION
  5
7BA7
  8
3
  6
CONTINUOUS
  2
*D6
 10
1101.1168525245839
 20
793.48451345543833
 30
0.0
 11
1141.8035866453749
 21
813.12614865967225
 31
0.0
 70
   128
 13
982.46319799999992
 23
840.48451345543833
 33
0.0
 14
1007.463198
 24
793.48451345543833
 34
0.0
 50
90.0
1001
ACAD
1000
DSTYLE
1002
{
1070
   288
1070
     1
1070
   172
1070
     1
1070
    75
1070
     1
1070
    40
1040
10.0
1070
   271
1070
     0
1070
     7
1000
_DOT
1070
   143
1040
0.039
1002
}
  0
DIMENSION
  5
7BB7
  8
3
  6
CONTINUOUS
  2
*D7
 10
1101.1168525245839
 20
768.48451345543833
 30
0.0
 11
1101.1168525245839
 21
694.198799169724
 31
0.0
 70
   128
 13
1007.463198
 23
793.48451345543833
 33
0.0
 14
1007.463198
 24
768.48451345543833
 34
0.0
 50
90.0
1001
ACAD
1000
DSTYLE
1002
{
1070
   287
1070
     3
1070
   287
1070
     3
1070
    40
1040
10.0
1070
   143
1040
0.039
1070
   172
1070
     1
1070
   271
1070
     0
1070
   279
1070
     0
1070
   288
1070
     1
1070
     6
1000
DOT
1002
}
  0
DIMENSION
  5
7C0A
  8
3
  6
CONTINUOUS
  2
*D8
 10
1189.304231880667
 20
768.48451345543833
 30
0.0
 11
1189.304231880667
 21
1041.5708474554381
 31
0.0
 70
   128
 13
982.46319799999992
 23
1336.484513455438
 33
0.0
 14
1007.463198
 24
768.48451345543833
 34
0.0
 50
90.0
1001
ACAD
1000
DSTYLE
1002
{
1070
   287
1070
     3
1070
   287
1070
     3
1070
    40
1040
10.0
1070
   143
1040
0.039
1070
   172
1070
     1
1070
   271
1070
     0
1070
   279
1070
     0
1070
   288
1070
     1
1002
}
  0
LINE
  5
7C25
  8
1
  6
CONTINUOUS
 10
352.46319799999992
 20
890.48451345543833
 30
0.0
 11
982.46319799999992
 21
890.48451345543833
 31
0.0
  0
DIMENSION
  5
7C40
  8
3
  6
CONTINUOUS
  2
*D9
 10
1007.463198
 20
1649.0459504906289
 30
0.0
 11
647.39956799999982
 21
1649.0459504906289
 31
0.0
 70
   128
 13
327.46319799999992
 23
1747.427504490629
 33
0.0
 14
1007.463198
 24
1747.427504490629
 34
0.0
1001
ACAD
1000
DSTYLE
1002
{
1070
   287
1070
     3
1070
   287
1070
     3
1070
    40
1040
10.0
1070
   143
1040
0.039
1070
   172
1070
     1
1070
   271
1070
     0
1070
   279
1070
     0
1070
   288
1070
     1
1002
}
  0
DIMENSION
  5
7C4D
  8
3
  6
CONTINUOUS
  2
*D10
 10
1083.8700269999999
 20
1747.427504490629
 30
0.0
 11
1083.8700269999999
 21
1968.962747490629
 31
0.0
 70
   128
 13
1007.463198
 23
2177.427504490629
 33
0.0
 14
1007.463198
 24
1747.427504490629
 34
0.0
 50
90.0
1001
ACAD
1000
DSTYLE
1002
{
1070
   287
1070
     3
1070
   287
1070
     3
1070
    40
1040
10.0
1070
   143
1040
0.039
1070
   172
1070
     1
1070
   271
1070
     0
1070
   279
1070
     0
1070
   288
1070
     1
1002
}
  0
LINE
  5
7C4E
  8
2
  6
CENTER
 10
619.741984
 20
2045.427504490629
 30
0.0
 11
988.98514599999999
 21
2045.427504490629
 31
0.0
  0
LINE
  5
7C4F
  8
2
  6
CENTER
 10
822.46319799999992
 20
1695.7388994906289
 30
0.0
 11
822.46319799999992
 21
2140.8878814906288
 31
0.0
  0
LINE
  5
7C51
  8
2
  6
CENTER
 10
1340.3098221350831
 20
1115.484513455438
 30
0.0
 11
1791.886893135083
 21
1115.484513455438
 31
0.0
  0
DIMENSION
  5
7C5E
  8
3
  6
CONTINUOUS
  2
*D11
 10
1687.1877571350831
 20
697.95657145543817
 30
0.0
 11
1544.3123181350841
 21
697.95657145543817
 31
0.0
 70
   128
 13
1389.1877571350831
 23
768.48451345543833
 33
0.0
 14
1687.1877571350831
 24
768.48451345543833
 34
0.0
1001
ACAD
1000
DSTYLE
1002
{
1070
   287
1070
     3
1070
   287
1070
     3
1070
    40
1040
10.0
1070
   143
1040
0.039
1070
   172
1070
     1
1070
   271
1070
     0
1070
   279
1070
     0
1070
   288
1070
     1
1002
}
  0
DIMENSION
  5
7C6A
  8
3
  6
CONTINUOUS
  2
*D12
 10
1819.1877571350831
 20
697.95657145543817
 30
0.0
 11
1753.1877571350831
 21
722.95657145543817
 31
0.0
 70
     0
 13
1687.1877571350831
 23
768.48451345543833
 33
0.0
 14
1819.1877571350831
 24
768.48451345543833
 34
0.0
1001
ACAD
1000
DSTYLE
1002
{
1070
   287
1070
     4
1070
   287
1070
     4
1070
    40
1040
10.0
1070
    75
1070
     1
1070
   143
1040
0.039
1070
   172
1070
     1
1070
   271
1070
     0
1070
   279
1070
     1
1070
   288
1070
     1
1002
}
  0
DIMENSION
  5
7C77
  8
3
  6
CONTINUOUS
  2
*D13
 10
1757.1877571350831
 20
1368.5969724554379
 30
0.0
 11
1682.902043135083
 21
1368.5969724554379
 31
0.0
 70
   128
 13
1617.1877571350831
 23
1315.484513455438
 33
0.0
 14
1757.1877571350831
 24
1315.484513455438
 34
0.0
1001
ACAD
1000
DSTYLE
1002
{
1070
   287
1070
     3
1070
   287
1070
     3
1070
    40
1040
10.0
1070
   143
1040
0.039
1070
   172
1070
     1
1070
   271
1070
     0
1070
   279
1070
     0
1070
   288
1070
     1
1002
}
  0
DIMENSION
  5
7C84
  8
3
  6
CONTINUOUS
  2
*D14
 10
1687.1877571350831
 20
1436.807080268864
 30
0.0
 11
1525.335344135083
 21
1436.807080268864
 31
0.0
 70
   128
  1
MAX\P300
 13
1387.1877571350831
 23
1225.484513455438
 33
0.0
 14
1687.1877571350831
 24
1417.8919504554381
 34
0.0
1001
ACAD
1000
DSTYLE
1002
{
1070
   287
1070
     3
1070
   287
1070
     3
1070
    40
1040
10.0
1070
   143
1040
0.039
1070
   172
1070
     1
1070
   271
1070
     0
1070
   279
1070
     0
1070
   288
1070
     1
1002
}
  0
DIMENSION
  5
7C92
  8
3
  6
CONTINUOUS
  2
*D15
 10
1765.1877571350831
 20
1436.807080268864
 30
0.0
 11
1724.593588135084
 21
1436.807080268864
 31
0.0
 70
   128
 13
1687.1877571350831
 23
1417.8919504554381
 33
0.0
 14
1765.1877571350831
 24
1235.484513455438
 34
0.0
1001
ACAD
1000
DSTYLE
1002
{
1070
   287
1070
     4
1070
   287
1070
     4
1070
    40
1040
10.0
1070
    75
1070
     1
1070
   143
1040
0.039
1070
   172
1070
     1
1070
   271
1070
     0
1070
   279
1070
     1
1070
   288
1070
     1
1002
}
  0
LINE
  5
7CAA
  8
3
  6
CONTINUOUS
 10
1765.1877571350831
 20
1215.484513455438
 30
0.0
 11
1774.7470221350829
 21
1215.484513455438
 31
0.0
  0
LINE
  5
7CAC
  8
3
  6
CONTINUOUS
 10
1765.1877571350831
 20
1015.484513455438
 30
0.0
 11
1776.1025241350831
 21
1015.484513455438
 31
0.0
  0
DIMENSION
  5
7CB9
  8
3
  6
CONTINUOUS
  2
*D16
 10
1829.6447081350841
 20
1015.484513455438
 30
0.0
 11
1829.644708135083
 21
1102.055942026866
 31
0.0
 70
   128
 13
1765.1877571350831
 23
1215.484513455438
 33
0.0
 14
1765.1877571350831
 24
1015.484513455438
 34
0.0
 50
90.0
1001
ACAD
1000
DSTYLE
1002
{
1070
   287
1070
     3
1070
   287
1070
     3
1070
     3
1000
φ<>
1070
    40
1040
10.0
1070
   143
1040
0.039
1070
   172
1070
     1
1070
   271
1070
     0
1070
   279
1070
     0
1070
   288
1070
     1
1002
}
  0
DIMENSION
  5
7CD0
  8
3
  6
CONTINUOUS
  2
*D17
 10
822.46319799999992
 20
1370.350982455438
 30
0.0
 11
724.89050599999985
 21
1370.350982455438
 31
0.0
 70
   128
 13
643.46319799999981
 23
1115.484513455438
 33
0.0
 14
822.46319799999992
 24
1365.2617294554379
 34
0.0
1001
ACAD
1000
DSTYLE
1002
{
1070
   287
1070
     3
1070
   287
1070
     3
1070
    40
1040
10.0
1070
   143
1040
0.039
1070
   172
1070
     1
1070
   271
1070
     0
1070
   279
1070
     0
1070
   288
1070
     1
1002
}
  0
DIMENSION
  5
7CDC
  8
3
  6
CONTINUOUS
  2
*D18
 10
982.46319799999992
 20
1370.350982455438
 30
0.0
 11
902.46319799999981
 21
1395.350982455438
 31
0.0
 70
     0
 13
822.46319799999992
 23
1365.2617294554379
 33
0.0
 14
982.46319799999992
 24
1336.484513455438
 34
0.0
1001
ACAD
1000
DSTYLE
1002
{
1070
   287
1070
     4
1070
   287
1070
     4
1070
    40
1040
10.0
1070
    75
1070
     1
1070
   143
1040
0.039
1070
   172
1070
     1
1070
   271
1070
     0
1070
   279
1070
     1
1070
   288
1070
     1
1002
}
  0
LINE
  5
7D05
  8
2
  6
CENTER
 10
1687.1877571350831
 20
1372.9851974554381
 30
0.0
 11
1687.1877571350831
 21
740.61213845543818
 31
0.0
  0
DIMENSION
  5
7DF7
  8
3
  2
*D20
 10
327.46319799999992
 20
1436.7979264328881
 30
0.0
 11
660.81379674751042
 21
1436.7979264328881
 31
0.0
 70
   128
 13
982.46319799999992
 23
1336.484513455438
 33
0.0
 14
327.46319799999992
 24
818.48451345543822
 34
0.0
1001
ACAD
1000
DSTYLE
1002
{
1070
   287
1070
     3
1070
   287
1070
     3
1070
    40
1040
10.0
1070
   143
1040
0.039
1070
   172
1070
     1
1070
   271
1070
     0
1070
   279
1070
     0
1070
   288
1070
     1
1002
}
  0
ENDSEC
  0
EOF
