  0
SECTION
  2
HEADER
  9
$ACADVER
  1
AC1009
  9
$INSBASE
 10
0.0
 20
0.0
 30
0.0
  9
$EXTMIN
 10
250.0
 20
300.0
 30
0.0
  9
$EXTMAX
 10
1850.0
 20
2786.6522620000001
 30
0.0
  9
$LIMMIN
 10
0.0
 20
0.0
  9
$LIMMAX
 10
297.0
 20
210.0
  9
$ORTHOMODE
 70
     0
  9
$REGENMODE
 70
     1
  9
$FILLMODE
 70
     0
  9
$QTEXTMODE
 70
     0
  9
$MIRRTEXT
 70
     1
  9
$DRAGMODE
 70
     2
  9
$LTSCALE
 40
100.0
  9
$OSMODE
 70
    37
  9
$ATTMODE
 70
     1
  9
$TEXTSIZE
 40
180.0
  9
$TRACEWID
 40
0.05
  9
$TEXTSTYLE
  7
STANDARD
  9
$CLAYER
  8
3
  9
$CELTYPE
  6
BYLAYER
  9
$CECOLOR
 62
   256
  9
$DIMSCALE
 40
10.0
  9
$DIMASZ
 40
2.0
  9
$DIMEXO
 40
0.5
  9
$DIMDLI
 40
10.0
  9
$DIMRND
 40
0.0
  9
$DIMDLE
 40
0.0
  9
$DIMEXE
 40
1.0
  9
$DIMTP
 40
1.0
  9
$DIMTM
 40
1.0
  9
$DIMTXT
 40
3.0
  9
$DIMCEN
 40
0.0
  9
$DIMTSZ
 40
0.0
  9
$DIMTOL
 70
     0
  9
$DIMLIM
 70
     0
  9
$DIMTIH
 70
     0
  9
$DIMTOH
 70
     0
  9
$DIMSE1
 70
     0
  9
$DIMSE2
 70
     0
  9
$DIMTAD
 70
     1
  9
$DIMZIN
 70
     8
  9
$DIMBLK
  1

  9
$DIMASO
 70
     1
  9
$DIMSHO
 70
     1
  9
$DIMPOST
  1

  9
$DIMAPOST
  1

  9
$DIMALT
 70
     0
  9
$DIMALTD
 70
     2
  9
$DIMALTF
 40
0.039
  9
$DIMLFAC
 40
1.0
  9
$DIMTOFL
 70
     1
  9
$DIMTVP
 40
0.0
  9
$DIMTIX
 70
     0
  9
$DIMSOXD
 70
     0
  9
$DIMSAH
 70
     1
  9
$DIMBLK1
  1
OPEN
  9
$DIMBLK2
  1
OPEN
  9
$DIMSTYLE
  2
IGA
  9
$DIMCLRD
 70
     0
  9
$DIMCLRE
 70
     0
  9
$DIMCLRT
 70
     0
  9
$DIMTFAC
 40
10.0
  9
$DIMGAP
 40
1.0
  9
$LUNITS
 70
     2
  9
$LUPREC
 70
     3
  9
$SKETCHINC
 40
0.1
  9
$FILLETRAD
 40
50.0
  9
$AUNITS
 70
     0
  9
$AUPREC
 70
     0
  9
$MENU
  1
acad
  9
$ELEVATION
 40
0.0
  9
$PELEVATION
 40
0.0
  9
$THICKNESS
 40
0.0
  9
$LIMCHECK
 70
     0
  9
$BLIPMODE
 70
     0
  9
$CHAMFERA
 40
0.5
  9
$CHAMFERB
 40
0.5
  9
$SKPOLY
 70
     0
  9
$TDCREATE
 40
2450738.4548351848
  9
$TDUPDATE
 40
2454953.8606114811
  9
$TDINDWG
 40
0.007677581
  9
$TDUSRTIMER
 40
0.007677581
  9
$USRTIMER
 70
     1
  9
$ANGBASE
 50
0.0
  9
$ANGDIR
 70
     0
  9
$PDMODE
 70
     0
  9
$PDSIZE
 40
0.0
  9
$PLINEWID
 40
0.0
  9
$COORDS
 70
     1
  9
$SPLFRAME
 70
     0
  9
$SPLINETYPE
 70
     6
  9
$SPLINESEGS
 70
     8
  9
$ATTDIA
 70
     0
  9
$ATTREQ
 70
     1
  9
$HANDLING
 70
 10241
  9
$HANDSEED
  5
7E78
  9
$SURFTAB1
 70
     6
  9
$SURFTAB2
 70
     6
  9
$SURFTYPE
 70
     6
  9
$SURFU
 70
     6
  9
$SURFV
 70
     6
  9
$UCSNAME
  2

  9
$UCSORG
 10
0.0
 20
0.0
 30
0.0
  9
$UCSXDIR
 10
1.0
 20
0.0
 30
0.0
  9
$UCSYDIR
 10
0.0
 20
1.0
 30
0.0
  9
$PUCSNAME
  2

  9
$PUCSORG
 10
0.0
 20
0.0
 30
0.0
  9
$PUCSXDIR
 10
1.0
 20
0.0
 30
0.0
  9
$PUCSYDIR
 10
0.0
 20
1.0
 30
0.0
  9
$USERI1
 70
     0
  9
$USERI2
 70
     0
  9
$USERI3
 70
     0
  9
$USERI4
 70
     0
  9
$USERI5
 70
     0
  9
$USERR1
 40
0.0
  9
$USERR2
 40
0.0
  9
$USERR3
 40
0.0
  9
$USERR4
 40
0.0
  9
$USERR5
 40
0.0
  9
$WORLDVIEW
 70
     1
  9
$SHADEDGE
 70
     3
  9
$SHADEDIF
 70
    70
  9
$TILEMODE
 70
     1
  9
$MAXACTVP
 70
    16
  9
$PLIMCHECK
 70
     0
  9
$PEXTMIN
 10
1.0000000000000000E+020
 20
1.0000000000000000E+020
 30
1.0000000000000000E+020
  9
$PEXTMAX
 10
-1.0000000000000000E+020
 20
-1.0000000000000000E+020
 30
-1.0000000000000000E+020
  9
$PLIMMIN
 10
0.0
 20
0.0
  9
$PLIMMAX
 10
12.0
 20
9.0
  9
$UNITMODE
 70
     0
  9
$VISRETAIN
 70
     0
  9
$PLINEGEN
 70
     0
  9
$PSLTSCALE
 70
     1
  0
ENDSEC
  0
SECTION
  2
TABLES
  0
TABLE
  2
VPORT
 70
     2
  0
VPORT
  2
*ACTIVE
 70
     0
 10
0.0
 20
0.0
 11
1.0
 21
1.0
 12
2534.8072250731361
 22
1799.514601125531
 13
0.0
 23
0.0
 14
10.0
 24
10.0
 15
10.0
 25
10.0
 16
0.0
 26
0.0
 36
1.0
 17
0.0
 27
0.0
 37
0.0
 40
3384.7202369232782
 41
1.5051150895140659
 42
50.0
 43
0.0
 44
0.0
 50
0.0
 51
0.0
 71
     0
 72
   100
 73
     1
 74
     0
 75
     0
 76
     0
 77
     0
 78
     0
  0
ENDTAB
  0
TABLE
  2
LTYPE
 70
     2
  0
LTYPE
  2
CONTINUOUS
 70
     0
  3
Solid line
 72
    65
 73
     0
 40
0.0
  0
LTYPE
  2
CENTER
 70
     0
  3
____ _ ____ _ ____ _ ____ _ ____ _ ____ _ ____ 
 72
    65
 73
     4
 40
2.0
 49
1.25
 49
-0.25
 49
0.25
 49
-0.25
  0
ENDTAB
  0
TABLE
  2
LAYER
 70
     6
  0
LAYER
  2
0
 70
     0
 62
     7
  6
CONTINUOUS
  0
LAYER
  2
3
 70
     0
 62
     2
  6
CONTINUOUS
  0
LAYER
  2
2
 70
     0
 62
     3
  6
CENTER
  0
LAYER
  2
1
 70
     0
 62
     4
  6
CONTINUOUS
  0
LAYER
  2
4
 70
     0
 62
     7
  6
CONTINUOUS
  0
LAYER
  2
DEFPOINTS
 70
     0
 62
     7
  6
CONTINUOUS
  0
ENDTAB
  0
TABLE
  2
STYLE
 70
     1
  0
STYLE
  2
STANDARD
 70
     0
 40
0.0
 41
1.0
 50
0.0
 71
     0
 42
180.0
  3
simplex.shx
  4
extfont.shx
  0
ENDTAB
  0
TABLE
  2
VIEW
 70
     0
  0
ENDTAB
  0
TABLE
  2
UCS
 70
     0
  0
ENDTAB
  0
TABLE
  2
APPID
 70
     1
  0
APPID
  2
ACAD
 70
     0
  0
ENDTAB
  0
TABLE
  2
DIMSTYLE
 70
     1
  0
DIMSTYLE
  2
IGA
 70
     0
  3

  4

  5

  6
OPEN
  7
OPEN
 40
2.0
 41
2.0
 42
0.5
 43
10.0
 44
1.0
 45
0.0
 46
0.0
 47
1.0
 48
1.0
140
3.0
141
0.0
142
0.0
143
0.03937
144
1.0
145
0.0
146
10.0
147
1.0
 71
     0
 72
     0
 73
     0
 74
     0
 75
     0
 76
     0
 77
     1
 78
     8
170
     0
171
     2
172
     0
173
     1
174
     0
175
     0
176
     0
177
     0
178
     0
  0
ENDTAB
  0
ENDSEC
  0
SECTION
  2
BLOCKS
  0
BLOCK
  8
0
  2
$MODEL_SPACE
 70
     0
 10
0.0
 20
0.0
 30
0.0
  3
$MODEL_SPACE
  1

  0
ENDBLK
  5
1B
  8
0
  0
BLOCK
 67
     1
  8
0
  2
$PAPER_SPACE
 70
     0
 10
0.0
 20
0.0
 30
0.0
  3
$PAPER_SPACE
  1

  0
ENDBLK
  5
18
 67
     1
  8
0
  0
BLOCK
  8
0
  2
_OPEN
 70
     0
 10
0.0
 20
0.0
 30
0.0
  3
_OPEN
  1

  0
LINE
  5
7B35
  8
0
  6
BYBLOCK
 62
     0
 10
-1.0
 20
0.166667
 30
0.0
 11
0.0
 21
0.0
 31
0.0
  0
LINE
  5
7B36
  8
0
  6
BYBLOCK
 62
     0
 10
0.0
 20
0.0
 30
0.0
 11
-1.0
 21
-0.166667
 31
0.0
  0
LINE
  5
7B37
  8
0
  6
BYBLOCK
 62
     0
 10
0.0
 20
0.0
 30
0.0
 11
-1.0
 21
0.0
 31
0.0
  0
ENDBLK
  5
7B38
  8
0
  0
BLOCK
  8
0
  2
*D1
 70
     1
 10
0.0
 20
0.0
 30
0.0
  3
*D1
  1

  0
LINE
  5
7DC4
  8
3
  6
CONTINUOUS
 62
     0
 10
358.34943716711331
 20
750.17538698127282
 30
0.0
 11
358.34943716711331
 21
689.28117698127278
 31
0.0
  0
LINE
  5
7DC5
  8
3
  6
CONTINUOUS
 62
     0
 10
828.34943716711336
 20
775.17538698127282
 30
0.0
 11
828.34943716711336
 21
689.28117698127278
 31
0.0
  0
LINE
  5
7DC6
  8
3
  6
CONTINUOUS
 62
     0
 10
378.34943716711331
 20
699.28117698127267
 30
0.0
 11
808.34943716711325
 21
699.28117698127267
 31
0.0
  0
INSERT
  5
7DC7
  8
3
  6
CONTINUOUS
 62
     0
  2
_OPEN
 10
358.34943716711331
 20
699.28117698127267
 30
0.0
 41
20.0
 42
20.0
 43
20.0
 50
180.0
  0
INSERT
  5
7DC8
  8
3
  6
CONTINUOUS
 62
     0
  2
_OPEN
 10
828.34943716711336
 20
699.28117698127267
 30
0.0
 41
20.0
 42
20.0
 43
20.0
  0
TEXT
  8
3
  40
30
  5
7E65
  62
0
  72
0
  71
0
 10
544.399
 20
671.181
 30
0.000000
  1
470
  0
POINT
  5
7DCA
  8
DEFPOINTS
  6
CONTINUOUS
 62
     0
 10
358.34943716711331
 20
755.17538698127282
 30
0.0
  0
POINT
  5
7DCB
  8
DEFPOINTS
  6
CONTINUOUS
 62
     0
 10
828.34943716711336
 20
780.17538698127282
 30
0.0
  0
POINT
  5
7DCC
  8
DEFPOINTS
  6
CONTINUOUS
 62
     0
 10
828.34943716711336
 20
699.28117698127267
 30
0.0
  0
ENDBLK
  5
7B45
  8
0
  0
BLOCK
  8
0
  2
*D2
 70
     1
 10
0.0
 20
0.0
 30
0.0
  3
*D2
  1

  0
LINE
  5
7DCD
  8
3
  6
CONTINUOUS
 62
     0
 10
988.34943716711325
 20
750.17538698127282
 30
0.0
 11
988.34943716711325
 21
689.28117698127278
 31
0.0
  0
LINE
  5
7DCE
  8
3
  6
CONTINUOUS
 62
     0
 10
848.34943716711325
 20
699.28117698127267
 30
0.0
 11
968.34943716711336
 21
699.28117698127267
 31
0.0
  0
INSERT
  5
7DCF
  8
3
  6
CONTINUOUS
 62
     0
  2
_OPEN
 10
828.34943716711336
 20
699.28117698127267
 30
0.0
 41
20.0
 42
20.0
 43
20.0
 50
180.0
  0
INSERT
  5
7DD0
  8
3
  6
CONTINUOUS
 62
     0
  2
_OPEN
 10
988.34943716711325
 20
699.28117698127267
 30
0.0
 41
20.0
 42
20.0
 43
20.0
  0
TEXT
  8
3
  40
30
  5
7E66
  62
0
  72
0
  71
0
 10
848.349
 20
671.181
 30
0.000000
  1
160
  0
POINT
  5
7DD2
  8
DEFPOINTS
  6
CONTINUOUS
 62
     0
 10
828.34943716711336
 20
780.17538698127282
 30
0.0
  0
POINT
  5
7DD3
  8
DEFPOINTS
  6
CONTINUOUS
 62
     0
 10
988.34943716711325
 20
755.17538698127282
 30
0.0
  0
POINT
  5
7DD4
  8
DEFPOINTS
  6
CONTINUOUS
 62
     0
 10
988.34943716711325
 20
699.28117698127267
 30
0.0
  0
ENDBLK
  5
7B51
  8
0
  0
BLOCK
  8
0
  2
*D3
 70
     1
 10
0.0
 20
0.0
 30
0.0
  3
*D3
  1

  0
LINE
  5
7DD5
  8
3
  6
CONTINUOUS
 62
     0
 10
628.34943716711336
 20
1220.175386981273
 30
0.0
 11
628.34943716711336
 21
1259.684890981272
 31
0.0
  0
LINE
  5
7DD6
  8
3
  6
CONTINUOUS
 62
     0
 10
828.34943716711336
 20
1220.175386981273
 30
0.0
 11
828.34943716711336
 21
1259.684890981272
 31
0.0
  0
LINE
  5
7DD7
  8
3
  6
CONTINUOUS
 62
     0
 10
648.34943716711336
 20
1249.684890981272
 30
0.0
 11
808.34943716711325
 21
1249.684890981272
 31
0.0
  0
INSERT
  5
7DD8
  8
3
  6
CONTINUOUS
 62
     0
  2
_OPEN
 10
628.34943716711336
 20
1249.684890981272
 30
0.0
 41
20.0
 42
20.0
 43
20.0
 50
180.0
  0
INSERT
  5
7DD9
  8
3
  6
CONTINUOUS
 62
     0
  2
_OPEN
 10
828.34943716711336
 20
1249.684890981272
 30
0.0
 41
20.0
 42
20.0
 43
20.0
  0
TEXT
  8
3
  40
30
  5
7E67
  62
0
  72
0
  71
0
 10
665.037
 20
1221.58
 30
0.000000
  1
200
  0
POINT
  5
7DDB
  8
DEFPOINTS
  6
CONTINUOUS
 62
     0
 10
628.34943716711336
 20
1215.1753869812719
 30
0.0
  0
POINT
  5
7DDC
  8
DEFPOINTS
  6
CONTINUOUS
 62
     0
 10
828.34943716711336
 20
1215.1753869812719
 30
0.0
  0
POINT
  5
7DDD
  8
DEFPOINTS
  6
CONTINUOUS
 62
     0
 10
828.34943716711336
 20
1249.684890981272
 30
0.0
  0
ENDBLK
  5
7B5E
  8
0
  0
BLOCK
  8
0
  2
*D4
 70
     1
 10
0.0
 20
0.0
 30
0.0
  3
*D4
  1

  0
LINE
  5
7DDE
  8
3
  6
CONTINUOUS
 62
     0
 10
617.34943716711325
 20
1205.1753869812719
 30
0.0
 11
617.34943716711325
 21
1307.5225379812721
 31
0.0
  0
LINE
  5
7DDF
  8
3
  6
CONTINUOUS
 62
     0
 10
828.34943716711336
 20
1220.175386981273
 30
0.0
 11
828.34943716711336
 21
1307.5225379812721
 31
0.0
  0
LINE
  5
7DE0
  8
3
  6
CONTINUOUS
 62
     0
 10
637.34943716711325
 20
1297.5225379812721
 30
0.0
 11
808.34943716711325
 21
1297.5225379812721
 31
0.0
  0
INSERT
  5
7DE1
  8
3
  6
CONTINUOUS
 62
     0
  2
_OPEN
 10
617.34943716711325
 20
1297.5225379812721
 30
0.0
 41
20.0
 42
20.0
 43
20.0
 50
180.0
  0
INSERT
  5
7DE2
  8
3
  6
CONTINUOUS
 62
     0
  2
_OPEN
 10
828.34943716711336
 20
1297.5225379812721
 30
0.0
 41
20.0
 42
20.0
 43
20.0
  0
TEXT
  8
3
  40
30
  5
7E68
  62
0
  72
0
  71
0
 10
668.512
 20
1269.42
 30
0.000000
  1
211
  0
POINT
  5
7DE4
  8
DEFPOINTS
  6
CONTINUOUS
 62
     0
 10
617.34943716711325
 20
1200.175386981273
 30
0.0
  0
POINT
  5
7DE5
  8
DEFPOINTS
  6
CONTINUOUS
 62
     0
 10
828.34943716711336
 20
1215.1753869812719
 30
0.0
  0
POINT
  5
7DE6
  8
DEFPOINTS
  6
CONTINUOUS
 62
     0
 10
828.34943716711336
 20
1297.5225379812721
 30
0.0
  0
ENDBLK
  5
7B85
  8
0
  0
BLOCK
  8
0
  2
*D5
 70
     1
 10
0.0
 20
0.0
 30
0.0
  3
*D5
  1

  0
LINE
  5
7DE7
  8
3
  6
CONTINUOUS
 62
     0
 10
978.91662516711347
 20
1060.1753869812719
 30
0.0
 11
978.91662516711347
 21
1307.5225379812721
 31
0.0
  0
LINE
  5
7DE8
  8
3
  6
CONTINUOUS
 62
     0
 10
848.34943716711325
 20
1297.5225379812721
 30
0.0
 11
958.91662516711358
 21
1297.5225379812721
 31
0.0
  0
INSERT
  5
7DE9
  8
3
  6
CONTINUOUS
 62
     0
  2
_OPEN
 10
828.34943716711336
 20
1297.5225379812721
 30
0.0
 41
20.0
 42
20.0
 43
20.0
 50
180.0
  0
INSERT
  5
7DEA
  8
3
  6
CONTINUOUS
 62
     0
  2
_OPEN
 10
978.91662516711347
 20
1297.5225379812721
 30
0.0
 41
20.0
 42
20.0
 43
20.0
  0
TEXT
  8
3
  40
30
  5
7E69
  62
0
  72
0
  71
0
 10
843.633
 20
1269.42
 30
0.000000
  1
151
  0
POINT
  5
7DEC
  8
DEFPOINTS
  6
CONTINUOUS
 62
     0
 10
828.34943716711336
 20
1215.1753869812719
 30
0.0
  0
POINT
  5
7DED
  8
DEFPOINTS
  6
CONTINUOUS
 62
     0
 10
978.91662516711347
 20
1055.1753869812719
 30
0.0
  0
POINT
  5
7DEE
  8
DEFPOINTS
  6
CONTINUOUS
 62
     0
 10
978.91662516711347
 20
1297.5225379812721
 30
0.0
  0
ENDBLK
  5
7B91
  8
0
  0
BLOCK
  8
0
  2
*D6
 70
     1
 10
0.0
 20
0.0
 30
0.0
  3
*D6
  1

  0
LINE
  5
7DEF
  8
3
  6
CONTINUOUS
 62
     0
 10
854.34943716711325
 20
1215.1753869812719
 30
0.0
 11
1065.126503167113
 21
1215.1753869812719
 31
0.0
  0
LINE
  5
7DF0
  8
3
  6
CONTINUOUS
 62
     0
 10
983.91662516711358
 20
1055.1753869812719
 30
0.0
 11
1065.126503167113
 21
1055.1753869812719
 31
0.0
  0
LINE
  5
7DF1
  8
3
  6
CONTINUOUS
 62
     0
 10
1055.126503167113
 20
1195.1753869812719
 30
0.0
 11
1055.126503167113
 21
1075.175386981273
 31
0.0
  0
INSERT
  5
7DF2
  8
3
  6
CONTINUOUS
 62
     0
  2
_OPEN
 10
1055.126503167113
 20
1215.1753869812719
 30
0.0
 41
20.0
 42
20.0
 43
20.0
 50
90.0
  0
INSERT
  5
7DF3
  8
3
  6
CONTINUOUS
 62
     0
  2
_OPEN
 10
1055.126503167113
 20
1055.1753869812719
 30
0.0
 41
20.0
 42
20.0
 43
20.0
 50
270.0
  0
TEXT
  8
3
  40
30
  5
7E6A
  62
0
  72
0
  71
0
 10
970.127
 20
1081.63
 30
0.000000
  1
160
  0
POINT
  5
7DF5
  8
DEFPOINTS
  6
CONTINUOUS
 62
     0
 10
849.34943716711325
 20
1215.1753869812719
 30
0.0
  0
POINT
  5
7DF6
  8
DEFPOINTS
  6
CONTINUOUS
 62
     0
 10
978.91662516711347
 20
1055.1753869812719
 30
0.0
  0
POINT
  5
7DF7
  8
DEFPOINTS
  6
CONTINUOUS
 62
     0
 10
1055.126503167113
 20
1055.1753869812719
 30
0.0
  0
ENDBLK
  5
7B9F
  8
0
  0
BLOCK
  8
0
  2
*D7
 70
     1
 10
0.0
 20
0.0
 30
0.0
  3
*D7
  1

  0
LINE
  5
7DF8
  8
3
  6
CONTINUOUS
 62
     0
 10
993.34943716711336
 20
780.17538698127282
 30
0.0
 11
1065.126503167113
 21
780.17538698127282
 31
0.0
  0
LINE
  5
7DF9
  8
3
  6
CONTINUOUS
 62
     0
 10
1055.126503167113
 20
1035.1753869812719
 30
0.0
 11
1055.126503167113
 21
800.17538698127271
 31
0.0
  0
INSERT
  5
7DFA
  8
3
  6
CONTINUOUS
 62
     0
  2
_OPEN
 10
1055.126503167113
 20
1055.1753869812719
 30
0.0
 41
20.0
 42
20.0
 43
20.0
 50
90.0
  0
INSERT
  5
7DFB
  8
3
  6
CONTINUOUS
 62
     0
  2
_OPEN
 10
1055.126503167113
 20
780.17538698127282
 30
0.0
 41
20.0
 42
20.0
 43
20.0
 50
270.0
  0
TEXT
  8
3
  40
30
  5
7E6B
  62
0
  72
0
  71
0
 10
970.127
 20
864.575
 30
0.000000
  1
275
  0
POINT
  5
7DFD
  8
DEFPOINTS
  6
CONTINUOUS
 62
     0
 10
978.91662516711347
 20
1055.1753869812719
 30
0.0
  0
POINT
  5
7DFE
  8
DEFPOINTS
  6
CONTINUOUS
 62
     0
 10
988.34943716711325
 20
780.17538698127282
 30
0.0
  0
POINT
  5
7DFF
  8
DEFPOINTS
  6
CONTINUOUS
 62
     0
 10
1055.126503167113
 20
780.17538698127282
 30
0.0
  0
ENDBLK
  5
7BAB
  8
0
  0
BLOCK
  8
0
  2
*D8
 70
     1
 10
0.0
 20
0.0
 30
0.0
  3
*D8
  1

  0
LINE
  5
7E00
  8
3
  6
CONTINUOUS
 62
     0
 10
993.34943716711336
 20
780.17538698127282
 30
0.0
 11
1065.038394167113
 21
780.17538698127282
 31
0.0
  0
LINE
  5
7E01
  8
3
  6
CONTINUOUS
 62
     0
 10
993.34943716711336
 20
755.17538698127282
 30
0.0
 11
1065.038394167113
 21
755.17538698127282
 31
0.0
  0
LINE
  5
7E02
  8
3
  6
CONTINUOUS
 62
     0
 10
1055.038394167113
 20
800.17538698127271
 30
0.0
 11
1055.038394167113
 21
820.17538698127282
 31
0.0
  0
LINE
  5
7E03
  8
3
  6
CONTINUOUS
 62
     0
 10
1055.038394167113
 20
735.17538698127282
 30
0.0
 11
1055.038394167113
 21
646.60395840984415
 31
0.0
  0
LINE
  5
7E04
  8
3
  6
CONTINUOUS
 62
     0
 10
1055.038394167113
 20
780.17538698127282
 30
0.0
 11
1055.038394167113
 21
755.17538698127282
 31
0.0
  0
INSERT
  5
7E05
  8
3
  6
CONTINUOUS
 62
     0
  2
_OPEN
 10
1055.038394167113
 20
780.17538698127282
 30
0.0
 41
20.0
 42
20.0
 43
20.0
 50
270.0
  0
INSERT
  5
7E06
  8
3
  6
CONTINUOUS
 62
     0
  2
_OPEN
 10
1055.038394167113
 20
755.17538698127282
 30
0.0
 41
20.0
 42
20.0
 43
20.0
 50
90.0
  0
TEXT
  8
3
  40
30
  5
7E6C
  62
0
  72
0
  71
0
 10
970.038
 20
627.790
 30
0.000000
  1
25
  0
POINT
  5
7E08
  8
DEFPOINTS
  6
CONTINUOUS
 62
     0
 10
988.34943716711325
 20
780.17538698127282
 30
0.0
  0
POINT
  5
7E09
  8
DEFPOINTS
  6
CONTINUOUS
 62
     0
 10
988.34943716711325
 20
755.17538698127282
 30
0.0
  0
POINT
  5
7E0A
  8
DEFPOINTS
  6
CONTINUOUS
 62
     0
 10
1055.038394167113
 20
755.17538698127282
 30
0.0
  0
ENDBLK
  5
7CBE
  8
0
  0
BLOCK
  8
0
  2
*D9
 70
     1
 10
0.0
 20
0.0
 30
0.0
  3
*D9
  1

  0
LINE
  5
7E0B
  8
3
  6
CONTINUOUS
 62
     0
 10
1275.614785521559
 20
750.17538698127282
 30
0.0
 11
1275.614785521559
 21
670.19275198127275
 31
0.0
  0
LINE
  5
7E0C
  8
3
  6
CONTINUOUS
 62
     0
 10
1573.614785521559
 20
750.17538698127282
 30
0.0
 11
1573.614785521559
 21
670.19275198127275
 31
0.0
  0
LINE
  5
7E0D
  8
3
  6
CONTINUOUS
 62
     0
 10
1295.614785521559
 20
680.19275198127275
 30
0.0
 11
1553.614785521559
 21
680.19275198127275
 31
0.0
  0
INSERT
  5
7E0E
  8
3
  6
CONTINUOUS
 62
     0
  2
_OPEN
 10
1275.614785521559
 20
680.19275198127275
 30
0.0
 41
20.0
 42
20.0
 43
20.0
 50
180.0
  0
INSERT
  5
7E0F
  8
3
  6
CONTINUOUS
 62
     0
  2
_OPEN
 10
1573.614785521559
 20
680.19275198127275
 30
0.0
 41
20.0
 42
20.0
 43
20.0
  0
TEXT
  8
3
  40
30
  5
7E6D
  62
0
  72
0
  71
0
 10
1367.69
 20
652.093
 30
0.000000
  1
298
  0
POINT
  5
7E11
  8
DEFPOINTS
  6
CONTINUOUS
 62
     0
 10
1275.614785521559
 20
755.17538698127282
 30
0.0
  0
POINT
  5
7E12
  8
DEFPOINTS
  6
CONTINUOUS
 62
     0
 10
1573.614785521559
 20
755.17538698127282
 30
0.0
  0
POINT
  5
7E13
  8
DEFPOINTS
  6
CONTINUOUS
 62
     0
 10
1573.614785521559
 20
680.19275198127275
 30
0.0
  0
ENDBLK
  5
7BEF
  8
0
  0
BLOCK
  8
0
  2
*D10
 70
     1
 10
0.0
 20
0.0
 30
0.0
  3
*D10
  1

  0
LINE
  5
7E14
  8
3
  6
CONTINUOUS
 62
     0
 10
1705.614785521559
 20
750.17538698127282
 30
0.0
 11
1705.614785521559
 21
670.19275198127275
 31
0.0
  0
LINE
  5
7E15
  8
3
  6
CONTINUOUS
 62
     0
 10
1593.614785521559
 20
680.19275198127275
 30
0.0
 11
1685.614785521559
 21
680.19275198127275
 31
0.0
  0
INSERT
  5
7E16
  8
3
  6
CONTINUOUS
 62
     0
  2
_OPEN
 10
1573.614785521559
 20
680.19275198127275
 30
0.0
 41
20.0
 42
20.0
 43
20.0
 50
180.0
  0
INSERT
  5
7E17
  8
3
  6
CONTINUOUS
 62
     0
  2
_OPEN
 10
1705.614785521559
 20
680.19275198127275
 30
0.0
 41
20.0
 42
20.0
 43
20.0
  0
TEXT
  8
3
  40
30
  5
7E6E
  62
0
  72
0
  71
0
 10
1579.61
 20
652.093
 30
0.000000
  1
132
  0
POINT
  5
7E19
  8
DEFPOINTS
  6
CONTINUOUS
 62
     0
 10
1573.614785521559
 20
755.17538698127282
 30
0.0
  0
POINT
  5
7E1A
  8
DEFPOINTS
  6
CONTINUOUS
 62
     0
 10
1705.614785521559
 20
755.17538698127282
 30
0.0
  0
POINT
  5
7E1B
  8
DEFPOINTS
  6
CONTINUOUS
 62
     0
 10
1705.614785521559
 20
680.19275198127275
 30
0.0
  0
ENDBLK
  5
7BFB
  8
0
  0
BLOCK
  8
0
  2
*D11
 70
     1
 10
0.0
 20
0.0
 30
0.0
  3
*D11
  1

  0
LINE
  5
7E1C
  8
3
  6
CONTINUOUS
 62
     0
 10
1503.614785521559
 20
1219.1753869812719
 30
0.0
 11
1503.614785521559
 21
1264.404404981273
 31
0.0
  0
LINE
  5
7E1D
  8
3
  6
CONTINUOUS
 62
     0
 10
1643.614785521559
 20
1219.1753869812719
 30
0.0
 11
1643.614785521559
 21
1264.404404981273
 31
0.0
  0
LINE
  5
7E1E
  8
3
  6
CONTINUOUS
 62
     0
 10
1483.61478552156
 20
1254.4044049812719
 30
0.0
 11
1463.614785521559
 21
1254.4044049812719
 31
0.0
  0
LINE
  5
7E1F
  8
3
  6
CONTINUOUS
 62
     0
 10
1663.614785521559
 20
1254.4044049812719
 30
0.0
 11
1683.614785521559
 21
1254.4044049812719
 31
0.0
  0
LINE
  5
7E20
  8
3
  6
CONTINUOUS
 62
     0
 10
1503.614785521559
 20
1254.4044049812719
 30
0.0
 11
1643.614785521559
 21
1254.4044049812719
 31
0.0
  0
INSERT
  5
7E21
  8
3
  6
CONTINUOUS
 62
     0
  2
_OPEN
 10
1503.614785521559
 20
1254.4044049812719
 30
0.0
 41
20.0
 42
20.0
 43
20.0
  0
INSERT
  5
7E22
  8
3
  6
CONTINUOUS
 62
     0
  2
_OPEN
 10
1643.614785521559
 20
1254.4044049812719
 30
0.0
 41
20.0
 42
20.0
 43
20.0
 50
180.0
  0
TEXT
  8
3
  40
30
  5
7E6F
  62
0
  72
0
  71
0
 10
1509.33
 20
1226.30
 30
0.000000
  1
140
  0
POINT
  5
7E24
  8
DEFPOINTS
  6
CONTINUOUS
 62
     0
 10
1503.614785521559
 20
1214.1753869812719
 30
0.0
  0
POINT
  5
7E25
  8
DEFPOINTS
  6
CONTINUOUS
 62
     0
 10
1643.614785521559
 20
1214.1753869812719
 30
0.0
  0
POINT
  5
7E26
  8
DEFPOINTS
  6
CONTINUOUS
 62
     0
 10
1643.614785521559
 20
1254.4044049812719
 30
0.0
  0
ENDBLK
  5
7C08
  8
0
  0
BLOCK
  8
0
  2
*D12
 70
     1
 10
0.0
 20
0.0
 30
0.0
  3
*D12
  1

  0
LINE
  5
7E27
  8
3
  6
CONTINUOUS
 62
     0
 10
1273.614785521559
 20
1170.1753869812719
 30
0.0
 11
1273.614785521559
 21
1317.828995981273
 31
0.0
  0
LINE
  5
7E28
  8
3
  6
CONTINUOUS
 62
     0
 10
1573.614785521559
 20
1303.1067499812721
 30
0.0
 11
1573.614785521559
 21
1317.828995981273
 31
0.0
  0
LINE
  5
7E29
  8
3
  6
CONTINUOUS
 62
     0
 10
1293.614785521559
 20
1307.828995981273
 30
0.0
 11
1553.614785521559
 21
1307.828995981273
 31
0.0
  0
INSERT
  5
7E2A
  8
3
  6
CONTINUOUS
 62
     0
  2
_OPEN
 10
1273.614785521559
 20
1307.828995981273
 30
0.0
 41
20.0
 42
20.0
 43
20.0
 50
180.0
  0
INSERT
  5
7E2B
  8
3
  6
CONTINUOUS
 62
     0
  2
_OPEN
 10
1573.614785521559
 20
1307.828995981273
 30
0.0
 41
20.0
 42
20.0
 43
20.0
  0
TEXT
  8
3
  40
30
  5
7E70
  62
0
  72
0
  71
0
 10
1371.02
 20
1304.73
 30
0.000000
  1
MAX
  0
TEXT
  8
3
  40
30
  5
7E71
  62
0
  72
0
  71
0
 10
1371.02
 20
1265.73
 30
0.000000
  1
300
  0
POINT
  5
7E2D
  8
DEFPOINTS
  6
CONTINUOUS
 62
     0
 10
1273.614785521559
 20
1165.1753869812719
 30
0.0
  0
POINT
  5
7E2E
  8
DEFPOINTS
  6
CONTINUOUS
 62
     0
 10
1573.614785521559
 20
1298.1067499812721
 30
0.0
  0
POINT
  5
7E2F
  8
DEFPOINTS
  6
CONTINUOUS
 62
     0
 10
1573.614785521559
 20
1307.828995981273
 30
0.0
  0
ENDBLK
  5
7CD4
  8
0
  0
BLOCK
  8
0
  2
*D13
 70
     1
 10
0.0
 20
0.0
 30
0.0
  3
*D13
  1

  0
LINE
  5
7E30
  8
3
  6
CONTINUOUS
 62
     0
 10
1651.614785521559
 20
1180.1753869812719
 30
0.0
 11
1651.614785521559
 21
1317.828995981273
 31
0.0
  0
LINE
  5
7E31
  8
3
  6
CONTINUOUS
 62
     0
 10
1593.614785521559
 20
1307.828995981273
 30
0.0
 11
1631.614785521559
 21
1307.828995981273
 31
0.0
  0
TEXT
  8
3
  40
30
  5
7E72
  62
0
  72
0
  71
0
 10
1547.62
 20
1279.89
 30
0.000000
  1
78
  0
INSERT
  5
7E33
  8
3
  6
CONTINUOUS
 62
     0
  2
_OPEN
 10
1573.614785521559
 20
1307.828995981273
 30
0.0
 41
20.0
 42
20.0
 43
20.0
 50
180.0
  0
INSERT
  5
7E34
  8
3
  6
CONTINUOUS
 62
     0
  2
_OPEN
 10
1651.614785521559
 20
1307.828995981273
 30
0.0
 41
20.0
 42
20.0
 43
20.0
  0
POINT
  5
7E35
  8
DEFPOINTS
  6
CONTINUOUS
 62
     0
 10
1573.614785521559
 20
1298.1067499812721
 30
0.0
  0
POINT
  5
7E36
  8
DEFPOINTS
  6
CONTINUOUS
 62
     0
 10
1651.614785521559
 20
1175.1753869812719
 30
0.0
  0
POINT
  5
7E37
  8
DEFPOINTS
  6
CONTINUOUS
 62
     0
 10
1651.614785521559
 20
1307.828995981273
 30
0.0
  0
ENDBLK
  5
7C95
  8
0
  0
BLOCK
  8
0
  2
*D14
 70
     1
 10
0.0
 20
0.0
 30
0.0
  3
*D14
  1

  0
LINE
  5
7E38
  8
3
  6
CONTINUOUS
 62
     0
 10
1656.614785521559
 20
1155.1753869812719
 30
0.0
 11
1731.22510552156
 21
1155.1753869812719
 31
0.0
  0
LINE
  5
7E39
  8
3
  6
CONTINUOUS
 62
     0
 10
1656.614785521559
 20
955.17538698127282
 30
0.0
 11
1731.22510552156
 21
955.17538698127282
 31
0.0
  0
LINE
  5
7E3A
  8
3
  6
CONTINUOUS
 62
     0
 10
1721.225105521559
 20
1135.1753869812719
 30
0.0
 11
1721.225105521559
 21
975.17538698127294
 31
0.0
  0
INSERT
  5
7E3B
  8
3
  6
CONTINUOUS
 62
     0
  2
_OPEN
 10
1721.225105521559
 20
1155.1753869812719
 30
0.0
 41
20.0
 42
20.0
 43
20.0
 50
90.0
  0
INSERT
  5
7E3C
  8
3
  6
CONTINUOUS
 62
     0
  2
_OPEN
 10
1721.225105521559
 20
955.17538698127282
 30
0.0
 41
20.0
 42
20.0
 43
20.0
 50
270.0
  0
TEXT
  8
3
  40
30
  5
7E73
  62
0
  72
0
  71
0
 10
1636.23
 20
1015.50
 30
0.000000
  1
φ200
  0
POINT
  5
7E3E
  8
DEFPOINTS
  6
CONTINUOUS
 62
     0
 10
1651.614785521559
 20
1155.1753869812719
 30
0.0
  0
POINT
  5
7E3F
  8
DEFPOINTS
  6
CONTINUOUS
 62
     0
 10
1651.614785521559
 20
955.17538698127282
 30
0.0
  0
POINT
  5
7E40
  8
DEFPOINTS
  6
CONTINUOUS
 62
     0
 10
1721.225105521559
 20
955.17538698127282
 30
0.0
  0
ENDBLK
  5
7CC9
  8
0
  0
BLOCK
  8
0
  2
*D15
 70
     1
 10
0.0
 20
0.0
 30
0.0
  3
*D15
  1

  0
LINE
  5
7E41
  8
3
  6
CONTINUOUS
 62
     0
 10
358.34943716711331
 20
1712.6213087294871
 30
0.0
 11
358.34943716711331
 21
1620.4595947294879
 31
0.0
  0
LINE
  5
7E42
  8
3
  6
CONTINUOUS
 62
     0
 10
988.34943716711325
 20
1712.6213087294871
 30
0.0
 11
988.34943716711325
 21
1620.4595947294879
 31
0.0
  0
LINE
  5
7E43
  8
3
  6
CONTINUOUS
 62
     0
 10
378.34943716711331
 20
1630.459594729487
 30
0.0
 11
968.34943716711336
 21
1630.459594729487
 31
0.0
  0
INSERT
  5
7E44
  8
3
  6
CONTINUOUS
 62
     0
  2
_OPEN
 10
358.34943716711331
 20
1630.459594729487
 30
0.0
 41
20.0
 42
20.0
 43
20.0
 50
180.0
  0
INSERT
  5
7E45
  8
3
  6
CONTINUOUS
 62
     0
  2
_OPEN
 10
988.34943716711325
 20
1630.459594729487
 30
0.0
 41
20.0
 42
20.0
 43
20.0
  0
TEXT
  8
3
  40
30
  5
7E74
  62
0
  72
0
  71
0
 10
622.709
 20
1602.36
 30
0.000000
  1
630
  0
POINT
  5
7E47
  8
DEFPOINTS
  6
CONTINUOUS
 62
     0
 10
358.34943716711331
 20
1717.6213087294871
 30
0.0
  0
POINT
  5
7E48
  8
DEFPOINTS
  6
CONTINUOUS
 62
     0
 10
988.34943716711325
 20
1717.6213087294871
 30
0.0
  0
POINT
  5
7E49
  8
DEFPOINTS
  6
CONTINUOUS
 62
     0
 10
988.34943716711325
 20
1630.459594729487
 30
0.0
  0
ENDBLK
  5
7C59
  8
0
  0
BLOCK
  8
0
  2
*D16
 70
     1
 10
0.0
 20
0.0
 30
0.0
  3
*D16
  1

  0
LINE
  5
7E4A
  8
3
  6
CONTINUOUS
 62
     0
 10
993.34943716711336
 20
2147.6213087294868
 30
0.0
 11
1086.6996241671129
 21
2147.6213087294859
 31
0.0
  0
LINE
  5
7E4B
  8
3
  6
CONTINUOUS
 62
     0
 10
993.34943716711336
 20
1717.6213087294871
 30
0.0
 11
1086.6996241671129
 21
1717.6213087294871
 31
0.0
  0
LINE
  5
7E4C
  8
3
  6
CONTINUOUS
 62
     0
 10
1076.6996241671129
 20
2127.6213087294868
 30
0.0
 11
1076.6996241671129
 21
1737.6213087294871
 31
0.0
  0
INSERT
  5
7E4D
  8
3
  6
CONTINUOUS
 62
     0
  2
_OPEN
 10
1076.6996241671129
 20
2147.6213087294859
 30
0.0
 41
20.0
 42
20.0
 43
20.0
 50
90.0
  0
INSERT
  5
7E4E
  8
3
  6
CONTINUOUS
 62
     0
  2
_OPEN
 10
1076.6996241671129
 20
1717.6213087294871
 30
0.0
 41
20.0
 42
20.0
 43
20.0
 50
270.0
  0
TEXT
  8
3
  40
30
  5
7E75
  62
0
  72
0
  71
0
 10
991.700
 20
1879.33
 30
0.000000
  1
430
  0
POINT
  5
7E50
  8
DEFPOINTS
  6
CONTINUOUS
 62
     0
 10
988.34943716711325
 20
2147.6213087294868
 30
0.0
  0
POINT
  5
7E51
  8
DEFPOINTS
  6
CONTINUOUS
 62
     0
 10
988.34943716711325
 20
1717.6213087294871
 30
0.0
  0
POINT
  5
7E52
  8
DEFPOINTS
  6
CONTINUOUS
 62
     0
 10
1076.6996241671129
 20
1717.6213087294871
 30
0.0
  0
ENDBLK
  5
7C66
  8
0
  0
BLOCK
  8
0
  2
*D17
 70
     1
 10
0.0
 20
0.0
 30
0.0
  3
*D17
  1

  0
LINE
  5
7E53
  8
3
  6
CONTINUOUS
 62
     0
 10
859.34943716711336
 20
1215.1753869812719
 30
0.0
 11
1134.6793951671129
 21
1215.1753869812719
 31
0.0
  0
LINE
  5
7E54
  8
3
  6
CONTINUOUS
 62
     0
 10
993.34943716711336
 20
755.17538698127282
 30
0.0
 11
1134.6793951671129
 21
755.17538698127282
 31
0.0
  0
LINE
  5
7E55
  8
3
  6
CONTINUOUS
 62
     0
 10
1124.6793951671129
 20
1195.1753869812719
 30
0.0
 11
1124.6793951671129
 21
775.17538698127282
 31
0.0
  0
INSERT
  5
7E56
  8
3
  6
CONTINUOUS
 62
     0
  2
_OPEN
 10
1124.6793951671129
 20
1215.1753869812719
 30
0.0
 41
20.0
 42
20.0
 43
20.0
 50
90.0
  0
INSERT
  5
7E57
  8
3
  6
CONTINUOUS
 62
     0
  2
_OPEN
 10
1124.6793951671129
 20
755.17538698127282
 30
0.0
 41
20.0
 42
20.0
 43
20.0
 50
270.0
  0
TEXT
  8
3
  40
30
  5
7E76
  62
0
  72
0
  71
0
 10
1039.68
 20
933.548
 30
0.000000
  1
460
  0
POINT
  5
7E59
  8
DEFPOINTS
  6
CONTINUOUS
 62
     0
 10
854.34943716711325
 20
1215.1753869812719
 30
0.0
  0
POINT
  5
7E5A
  8
DEFPOINTS
  6
CONTINUOUS
 62
     0
 10
988.34943716711325
 20
755.17538698127282
 30
0.0
  0
POINT
  5
7E5B
  8
DEFPOINTS
  6
CONTINUOUS
 62
     0
 10
1124.6793951671129
 20
755.17538698127282
 30
0.0
  0
ENDBLK
  5
7C75
  8
0
  0
BLOCK
  8
0
  2
*D18
 70
     1
 10
0.0
 20
0.0
 30
0.0
  3
*D18
  1

  0
LINE
  5
7E5C
  8
3
 62
     0
 10
978.91662516711347
 20
1312.5225379812721
 30
0.0
 11
978.91662516711347
 21
1380.8810511960851
 31
0.0
  0
LINE
  5
7E5D
  8
3
 62
     0
 10
358.34943716711331
 20
835.17538698127282
 30
0.0
 11
358.34943716711342
 21
1380.8810511960851
 31
0.0
  0
LINE
  5
7E5E
  8
3
 62
     0
 10
958.91662516711358
 20
1370.8810511960851
 30
0.0
 11
378.34943716711342
 21
1370.8810511960851
 31
0.0
  0
INSERT
  5
7E5F
  8
3
 62
     0
  2
_OPEN
 10
978.91662516711347
 20
1370.8810511960851
 30
0.0
 41
20.0
 42
20.0
 43
20.0
  0
INSERT
  5
7E60
  8
3
 62
     0
  2
_OPEN
 10
358.34943716711342
 20
1370.8810511960851
 30
0.0
 41
20.0
 42
20.0
 43
20.0
 50
180.0
  0
TEXT
  8
3
  40
30
  5
7E77
  62
0
  72
0
  71
0
 10
616.359
 20
1342.78
 30
0.000000
  1
621
  0
POINT
  5
7E62
  8
DEFPOINTS
 62
     0
 10
978.91662516711347
 20
1307.5225379812721
 30
0.0
  0
POINT
  5
7E63
  8
DEFPOINTS
 62
     0
 10
358.34943716711331
 20
830.17538698127282
 30
0.0
  0
POINT
  5
7E64
  8
DEFPOINTS
 62
     0
 10
358.34943716711342
 20
1370.8810511960851
 30
0.0
  0
ENDBLK
  5
7CB0
  8
0
  0
ENDSEC
  0
SECTION
  2
ENTITIES
  0
ARC
  5
7A89
  8
1
  6
CONTINUOUS
 10
814.34943716711325
 20
1041.1753869812719
 30
0.0
 40
165.0
 50
269.69999999999999
 51
0.6
  0
ARC
  5
7A8A
  8
1
  6
CONTINUOUS
 10
812.34943716711325
 20
1071.1753869812719
 30
0.0
 40
195.0
 50
180.0
 51
270.30000000000001
  0
ARC
  5
7A8B
  8
1
  6
CONTINUOUS
 10
523.74943716711346
 20
930.87538698127287
 30
0.0
 40
85.0
 50
324.69999999999987
 51
215.30000000000001
  0
LINE
  5
7A8C
  8
1
  6
CONTINUOUS
 10
405.34943716711331
 20
1165.1753869812719
 30
0.0
 11
935.34943716711336
 21
1165.1753869812719
 31
0.0
  0
LINE
  5
7A8D
  8
1
  6
CONTINUOUS
 10
616.64943716711343
 20
850.87538698127275
 30
0.0
 11
365.64943716711332
 21
850.87538698127275
 31
0.0
  0
LINE
  5
7A8E
  8
1
  6
CONTINUOUS
 10
358.34943716711331
 20
780.17538698127282
 30
0.0
 11
988.34943716711325
 21
780.17538698127282
 31
0.0
  0
LINE
  5
7A8F
  8
1
  6
CONTINUOUS
 10
358.34943716711331
 20
830.17538698127282
 30
0.0
 11
988.34943716711325
 21
830.17538698127282
 31
0.0
  0
LINE
  5
7A90
  8
1
  6
CONTINUOUS
 10
513.34943716711325
 20
962.97538698127266
 30
0.0
 11
807.14943716711343
 21
1100.4753869812721
 31
0.0
  0
LINE
  5
7A91
  8
1
  6
CONTINUOUS
 10
540.0494371671133
 20
898.37538698127275
 30
0.0
 11
845.24943716711346
 21
1008.175386981272
 31
0.0
  0
LINE
  5
7A92
  8
1
  6
CONTINUOUS
 10
405.34943716711331
 20
830.17538698127282
 30
0.0
 11
405.34943716711331
 21
1165.1753869812719
 31
0.0
  0
LINE
  5
7A93
  8
1
  6
CONTINUOUS
 10
383.34943716711331
 20
755.17538698127282
 30
0.0
 11
383.34943716711331
 21
780.17538698127282
 31
0.0
  0
LINE
  5
7A94
  8
1
  6
CONTINUOUS
 10
358.34943716711331
 20
755.17538698127282
 30
0.0
 11
358.34943716711331
 21
830.17538698127282
 31
0.0
  0
LINE
  5
7A95
  8
1
  6
CONTINUOUS
 10
358.34943716711331
 20
755.17538698127282
 30
0.0
 11
383.34943716711331
 21
755.17538698127282
 31
0.0
  0
LINE
  5
7A96
  8
1
  6
CONTINUOUS
 10
365.64943716711332
 20
850.87538698127275
 30
0.0
 11
365.64943716711332
 21
830.17538698127282
 31
0.0
  0
LINE
  5
7A97
  8
2
  6
CENTER
 10
493.14943716711332
 20
931.27538698127285
 30
0.0
 11
563.14943716711343
 21
931.27538698127285
 31
0.0
  0
CIRCLE
  5
7A98
  8
1
  6
CONTINUOUS
 10
528.14943716711332
 20
931.27538698127285
 30
0.0
 40
35.0
  0
LINE
  5
7A99
  8
1
  6
CONTINUOUS
 10
446.2494371671134
 20
850.87538698127275
 30
0.0
 11
446.2494371671134
 21
858.87538698127287
 31
0.0
  0
LINE
  5
7A9A
  8
1
  6
CONTINUOUS
 10
446.2494371671134
 20
858.87538698127287
 30
0.0
 11
454.4494371671135
 21
881.67538698127282
 31
0.0
  0
LINE
  5
7A9B
  8
2
  6
CENTER
 10
528.14943716711332
 20
896.27538698127273
 30
0.0
 11
528.14943716711332
 21
966.27538698127285
 31
0.0
  0
LINE
  5
7A9C
  8
1
  6
CONTINUOUS
 10
601.24943716711346
 20
858.87538698127287
 30
0.0
 11
593.14943716711343
 21
881.67538698127282
 31
0.0
  0
LINE
  5
7A9D
  8
1
  6
CONTINUOUS
 10
601.24943716711346
 20
850.87538698127275
 30
0.0
 11
601.24943716711346
 21
858.87538698127287
 31
0.0
  0
CIRCLE
  5
7A9E
  8
1
  6
CONTINUOUS
 10
828.34943716711336
 20
1055.1753869812719
 30
0.0
 40
100.0
  0
CIRCLE
  5
7A9F
  8
1
  6
CONTINUOUS
 10
828.34943716711336
 20
1055.1753869812719
 30
0.0
 40
120.0
  0
ARC
  5
7AA0
  8
1
  6
CONTINUOUS
 10
839.34943716711325
 20
1044.1753869812719
 30
0.0
 40
140.0
 50
359.39999999999992
 51
90.40000000000002
  0
LINE
  5
7AA1
  8
1
  6
CONTINUOUS
 10
693.34943716711325
 20
1108.875386981272
 30
0.0
 11
693.34943716711325
 21
830.17538698127282
 31
0.0
  0
LINE
  5
7AA2
  8
1
  6
CONTINUOUS
 10
963.34943716711325
 20
830.17538698127282
 30
0.0
 11
963.34943716711325
 21
1108.875386981272
 31
0.0
  0
LINE
  5
7AA3
  8
1
  6
CONTINUOUS
 10
935.34943716711336
 20
830.17538698127282
 30
0.0
 11
935.34943716711336
 21
1165.1753869812719
 31
0.0
  0
CIRCLE
  5
7AA4
  8
1
  6
CONTINUOUS
 10
828.34943716711336
 20
1055.1753869812719
 30
0.0
 40
50.0
  0
LINE
  5
7AA5
  8
2
  6
CENTER
 10
828.34943716711336
 20
761.56718898127281
 30
0.0
 11
828.34943716711336
 21
1235.5672169812719
 31
0.0
  0
LINE
  5
7AA6
  8
1
  6
CONTINUOUS
 10
693.34943716711325
 20
1021.875386981272
 30
0.0
 11
963.34943716711325
 21
1021.875386981272
 31
0.0
  0
LINE
  5
7AA7
  8
2
  6
CENTER
 10
388.03597416711341
 20
1055.1753869812719
 30
0.0
 11
997.79594216711348
 21
1055.1753869812719
 31
0.0
  0
LINE
  5
7AA8
  8
1
  6
CONTINUOUS
 10
616.64943716711343
 20
830.17538698127282
 30
0.0
 11
616.64943716711343
 21
850.87538698127275
 31
0.0
  0
LINE
  5
7AA9
  8
1
  6
CONTINUOUS
 10
963.34943716711325
 20
755.17538698127282
 30
0.0
 11
963.34943716711325
 21
780.17538698127282
 31
0.0
  0
LINE
  5
7AAA
  8
1
  6
CONTINUOUS
 10
988.34943716711325
 20
755.17538698127282
 30
0.0
 11
988.34943716711325
 21
830.17538698127282
 31
0.0
  0
LINE
  5
7AAB
  8
1
  6
CONTINUOUS
 10
963.34943716711325
 20
755.17538698127282
 30
0.0
 11
988.34943716711325
 21
755.17538698127282
 31
0.0
  0
LINE
  5
7AAC
  8
1
  6
CONTINUOUS
 10
607.34943716711336
 20
1215.1753869812719
 30
0.0
 11
849.34943716711325
 21
1215.1753869812719
 31
0.0
  0
LINE
  5
7AAD
  8
1
  6
CONTINUOUS
 10
642.34943716711325
 20
1200.175386981273
 30
0.0
 11
814.34943716711325
 21
1200.175386981273
 31
0.0
  0
LINE
  5
7AAE
  8
1
  6
CONTINUOUS
 10
879.94943716711339
 20
1180.1753869812719
 30
0.0
 11
776.74943716711346
 21
1180.1753869812719
 31
0.0
  0
LINE
  5
7AAF
  8
1
  6
CONTINUOUS
 10
776.74943716711346
 20
1180.1753869812719
 30
0.0
 11
693.34943716711325
 21
1108.875386981272
 31
0.0
  0
LINE
  5
7AB0
  8
1
  6
CONTINUOUS
 10
617.34943716711325
 20
1200.175386981273
 30
0.0
 11
617.34943716711325
 21
1071.1753869812719
 31
0.0
  0
LINE
  5
7AB1
  8
1
  6
CONTINUOUS
 10
627.34943716711336
 20
1215.1753869812719
 30
0.0
 11
642.34943716711325
 21
1200.175386981273
 31
0.0
  0
LINE
  5
7AB2
  8
1
  6
CONTINUOUS
 10
628.34943716711336
 20
1215.1753869812719
 30
0.0
 11
628.34943716711336
 21
1200.175386981273
 31
0.0
  0
LINE
  5
7AB3
  8
1
  6
CONTINUOUS
 10
617.34943716711325
 20
1200.175386981273
 30
0.0
 11
628.34943716711336
 21
1200.175386981273
 31
0.0
  0
LINE
  5
7AB4
  8
1
  6
CONTINUOUS
 10
879.94943716711339
 20
1180.1753869812719
 30
0.0
 11
963.34943716711325
 21
1108.875386981272
 31
0.0
  0
LINE
  5
7AB5
  8
1
  6
CONTINUOUS
 10
838.34943716711325
 20
1200.175386981273
 30
0.0
 11
838.34943716711325
 21
1184.175386981273
 31
0.0
  0
LINE
  5
7AB6
  8
1
  6
CONTINUOUS
 10
828.34943716711336
 20
1215.1753869812719
 30
0.0
 11
828.34943716711336
 21
1200.175386981273
 31
0.0
  0
LINE
  5
7AB7
  8
1
  6
CONTINUOUS
 10
829.34943716711325
 20
1215.1753869812719
 30
0.0
 11
814.34943716711325
 21
1200.175386981273
 31
0.0
  0
LINE
  5
7AB8
  8
1
  6
CONTINUOUS
 10
828.34943716711336
 20
1200.175386981273
 30
0.0
 11
838.34943716711325
 21
1200.175386981273
 31
0.0
  0
LINE
  5
7AB9
  8
1
  6
CONTINUOUS
 10
1275.614785521559
 20
755.17538698127282
 30
0.0
 11
1705.614785521559
 21
755.17538698127282
 31
0.0
  0
LINE
  5
7ABA
  8
1
  6
CONTINUOUS
 10
1326.114785521559
 20
1043.1753869812719
 30
0.0
 11
1411.01478552156
 21
1043.1753869812719
 31
0.0
  0
LINE
  5
7ABB
  8
1
  6
CONTINUOUS
 10
1326.114785521559
 20
1067.175386981273
 30
0.0
 11
1441.914785521559
 21
1067.175386981273
 31
0.0
  0
LINE
  5
7ABC
  8
1
  6
CONTINUOUS
 10
1326.114785521559
 20
919.27538698127285
 30
0.0
 11
1383.614785521559
 21
919.27538698127285
 31
0.0
  0
LINE
  5
7ABD
  8
1
  6
CONTINUOUS
 10
1326.114785521559
 20
943.27538698127285
 30
0.0
 11
1383.614785521559
 21
943.27538698127285
 31
0.0
  0
LINE
  5
7ABE
  8
1
  6
CONTINUOUS
 10
1273.614785521559
 20
830.17538698127282
 30
0.0
 11
1583.614785521559
 21
830.17538698127282
 31
0.0
  0
LINE
  5
7ABF
  8
1
  6
CONTINUOUS
 10
1275.614785521559
 20
780.17538698127282
 30
0.0
 11
1705.614785521559
 21
780.17538698127282
 31
0.0
  0
LINE
  5
7AC0
  8
1
  6
CONTINUOUS
 10
1326.114785521559
 20
1105.1753869812719
 30
0.0
 11
1326.114785521559
 21
1005.175386981272
 31
0.0
  0
LINE
  5
7AC1
  8
1
  6
CONTINUOUS
 10
1296.11478552156
 20
1105.1753869812719
 30
0.0
 11
1296.11478552156
 21
1005.175386981272
 31
0.0
  0
LINE
  5
7AC2
  8
1
  6
CONTINUOUS
 10
1348.614785521559
 20
1165.1753869812719
 30
0.0
 11
1348.614785521559
 21
830.17538698127282
 31
0.0
  0
LINE
  5
7AC3
  8
1
  6
CONTINUOUS
 10
1273.614785521559
 20
1165.1753869812719
 30
0.0
 11
1273.614785521559
 21
830.17538698127282
 31
0.0
  0
LINE
  5
7AC4
  8
1
  6
CONTINUOUS
 10
1275.614785521559
 20
780.17538698127282
 30
0.0
 11
1275.614785521559
 21
755.17538698127282
 31
0.0
  0
LINE
  5
7AC5
  8
1
  6
CONTINUOUS
 10
1296.11478552156
 20
896.27538698127273
 30
0.0
 11
1326.114785521559
 21
896.27538698127273
 31
0.0
  0
LINE
  5
7AC6
  8
1
  6
CONTINUOUS
 10
1296.11478552156
 20
966.27538698127285
 30
0.0
 11
1326.114785521559
 21
966.27538698127285
 31
0.0
  0
LINE
  5
7AC7
  8
1
  6
CONTINUOUS
 10
1326.114785521559
 20
966.27538698127285
 30
0.0
 11
1326.114785521559
 21
896.27538698127273
 31
0.0
  0
LINE
  5
7AC8
  8
1
  6
CONTINUOUS
 10
1296.11478552156
 20
966.27538698127285
 30
0.0
 11
1296.11478552156
 21
896.27538698127273
 31
0.0
  0
LINE
  5
7AC9
  8
1
  6
CONTINUOUS
 10
1296.11478552156
 20
1005.175386981272
 30
0.0
 11
1326.114785521559
 21
1005.175386981272
 31
0.0
  0
LINE
  5
7ACA
  8
1
  6
CONTINUOUS
 10
1359.614785521559
 20
830.17538698127282
 30
0.0
 11
1359.614785521559
 21
780.17538698127282
 31
0.0
  0
LINE
  5
7ACB
  8
1
  6
CONTINUOUS
 10
1296.11478552156
 20
1105.1753869812719
 30
0.0
 11
1326.114785521559
 21
1105.1753869812719
 31
0.0
  0
LINE
  5
7ACC
  8
1
  6
CONTINUOUS
 10
1273.614785521559
 20
1165.1753869812719
 30
0.0
 11
1348.614785521559
 21
1165.1753869812719
 31
0.0
  0
LINE
  5
7ACD
  8
1
  6
CONTINUOUS
 10
1651.614785521559
 20
1175.1753869812719
 30
0.0
 11
1651.614785521559
 21
935.17538698127282
 31
0.0
  0
LINE
  5
7ACE
  8
1
  6
CONTINUOUS
 10
1503.614785521559
 20
1215.1753869812719
 30
0.0
 11
1503.614785521559
 21
886.17538698127282
 31
0.0
  0
LINE
  5
7ACF
  8
1
  6
CONTINUOUS
 10
1643.614785521559
 20
1215.1753869812719
 30
0.0
 11
1643.614785521559
 21
886.17538698127282
 31
0.0
  0
LINE
  5
7AD0
  8
1
  6
CONTINUOUS
 10
1495.614785521559
 20
1175.1753869812719
 30
0.0
 11
1495.614785521559
 21
830.17538698127282
 31
0.0
  0
LINE
  5
7AD1
  8
1
  6
CONTINUOUS
 10
1383.614785521559
 20
1021.875386981272
 30
0.0
 11
1495.614785521559
 21
1108.875386981272
 31
0.0
  0
LINE
  5
7AD2
  8
1
  6
CONTINUOUS
 10
1513.614785521559
 20
876.17538698127294
 30
0.0
 11
1633.614785521559
 21
876.17538698127294
 31
0.0
  0
LINE
  5
7AD3
  8
1
  6
CONTINUOUS
 10
1383.614785521559
 20
1021.875386981272
 30
0.0
 11
1383.614785521559
 21
830.17538698127282
 31
0.0
  0
ARC
  5
7AD4
  8
1
  6
CONTINUOUS
 10
1513.614785521559
 20
886.17538698127282
 30
0.0
 40
10.0
 50
180.0
 51
270.0
  0
LINE
  5
7AD5
  8
1
  6
CONTINUOUS
 10
1503.614785521559
 20
935.17538698127282
 30
0.0
 11
1495.614785521559
 21
935.17538698127282
 31
0.0
  0
LINE
  5
7AD6
  8
1
  6
CONTINUOUS
 10
1705.614785521559
 20
780.17538698127282
 30
0.0
 11
1705.614785521559
 21
755.17538698127282
 31
0.0
  0
LINE
  5
7AD7
  8
1
  6
CONTINUOUS
 10
1643.614785521559
 20
935.17538698127282
 30
0.0
 11
1651.614785521559
 21
935.17538698127282
 31
0.0
  0
ARC
  5
7AD8
  8
1
  6
CONTINUOUS
 10
1633.614785521559
 20
886.17538698127282
 30
0.0
 40
10.0
 50
270.0
 51
0.0
  0
LINE
  5
7AD9
  8
1
  6
CONTINUOUS
 10
1583.614785521559
 20
830.17538698127282
 30
0.0
 11
1583.614785521559
 21
780.17538698127282
 31
0.0
  0
LINE
  5
7ADA
  8
1
  6
CONTINUOUS
 10
1517.614785521559
 20
1200.175386981273
 30
0.0
 11
1629.614785521559
 21
1200.175386981273
 31
0.0
  0
LINE
  5
7ADB
  8
1
  6
CONTINUOUS
 10
1482.614785521559
 20
1215.1753869812719
 30
0.0
 11
1664.61478552156
 21
1215.1753869812719
 31
0.0
  0
LINE
  5
7ADC
  8
1
  6
CONTINUOUS
 10
1502.614785521559
 20
1215.1753869812719
 30
0.0
 11
1517.614785521559
 21
1200.175386981273
 31
0.0
  0
LINE
  5
7ADD
  8
1
  6
CONTINUOUS
 10
1503.614785521559
 20
1175.1753869812719
 30
0.0
 11
1495.614785521559
 21
1175.1753869812719
 31
0.0
  0
LINE
  5
7ADE
  8
1
  6
CONTINUOUS
 10
1643.614785521559
 20
1175.1753869812719
 30
0.0
 11
1651.614785521559
 21
1175.1753869812719
 31
0.0
  0
LINE
  5
7ADF
  8
1
  6
CONTINUOUS
 10
1644.614785521559
 20
1215.1753869812719
 30
0.0
 11
1629.614785521559
 21
1200.175386981273
 31
0.0
  0
LINE
  5
7AE0
  8
1
  6
CONTINUOUS
 10
608.74943716711346
 20
1820.8213087294871
 30
0.0
 11
438.7494371671134
 21
1820.8213087294871
 31
0.0
  0
LINE
  5
7AE1
  8
1
  6
CONTINUOUS
 10
608.74943716711346
 20
2011.721308729487
 30
0.0
 11
438.7494371671134
 21
2011.721308729487
 31
0.0
  0
LINE
  5
7AE2
  8
1
  6
CONTINUOUS
 10
935.34943716711336
 20
1790.6213087294871
 30
0.0
 11
405.34943716711331
 21
1790.6213087294871
 31
0.0
  0
LINE
  5
7AE3
  8
1
  6
CONTINUOUS
 10
628.34943716711336
 20
2025.6213087294871
 30
0.0
 11
358.34943716711331
 21
2025.6213087294871
 31
0.0
  0
LINE
  5
7AE4
  8
1
  6
CONTINUOUS
 10
935.34943716711336
 20
1715.6213087294871
 30
0.0
 11
405.34943716711331
 21
1715.6213087294871
 31
0.0
  0
LINE
  5
7AE5
  8
1
  6
CONTINUOUS
 10
816.34943716711325
 20
1801.6213087294871
 30
0.0
 11
540.14943716711332
 21
1801.6213087294871
 31
0.0
  0
LINE
  5
7AE6
  8
1
  6
CONTINUOUS
 10
383.34943716711331
 20
2025.6213087294871
 30
0.0
 11
383.34943716711331
 21
2147.6213087294868
 31
0.0
  0
LINE
  5
7AE7
  8
1
  6
CONTINUOUS
 10
358.34943716711331
 20
1717.6213087294871
 30
0.0
 11
358.34943716711331
 21
2147.6213087294868
 31
0.0
  0
LINE
  5
7AE8
  8
1
  6
CONTINUOUS
 10
516.14943716711332
 20
1801.6213087294871
 30
0.0
 11
358.34943716711331
 21
1801.6213087294871
 31
0.0
  0
LINE
  5
7AE9
  8
1
  6
CONTINUOUS
 10
383.34943716711331
 20
1717.6213087294871
 30
0.0
 11
383.34943716711331
 21
1801.6213087294871
 31
0.0
  0
LINE
  5
7AEA
  8
1
  6
CONTINUOUS
 10
358.34943716711331
 20
1717.6213087294871
 30
0.0
 11
383.34943716711331
 21
1717.6213087294871
 31
0.0
  0
LINE
  5
7AEB
  8
1
  6
CONTINUOUS
 10
540.14943716711332
 20
1768.1213087294871
 30
0.0
 11
540.14943716711332
 21
1820.8213087294871
 31
0.0
  0
LINE
  5
7AEC
  8
1
  6
CONTINUOUS
 10
516.14943716711332
 20
1768.1213087294871
 30
0.0
 11
516.14943716711332
 21
1820.8213087294871
 31
0.0
  0
LINE
  5
7AED
  8
1
  6
CONTINUOUS
 10
493.14943716711332
 20
1738.1213087294871
 30
0.0
 11
563.14943716711343
 21
1738.1213087294871
 31
0.0
  0
LINE
  5
7AEE
  8
1
  6
CONTINUOUS
 10
493.14943716711332
 20
1768.1213087294871
 30
0.0
 11
563.14943716711343
 21
1768.1213087294871
 31
0.0
  0
LINE
  5
7AEF
  8
1
  6
CONTINUOUS
 10
493.14943716711332
 20
1738.1213087294871
 30
0.0
 11
493.14943716711332
 21
1768.1213087294871
 31
0.0
  0
LINE
  5
7AF0
  8
1
  6
CONTINUOUS
 10
405.34943716711331
 20
1715.6213087294871
 30
0.0
 11
405.34943716711331
 21
1790.6213087294871
 31
0.0
  0
LINE
  5
7AF1
  8
1
  6
CONTINUOUS
 10
563.14943716711343
 20
1738.1213087294871
 30
0.0
 11
563.14943716711343
 21
1768.1213087294871
 31
0.0
  0
LINE
  5
7AF2
  8
1
  6
CONTINUOUS
 10
438.7494371671134
 20
1820.8213087294871
 30
0.0
 11
438.7494371671134
 21
2011.721308729487
 31
0.0
  0
LINE
  5
7AF3
  8
1
  6
CONTINUOUS
 10
358.34943716711331
 20
2147.6213087294868
 30
0.0
 11
383.34943716711331
 21
2147.6213087294868
 31
0.0
  0
LINE
  5
7AF4
  8
1
  6
CONTINUOUS
 10
963.34943716711325
 20
2085.6213087294868
 30
0.0
 11
963.34943716711325
 21
2147.6213087294868
 31
0.0
  0
LINE
  5
7AF5
  8
1
  6
CONTINUOUS
 10
988.34943716711325
 20
1717.6213087294871
 30
0.0
 11
988.34943716711325
 21
2147.6213087294868
 31
0.0
  0
LINE
  5
7AF6
  8
1
  6
CONTINUOUS
 10
628.34943716711336
 20
2085.6213087294868
 30
0.0
 11
828.34943716711336
 21
1945.6213087294871
 31
0.0
  0
LINE
  5
7AF7
  8
1
  6
CONTINUOUS
 10
628.34943716711336
 20
1945.6213087294871
 30
0.0
 11
828.34943716711336
 21
2085.6213087294868
 31
0.0
  0
LINE
  5
7AF8
  8
1
  6
CONTINUOUS
 10
628.34943716711336
 20
1945.6213087294871
 30
0.0
 11
967.34943716711336
 21
1945.6213087294871
 31
0.0
  0
LINE
  5
7AF9
  8
1
  6
CONTINUOUS
 10
967.34943716711336
 20
2085.6213087294868
 30
0.0
 11
628.34943716711336
 21
2085.6213087294868
 31
0.0
  0
LINE
  5
7AFA
  8
1
  6
CONTINUOUS
 10
708.34943716711325
 20
1937.8213087294871
 30
0.0
 11
948.34943716711325
 21
1937.8213087294871
 31
0.0
  0
LINE
  5
7AFB
  8
1
  6
CONTINUOUS
 10
708.34943716711325
 20
2093.421308729487
 30
0.0
 11
948.34943716711325
 21
2093.421308729487
 31
0.0
  0
LINE
  5
7AFC
  8
1
  6
CONTINUOUS
 10
778.34943716711336
 20
1768.1213087294871
 30
0.0
 11
878.34943716711336
 21
1768.1213087294871
 31
0.0
  0
LINE
  5
7AFD
  8
1
  6
CONTINUOUS
 10
778.34943716711336
 20
1738.1213087294871
 30
0.0
 11
878.34943716711336
 21
1738.1213087294871
 31
0.0
  0
LINE
  5
7AFE
  8
1
  6
CONTINUOUS
 10
778.34943716711336
 20
1738.1213087294871
 30
0.0
 11
778.34943716711336
 21
1768.1213087294871
 31
0.0
  0
LINE
  5
7AFF
  8
1
  6
CONTINUOUS
 10
628.34943716711336
 20
2085.6213087294868
 30
0.0
 11
628.34943716711336
 21
1945.6213087294871
 31
0.0
  0
LINE
  5
7B00
  8
1
  6
CONTINUOUS
 10
608.74943716711346
 20
1820.8213087294871
 30
0.0
 11
608.74943716711346
 21
2011.721308729487
 31
0.0
  0
LINE
  5
7B01
  8
1
  6
CONTINUOUS
 10
708.34943716711325
 20
1945.8213087294871
 30
0.0
 11
708.34943716711325
 21
1937.8213087294871
 31
0.0
  0
LINE
  5
7B02
  8
1
  6
CONTINUOUS
 10
708.34943716711325
 20
2085.421308729487
 30
0.0
 11
708.34943716711325
 21
2093.421308729487
 31
0.0
  0
LINE
  5
7B03
  8
1
  6
CONTINUOUS
 10
816.34943716711325
 20
1768.1213087294871
 30
0.0
 11
816.34943716711325
 21
1937.8213087294871
 31
0.0
  0
LINE
  5
7B04
  8
1
  6
CONTINUOUS
 10
840.34943716711325
 20
1768.1213087294871
 30
0.0
 11
840.34943716711325
 21
1937.8213087294871
 31
0.0
  0
LINE
  5
7B05
  8
1
  6
CONTINUOUS
 10
988.34943716711325
 20
1801.6213087294871
 30
0.0
 11
840.34943716711325
 21
1801.6213087294871
 31
0.0
  0
LINE
  5
7B06
  8
1
  6
CONTINUOUS
 10
878.34943716711336
 20
1738.1213087294871
 30
0.0
 11
878.34943716711336
 21
1768.1213087294871
 31
0.0
  0
LINE
  5
7B07
  8
1
  6
CONTINUOUS
 10
963.34943716711325
 20
1717.6213087294871
 30
0.0
 11
988.34943716711325
 21
1717.6213087294871
 31
0.0
  0
LINE
  5
7B08
  8
1
  6
CONTINUOUS
 10
963.34943716711325
 20
1717.6213087294871
 30
0.0
 11
963.34943716711325
 21
1801.6213087294871
 31
0.0
  0
LINE
  5
7B09
  8
1
  6
CONTINUOUS
 10
935.34943716711336
 20
1715.6213087294871
 30
0.0
 11
935.34943716711336
 21
1790.6213087294871
 31
0.0
  0
LINE
  5
7B0A
  8
1
  6
CONTINUOUS
 10
828.34943716711336
 20
1945.6213087294871
 30
0.0
 11
828.34943716711336
 21
2085.6213087294868
 31
0.0
  0
LINE
  5
7B0B
  8
1
  6
CONTINUOUS
 10
988.34943716711325
 20
2025.6213087294871
 30
0.0
 11
979.34943716711325
 21
2025.6213087294871
 31
0.0
  0
ARC
  5
7B0C
  8
1
  6
CONTINUOUS
 10
967.34943716711336
 20
2073.6213087294868
 30
0.0
 40
12.0
 50
0.0
 51
90.0
  0
ARC
  5
7B0D
  8
1
  6
CONTINUOUS
 10
967.34943716711336
 20
1957.6213087294871
 30
0.0
 40
12.0
 50
270.0
 51
0.0
  0
LINE
  5
7B0E
  8
1
  6
CONTINUOUS
 10
948.34943716711325
 20
1945.8213087294871
 30
0.0
 11
948.34943716711325
 21
1937.8213087294871
 31
0.0
  0
LINE
  5
7B0F
  8
1
  6
CONTINUOUS
 10
948.34943716711325
 20
2085.421308729487
 30
0.0
 11
948.34943716711325
 21
2093.421308729487
 31
0.0
  0
LINE
  5
7B10
  8
1
  6
CONTINUOUS
 10
979.34943716711325
 20
1957.6213087294871
 30
0.0
 11
979.34943716711325
 21
2073.6213087294868
 31
0.0
  0
LINE
  5
7B11
  8
1
  6
CONTINUOUS
 10
963.34943716711325
 20
2147.6213087294868
 30
0.0
 11
988.34943716711325
 21
2147.6213087294868
 31
0.0
  0
LINE
  5
7B12
  8
4
  6
CONTINUOUS
 10
1850.0
 20
500.0
 30
0.0
 11
1850.0
 21
300.0
 31
0.0
  0
LINE
  5
7B13
  8
4
  6
CONTINUOUS
 10
1150.0
 20
500.0
 30
0.0
 11
1150.0
 21
300.0
 31
0.0
  0
LINE
  5
7B14
  8
4
  6
CONTINUOUS
 10
650.0
 20
500.0
 30
0.0
 11
650.0
 21
300.0
 31
0.0
  0
LINE
  5
7B17
  8
4
  6
CONTINUOUS
 10
650.0
 20
300.0
 30
0.0
 11
1850.0
 21
300.0
 31
0.0
  0
LINE
  5
7B18
  8
4
  6
CONTINUOUS
 10
650.0
 20
400.0
 30
0.0
 11
1850.0
 21
400.0
 31
0.0
  0
TEXT
  5
7B19
  8
4
  6
CONTINUOUS
 10
688.50208099999998
 20
431.543026
 30
0.0
 40
50.0
  1
機器名称
  0
TEXT
  5
7B1A
  8
4
  6
CONTINUOUS
 10
686.258106
 20
321.64515699999993
 30
0.0
 40
50.0
  1
機器型番
  0
TEXT
  5
7B1B
  8
4
  6
CONTINUOUS
 10
1177.678744999999
 20
422.57176900000002
 30
0.0
 40
45.0
  1
ミツヤニューマルチファン
  0
TEXT
  5
7B1C
  8
4
  6
CONTINUOUS
 10
1186.6544960000001
 20
317.159584
 30
0.0
 40
50.0
  1
NM#1 1/4-1
  0
TEXT
  5
7B1E
  8
4
  6
CONTINUOUS
 10
832.66567399999997
 20
2383.4288409999999
 30
0.0
 40
54.0
  1
天井吊ベット
  0
TEXT
  5
7B1F
  8
4
  6
CONTINUOUS
 10
316.16759300000001
 20
2533.8809759999999
 30
0.0
 40
72.0
  1
ベルト駆動式片吸込片持多翼ファン
  0
LINE
  5
7B20
  8
4
  6
CONTINUOUS
 10
250.0
 20
2469.408754
 30
0.0
 11
1850.0
 21
2469.408754
 31
0.0
  0
LINE
  5
7B21
  8
4
  6
CONTINUOUS
 10
250.0
 20
2669.408754
 30
0.0
 11
1850.0
 21
2669.408754
 31
0.0
  0
LINE
  5
7B22
  8
4
  6
CONTINUOUS
 10
650.0
 20
500.0
 30
0.0
 11
1850.0
 21
500.0
 31
0.0
  0
LINE
  5
7B23
  8
4
  6
CONTINUOUS
 10
250.0
 20
2669.408754
 30
0.0
 11
250.0
 21
2469.408754
 31
0.0
  0
TEXT
  5
7B24
  8
4
  6
CONTINUOUS
 10
396.80684200000002
 20
2382.3194779999999
 30
0.0
 40
54.0
  1
右回転上向
  0
TEXT
  5
7B25
  8
4
  6
CONTINUOUS
 10
1468.9695589999999
 20
2706.0610809999998
 30
0.0
 40
56.0
  1
No.
  0
TEXT
  5
7B26
  8
4
  6
CONTINUOUS
 10
1311.296063
 20
2383.4288409999999
 30
0.0
 40
54.0
  1
縮尺：1/10
  0
LINE
  5
7B27
  8
4
  6
CONTINUOUS
 10
1850.0
 20
2669.408754
 30
0.0
 11
1850.0
 21
2469.408754
 31
0.0
  0
LINE
  5
7B29
  8
4
  6
CONTINUOUS
 10
1440.617422
 20
2681.2635829999999
 30
0.0
 11
1440.617422
 21
2786.6522620000001
 31
0.0
  0
LINE
  5
7B2A
  8
4
  6
CONTINUOUS
 10
1440.617422
 20
2786.6522620000001
 30
0.0
 11
1850.0
 21
2786.6522620000001
 31
0.0
  0
LINE
  5
7B2B
  8
4
  6
CONTINUOUS
 10
1850.0
 20
2786.6522620000001
 30
0.0
 11
1850.0
 21
2681.2635829999999
 31
0.0
  0
LINE
  5
7B2C
  8
4
  6
CONTINUOUS
 10
1850.0
 20
2681.2635829999999
 30
0.0
 11
1440.617422
 21
2681.2635829999999
 31
0.0
  0
LINE
  5
7B32
  8
2
  6
CENTER
 10
1573.614785521559
 20
725.99089298127274
 30
0.0
 11
1573.614785521559
 21
1258.417417981273
 31
0.0
  0
DIMENSION
  5
7B46
  8
3
  6
CONTINUOUS
  2
*D1
 10
828.34943716711336
 20
699.28117698127267
 30
0.0
 11
604.39880416711344
 21
699.28117698127267
 31
0.0
 70
   128
 13
358.34943716711331
 23
755.17538698127282
 33
0.0
 14
828.34943716711336
 24
780.17538698127282
 34
0.0
1001
ACAD
1000
DSTYLE
1002
{
1070
   287
1070
     3
1070
   287
1070
     3
1070
    40
1040
10.0
1070
   143
1040
0.039
1070
   172
1070
     1
1070
   271
1070
     0
1070
   279
1070
     0
1070
   288
1070
     1
1002
}
  0
DIMENSION
  5
7B52
  8
3
  6
CONTINUOUS
  2
*D2
 10
988.34943716711325
 20
699.28117698127267
 30
0.0
 11
908.34943716711336
 21
724.28117698127267
 31
0.0
 70
     0
 13
828.34943716711336
 23
780.17538698127282
 33
0.0
 14
988.34943716711325
 24
755.17538698127282
 34
0.0
1001
ACAD
1000
DSTYLE
1002
{
1070
   287
1070
     4
1070
   287
1070
     4
1070
    40
1040
10.0
1070
    75
1070
     1
1070
   143
1040
0.039
1070
   172
1070
     1
1070
   271
1070
     0
1070
   279
1070
     1
1070
   288
1070
     1
1002
}
  0
DIMENSION
  5
7B5F
  8
3
  6
CONTINUOUS
  2
*D3
 10
828.34943716711336
 20
1249.684890981272
 30
0.0
 11
725.03722316711332
 21
1249.684890981272
 31
0.0
 70
   128
 13
628.34943716711336
 23
1215.1753869812719
 33
0.0
 14
828.34943716711336
 24
1215.1753869812719
 34
0.0
1001
ACAD
1000
DSTYLE
1002
{
1070
   287
1070
     3
1070
   287
1070
     3
1070
    40
1040
10.0
1070
   143
1040
0.039
1070
   172
1070
     1
1070
   271
1070
     0
1070
   279
1070
     0
1070
   288
1070
     1
1002
}
  0
DIMENSION
  5
7B86
  8
3
  6
CONTINUOUS
  2
*D4
 10
828.34943716711336
 20
1297.5225379812721
 30
0.0
 11
728.51211916711338
 21
1297.5225379812721
 31
0.0
 70
   128
 13
617.34943716711325
 23
1200.175386981273
 33
0.0
 14
828.34943716711336
 24
1215.1753869812719
 34
0.0
1001
ACAD
1000
DSTYLE
1002
{
1070
   287
1070
     3
1070
   287
1070
     3
1070
    40
1040
10.0
1070
   143
1040
0.039
1070
   172
1070
     1
1070
   271
1070
     0
1070
   279
1070
     0
1070
   288
1070
     1
1002
}
  0
DIMENSION
  5
7B92
  8
3
  6
CONTINUOUS
  2
*D5
 10
978.91662516711347
 20
1297.5225379812721
 30
0.0
 11
903.63303116711336
 21
1322.5225379812721
 31
0.0
 70
     0
 13
828.34943716711336
 23
1215.1753869812719
 33
0.0
 14
978.91662516711347
 24
1055.1753869812719
 34
0.0
1001
ACAD
1000
DSTYLE
1002
{
1070
   287
1070
     4
1070
   287
1070
     4
1070
    40
1040
10.0
1070
    75
1070
     1
1070
   143
1040
0.039
1070
   172
1070
     1
1070
   271
1070
     0
1070
   279
1070
     1
1070
   288
1070
     1
1002
}
  0
DIMENSION
  5
7BA0
  8
3
  6
CONTINUOUS
  2
*D6
 10
1055.126503167113
 20
1055.1753869812719
 30
0.0
 11
1055.126503167113
 21
1134.733305981272
 31
0.0
 70
   128
 13
849.34943716711325
 23
1215.1753869812719
 33
0.0
 14
978.91662516711347
 24
1055.1753869812719
 34
0.0
 50
90.0
1001
ACAD
1000
DSTYLE
1002
{
1070
   287
1070
     3
1070
   287
1070
     3
1070
    40
1040
10.0
1070
   143
1040
0.039
1070
   172
1070
     1
1070
   271
1070
     0
1070
   279
1070
     0
1070
   288
1070
     1
1002
}
  0
DIMENSION
  5
7BAC
  8
3
  6
CONTINUOUS
  2
*D7
 10
1055.126503167113
 20
780.17538698127282
 30
0.0
 11
1030.126503167113
 21
917.67538698127305
 31
0.0
 70
     0
 13
978.91662516711347
 23
1055.1753869812719
 33
0.0
 14
988.34943716711325
 24
780.17538698127282
 34
0.0
 50
90.0
1001
ACAD
1000
DSTYLE
1002
{
1070
   287
1070
     4
1070
   287
1070
     4
1070
    40
1040
10.0
1070
    75
1070
     1
1070
   143
1040
0.039
1070
   172
1070
     1
1070
   271
1070
     0
1070
   279
1070
     1
1070
   288
1070
     1
1002
}
  0
DIMENSION
  5
7BBC
  8
3
  6
CONTINUOUS
  2
*D8
 10
1055.038394167113
 20
755.17538698127282
 30
0.0
 11
1055.038394167113
 21
680.88967269555872
 31
0.0
 70
   128
 13
988.34943716711325
 23
780.17538698127282
 33
0.0
 14
988.34943716711325
 24
755.17538698127282
 34
0.0
 50
90.0
1001
ACAD
1000
DSTYLE
1002
{
1070
   287
1070
     3
1070
   287
1070
     3
1070
    40
1040
10.0
1070
   143
1040
0.039
1070
   172
1070
     1
1070
   271
1070
     0
1070
   279
1070
     0
1070
   288
1070
     1
1002
}
  0
DIMENSION
  5
7BF0
  8
3
  6
CONTINUOUS
  2
*D9
 10
1573.614785521559
 20
680.19275198127275
 30
0.0
 11
1427.6893665215589
 21
680.19275198127275
 31
0.0
 70
   128
 13
1275.614785521559
 23
755.17538698127282
 33
0.0
 14
1573.614785521559
 24
755.17538698127282
 34
0.0
1001
ACAD
1000
DSTYLE
1002
{
1070
   287
1070
     3
1070
   287
1070
     3
1070
    40
1040
10.0
1070
   143
1040
0.039
1070
   172
1070
     1
1070
   271
1070
     0
1070
   279
1070
     0
1070
   288
1070
     1
1002
}
  0
DIMENSION
  5
7BFC
  8
3
  6
CONTINUOUS
  2
*D10
 10
1705.614785521559
 20
680.19275198127275
 30
0.0
 11
1639.614785521559
 21
705.19275198127275
 31
0.0
 70
     0
 13
1573.614785521559
 23
755.17538698127282
 33
0.0
 14
1705.614785521559
 24
755.17538698127282
 34
0.0
1001
ACAD
1000
DSTYLE
1002
{
1070
   287
1070
     4
1070
   287
1070
     4
1070
    40
1040
10.0
1070
    75
1070
     1
1070
   143
1040
0.039
1070
   172
1070
     1
1070
   271
1070
     0
1070
   279
1070
     1
1070
   288
1070
     1
1002
}
  0
DIMENSION
  5
7C09
  8
3
  6
CONTINUOUS
  2
*D11
 10
1643.614785521559
 20
1254.4044049812719
 30
0.0
 11
1569.32907052156
 21
1254.4044049812719
 31
0.0
 70
   128
 13
1503.614785521559
 23
1214.1753869812719
 33
0.0
 14
1643.614785521559
 24
1214.1753869812719
 34
0.0
1001
ACAD
1000
DSTYLE
1002
{
1070
   287
1070
     3
1070
   287
1070
     3
1070
    40
1040
10.0
1070
   143
1040
0.039
1070
   172
1070
     1
1070
   271
1070
     0
1070
   279
1070
     0
1070
   288
1070
     1
1002
}
  0
DIMENSION
  5
7C16
  8
3
  6
CONTINUOUS
  2
*D12
 10
1573.614785521559
 20
1307.828995981273
 30
0.0
 11
1431.021456521559
 21
1307.828995981273
 31
0.0
 70
   128
  1
MAX\P300
 13
1273.614785521559
 23
1165.1753869812719
 33
0.0
 14
1573.614785521559
 24
1298.1067499812721
 34
0.0
1001
ACAD
1000
DSTYLE
1002
{
1070
   287
1070
     3
1070
   287
1070
     3
1070
    40
1040
10.0
1070
   143
1040
0.039
1070
   172
1070
     1
1070
   271
1070
     0
1070
   279
1070
     0
1070
   288
1070
     1
1002
}
  0
DIMENSION
  5
7C24
  8
3
  6
CONTINUOUS
  2
*D13
 10
1651.614785521559
 20
1307.828995981273
 30
0.0
 11
1607.622195521559
 21
1307.993379981272
 31
0.0
 70
   128
 13
1573.614785521559
 23
1298.1067499812721
 33
0.0
 14
1651.614785521559
 24
1175.1753869812719
 34
0.0
1001
ACAD
1000
DSTYLE
1002
{
1070
   287
1070
     4
1070
   287
1070
     4
1070
    40
1040
10.0
1070
    75
1070
     1
1070
   143
1040
0.039
1070
   172
1070
     1
1070
   271
1070
     0
1070
   279
1070
     1
1070
   288
1070
     1
1002
}
  0
LINE
  5
7C3C
  8
3
  6
CONTINUOUS
 10
1651.614785521559
 20
1155.1753869812719
 30
0.0
 11
1662.074357521559
 21
1155.1753869812719
 31
0.0
  0
LINE
  5
7C3E
  8
3
  6
CONTINUOUS
 10
1651.614785521559
 20
955.17538698127282
 30
0.0
 11
1662.5955065215601
 21
955.17538698127282
 31
0.0
  0
DIMENSION
  5
7C4B
  8
3
  6
CONTINUOUS
  2
*D14
 10
1721.225105521559
 20
955.17538698127282
 30
0.0
 11
1721.225105521559
 21
1068.6039584098439
 31
0.0
 70
   128
 13
1651.614785521559
 23
1155.1753869812719
 33
0.0
 14
1651.614785521559
 24
955.17538698127282
 34
0.0
 50
90.0
1001
ACAD
1000
DSTYLE
1002
{
1070
   287
1070
     3
1070
   287
1070
     3
1070
     3
1000
φ<>
1070
    40
1040
10.0
1070
   143
1040
0.039
1070
   172
1070
     1
1070
   271
1070
     0
1070
   279
1070
     0
1070
   288
1070
     1
1002
}
  0
LINE
  5
7C4C
  8
2
  6
CENTER
 10
1249.0629905215601
 20
1055.1753869812719
 30
0.0
 11
1658.98337552156
 21
1055.1753869812719
 31
0.0
  0
LINE
  5
7C4D
  8
2
  6
CENTER
 10
828.34943716711336
 20
1689.6188017294869
 30
0.0
 11
828.34943716711336
 21
2141.4760047294872
 31
0.0
  0
DIMENSION
  5
7C5A
  8
3
  6
CONTINUOUS
  2
*D15
 10
988.34943716711325
 20
1630.459594729487
 30
0.0
 11
682.70873816711344
 21
1630.459594729487
 31
0.0
 70
   128
 13
358.34943716711331
 23
1717.6213087294871
 33
0.0
 14
988.34943716711325
 24
1717.6213087294871
 34
0.0
1001
ACAD
1000
DSTYLE
1002
{
1070
   287
1070
     3
1070
   287
1070
     3
1070
    40
1040
10.0
1070
   143
1040
0.039
1070
   172
1070
     1
1070
   271
1070
     0
1070
   279
1070
     0
1070
   288
1070
     1
1002
}
  0
DIMENSION
  5
7C67
  8
3
  6
CONTINUOUS
  2
*D16
 10
1076.6996241671129
 20
1717.6213087294871
 30
0.0
 11
1076.6996241671129
 21
1932.4259957294871
 31
0.0
 70
   128
 13
988.34943716711325
 23
2147.6213087294868
 33
0.0
 14
988.34943716711325
 24
1717.6213087294871
 34
0.0
 50
90.0
1001
ACAD
1000
DSTYLE
1002
{
1070
   287
1070
     3
1070
   287
1070
     3
1070
    40
1040
10.0
1070
   143
1040
0.039
1070
   172
1070
     1
1070
   271
1070
     0
1070
   279
1070
     0
1070
   288
1070
     1
1002
}
  0
LINE
  5
7C69
  8
2
  6
CENTER
 10
578.31885316711328
 20
2015.6213087294871
 30
0.0
 11
998.88732616711366
 21
2015.6213087294871
 31
0.0
  0
DIMENSION
  5
7C76
  8
3
  6
CONTINUOUS
  2
*D17
 10
1124.6793951671129
 20
755.17538698127282
 30
0.0
 11
1124.6793951671129
 21
986.64809198127284
 31
0.0
 70
   128
 13
854.34943716711325
 23
1215.1753869812719
 33
0.0
 14
988.34943716711325
 24
755.17538698127282
 34
0.0
 50
90.0
1001
ACAD
1000
DSTYLE
1002
{
1070
   287
1070
     3
1070
   287
1070
     3
1070
    40
1040
10.0
1070
   143
1040
0.039
1070
   172
1070
     1
1070
   271
1070
     0
1070
   279
1070
     0
1070
   288
1070
     1
1002
}
  0
DIMENSION
  5
7CB1
  8
3
  2
*D18
 10
358.34943716711342
 20
1370.8810511960851
 30
0.0
 11
676.35867104453234
 21
1370.8810511960851
 31
0.0
 70
   128
 13
978.91662516711347
 23
1307.5225379812721
 33
0.0
 14
358.34943716711331
 24
830.17538698127282
 34
0.0
1001
ACAD
1000
DSTYLE
1002
{
1070
   287
1070
     3
1070
   287
1070
     3
1070
    40
1040
10.0
1070
   143
1040
0.039
1070
   172
1070
     1
1070
   271
1070
     0
1070
   279
1070
     0
1070
   288
1070
     1
1002
}
  0
ENDSEC
  0
EOF
