  0
SECTION
  2
HEADER
  9
$ACADVER
  1
AC1009
  9
$INSBASE
 10
0.0
 20
0.0
 30
0.0
  9
$EXTMIN
 10
250.0
 20
300.0
 30
0.0
  9
$EXTMAX
 10
1850.0
 20
2786.6522620000001
 30
0.0
  9
$LIMMIN
 10
0.0
 20
0.0
  9
$LIMMAX
 10
297.0
 20
210.0
  9
$ORTHOMODE
 70
     0
  9
$REGENMODE
 70
     1
  9
$FILLMODE
 70
     0
  9
$QTEXTMODE
 70
     0
  9
$MIRRTEXT
 70
     1
  9
$DRAGMODE
 70
     2
  9
$LTSCALE
 40
100.0
  9
$OSMODE
 70
    37
  9
$ATTMODE
 70
     1
  9
$TEXTSIZE
 40
180.0
  9
$TRACEWID
 40
0.05
  9
$TEXTSTYLE
  7
STANDARD
  9
$CLAYER
  8
3
  9
$CELTYPE
  6
BYLAYER
  9
$CECOLOR
 62
   256
  9
$DIMSCALE
 40
10.0
  9
$DIMASZ
 40
2.0
  9
$DIMEXO
 40
0.5
  9
$DIMDLI
 40
10.0
  9
$DIMRND
 40
0.0
  9
$DIMDLE
 40
0.0
  9
$DIMEXE
 40
1.0
  9
$DIMTP
 40
1.0
  9
$DIMTM
 40
1.0
  9
$DIMTXT
 40
3.0
  9
$DIMCEN
 40
0.0
  9
$DIMTSZ
 40
0.0
  9
$DIMTOL
 70
     0
  9
$DIMLIM
 70
     0
  9
$DIMTIH
 70
     0
  9
$DIMTOH
 70
     0
  9
$DIMSE1
 70
     0
  9
$DIMSE2
 70
     0
  9
$DIMTAD
 70
     1
  9
$DIMZIN
 70
     8
  9
$DIMBLK
  1

  9
$DIMASO
 70
     1
  9
$DIMSHO
 70
     1
  9
$DIMPOST
  1

  9
$DIMAPOST
  1

  9
$DIMALT
 70
     0
  9
$DIMALTD
 70
     2
  9
$DIMALTF
 40
0.039
  9
$DIMLFAC
 40
1.0
  9
$DIMTOFL
 70
     1
  9
$DIMTVP
 40
0.0
  9
$DIMTIX
 70
     0
  9
$DIMSOXD
 70
     0
  9
$DIMSAH
 70
     1
  9
$DIMBLK1
  1
OPEN
  9
$DIMBLK2
  1
OPEN
  9
$DIMSTYLE
  2
IGA
  9
$DIMCLRD
 70
     0
  9
$DIMCLRE
 70
     0
  9
$DIMCLRT
 70
     0
  9
$DIMTFAC
 40
10.0
  9
$DIMGAP
 40
1.0
  9
$LUNITS
 70
     2
  9
$LUPREC
 70
     3
  9
$SKETCHINC
 40
0.1
  9
$FILLETRAD
 40
50.0
  9
$AUNITS
 70
     0
  9
$AUPREC
 70
     0
  9
$MENU
  1
acad
  9
$ELEVATION
 40
0.0
  9
$PELEVATION
 40
0.0
  9
$THICKNESS
 40
0.0
  9
$LIMCHECK
 70
     0
  9
$BLIPMODE
 70
     0
  9
$CHAMFERA
 40
0.5
  9
$CHAMFERB
 40
0.5
  9
$SKPOLY
 70
     0
  9
$TDCREATE
 40
2450773.599637616
  9
$TDUPDATE
 40
2454953.8605509601
  9
$TDINDWG
 40
0.0050122222
  9
$TDUSRTIMER
 40
0.0050122222
  9
$USRTIMER
 70
     1
  9
$ANGBASE
 50
0.0
  9
$ANGDIR
 70
     0
  9
$PDMODE
 70
     0
  9
$PDSIZE
 40
0.0
  9
$PLINEWID
 40
0.0
  9
$COORDS
 70
     1
  9
$SPLFRAME
 70
     0
  9
$SPLINETYPE
 70
     6
  9
$SPLINESEGS
 70
     8
  9
$ATTDIA
 70
     0
  9
$ATTREQ
 70
     1
  9
$HANDLING
 70
 10241
  9
$HANDSEED
  5
7E22
  9
$SURFTAB1
 70
     6
  9
$SURFTAB2
 70
     6
  9
$SURFTYPE
 70
     6
  9
$SURFU
 70
     6
  9
$SURFV
 70
     6
  9
$UCSNAME
  2

  9
$UCSORG
 10
0.0
 20
0.0
 30
0.0
  9
$UCSXDIR
 10
1.0
 20
0.0
 30
0.0
  9
$UCSYDIR
 10
0.0
 20
1.0
 30
0.0
  9
$PUCSNAME
  2

  9
$PUCSORG
 10
0.0
 20
0.0
 30
0.0
  9
$PUCSXDIR
 10
1.0
 20
0.0
 30
0.0
  9
$PUCSYDIR
 10
0.0
 20
1.0
 30
0.0
  9
$USERI1
 70
     0
  9
$USERI2
 70
     0
  9
$USERI3
 70
     0
  9
$USERI4
 70
     0
  9
$USERI5
 70
     0
  9
$USERR1
 40
0.0
  9
$USERR2
 40
0.0
  9
$USERR3
 40
0.0
  9
$USERR4
 40
0.0
  9
$USERR5
 40
0.0
  9
$WORLDVIEW
 70
     1
  9
$SHADEDGE
 70
     3
  9
$SHADEDIF
 70
    70
  9
$TILEMODE
 70
     1
  9
$MAXACTVP
 70
    16
  9
$PLIMCHECK
 70
     0
  9
$PEXTMIN
 10
1.0000000000000000E+020
 20
1.0000000000000000E+020
 30
1.0000000000000000E+020
  9
$PEXTMAX
 10
-1.0000000000000000E+020
 20
-1.0000000000000000E+020
 30
-1.0000000000000000E+020
  9
$PLIMMIN
 10
0.0
 20
0.0
  9
$PLIMMAX
 10
12.0
 20
9.0
  9
$UNITMODE
 70
     0
  9
$VISRETAIN
 70
     0
  9
$PLINEGEN
 70
     0
  9
$PSLTSCALE
 70
     1
  0
ENDSEC
  0
SECTION
  2
TABLES
  0
TABLE
  2
VPORT
 70
     2
  0
VPORT
  2
*ACTIVE
 70
     0
 10
0.0
 20
0.0
 11
1.0
 21
1.0
 12
2575.1748525263711
 22
1710.7058359360219
 13
0.0
 23
0.0
 14
10.0
 24
10.0
 15
10.0
 25
10.0
 16
0.0
 26
0.0
 36
1.0
 17
0.0
 27
0.0
 37
0.0
 40
3384.7202297544959
 41
1.5051150895140659
 42
50.0
 43
0.0
 44
0.0
 50
0.0
 51
0.0
 71
     0
 72
   100
 73
     1
 74
     0
 75
     0
 76
     0
 77
     0
 78
     0
  0
ENDTAB
  0
TABLE
  2
LTYPE
 70
     2
  0
LTYPE
  2
CONTINUOUS
 70
     0
  3
Solid line
 72
    65
 73
     0
 40
0.0
  0
LTYPE
  2
CENTER
 70
     0
  3
____ _ ____ _ ____ _ ____ _ ____ _ ____ _ ____ 
 72
    65
 73
     4
 40
2.0
 49
1.25
 49
-0.25
 49
0.25
 49
-0.25
  0
ENDTAB
  0
TABLE
  2
LAYER
 70
     6
  0
LAYER
  2
0
 70
     0
 62
     7
  6
CONTINUOUS
  0
LAYER
  2
3
 70
     0
 62
     2
  6
CONTINUOUS
  0
LAYER
  2
2
 70
     0
 62
     3
  6
CENTER
  0
LAYER
  2
1
 70
     0
 62
     4
  6
CONTINUOUS
  0
LAYER
  2
4
 70
     0
 62
     7
  6
CONTINUOUS
  0
LAYER
  2
DEFPOINTS
 70
     0
 62
     7
  6
CONTINUOUS
  0
ENDTAB
  0
TABLE
  2
STYLE
 70
     1
  0
STYLE
  2
STANDARD
 70
     0
 40
0.0
 41
1.0
 50
0.0
 71
     0
 42
180.0
  3
simplex.shx
  4
extfont.shx
  0
ENDTAB
  0
TABLE
  2
VIEW
 70
     0
  0
ENDTAB
  0
TABLE
  2
UCS
 70
     0
  0
ENDTAB
  0
TABLE
  2
APPID
 70
     1
  0
APPID
  2
ACAD
 70
     0
  0
ENDTAB
  0
TABLE
  2
DIMSTYLE
 70
     1
  0
DIMSTYLE
  2
IGA
 70
     0
  3

  4

  5

  6
OPEN
  7
OPEN
 40
2.0
 41
2.0
 42
0.5
 43
10.0
 44
1.0
 45
0.0
 46
0.0
 47
1.0
 48
1.0
140
3.0
141
0.0
142
0.0
143
0.03937
144
1.0
145
0.0
146
10.0
147
1.0
 71
     0
 72
     0
 73
     0
 74
     0
 75
     0
 76
     0
 77
     1
 78
     8
170
     0
171
     2
172
     0
173
     1
174
     0
175
     0
176
     0
177
     0
178
     0
  0
ENDTAB
  0
ENDSEC
  0
SECTION
  2
BLOCKS
  0
BLOCK
  8
0
  2
$MODEL_SPACE
 70
     0
 10
0.0
 20
0.0
 30
0.0
  3
$MODEL_SPACE
  1

  0
ENDBLK
  5
1B
  8
0
  0
BLOCK
 67
     1
  8
0
  2
$PAPER_SPACE
 70
     0
 10
0.0
 20
0.0
 30
0.0
  3
$PAPER_SPACE
  1

  0
ENDBLK
  5
18
 67
     1
  8
0
  0
BLOCK
  8
0
  2
_OPEN
 70
     0
 10
0.0
 20
0.0
 30
0.0
  3
_OPEN
  1

  0
LINE
  5
7B38
  8
0
  6
BYBLOCK
 62
     0
 10
-1.0
 20
0.166667
 30
0.0
 11
0.0
 21
0.0
 31
0.0
  0
LINE
  5
7B39
  8
0
  6
BYBLOCK
 62
     0
 10
0.0
 20
0.0
 30
0.0
 11
-1.0
 21
-0.166667
 31
0.0
  0
LINE
  5
7B3A
  8
0
  6
BYBLOCK
 62
     0
 10
0.0
 20
0.0
 30
0.0
 11
-1.0
 21
0.0
 31
0.0
  0
ENDBLK
  5
7B3B
  8
0
  0
BLOCK
  8
0
  2
*D1
 70
     1
 10
0.0
 20
0.0
 30
0.0
  3
*D1
  1

  0
LINE
  5
7D79
  8
3
  6
CONTINUOUS
 62
     0
 10
1028.3455944582699
 20
1288.159020559752
 30
0.0
 11
1106.9281984582699
 21
1288.159020559752
 31
0.0
  0
LINE
  5
7D7A
  8
3
  6
CONTINUOUS
 62
     0
 10
1028.3455944582699
 20
1088.1590205597511
 30
0.0
 11
1106.9281984582699
 21
1088.1590205597511
 31
0.0
  0
LINE
  5
7D7B
  8
3
  6
CONTINUOUS
 62
     0
 10
1096.9281984582699
 20
1268.1590205597511
 30
0.0
 11
1096.9281984582699
 21
1108.1590205597511
 31
0.0
  0
INSERT
  5
7D7C
  8
3
  6
CONTINUOUS
 62
     0
  2
_OPEN
 10
1096.9281984582699
 20
1288.159020559752
 30
0.0
 41
20.0
 42
20.0
 43
20.0
 50
90.0
  0
INSERT
  5
7D7D
  8
3
  6
CONTINUOUS
 62
     0
  2
_OPEN
 10
1096.9281984582699
 20
1088.1590205597511
 30
0.0
 41
20.0
 42
20.0
 43
20.0
 50
270.0
  0
TEXT
  8
3
  40
30
  5
7E10
  62
0
  72
0
  71
0
 10
1011.93
 20
1132.85
 30
0.000000
  1
200
  0
POINT
  5
7D7F
  8
DEFPOINTS
  6
CONTINUOUS
 62
     0
 10
1023.3455944582701
 20
1288.159020559752
 30
0.0
  0
POINT
  5
7D80
  8
DEFPOINTS
  6
CONTINUOUS
 62
     0
 10
1023.3455944582701
 20
1088.1590205597511
 30
0.0
  0
POINT
  5
7D81
  8
DEFPOINTS
  6
CONTINUOUS
 62
     0
 10
1096.9281984582699
 20
1088.1590205597511
 30
0.0
  0
ENDBLK
  5
7B48
  8
0
  0
BLOCK
  8
0
  2
*D2
 70
     1
 10
0.0
 20
0.0
 30
0.0
  3
*D2
  1

  0
LINE
  5
7D82
  8
3
  6
CONTINUOUS
 62
     0
 10
1013.3455944582701
 20
1299.159020559752
 30
0.0
 11
1169.68114645827
 21
1299.159020559752
 31
0.0
  0
LINE
  5
7D83
  8
3
  6
CONTINUOUS
 62
     0
 10
1065.1377524582699
 20
1088.1590205597511
 30
0.0
 11
1169.68114645827
 21
1088.1590205597511
 31
0.0
  0
LINE
  5
7D84
  8
3
  6
CONTINUOUS
 62
     0
 10
1159.68114645827
 20
1279.159020559752
 30
0.0
 11
1159.68114645827
 21
1108.1590205597511
 31
0.0
  0
INSERT
  5
7D85
  8
3
  6
CONTINUOUS
 62
     0
  2
_OPEN
 10
1159.68114645827
 20
1299.159020559752
 30
0.0
 41
20.0
 42
20.0
 43
20.0
 50
90.0
  0
INSERT
  5
7D86
  8
3
  6
CONTINUOUS
 62
     0
  2
_OPEN
 10
1159.68114645827
 20
1088.1590205597511
 30
0.0
 41
20.0
 42
20.0
 43
20.0
 50
270.0
  0
TEXT
  8
3
  40
30
  5
7E11
  62
0
  72
0
  71
0
 10
1074.68
 20
1128.80
 30
0.000000
  1
211
  0
POINT
  5
7D88
  8
DEFPOINTS
  6
CONTINUOUS
 62
     0
 10
1008.3455944582701
 20
1299.159020559752
 30
0.0
  0
POINT
  5
7D89
  8
DEFPOINTS
  6
CONTINUOUS
 62
     0
 10
1060.1377524582699
 20
1088.1590205597511
 30
0.0
  0
POINT
  5
7D8A
  8
DEFPOINTS
  6
CONTINUOUS
 62
     0
 10
1159.68114645827
 20
1088.1590205597511
 30
0.0
  0
ENDBLK
  5
7B55
  8
0
  0
BLOCK
  8
0
  2
*D3
 70
     1
 10
0.0
 20
0.0
 30
0.0
  3
*D3
  1

  0
LINE
  5
7D8B
  8
3
  6
CONTINUOUS
 62
     0
 10
1028.3455944582699
 20
813.15902055975198
 30
0.0
 11
1169.68114645827
 21
813.15902055975198
 31
0.0
  0
LINE
  5
7D8C
  8
3
  6
CONTINUOUS
 62
     0
 10
1159.68114645827
 20
1068.1590205597511
 30
0.0
 11
1159.68114645827
 21
833.15902055975187
 31
0.0
  0
INSERT
  5
7D8D
  8
3
  6
CONTINUOUS
 62
     0
  2
_OPEN
 10
1159.68114645827
 20
1088.1590205597511
 30
0.0
 41
20.0
 42
20.0
 43
20.0
 50
90.0
  0
INSERT
  5
7D8E
  8
3
  6
CONTINUOUS
 62
     0
  2
_OPEN
 10
1159.68114645827
 20
813.15902055975198
 30
0.0
 41
20.0
 42
20.0
 43
20.0
 50
270.0
  0
TEXT
  8
3
  40
30
  5
7E12
  62
0
  72
0
  71
0
 10
1074.68
 20
897.559
 30
0.000000
  1
275
  0
POINT
  5
7D90
  8
DEFPOINTS
  6
CONTINUOUS
 62
     0
 10
1060.1377524582699
 20
1088.1590205597511
 30
0.0
  0
POINT
  5
7D91
  8
DEFPOINTS
  6
CONTINUOUS
 62
     0
 10
1023.3455944582701
 20
813.15902055975198
 30
0.0
  0
POINT
  5
7D92
  8
DEFPOINTS
  6
CONTINUOUS
 62
     0
 10
1159.68114645827
 20
813.15902055975198
 30
0.0
  0
ENDBLK
  5
7B61
  8
0
  0
BLOCK
  8
0
  2
*D4
 70
     1
 10
0.0
 20
0.0
 30
0.0
  3
*D4
  1

  0
LINE
  5
7D93
  8
3
  6
CONTINUOUS
 62
     0
 10
1028.3455944582699
 20
788.15902055975187
 30
0.0
 11
1169.68114645827
 21
788.15902055975187
 31
0.0
  0
LINE
  5
7D94
  8
3
  6
CONTINUOUS
 62
     0
 10
1159.68114645827
 20
833.15902055975187
 30
0.0
 11
1159.68114645827
 21
853.15902055975198
 31
0.0
  0
LINE
  5
7D95
  8
3
  6
CONTINUOUS
 62
     0
 10
1159.68114645827
 20
768.15902055975198
 30
0.0
 11
1159.68114645827
 21
748.15902055975198
 31
0.0
  0
TEXT
  8
3
  40
30
  5
7E13
  62
0
  72
0
  71
0
 10
1072.66
 20
683.724
 30
0.000000
  1
25
  0
LINE
  5
7D97
  8
3
  6
CONTINUOUS
 62
     0
 10
1159.68114645827
 20
813.15902055975198
 30
0.0
 11
1159.68114645827
 21
788.15902055975187
 31
0.0
  0
INSERT
  5
7D98
  8
3
  6
CONTINUOUS
 62
     0
  2
_OPEN
 10
1159.68114645827
 20
813.15902055975198
 30
0.0
 41
20.0
 42
20.0
 43
20.0
 50
270.0
  0
INSERT
  5
7D99
  8
3
  6
CONTINUOUS
 62
     0
  2
_OPEN
 10
1159.68114645827
 20
788.15902055975187
 30
0.0
 41
20.0
 42
20.0
 43
20.0
 50
90.0
  0
POINT
  5
7D9A
  8
DEFPOINTS
  6
CONTINUOUS
 62
     0
 10
1023.3455944582701
 20
813.15902055975198
 30
0.0
  0
POINT
  5
7D9B
  8
DEFPOINTS
  6
CONTINUOUS
 62
     0
 10
1023.3455944582701
 20
788.15902055975187
 30
0.0
  0
POINT
  5
7D9C
  8
DEFPOINTS
  6
CONTINUOUS
 62
     0
 10
1159.68114645827
 20
788.15902055975187
 30
0.0
  0
ENDBLK
  5
7B8C
  8
0
  0
BLOCK
  8
0
  2
*D5
 70
     1
 10
0.0
 20
0.0
 30
0.0
  3
*D5
  1

  0
LINE
  5
7D9D
  8
3
  6
CONTINUOUS
 62
     0
 10
1028.3455944582699
 20
1309.159020559752
 30
0.0
 11
1250.65270145827
 21
1309.159020559752
 31
0.0
  0
LINE
  5
7D9E
  8
3
  6
CONTINUOUS
 62
     0
 10
1028.3455944582699
 20
788.15902055975187
 30
0.0
 11
1250.65270145827
 21
788.15902055975187
 31
0.0
  0
LINE
  5
7D9F
  8
3
  6
CONTINUOUS
 62
     0
 10
1240.65270145827
 20
1289.159020559752
 30
0.0
 11
1240.65270145827
 21
808.15902055975187
 31
0.0
  0
INSERT
  5
7DA0
  8
3
  6
CONTINUOUS
 62
     0
  2
_OPEN
 10
1240.65270145827
 20
1309.159020559752
 30
0.0
 41
20.0
 42
20.0
 43
20.0
 50
90.0
  0
INSERT
  5
7DA1
  8
3
  6
CONTINUOUS
 62
     0
  2
_OPEN
 10
1240.65270145827
 20
788.15902055975187
 30
0.0
 41
20.0
 42
20.0
 43
20.0
 50
270.0
  0
TEXT
  8
3
  40
30
  5
7E14
  62
0
  72
0
  71
0
 10
1155.65
 20
985.162
 30
0.000000
  1
521
  0
POINT
  5
7DA3
  8
DEFPOINTS
  6
CONTINUOUS
 62
     0
 10
1023.3455944582701
 20
1309.159020559752
 30
0.0
  0
POINT
  5
7DA4
  8
DEFPOINTS
  6
CONTINUOUS
 62
     0
 10
1023.3455944582701
 20
788.15902055975187
 30
0.0
  0
POINT
  5
7DA5
  8
DEFPOINTS
  6
CONTINUOUS
 62
     0
 10
1240.65270145827
 20
788.15902055975187
 30
0.0
  0
ENDBLK
  5
7B98
  8
0
  0
BLOCK
  8
0
  2
*D6
 70
     1
 10
0.0
 20
0.0
 30
0.0
  3
*D6
  1

  0
LINE
  5
7DA6
  8
3
  6
CONTINUOUS
 62
     0
 10
1023.3455944582701
 20
1314.159020559752
 30
0.0
 11
1023.3455944582701
 21
1365.884894559751
 31
0.0
  0
LINE
  5
7DA7
  8
3
  6
CONTINUOUS
 62
     0
 10
863.34559445827051
 20
1339.2256285597509
 30
0.0
 11
863.34559445827051
 21
1365.884894559751
 31
0.0
  0
LINE
  5
7DA8
  8
3
  6
CONTINUOUS
 62
     0
 10
1003.3455944582701
 20
1355.884894559752
 30
0.0
 11
883.3455944582704
 21
1355.884894559752
 31
0.0
  0
INSERT
  5
7DA9
  8
3
  6
CONTINUOUS
 62
     0
  2
_OPEN
 10
1023.3455944582701
 20
1355.884894559752
 30
0.0
 41
20.0
 42
20.0
 43
20.0
  0
INSERT
  5
7DAA
  8
3
  6
CONTINUOUS
 62
     0
  2
_OPEN
 10
863.34559445827051
 20
1355.884894559752
 30
0.0
 41
20.0
 42
20.0
 43
20.0
 50
180.0
  0
TEXT
  8
3
  40
30
  5
7E15
  62
0
  72
0
  71
0
 10
885.107
 20
1327.78
 30
0.000000
  1
160
  0
POINT
  5
7DAC
  8
DEFPOINTS
  6
CONTINUOUS
 62
     0
 10
1023.3455944582701
 20
1309.159020559752
 30
0.0
  0
POINT
  5
7DAD
  8
DEFPOINTS
  6
CONTINUOUS
 62
     0
 10
863.34559445827051
 20
1334.2256285597509
 30
0.0
  0
POINT
  5
7DAE
  8
DEFPOINTS
  6
CONTINUOUS
 62
     0
 10
863.34559445827051
 20
1355.884894559752
 30
0.0
  0
ENDBLK
  5
7BA5
  8
0
  0
BLOCK
  8
0
  2
*D7
 70
     1
 10
0.0
 20
0.0
 30
0.0
  3
*D7
  1

  0
LINE
  5
7DAF
  8
3
  6
CONTINUOUS
 62
     0
 10
684.3455944582704
 20
1107.1590205597511
 30
0.0
 11
684.3455944582704
 21
1365.884894559751
 31
0.0
  0
LINE
  5
7DB0
  8
3
  6
CONTINUOUS
 62
     0
 10
843.34559445827028
 20
1355.884894559752
 30
0.0
 11
704.3455944582704
 21
1355.884894559752
 31
0.0
  0
INSERT
  5
7DB1
  8
3
  6
CONTINUOUS
 62
     0
  2
_OPEN
 10
863.34559445827051
 20
1355.884894559752
 30
0.0
 41
20.0
 42
20.0
 43
20.0
  0
INSERT
  5
7DB2
  8
3
  6
CONTINUOUS
 62
     0
  2
_OPEN
 10
684.3455944582704
 20
1355.884894559752
 30
0.0
 41
20.0
 42
20.0
 43
20.0
 50
180.0
  0
TEXT
  8
3
  40
30
  5
7E16
  62
0
  72
0
  71
0
 10
713.846
 20
1327.78
 30
0.000000
  1
179
  0
POINT
  5
7DB4
  8
DEFPOINTS
  6
CONTINUOUS
 62
     0
 10
863.34559445827051
 20
1334.2256285597509
 30
0.0
  0
POINT
  5
7DB5
  8
DEFPOINTS
  6
CONTINUOUS
 62
     0
 10
684.3455944582704
 20
1102.1590205597511
 30
0.0
  0
POINT
  5
7DB6
  8
DEFPOINTS
  6
CONTINUOUS
 62
     0
 10
684.3455944582704
 20
1355.884894559752
 30
0.0
  0
ENDBLK
  5
7BB1
  8
0
  0
BLOCK
  8
0
  2
*D8
 70
     1
 10
0.0
 20
0.0
 30
0.0
  3
*D8
  1

  0
LINE
  5
7DB7
  8
3
  6
CONTINUOUS
 62
     0
 10
393.34559445827028
 20
783.15902055975187
 30
0.0
 11
393.34559445827028
 21
714.68597855975202
 31
0.0
  0
LINE
  5
7DB8
  8
3
  6
CONTINUOUS
 62
     0
 10
863.34559445827051
 20
753.93307355975185
 30
0.0
 11
863.34559445827051
 21
714.68597855975202
 31
0.0
  0
LINE
  5
7DB9
  8
3
  6
CONTINUOUS
 62
     0
 10
413.3455944582704
 20
724.68597855975202
 30
0.0
 11
843.34559445827028
 21
724.68597855975202
 31
0.0
  0
INSERT
  5
7DBA
  8
3
  6
CONTINUOUS
 62
     0
  2
_OPEN
 10
393.34559445827028
 20
724.68597855975202
 30
0.0
 41
20.0
 42
20.0
 43
20.0
 50
180.0
  0
INSERT
  5
7DBB
  8
3
  6
CONTINUOUS
 62
     0
  2
_OPEN
 10
863.34559445827051
 20
724.68597855975202
 30
0.0
 41
20.0
 42
20.0
 43
20.0
  0
TEXT
  8
3
  40
30
  5
7E17
  62
0
  72
0
  71
0
 10
577.415
 20
696.586
 30
0.000000
  1
470
  0
POINT
  5
7DBD
  8
DEFPOINTS
  6
CONTINUOUS
 62
     0
 10
393.34559445827028
 20
788.15902055975187
 30
0.0
  0
POINT
  5
7DBE
  8
DEFPOINTS
  6
CONTINUOUS
 62
     0
 10
863.34559445827051
 20
758.93307355975185
 30
0.0
  0
POINT
  5
7DBF
  8
DEFPOINTS
  6
CONTINUOUS
 62
     0
 10
863.34559445827051
 20
724.68597855975202
 30
0.0
  0
ENDBLK
  5
7BBE
  8
0
  0
BLOCK
  8
0
  2
*D9
 70
     1
 10
0.0
 20
0.0
 30
0.0
  3
*D9
  1

  0
LINE
  5
7DC0
  8
3
  6
CONTINUOUS
 62
     0
 10
1023.3455944582701
 20
783.15902055975187
 30
0.0
 11
1023.3455944582701
 21
714.68597855975202
 31
0.0
  0
LINE
  5
7DC1
  8
3
  6
CONTINUOUS
 62
     0
 10
883.3455944582704
 20
724.68597855975202
 30
0.0
 11
1003.3455944582701
 21
724.68597855975202
 31
0.0
  0
INSERT
  5
7DC2
  8
3
  6
CONTINUOUS
 62
     0
  2
_OPEN
 10
863.34559445827051
 20
724.68597855975202
 30
0.0
 41
20.0
 42
20.0
 43
20.0
 50
180.0
  0
INSERT
  5
7DC3
  8
3
  6
CONTINUOUS
 62
     0
  2
_OPEN
 10
1023.3455944582701
 20
724.68597855975202
 30
0.0
 41
20.0
 42
20.0
 43
20.0
  0
TEXT
  8
3
  40
30
  5
7E18
  62
0
  72
0
  71
0
 10
883.346
 20
696.586
 30
0.000000
  1
160
  0
POINT
  5
7DC5
  8
DEFPOINTS
  6
CONTINUOUS
 62
     0
 10
863.34559445827051
 20
758.93307355975185
 30
0.0
  0
POINT
  5
7DC6
  8
DEFPOINTS
  6
CONTINUOUS
 62
     0
 10
1023.3455944582701
 20
788.15902055975187
 30
0.0
  0
POINT
  5
7DC7
  8
DEFPOINTS
  6
CONTINUOUS
 62
     0
 10
1023.3455944582701
 20
724.68597855975202
 30
0.0
  0
ENDBLK
  5
7BCA
  8
0
  0
BLOCK
  8
0
  2
*D10
 70
     1
 10
0.0
 20
0.0
 30
0.0
  3
*D10
  1

  0
LINE
  5
7DC8
  8
3
  6
CONTINUOUS
 62
     0
 10
1580.3455944582699
 20
1293.159020559752
 30
0.0
 11
1580.3455944582699
 21
1331.4926465597521
 31
0.0
  0
LINE
  5
7DC9
  8
3
  6
CONTINUOUS
 62
     0
 10
1720.3455944582699
 20
1293.159020559752
 30
0.0
 11
1720.3455944582699
 21
1331.4926465597521
 31
0.0
  0
LINE
  5
7DCA
  8
3
  6
CONTINUOUS
 62
     0
 10
1560.3455944582699
 20
1321.4926465597509
 30
0.0
 11
1540.3455944582699
 21
1321.4926465597509
 31
0.0
  0
LINE
  5
7DCB
  8
3
  6
CONTINUOUS
 62
     0
 10
1740.3455944582699
 20
1321.4926465597509
 30
0.0
 11
1760.3455944582699
 21
1321.4926465597509
 31
0.0
  0
LINE
  5
7DCC
  8
3
  6
CONTINUOUS
 62
     0
 10
1580.3455944582699
 20
1321.4926465597509
 30
0.0
 11
1720.3455944582699
 21
1321.4926465597509
 31
0.0
  0
INSERT
  5
7DCD
  8
3
  6
CONTINUOUS
 62
     0
  2
_OPEN
 10
1580.3455944582699
 20
1321.4926465597509
 30
0.0
 41
20.0
 42
20.0
 43
20.0
  0
INSERT
  5
7DCE
  8
3
  6
CONTINUOUS
 62
     0
  2
_OPEN
 10
1720.3455944582699
 20
1321.4926465597509
 30
0.0
 41
20.0
 42
20.0
 43
20.0
 50
180.0
  0
TEXT
  8
3
  40
30
  5
7E19
  62
0
  72
0
  71
0
 10
1594.63
 20
1293.39
 30
0.000000
  1
140
  0
POINT
  5
7DD0
  8
DEFPOINTS
  6
CONTINUOUS
 62
     0
 10
1580.3455944582699
 20
1288.159020559752
 30
0.0
  0
POINT
  5
7DD1
  8
DEFPOINTS
  6
CONTINUOUS
 62
     0
 10
1720.3455944582699
 20
1288.159020559752
 30
0.0
  0
POINT
  5
7DD2
  8
DEFPOINTS
  6
CONTINUOUS
 62
     0
 10
1720.3455944582699
 20
1321.4926465597509
 30
0.0
  0
ENDBLK
  5
7BD7
  8
0
  0
BLOCK
  8
0
  2
*D11
 70
     1
 10
0.0
 20
0.0
 30
0.0
  3
*D11
  1

  0
LINE
  5
7DD3
  8
3
  6
CONTINUOUS
 62
     0
 10
1733.3455944582699
 20
1188.159020559752
 30
0.0
 11
1807.33213645827
 21
1188.159020559752
 31
0.0
  0
LINE
  5
7DD4
  8
3
  6
CONTINUOUS
 62
     0
 10
1733.3455944582699
 20
988.15902055975198
 30
0.0
 11
1807.33213645827
 21
988.15902055975175
 31
0.0
  0
LINE
  5
7DD5
  8
3
  6
CONTINUOUS
 62
     0
 10
1797.33213645827
 20
1168.159020559752
 30
0.0
 11
1797.33213645827
 21
1008.159020559751
 31
0.0
  0
INSERT
  5
7DD6
  8
3
  6
CONTINUOUS
 62
     0
  2
_OPEN
 10
1797.33213645827
 20
1188.159020559752
 30
0.0
 41
20.0
 42
20.0
 43
20.0
 50
90.0
  0
INSERT
  5
7DD7
  8
3
  6
CONTINUOUS
 62
     0
  2
_OPEN
 10
1797.33213645827
 20
988.15902055975175
 30
0.0
 41
20.0
 42
20.0
 43
20.0
 50
270.0
  0
TEXT
  8
3
  40
30
  5
7E1A
  62
0
  72
0
  71
0
 10
1712.33
 20
1035.74
 30
0.000000
  1
φ200
  0
POINT
  5
7DD9
  8
DEFPOINTS
  6
CONTINUOUS
 62
     0
 10
1728.3455944582699
 20
1188.159020559752
 30
0.0
  0
POINT
  5
7DDA
  8
DEFPOINTS
  6
CONTINUOUS
 62
     0
 10
1728.3455944582699
 20
988.15902055975198
 30
0.0
  0
POINT
  5
7DDB
  8
DEFPOINTS
  6
CONTINUOUS
 62
     0
 10
1797.33213645827
 20
988.15902055975175
 30
0.0
  0
ENDBLK
  5
7C72
  8
0
  0
BLOCK
  8
0
  2
*D12
 70
     1
 10
0.0
 20
0.0
 30
0.0
  3
*D12
  1

  0
LINE
  5
7C74
  8
0
  6
BYBLOCK
 62
     0
 10
1728.3455944582699
 20
1213.159020559752
 30
0.0
 11
1728.3455944582699
 21
1386.1156265597519
 31
0.0
  0
LINE
  5
7C75
  8
0
  6
BYBLOCK
 62
     0
 10
1650.3455944582699
 20
1370.1917385597519
 30
0.0
 11
1650.3455944582699
 21
1386.1156265597519
 31
0.0
  0
LINE
  5
7C76
  8
0
  6
BYBLOCK
 62
     0
 10
1708.3455944582699
 20
1376.1156265597519
 30
0.0
 11
1670.3455944582699
 21
1376.1156265597519
 31
0.0
  0
TEXT
  5
7C77
  8
3
 62
     0
 10
1665.0598801725559
 20
1385.0982367029831
 30
0.0
 40
30.0
  1
78
  0
INSERT
  5
7C78
  8
0
  6
BYBLOCK
 62
     0
  2
_OPEN
 10
1728.3455944582699
 20
1376.1156265597519
 30
0.0
 41
20.0
 42
20.0
 43
20.0
  0
INSERT
  5
7C79
  8
0
  6
BYBLOCK
 62
     0
  2
_OPEN
 10
1650.3455944582699
 20
1376.1156265597519
 30
0.0
 41
20.0
 42
20.0
 43
20.0
 50
180.0
  0
POINT
  5
7C7A
  8
DEFPOINTS
  6
BYBLOCK
 62
     0
 10
1728.3455944582699
 20
1208.159020559752
 30
0.0
  0
POINT
  5
7C7B
  8
DEFPOINTS
  6
BYBLOCK
 62
     0
 10
1650.3455944582699
 20
1365.1917385597519
 30
0.0
  0
POINT
  5
7C7C
  8
DEFPOINTS
  6
BYBLOCK
 62
     0
 10
1650.3455944582699
 20
1376.1156265597519
 30
0.0
  0
ENDBLK
  5
7C7D
  8
0
  0
BLOCK
  8
0
  2
*D13
 70
     1
 10
0.0
 20
0.0
 30
0.0
  3
*D13
  1

  0
LINE
  5
7DDC
  8
3
  6
CONTINUOUS
 62
     0
 10
1350.3455944582699
 20
1203.159020559752
 30
0.0
 11
1350.3455944582699
 21
1386.1156265597519
 31
0.0
  0
LINE
  5
7DDD
  8
3
  6
CONTINUOUS
 62
     0
 10
1630.3455944582699
 20
1376.1156265597519
 30
0.0
 11
1370.3455944582699
 21
1376.1156265597519
 31
0.0
  0
INSERT
  5
7DDE
  8
3
  6
CONTINUOUS
 62
     0
  2
_OPEN
 10
1650.3455944582699
 20
1376.1156265597519
 30
0.0
 41
20.0
 42
20.0
 43
20.0
  0
INSERT
  5
7DDF
  8
3
  6
CONTINUOUS
 62
     0
  2
_OPEN
 10
1350.3455944582699
 20
1376.1156265597519
 30
0.0
 41
20.0
 42
20.0
 43
20.0
 50
180.0
  0
TEXT
  8
3
  40
30
  5
7E1B
  62
0
  72
0
  71
0
 10
1440.35
 20
1373.02
 30
0.000000
  1
MAX
  0
TEXT
  8
3
  40
30
  5
7E1C
  62
0
  72
0
  71
0
 10
1440.35
 20
1334.02
 30
0.000000
  1
300
  0
POINT
  5
7DE1
  8
DEFPOINTS
  6
CONTINUOUS
 62
     0
 10
1650.3455944582699
 20
1365.1917385597519
 30
0.0
  0
POINT
  5
7DE2
  8
DEFPOINTS
  6
CONTINUOUS
 62
     0
 10
1350.3455944582699
 20
1198.159020559752
 30
0.0
  0
POINT
  5
7DE3
  8
DEFPOINTS
  6
CONTINUOUS
 62
     0
 10
1350.3455944582699
 20
1376.1156265597519
 30
0.0
  0
ENDBLK
  5
7C87
  8
0
  0
BLOCK
  8
0
  2
*D14
 70
     1
 10
0.0
 20
0.0
 30
0.0
  3
*D14
  1

  0
LINE
  5
7DE4
  8
3
  6
CONTINUOUS
 62
     0
 10
1352.3455944582699
 20
783.15902055975187
 30
0.0
 11
1352.3455944582699
 21
712.66290855975194
 31
0.0
  0
LINE
  5
7DE5
  8
3
  6
CONTINUOUS
 62
     0
 10
1650.3455944582699
 20
735.12786555975197
 30
0.0
 11
1650.3455944582699
 21
712.66290855975194
 31
0.0
  0
LINE
  5
7DE6
  8
3
  6
CONTINUOUS
 62
     0
 10
1372.3455944582699
 20
722.66290855975194
 30
0.0
 11
1630.3455944582699
 21
722.66290855975194
 31
0.0
  0
INSERT
  5
7DE7
  8
3
  6
CONTINUOUS
 62
     0
  2
_OPEN
 10
1352.3455944582699
 20
722.66290855975194
 30
0.0
 41
20.0
 42
20.0
 43
20.0
 50
180.0
  0
INSERT
  5
7DE8
  8
3
  6
CONTINUOUS
 62
     0
  2
_OPEN
 10
1650.3455944582699
 20
722.66290855975194
 30
0.0
 41
20.0
 42
20.0
 43
20.0
  0
TEXT
  8
3
  40
30
  5
7E1D
  62
0
  72
0
  71
0
 10
1449.88
 20
694.563
 30
0.000000
  1
298
  0
POINT
  5
7DEA
  8
DEFPOINTS
  6
CONTINUOUS
 62
     0
 10
1352.3455944582699
 20
788.15902055975187
 30
0.0
  0
POINT
  5
7DEB
  8
DEFPOINTS
  6
CONTINUOUS
 62
     0
 10
1650.3455944582699
 20
740.12786555975185
 30
0.0
  0
POINT
  5
7DEC
  8
DEFPOINTS
  6
CONTINUOUS
 62
     0
 10
1650.3455944582699
 20
722.66290855975194
 30
0.0
  0
ENDBLK
  5
7C0E
  8
0
  0
BLOCK
  8
0
  2
*D15
 70
     1
 10
0.0
 20
0.0
 30
0.0
  3
*D15
  1

  0
LINE
  5
7DED
  8
3
  6
CONTINUOUS
 62
     0
 10
1782.3455944582699
 20
783.15902055975187
 30
0.0
 11
1782.3455944582699
 21
712.66290855975194
 31
0.0
  0
LINE
  5
7DEE
  8
3
  6
CONTINUOUS
 62
     0
 10
1670.3455944582699
 20
722.66290855975194
 30
0.0
 11
1762.3455944582699
 21
722.66290855975194
 31
0.0
  0
INSERT
  5
7DEF
  8
3
  6
CONTINUOUS
 62
     0
  2
_OPEN
 10
1650.3455944582699
 20
722.66290855975194
 30
0.0
 41
20.0
 42
20.0
 43
20.0
 50
180.0
  0
INSERT
  5
7DF0
  8
3
  6
CONTINUOUS
 62
     0
  2
_OPEN
 10
1782.3455944582699
 20
722.66290855975194
 30
0.0
 41
20.0
 42
20.0
 43
20.0
  0
TEXT
  8
3
  40
30
  5
7E1E
  62
0
  72
0
  71
0
 10
1656.35
 20
694.563
 30
0.000000
  1
132
  0
POINT
  5
7DF2
  8
DEFPOINTS
  6
CONTINUOUS
 62
     0
 10
1650.3455944582699
 20
740.12786555975185
 30
0.0
  0
POINT
  5
7DF3
  8
DEFPOINTS
  6
CONTINUOUS
 62
     0
 10
1782.3455944582699
 20
788.15902055975187
 30
0.0
  0
POINT
  5
7DF4
  8
DEFPOINTS
  6
CONTINUOUS
 62
     0
 10
1782.3455944582699
 20
722.66290855975194
 30
0.0
  0
ENDBLK
  5
7C1A
  8
0
  0
BLOCK
  8
0
  2
*D16
 70
     1
 10
0.0
 20
0.0
 30
0.0
  3
*D16
  1

  0
LINE
  5
7DF5
  8
3
  6
CONTINUOUS
 62
     0
 10
393.34559445827028
 20
1683.1505578515889
 30
0.0
 11
393.34559445827028
 21
1579.268215851589
 31
0.0
  0
LINE
  5
7DF6
  8
3
  6
CONTINUOUS
 62
     0
 10
1023.3455944582701
 20
1683.1505578515889
 30
0.0
 11
1023.3455944582701
 21
1579.268215851589
 31
0.0
  0
LINE
  5
7DF7
  8
3
  6
CONTINUOUS
 62
     0
 10
413.3455944582704
 20
1589.268215851589
 30
0.0
 11
1003.3455944582701
 21
1589.268215851589
 31
0.0
  0
INSERT
  5
7DF8
  8
3
  6
CONTINUOUS
 62
     0
  2
_OPEN
 10
393.34559445827028
 20
1589.268215851589
 30
0.0
 41
20.0
 42
20.0
 43
20.0
 50
180.0
  0
INSERT
  5
7DF9
  8
3
  6
CONTINUOUS
 62
     0
  2
_OPEN
 10
1023.3455944582701
 20
1589.268215851589
 30
0.0
 41
20.0
 42
20.0
 43
20.0
  0
TEXT
  8
3
  40
30
  5
7E1F
  62
0
  72
0
  71
0
 10
623.037
 20
1561.17
 30
0.000000
  1
630
  0
POINT
  5
7DFB
  8
DEFPOINTS
  6
CONTINUOUS
 62
     0
 10
393.34559445827028
 20
1688.1505578515889
 30
0.0
  0
POINT
  5
7DFC
  8
DEFPOINTS
  6
CONTINUOUS
 62
     0
 10
1023.3455944582701
 20
1688.1505578515889
 30
0.0
  0
POINT
  5
7DFD
  8
DEFPOINTS
  6
CONTINUOUS
 62
     0
 10
1023.3455944582701
 20
1589.268215851589
 30
0.0
  0
ENDBLK
  5
7C3E
  8
0
  0
BLOCK
  8
0
  2
*D17
 70
     1
 10
0.0
 20
0.0
 30
0.0
  3
*D17
  1

  0
LINE
  5
7DFE
  8
3
  6
CONTINUOUS
 62
     0
 10
1028.3455944582699
 20
2118.150557851588
 30
0.0
 11
1131.77049745827
 21
2118.150557851588
 31
0.0
  0
LINE
  5
7DFF
  8
3
  6
CONTINUOUS
 62
     0
 10
1028.3455944582699
 20
1688.1505578515889
 30
0.0
 11
1131.77049745827
 21
1688.1505578515889
 31
0.0
  0
LINE
  5
7E00
  8
3
  6
CONTINUOUS
 62
     0
 10
1121.77049745827
 20
2098.150557851588
 30
0.0
 11
1121.77049745827
 21
1708.1505578515889
 31
0.0
  0
INSERT
  5
7E01
  8
3
  6
CONTINUOUS
 62
     0
  2
_OPEN
 10
1121.77049745827
 20
2118.150557851588
 30
0.0
 41
20.0
 42
20.0
 43
20.0
 50
90.0
  0
INSERT
  5
7E02
  8
3
  6
CONTINUOUS
 62
     0
  2
_OPEN
 10
1121.77049745827
 20
1688.1505578515889
 30
0.0
 41
20.0
 42
20.0
 43
20.0
 50
270.0
  0
TEXT
  8
3
  40
30
  5
7E20
  62
0
  72
0
  71
0
 10
1036.77
 20
1849.00
 30
0.000000
  1
430
  0
POINT
  5
7E04
  8
DEFPOINTS
  6
CONTINUOUS
 62
     0
 10
1023.3455944582701
 20
2118.150557851588
 30
0.0
  0
POINT
  5
7E05
  8
DEFPOINTS
  6
CONTINUOUS
 62
     0
 10
1023.3455944582701
 20
1688.1505578515889
 30
0.0
  0
POINT
  5
7E06
  8
DEFPOINTS
  6
CONTINUOUS
 62
     0
 10
1121.77049745827
 20
1688.1505578515889
 30
0.0
  0
ENDBLK
  5
7C4B
  8
0
  0
BLOCK
  8
0
  2
*D18
 70
     1
 10
0.0
 20
0.0
 30
0.0
  3
*D18
  1

  0
LINE
  5
7E07
  8
3
 62
     0
 10
1023.3455944582701
 20
1314.159020559752
 30
0.0
 11
1023.3455944582701
 21
1431.9451175180129
 31
0.0
  0
LINE
  5
7E08
  8
3
 62
     0
 10
393.34559445827028
 20
868.15902055975187
 30
0.0
 11
393.3455944582704
 21
1431.9451175180129
 31
0.0
  0
LINE
  5
7E09
  8
3
 62
     0
 10
1003.3455944582701
 20
1421.9451175180141
 30
0.0
 11
413.34559445827051
 21
1421.9451175180141
 31
0.0
  0
INSERT
  5
7E0A
  8
3
 62
     0
  2
_OPEN
 10
1023.3455944582701
 20
1421.9451175180141
 30
0.0
 41
20.0
 42
20.0
 43
20.0
  0
INSERT
  5
7E0B
  8
3
 62
     0
  2
_OPEN
 10
393.3455944582704
 20
1421.9451175180141
 30
0.0
 41
20.0
 42
20.0
 43
20.0
 50
180.0
  0
TEXT
  8
3
  40
30
  5
7E21
  62
0
  72
0
  71
0
 10
656.286
 20
1393.85
 30
0.000000
  1
630
  0
POINT
  5
7E0D
  8
DEFPOINTS
 62
     0
 10
1023.3455944582701
 20
1309.159020559752
 30
0.0
  0
POINT
  5
7E0E
  8
DEFPOINTS
 62
     0
 10
393.34559445827028
 20
863.15902055975198
 30
0.0
  0
POINT
  5
7E0F
  8
DEFPOINTS
 62
     0
 10
393.3455944582704
 20
1421.9451175180141
 30
0.0
  0
ENDBLK
  5
7C93
  8
0
  0
ENDSEC
  0
SECTION
  2
ENTITIES
  0
CIRCLE
  5
7A8A
  8
1
  6
CONTINUOUS
 10
863.34559445827051
 20
1088.1590205597511
 30
0.0
 40
100.0
  0
LINE
  5
7A8B
  8
1
  6
CONTINUOUS
 10
1720.3455944582699
 20
1288.159020559752
 30
0.0
 11
1580.3455944582699
 21
1088.1590205597511
 31
0.0
  0
LINE
  5
7A8C
  8
1
  6
CONTINUOUS
 10
1580.3455944582699
 20
1288.159020559752
 30
0.0
 11
1720.3455944582699
 21
1088.1590205597511
 31
0.0
  0
ARC
  5
7A8D
  8
1
  6
CONTINUOUS
 10
1708.3455944582699
 20
949.15902055975187
 30
0.0
 40
12.0
 50
270.0
 51
0.0
  0
ARC
  5
7A8E
  8
1
  6
CONTINUOUS
 10
1592.3455944582699
 20
949.15902055975187
 30
0.0
 40
12.0
 50
180.0
 51
270.0
  0
LINE
  5
7A8F
  8
1
  6
CONTINUOUS
 10
1580.3455944582699
 20
1288.159020559752
 30
0.0
 11
1580.3455944582699
 21
949.15902055975187
 31
0.0
  0
LINE
  5
7A90
  8
1
  6
CONTINUOUS
 10
1720.3455944582699
 20
1288.159020559752
 30
0.0
 11
1580.3455944582699
 21
1288.159020559752
 31
0.0
  0
LINE
  5
7A91
  8
1
  6
CONTINUOUS
 10
1720.3455944582699
 20
949.15902055975187
 30
0.0
 11
1720.3455944582699
 21
1288.159020559752
 31
0.0
  0
LINE
  5
7A92
  8
1
  6
CONTINUOUS
 10
1580.3455944582699
 20
1088.1590205597511
 30
0.0
 11
1720.3455944582699
 21
1088.1590205597511
 31
0.0
  0
LINE
  5
7A93
  8
1
  6
CONTINUOUS
 10
1580.54559445827
 20
1208.159020559752
 30
0.0
 11
1572.3455944582699
 21
1208.159020559752
 31
0.0
  0
LINE
  5
7A94
  8
1
  6
CONTINUOUS
 10
1580.54559445827
 20
968.15902055975187
 30
0.0
 11
1572.3455944582699
 21
968.15902055975187
 31
0.0
  0
LINE
  5
7A95
  8
1
  6
CONTINUOUS
 10
1592.3455944582699
 20
937.15902055975198
 30
0.0
 11
1708.3455944582699
 21
937.15902055975198
 31
0.0
  0
LINE
  5
7A96
  8
1
  6
CONTINUOUS
 10
1720.1455944582699
 20
968.15902055975187
 30
0.0
 11
1728.3455944582699
 21
968.15902055975187
 31
0.0
  0
LINE
  5
7A97
  8
1
  6
CONTINUOUS
 10
1728.3455944582699
 20
1208.159020559752
 30
0.0
 11
1728.3455944582699
 21
968.15902055975187
 31
0.0
  0
LINE
  5
7A98
  8
1
  6
CONTINUOUS
 10
1720.1455944582699
 20
1208.159020559752
 30
0.0
 11
1728.3455944582699
 21
1208.159020559752
 31
0.0
  0
ARC
  5
7A99
  8
1
  6
CONTINUOUS
 10
1708.3455944582699
 20
949.15902055975187
 30
0.0
 40
12.0
 50
270.0
 51
0.0
  0
LINE
  5
7A9A
  8
1
  6
CONTINUOUS
 10
743.34559445827028
 20
1916.1505578515889
 30
0.0
 11
743.34559445827028
 21
1908.1505578515889
 31
0.0
  0
LINE
  5
7A9B
  8
1
  6
CONTINUOUS
 10
983.3455944582704
 20
1908.1505578515889
 30
0.0
 11
743.34559445827028
 21
1908.1505578515889
 31
0.0
  0
LINE
  5
7A9C
  8
1
  6
CONTINUOUS
 10
983.3455944582704
 20
1916.1505578515889
 30
0.0
 11
983.3455944582704
 21
1908.1505578515889
 31
0.0
  0
LINE
  5
7A9D
  8
1
  6
CONTINUOUS
 10
1023.3455944582701
 20
1915.1505578515889
 30
0.0
 11
1008.3455944582701
 21
1930.1505578515889
 31
0.0
  0
LINE
  5
7A9E
  8
1
  6
CONTINUOUS
 10
1008.3455944582701
 20
2042.1505578515889
 30
0.0
 11
1008.3455944582701
 21
1930.1505578515889
 31
0.0
  0
LINE
  5
7A9F
  8
1
  6
CONTINUOUS
 10
1023.3455944582701
 20
2057.150557851588
 30
0.0
 11
1008.3455944582701
 21
2042.1505578515889
 31
0.0
  0
ARC
  5
7AA0
  8
1
  6
CONTINUOUS
 10
694.34559445827028
 20
1926.1505578515889
 30
0.0
 40
10.0
 50
180.0
 51
270.0
  0
ARC
  5
7AA1
  8
1
  6
CONTINUOUS
 10
694.34559445827028
 20
2046.1505578515889
 30
0.0
 40
10.0
 50
90.0
 51
180.0
  0
LINE
  5
7AA2
  8
1
  6
CONTINUOUS
 10
1023.3455944582701
 20
2056.1505578515889
 30
0.0
 11
694.34559445827028
 21
2056.1505578515889
 31
0.0
  0
LINE
  5
7AA3
  8
1
  6
CONTINUOUS
 10
1023.3455944582701
 20
1916.1505578515889
 30
0.0
 11
694.34559445827028
 21
1916.1505578515889
 31
0.0
  0
LINE
  5
7AA4
  8
1
  6
CONTINUOUS
 10
684.3455944582704
 20
2046.1505578515889
 30
0.0
 11
684.3455944582704
 21
1926.1505578515889
 31
0.0
  0
LINE
  5
7AA5
  8
1
  6
CONTINUOUS
 10
1023.3455944582701
 20
2077.150557851588
 30
0.0
 11
1023.3455944582701
 21
1895.1505578515889
 31
0.0
  0
LINE
  5
7AA6
  8
1
  6
CONTINUOUS
 10
983.3455944582704
 20
2056.1505578515889
 30
0.0
 11
983.3455944582704
 21
2064.1505578515889
 31
0.0
  0
LINE
  5
7AA7
  8
1
  6
CONTINUOUS
 10
983.3455944582704
 20
2064.1505578515889
 30
0.0
 11
743.34559445827028
 21
2064.1505578515889
 31
0.0
  0
LINE
  5
7AA8
  8
1
  6
CONTINUOUS
 10
743.34559445827028
 20
2056.1505578515889
 30
0.0
 11
743.34559445827028
 21
2064.1505578515889
 31
0.0
  0
LINE
  5
7AA9
  8
1
  6
CONTINUOUS
 10
998.3455944582704
 20
2056.1505578515889
 30
0.0
 11
998.3455944582704
 21
2118.150557851588
 31
0.0
  0
LINE
  5
7AAA
  8
1
  6
CONTINUOUS
 10
418.34559445827028
 20
1996.1505578515889
 30
0.0
 11
418.34559445827028
 21
2118.150557851588
 31
0.0
  0
LINE
  5
7AAB
  8
1
  6
CONTINUOUS
 10
393.34559445827028
 20
2118.150557851588
 30
0.0
 11
418.34559445827028
 21
2118.150557851588
 31
0.0
  0
LINE
  5
7AAC
  8
1
  6
CONTINUOUS
 10
393.34559445827028
 20
1688.1505578515889
 30
0.0
 11
418.34559445827028
 21
1688.1505578515889
 31
0.0
  0
LINE
  5
7AAD
  8
1
  6
CONTINUOUS
 10
998.3455944582704
 20
1688.1505578515889
 30
0.0
 11
998.3455944582704
 21
1772.1505578515889
 31
0.0
  0
LINE
  5
7AAE
  8
1
  6
CONTINUOUS
 10
418.34559445827028
 20
1688.1505578515889
 30
0.0
 11
418.34559445827028
 21
1772.1505578515889
 31
0.0
  0
LINE
  5
7AAF
  8
1
  6
CONTINUOUS
 10
998.3455944582704
 20
2118.150557851588
 30
0.0
 11
1023.3455944582701
 21
2118.150557851588
 31
0.0
  0
LINE
  5
7AB0
  8
1
  6
CONTINUOUS
 10
998.3455944582704
 20
1688.1505578515889
 30
0.0
 11
1023.3455944582701
 21
1688.1505578515889
 31
0.0
  0
LINE
  5
7AB1
  8
1
  6
CONTINUOUS
 10
998.3455944582704
 20
788.15902055975187
 30
0.0
 11
1023.3455944582701
 21
788.15902055975187
 31
0.0
  0
LINE
  5
7AB2
  8
1
  6
CONTINUOUS
 10
1352.3455944582699
 20
788.15902055975187
 30
0.0
 11
1782.3455944582699
 21
788.15902055975187
 31
0.0
  0
LINE
  5
7AB3
  8
1
  6
CONTINUOUS
 10
1352.3455944582699
 20
813.15902055975198
 30
0.0
 11
1352.3455944582699
 21
788.15902055975187
 31
0.0
  0
LINE
  5
7AB4
  8
1
  6
CONTINUOUS
 10
1782.3455944582699
 20
813.15902055975198
 30
0.0
 11
1782.3455944582699
 21
788.15902055975187
 31
0.0
  0
LINE
  5
7AB5
  8
1
  6
CONTINUOUS
 10
393.34559445827028
 20
788.15902055975187
 30
0.0
 11
418.34559445827028
 21
788.15902055975187
 31
0.0
  0
LINE
  5
7AB6
  8
1
  6
CONTINUOUS
 10
998.3455944582704
 20
788.15902055975187
 30
0.0
 11
998.3455944582704
 21
813.15902055975198
 31
0.0
  0
LINE
  5
7AB7
  8
1
  6
CONTINUOUS
 10
418.34559445827028
 20
788.15902055975187
 30
0.0
 11
418.34559445827028
 21
813.15902055975198
 31
0.0
  0
LINE
  5
7AB8
  8
1
  6
CONTINUOUS
 10
393.34559445827028
 20
863.15902055975198
 30
0.0
 11
1023.3455944582701
 21
863.15902055975198
 31
0.0
  0
LINE
  5
7AB9
  8
2
 10
385.33822845827029
 20
1088.1590205597511
 30
0.0
 11
1060.1377524582699
 21
1088.1590205597511
 31
0.0
  0
LINE
  5
7ABA
  8
2
 10
863.34559445827051
 20
758.93307355975185
 30
0.0
 11
863.34559445827051
 21
1334.2256285597509
 31
0.0
  0
LINE
  5
7ABB
  8
1
  6
CONTINUOUS
 10
1008.3455944582701
 20
1088.1590205597511
 30
0.0
 11
1008.3455944582701
 21
1078.1590205597511
 31
0.0
  0
LINE
  5
7ABC
  8
1
  6
CONTINUOUS
 10
1008.3455944582701
 20
1299.159020559752
 30
0.0
 11
1008.3455944582701
 21
1288.159020559752
 31
0.0
  0
LINE
  5
7ABD
  8
1
  6
CONTINUOUS
 10
1023.3455944582701
 20
1288.159020559752
 30
0.0
 11
1008.3455944582701
 21
1288.159020559752
 31
0.0
  0
CIRCLE
  5
7ABE
  8
1
  6
CONTINUOUS
 10
863.34559445827051
 20
1088.1590205597511
 30
0.0
 40
50.0
  0
LINE
  5
7ABF
  8
1
  6
CONTINUOUS
 10
393.34559445827028
 20
813.15902055975198
 30
0.0
 11
1023.3455944582701
 21
813.15902055975198
 31
0.0
  0
LINE
  5
7AC0
  8
1
  6
CONTINUOUS
 10
998.3455944582704
 20
863.15902055975198
 30
0.0
 11
998.3455944582704
 21
1141.859020559752
 31
0.0
  0
LINE
  5
7AC1
  8
1
  6
CONTINUOUS
 10
914.94559445827053
 20
1213.159020559752
 30
0.0
 11
811.74559445827049
 21
1213.159020559752
 31
0.0
  0
LINE
  5
7AC2
  8
1
  6
CONTINUOUS
 10
728.3455944582704
 20
1141.859020559752
 30
0.0
 11
728.3455944582704
 21
863.15902055975198
 31
0.0
  0
LINE
  5
7AC3
  8
1
  6
CONTINUOUS
 10
914.94559445827053
 20
1213.159020559752
 30
0.0
 11
998.3455944582704
 21
1141.859020559752
 31
0.0
  0
LINE
  5
7AC4
  8
1
  6
CONTINUOUS
 10
811.74559445827049
 20
1213.159020559752
 30
0.0
 11
728.3455944582704
 21
1141.859020559752
 31
0.0
  0
LINE
  5
7AC5
  8
1
  6
CONTINUOUS
 10
728.3455944582704
 20
1054.859020559752
 30
0.0
 11
998.3455944582704
 21
1054.859020559752
 31
0.0
  0
LINE
  5
7AC6
  8
1
  6
CONTINUOUS
 10
551.14559445827035
 20
1738.6505578515889
 30
0.0
 11
551.14559445827035
 21
1791.350557851589
 31
0.0
  0
LINE
  5
7AC7
  8
1
  6
CONTINUOUS
 10
575.14559445827035
 20
1738.6505578515889
 30
0.0
 11
575.14559445827035
 21
1791.350557851589
 31
0.0
  0
LINE
  5
7AC8
  8
1
  6
CONTINUOUS
 10
1572.3455944582699
 20
1208.159020559752
 30
0.0
 11
1572.3455944582699
 21
863.15902055975198
 31
0.0
  0
ARC
  5
7AC9
  8
1
  6
CONTINUOUS
 10
849.3455944582704
 20
1102.1590205597511
 30
0.0
 40
165.0
 50
179.6999999999999
 51
270.60000000000002
  0
LINE
  5
7ACA
  8
1
  6
CONTINUOUS
 10
1023.3455944582701
 20
1087.1590205597511
 30
0.0
 11
1008.3455944582701
 21
1102.1590205597511
 31
0.0
  0
LINE
  5
7ACB
  8
1
  6
CONTINUOUS
 10
1008.3455944582701
 20
1274.159020559752
 30
0.0
 11
1008.3455944582701
 21
1102.1590205597511
 31
0.0
  0
LINE
  5
7ACC
  8
1
  6
CONTINUOUS
 10
1023.3455944582701
 20
1289.159020559752
 30
0.0
 11
1008.3455944582701
 21
1274.159020559752
 31
0.0
  0
ARC
  5
7ACD
  8
1
  6
CONTINUOUS
 10
852.34559445827028
 20
1077.1590205597511
 30
0.0
 40
140.0
 50
269.39999999999992
 51
0.4
  0
ARC
  5
7ACE
  8
1
  6
CONTINUOUS
 10
879.34559445827028
 20
1104.1590205597511
 30
0.0
 40
195.0
 50
90.0
 51
180.30000000000001
  0
LINE
  5
7ACF
  8
1
  6
CONTINUOUS
 10
1008.3455944582701
 20
1299.159020559752
 30
0.0
 11
879.34559445827028
 21
1299.159020559752
 31
0.0
  0
LINE
  5
7AD0
  8
1
  6
CONTINUOUS
 10
1023.3455944582701
 20
1088.1590205597511
 30
0.0
 11
1008.3455944582701
 21
1088.1590205597511
 31
0.0
  0
LINE
  5
7AD1
  8
1
  6
CONTINUOUS
 10
1023.3455944582701
 20
1309.159020559752
 30
0.0
 11
1023.3455944582701
 21
1067.1590205597511
 31
0.0
  0
LINE
  5
7AD2
  8
1
  6
CONTINUOUS
 10
1008.3455944582701
 20
1078.1590205597511
 30
0.0
 11
992.3455944582704
 21
1078.1590205597511
 31
0.0
  0
LINE
  5
7AD3
  8
1
  6
CONTINUOUS
 10
393.34559445827028
 20
788.15902055975187
 30
0.0
 11
393.34559445827028
 21
863.15902055975198
 31
0.0
  0
LINE
  5
7AD4
  8
1
  6
CONTINUOUS
 10
1023.3455944582701
 20
788.15902055975187
 30
0.0
 11
1023.3455944582701
 21
863.15902055975198
 31
0.0
  0
CIRCLE
  5
7AD5
  8
1
  6
CONTINUOUS
 10
863.34559445827051
 20
1088.1590205597511
 30
0.0
 40
120.0
  0
LINE
  5
7AD6
  8
1
  6
CONTINUOUS
 10
1352.3455944582699
 20
813.15902055975198
 30
0.0
 11
1782.3455944582699
 21
813.15902055975198
 31
0.0
  0
LINE
  5
7AD7
  8
1
  6
CONTINUOUS
 10
1350.3455944582699
 20
863.15902055975198
 30
0.0
 11
1660.3455944582699
 21
863.15902055975198
 31
0.0
  0
LINE
  5
7AD8
  8
1
  6
CONTINUOUS
 10
1660.3455944582699
 20
863.15902055975198
 30
0.0
 11
1660.3455944582699
 21
813.15902055975198
 31
0.0
  0
LINE
  5
7AD9
  8
1
  6
CONTINUOUS
 10
1436.3455944582699
 20
863.15902055975198
 30
0.0
 11
1436.3455944582699
 21
813.15902055975198
 31
0.0
  0
LINE
  5
7ADA
  8
1
  6
CONTINUOUS
 10
1350.3455944582699
 20
1198.159020559752
 30
0.0
 11
1350.3455944582699
 21
863.15902055975198
 31
0.0
  0
LINE
  5
7ADB
  8
1
  6
CONTINUOUS
 10
1460.3455944582699
 20
1054.859020559752
 30
0.0
 11
1460.3455944582699
 21
863.15902055975198
 31
0.0
  0
LINE
  5
7ADC
  8
1
  6
CONTINUOUS
 10
1460.3455944582699
 20
1054.859020559752
 30
0.0
 11
1572.3455944582699
 21
1141.859020559752
 31
0.0
  0
LINE
  5
7ADD
  8
1
  6
CONTINUOUS
 10
393.34559445827028
 20
1688.1505578515889
 30
0.0
 11
393.34559445827028
 21
2118.150557851588
 31
0.0
  0
LINE
  5
7ADE
  8
1
  6
CONTINUOUS
 10
1023.3455944582701
 20
1688.1505578515889
 30
0.0
 11
1023.3455944582701
 21
2118.150557851588
 31
0.0
  0
LINE
  5
7ADF
  8
1
  6
CONTINUOUS
 10
684.3455944582704
 20
1996.1505578515889
 30
0.0
 11
393.34559445827028
 21
1996.1505578515889
 31
0.0
  0
LINE
  5
7AE0
  8
1
  6
CONTINUOUS
 10
1023.3455944582701
 20
1772.1505578515889
 30
0.0
 11
875.3455944582704
 21
1772.1505578515889
 31
0.0
  0
LINE
  5
7AE1
  8
1
  6
CONTINUOUS
 10
400.6455944582703
 20
883.85902055975191
 30
0.0
 11
400.6455944582703
 21
863.15902055975198
 31
0.0
  0
LINE
  5
7AE2
  8
1
  6
CONTINUOUS
 10
651.64559445827035
 20
883.85902055975191
 30
0.0
 11
400.6455944582703
 21
883.85902055975191
 31
0.0
  0
LINE
  5
7AE3
  8
1
  6
CONTINUOUS
 10
651.64559445827035
 20
863.15902055975198
 30
0.0
 11
651.64559445827035
 21
883.85902055975191
 31
0.0
  0
LINE
  5
7AE4
  8
1
  6
CONTINUOUS
 10
440.34559445827028
 20
1198.159020559752
 30
0.0
 11
970.34559445827028
 21
1198.159020559752
 31
0.0
  0
LINE
  5
7AE5
  8
1
  6
CONTINUOUS
 10
440.34559445827028
 20
863.15902055975198
 30
0.0
 11
440.34559445827028
 21
1198.159020559752
 31
0.0
  0
LINE
  5
7AE6
  8
1
  6
CONTINUOUS
 10
970.34559445827028
 20
863.15902055975198
 30
0.0
 11
970.34559445827028
 21
1198.159020559752
 31
0.0
  0
CIRCLE
  5
7AE7
  8
1
  6
CONTINUOUS
 10
563.14559445827035
 20
964.25902055975189
 30
0.0
 40
35.0
  0
LINE
  5
7AE8
  8
1
  6
CONTINUOUS
 10
440.34559445827028
 20
1686.1505578515889
 30
0.0
 11
440.34559445827028
 21
1761.1505578515889
 31
0.0
  0
LINE
  5
7AE9
  8
1
  6
CONTINUOUS
 10
970.34559445827028
 20
1686.1505578515889
 30
0.0
 11
970.34559445827028
 21
1761.1505578515889
 31
0.0
  0
LINE
  5
7AEA
  8
1
  6
CONTINUOUS
 10
970.34559445827028
 20
1686.1505578515889
 30
0.0
 11
440.34559445827028
 21
1686.1505578515889
 31
0.0
  0
LINE
  5
7AEB
  8
1
  6
CONTINUOUS
 10
1350.3455944582699
 20
1198.159020559752
 30
0.0
 11
1425.3455944582699
 21
1198.159020559752
 31
0.0
  0
LINE
  5
7AEC
  8
1
  6
CONTINUOUS
 10
813.34559445827028
 20
1708.6505578515889
 30
0.0
 11
813.34559445827028
 21
1738.6505578515889
 31
0.0
  0
LINE
  5
7AED
  8
1
  6
CONTINUOUS
 10
913.34559445827051
 20
1708.6505578515889
 30
0.0
 11
913.34559445827051
 21
1738.6505578515889
 31
0.0
  0
LINE
  5
7AEE
  8
1
  6
CONTINUOUS
 10
1372.8455944582699
 20
1138.1590205597511
 30
0.0
 11
1402.8455944582699
 21
1138.1590205597511
 31
0.0
  0
LINE
  5
7AEF
  8
1
  6
CONTINUOUS
 10
1372.8455944582699
 20
1038.1590205597511
 30
0.0
 11
1402.8455944582699
 21
1038.1590205597511
 31
0.0
  0
LINE
  5
7AF0
  8
1
  6
CONTINUOUS
 10
1425.3455944582699
 20
1198.159020559752
 30
0.0
 11
1425.3455944582699
 21
863.15902055975198
 31
0.0
  0
LINE
  5
7AF1
  8
1
  6
CONTINUOUS
 10
970.34559445827028
 20
1761.1505578515889
 30
0.0
 11
440.34559445827028
 21
1761.1505578515889
 31
0.0
  0
LINE
  5
7AF2
  8
1
  6
CONTINUOUS
 10
1372.8455944582699
 20
1138.1590205597511
 30
0.0
 11
1372.8455944582699
 21
1038.1590205597511
 31
0.0
  0
LINE
  5
7AF3
  8
1
  6
CONTINUOUS
 10
1402.8455944582699
 20
1138.1590205597511
 30
0.0
 11
1402.8455944582699
 21
1038.1590205597511
 31
0.0
  0
LINE
  5
7AF4
  8
1
  6
CONTINUOUS
 10
1372.8455944582699
 20
999.25902055975189
 30
0.0
 11
1372.8455944582699
 21
929.259020559752
 31
0.0
  0
LINE
  5
7AF5
  8
1
  6
CONTINUOUS
 10
1402.8455944582699
 20
999.25902055975189
 30
0.0
 11
1402.8455944582699
 21
929.259020559752
 31
0.0
  0
LINE
  5
7AF6
  8
1
  6
CONTINUOUS
 10
1372.8455944582699
 20
999.25902055975189
 30
0.0
 11
1402.8455944582699
 21
999.25902055975189
 31
0.0
  0
LINE
  5
7AF7
  8
1
  6
CONTINUOUS
 10
1372.8455944582699
 20
929.259020559752
 30
0.0
 11
1402.8455944582699
 21
929.259020559752
 31
0.0
  0
LINE
  5
7AF8
  8
1
  6
CONTINUOUS
 10
528.14559445827035
 20
1708.6505578515889
 30
0.0
 11
528.14559445827035
 21
1738.6505578515889
 31
0.0
  0
LINE
  5
7AF9
  8
1
  6
CONTINUOUS
 10
598.14559445827035
 20
1708.6505578515889
 30
0.0
 11
598.14559445827035
 21
1738.6505578515889
 31
0.0
  0
LINE
  5
7AFA
  8
1
  6
CONTINUOUS
 10
528.14559445827035
 20
1738.6505578515889
 30
0.0
 11
598.14559445827035
 21
1738.6505578515889
 31
0.0
  0
LINE
  5
7AFB
  8
1
  6
CONTINUOUS
 10
528.14559445827035
 20
1708.6505578515889
 30
0.0
 11
598.14559445827035
 21
1708.6505578515889
 31
0.0
  0
LINE
  5
7AFC
  8
1
  6
CONTINUOUS
 10
813.34559445827028
 20
1708.6505578515889
 30
0.0
 11
913.34559445827051
 21
1708.6505578515889
 31
0.0
  0
LINE
  5
7AFD
  8
1
  6
CONTINUOUS
 10
813.34559445827028
 20
1738.6505578515889
 30
0.0
 11
913.34559445827051
 21
1738.6505578515889
 31
0.0
  0
LINE
  5
7AFE
  8
1
  6
CONTINUOUS
 10
643.74559445827026
 20
1982.2505578515891
 30
0.0
 11
473.74559445827038
 21
1982.2505578515891
 31
0.0
  0
LINE
  5
7AFF
  8
1
  6
CONTINUOUS
 10
643.74559445827026
 20
1791.350557851589
 30
0.0
 11
473.74559445827038
 21
1791.350557851589
 31
0.0
  0
LINE
  5
7B00
  8
1
  6
CONTINUOUS
 10
473.74559445827038
 20
1791.350557851589
 30
0.0
 11
473.74559445827038
 21
1982.2505578515891
 31
0.0
  0
LINE
  5
7B01
  8
1
  6
CONTINUOUS
 10
643.74559445827026
 20
1791.350557851589
 30
0.0
 11
643.74559445827026
 21
1982.2505578515891
 31
0.0
  0
ARC
  5
7B02
  8
1
  6
CONTINUOUS
 10
558.74559445827026
 20
963.85902055975203
 30
0.0
 40
85.0
 50
324.69999999999987
 51
215.30000000000001
  0
LINE
  5
7B03
  8
1
  6
CONTINUOUS
 10
481.24559445827032
 20
891.85902055975191
 30
0.0
 11
489.44559445827031
 21
914.65902055975187
 31
0.0
  0
LINE
  5
7B04
  8
1
  6
CONTINUOUS
 10
636.24559445827038
 20
883.85902055975191
 30
0.0
 11
636.24559445827038
 21
891.85902055975191
 31
0.0
  0
LINE
  5
7B05
  8
1
  6
CONTINUOUS
 10
636.24559445827038
 20
891.85902055975191
 30
0.0
 11
628.14559445827035
 21
914.65902055975187
 31
0.0
  0
LINE
  5
7B06
  8
1
  6
CONTINUOUS
 10
481.24559445827032
 20
883.85902055975191
 30
0.0
 11
481.24559445827032
 21
891.85902055975191
 31
0.0
  0
LINE
  5
7B07
  8
2
  6
CONTINUOUS
 10
563.14559445827035
 20
929.259020559752
 30
0.0
 11
563.14559445827035
 21
999.25902055975189
 31
0.0
  0
LINE
  5
7B08
  8
2
  6
CONTINUOUS
 10
528.14559445827035
 20
964.25902055975189
 30
0.0
 11
598.14559445827035
 21
964.25902055975189
 31
0.0
  0
LINE
  5
7B09
  8
1
  6
CONTINUOUS
 10
1402.8455944582699
 20
976.259020559752
 30
0.0
 11
1460.3455944582699
 21
976.259020559752
 31
0.0
  0
LINE
  5
7B0A
  8
1
  6
CONTINUOUS
 10
1402.8455944582699
 20
952.259020559752
 30
0.0
 11
1460.3455944582699
 21
952.259020559752
 31
0.0
  0
LINE
  5
7B0B
  8
1
  6
CONTINUOUS
 10
1402.8455944582699
 20
1100.1590205597511
 30
0.0
 11
1518.6455944582699
 21
1100.1590205597511
 31
0.0
  0
LINE
  5
7B0C
  8
1
  6
CONTINUOUS
 10
1402.8455944582699
 20
1076.1590205597511
 30
0.0
 11
1487.74559445827
 21
1076.1590205597511
 31
0.0
  0
LINE
  5
7B0D
  8
1
  6
CONTINUOUS
 10
851.3455944582704
 20
1772.1505578515889
 30
0.0
 11
575.14559445827035
 21
1772.1505578515889
 31
0.0
  0
LINE
  5
7B0E
  8
1
  6
CONTINUOUS
 10
551.14559445827035
 20
1772.1505578515889
 30
0.0
 11
393.34559445827028
 21
1772.1505578515889
 31
0.0
  0
LINE
  5
7B0F
  8
1
  6
CONTINUOUS
 10
851.3455944582704
 20
1908.1505578515889
 30
0.0
 11
851.3455944582704
 21
1738.6505578515889
 31
0.0
  0
LINE
  5
7B10
  8
1
  6
CONTINUOUS
 10
875.3455944582704
 20
1908.1505578515889
 30
0.0
 11
875.3455944582704
 21
1738.6505578515889
 31
0.0
  0
LINE
  5
7B11
  8
1
  6
CONTINUOUS
 10
548.34559445827028
 20
995.95902055975182
 30
0.0
 11
842.14559445827047
 21
1133.4590205597519
 31
0.0
  0
LINE
  5
7B12
  8
1
  6
CONTINUOUS
 10
575.04559445827033
 20
931.35902055975191
 30
0.0
 11
880.24559445827049
 21
1041.1590205597511
 31
0.0
  0
LINE
  5
7B13
  8
2
 10
1650.3455944582699
 20
1323.787578559751
 30
0.0
 11
1650.3455944582699
 21
740.12786555975185
 31
0.0
  0
LINE
  5
7B14
  8
2
 10
589.23285045827026
 20
1986.1505578515889
 30
0.0
 11
1066.08229945827
 21
1986.1505578515889
 31
0.0
  0
LINE
  5
7B15
  8
2
 10
863.34559445827051
 20
1653.2690628515879
 30
0.0
 11
863.34559445827051
 21
2098.8423838515891
 31
0.0
  0
LINE
  5
7B16
  8
2
 10
1315.75326645827
 20
1088.1590205597511
 30
0.0
 11
1738.62775945827
 21
1088.1590205597511
 31
0.0
  0
LINE
  5
7B17
  8
4
  6
CONTINUOUS
 10
1850.0
 20
500.0
 30
0.0
 11
1850.0
 21
300.0
 31
0.0
  0
LINE
  5
7B18
  8
4
  6
CONTINUOUS
 10
1150.0
 20
500.0
 30
0.0
 11
1150.0
 21
300.0
 31
0.0
  0
LINE
  5
7B19
  8
4
  6
CONTINUOUS
 10
650.0
 20
500.0
 30
0.0
 11
650.0
 21
300.0
 31
0.0
  0
LINE
  5
7B1C
  8
4
  6
CONTINUOUS
 10
650.0
 20
300.0
 30
0.0
 11
1850.0
 21
300.0
 31
0.0
  0
LINE
  5
7B1D
  8
4
  6
CONTINUOUS
 10
650.0
 20
400.0
 30
0.0
 11
1850.0
 21
400.0
 31
0.0
  0
TEXT
  5
7B1E
  8
4
  6
CONTINUOUS
 10
688.50208099999998
 20
431.543026
 30
0.0
 40
50.0
  1
機器名称
  0
TEXT
  5
7B1F
  8
4
  6
CONTINUOUS
 10
686.258106
 20
321.64515699999993
 30
0.0
 40
50.0
  1
機器型番
  0
TEXT
  5
7B20
  8
4
  6
CONTINUOUS
 10
1178.313372999999
 20
422.15141499999999
 30
0.0
 40
45.0
  1
ミツヤニューマルチファン
  0
TEXT
  5
7B21
  8
4
  6
CONTINUOUS
 10
1186.6544960000001
 20
317.159584
 30
0.0
 40
50.0
  1
NM#1 1/4-1
  0
TEXT
  5
7B23
  8
4
  6
CONTINUOUS
 10
871.17046400000004
 20
2383.4288409999999
 30
0.0
 40
54.0
  1
天井吊ベット
  0
TEXT
  5
7B24
  8
4
  6
CONTINUOUS
 10
316.16759300000001
 20
2533.8809759999999
 30
0.0
 40
72.0
  1
ベルト駆動式片吸込片持多翼ファン
  0
LINE
  5
7B25
  8
4
  6
CONTINUOUS
 10
250.0
 20
2469.408754
 30
0.0
 11
1850.0
 21
2469.408754
 31
0.0
  0
LINE
  5
7B26
  8
4
  6
CONTINUOUS
 10
250.0
 20
2669.408754
 30
0.0
 11
1850.0
 21
2669.408754
 31
0.0
  0
LINE
  5
7B27
  8
4
  6
CONTINUOUS
 10
650.0
 20
500.0
 30
0.0
 11
1850.0
 21
500.0
 31
0.0
  0
LINE
  5
7B28
  8
4
  6
CONTINUOUS
 10
250.0
 20
2669.408754
 30
0.0
 11
250.0
 21
2469.408754
 31
0.0
  0
TEXT
  5
7B29
  8
4
  6
CONTINUOUS
 10
435.31163199999997
 20
2382.3194779999999
 30
0.0
 40
54.0
  1
右回転右横向
  0
TEXT
  5
7B2A
  8
4
  6
CONTINUOUS
 10
1468.9695589999999
 20
2706.0610809999998
 30
0.0
 40
56.0
  1
No.
  0
TEXT
  5
7B2B
  8
4
  6
CONTINUOUS
 10
1311.296063
 20
2383.4288409999999
 30
0.0
 40
54.0
  1
縮尺：1/10
  0
LINE
  5
7B2C
  8
4
  6
CONTINUOUS
 10
1850.0
 20
2669.408754
 30
0.0
 11
1850.0
 21
2469.408754
 31
0.0
  0
LINE
  5
7B2E
  8
4
  6
CONTINUOUS
 10
1440.617422
 20
2681.2635829999999
 30
0.0
 11
1440.617422
 21
2786.6522620000001
 31
0.0
  0
LINE
  5
7B2F
  8
4
  6
CONTINUOUS
 10
1440.617422
 20
2786.6522620000001
 30
0.0
 11
1850.0
 21
2786.6522620000001
 31
0.0
  0
LINE
  5
7B30
  8
4
  6
CONTINUOUS
 10
1850.0
 20
2786.6522620000001
 30
0.0
 11
1850.0
 21
2681.2635829999999
 31
0.0
  0
LINE
  5
7B31
  8
4
  6
CONTINUOUS
 10
1850.0
 20
2681.2635829999999
 30
0.0
 11
1440.617422
 21
2681.2635829999999
 31
0.0
  0
DIMENSION
  5
7B49
  8
3
  6
CONTINUOUS
  2
*D1
 10
1096.9281984582699
 20
1088.1590205597511
 30
0.0
 11
1096.9281984582699
 21
1185.9467245597521
 31
0.0
 70
   128
 13
1023.3455944582701
 23
1288.159020559752
 33
0.0
 14
1023.3455944582701
 24
1088.1590205597511
 34
0.0
 50
90.0
1001
ACAD
1000
DSTYLE
1002
{
1070
   287
1070
     3
1070
   287
1070
     3
1070
    40
1040
10.0
1070
   143
1040
0.039
1070
   172
1070
     1
1070
   271
1070
     0
1070
   279
1070
     0
1070
   288
1070
     1
1002
}
  0
DIMENSION
  5
7B56
  8
3
  6
CONTINUOUS
  2
*D2
 10
1159.68114645827
 20
1088.1590205597511
 30
0.0
 11
1159.68114645827
 21
1181.9005785597519
 31
0.0
 70
   128
 13
1008.3455944582701
 23
1299.159020559752
 33
0.0
 14
1060.1377524582699
 24
1088.1590205597511
 34
0.0
 50
90.0
1001
ACAD
1000
DSTYLE
1002
{
1070
   287
1070
     3
1070
   287
1070
     3
1070
    40
1040
10.0
1070
   143
1040
0.039
1070
   172
1070
     1
1070
   271
1070
     0
1070
   279
1070
     0
1070
   288
1070
     1
1002
}
  0
DIMENSION
  5
7B62
  8
3
  6
CONTINUOUS
  2
*D3
 10
1159.68114645827
 20
813.15902055975198
 30
0.0
 11
1134.68114645827
 21
950.65902055975198
 31
0.0
 70
     0
 13
1060.1377524582699
 23
1088.1590205597511
 33
0.0
 14
1023.3455944582701
 24
813.15902055975198
 34
0.0
 50
90.0
1001
ACAD
1000
DSTYLE
1002
{
1070
   287
1070
     4
1070
   287
1070
     4
1070
    40
1040
10.0
1070
    75
1070
     1
1070
   143
1040
0.039
1070
   172
1070
     1
1070
   271
1070
     0
1070
   279
1070
     1
1070
   288
1070
     1
1002
}
  0
DIMENSION
  5
7B72
  8
3
  6
CONTINUOUS
  2
*D4
 10
1159.68114645827
 20
788.15902055975187
 30
0.0
 11
1157.6568564582701
 21
736.82442455975195
 31
0.0
 70
   128
 13
1023.3455944582701
 23
813.15902055975198
 33
0.0
 14
1023.3455944582701
 24
788.15902055975187
 34
0.0
 50
90.0
1001
ACAD
1000
DSTYLE
1002
{
1070
   287
1070
     4
1070
   287
1070
     4
1070
    40
1040
10.0
1070
    75
1070
     1
1070
   143
1040
0.039
1070
   172
1070
     1
1070
   271
1070
     0
1070
   279
1070
     1
1070
   288
1070
     1
1002
}
  0
DIMENSION
  5
7B99
  8
3
  6
CONTINUOUS
  2
*D5
 10
1240.65270145827
 20
788.15902055975187
 30
0.0
 11
1240.65270145827
 21
1038.262363559752
 31
0.0
 70
   128
 13
1023.3455944582701
 23
1309.159020559752
 33
0.0
 14
1023.3455944582701
 24
788.15902055975187
 34
0.0
 50
90.0
1001
ACAD
1000
DSTYLE
1002
{
1070
   287
1070
     3
1070
   287
1070
     3
1070
    40
1040
10.0
1070
   143
1040
0.039
1070
   172
1070
     1
1070
   271
1070
     0
1070
   279
1070
     0
1070
   288
1070
     1
1002
}
  0
DIMENSION
  5
7BA6
  8
3
  6
CONTINUOUS
  2
*D6
 10
863.34559445827051
 20
1355.884894559752
 30
0.0
 11
945.10653345827018
 21
1355.884894559752
 31
0.0
 70
   128
 13
1023.3455944582701
 23
1309.159020559752
 33
0.0
 14
863.34559445827051
 24
1334.2256285597509
 34
0.0
1001
ACAD
1000
DSTYLE
1002
{
1070
   287
1070
     3
1070
   287
1070
     3
1070
    40
1040
10.0
1070
   143
1040
0.039
1070
   172
1070
     1
1070
   271
1070
     0
1070
   279
1070
     0
1070
   288
1070
     1
1002
}
  0
DIMENSION
  5
7BB2
  8
3
  6
CONTINUOUS
  2
*D7
 10
684.3455944582704
 20
1355.884894559752
 30
0.0
 11
773.8455944582704
 21
1380.884894559752
 31
0.0
 70
     0
 13
863.34559445827051
 23
1334.2256285597509
 33
0.0
 14
684.3455944582704
 24
1102.1590205597511
 34
0.0
1001
ACAD
1000
DSTYLE
1002
{
1070
   287
1070
     4
1070
   287
1070
     4
1070
    40
1040
10.0
1070
    75
1070
     1
1070
   143
1040
0.039
1070
   172
1070
     1
1070
   271
1070
     0
1070
   279
1070
     1
1070
   288
1070
     1
1002
}
  0
DIMENSION
  5
7BBF
  8
3
  6
CONTINUOUS
  2
*D8
 10
863.34559445827051
 20
724.68597855975202
 30
0.0
 11
637.4146214582704
 21
724.68597855975202
 31
0.0
 70
   128
 13
393.34559445827028
 23
788.15902055975187
 33
0.0
 14
863.34559445827051
 24
758.93307355975185
 34
0.0
1001
ACAD
1000
DSTYLE
1002
{
1070
   287
1070
     3
1070
   287
1070
     3
1070
    40
1040
10.0
1070
   143
1040
0.039
1070
   172
1070
     1
1070
   271
1070
     0
1070
   279
1070
     0
1070
   288
1070
     1
1002
}
  0
DIMENSION
  5
7BCB
  8
3
  6
CONTINUOUS
  2
*D9
 10
1023.3455944582701
 20
724.68597855975202
 30
0.0
 11
943.34559445827028
 21
749.68597855975202
 31
0.0
 70
     0
 13
863.34559445827051
 23
758.93307355975185
 33
0.0
 14
1023.3455944582701
 24
788.15902055975187
 34
0.0
1001
ACAD
1000
DSTYLE
1002
{
1070
   287
1070
     4
1070
   287
1070
     4
1070
    40
1040
10.0
1070
    75
1070
     1
1070
   143
1040
0.039
1070
   172
1070
     1
1070
   271
1070
     0
1070
   279
1070
     1
1070
   288
1070
     1
1002
}
  0
DIMENSION
  5
7BD8
  8
3
  6
CONTINUOUS
  2
*D10
 10
1720.3455944582699
 20
1321.4926465597509
 30
0.0
 11
1654.6313094582699
 21
1321.4926465597509
 31
0.0
 70
   128
 13
1580.3455944582699
 23
1288.159020559752
 33
0.0
 14
1720.3455944582699
 24
1288.159020559752
 34
0.0
1001
ACAD
1000
DSTYLE
1002
{
1070
   287
1070
     3
1070
   287
1070
     3
1070
    40
1040
10.0
1070
   143
1040
0.039
1070
   172
1070
     1
1070
   271
1070
     0
1070
   279
1070
     0
1070
   288
1070
     1
1002
}
  0
DIMENSION
  5
7BE7
  8
3
  6
CONTINUOUS
  2
*D11
 10
1797.33213645827
 20
988.15902055975175
 30
0.0
 11
1797.33213645827
 21
1088.839197559751
 31
0.0
 70
   128
 13
1728.3455944582699
 23
1188.159020559752
 33
0.0
 14
1728.3455944582699
 24
988.15902055975198
 34
0.0
 50
90.0
1001
ACAD
1000
DSTYLE
1002
{
1070
   287
1070
     3
1070
   287
1070
     3
1070
     3
1000
φ<>
1070
    40
1040
10.0
1070
   143
1040
0.039
1070
   172
1070
     1
1070
   271
1070
     0
1070
   279
1070
     0
1070
   288
1070
     1
1002
}
  0
DIMENSION
  5
7BF6
  8
3
  6
CONTINUOUS
  2
*D12
 10
1650.3455944582699
 20
1376.1156265597519
 30
0.0
 11
1689.3455944582699
 21
1400.0982367029831
 31
0.0
 70
   128
 13
1728.3455944582699
 23
1208.159020559752
 33
0.0
 14
1650.3455944582699
 24
1365.1917385597519
 34
0.0
1001
ACAD
1000
DSTYLE
1002
{
1070
   288
1070
     1
1070
   172
1070
     1
1070
    40
1040
10.0
1070
   271
1070
     0
1070
   143
1040
0.039
1002
}
  0
DIMENSION
  5
7C02
  8
3
  6
CONTINUOUS
  2
*D13
 10
1350.3455944582699
 20
1376.1156265597519
 30
0.0
 11
1500.3455944582699
 21
1426.1156265597519
 31
0.0
 70
     0
  1
MAX\P300
 13
1650.3455944582699
 23
1365.1917385597519
 33
0.0
 14
1350.3455944582699
 24
1198.159020559752
 34
0.0
1001
ACAD
1000
DSTYLE
1002
{
1070
   287
1070
     4
1070
   287
1070
     4
1070
    40
1040
10.0
1070
    75
1070
     1
1070
   143
1040
0.039
1070
   172
1070
     1
1070
   271
1070
     0
1070
   279
1070
     1
1070
   288
1070
     1
1002
}
  0
DIMENSION
  5
7C0F
  8
3
  6
CONTINUOUS
  2
*D14
 10
1650.3455944582699
 20
722.66290855975194
 30
0.0
 11
1509.8831214582699
 21
722.66290855975194
 31
0.0
 70
   128
 13
1352.3455944582699
 23
788.15902055975187
 33
0.0
 14
1650.3455944582699
 24
740.12786555975185
 34
0.0
1001
ACAD
1000
DSTYLE
1002
{
1070
   287
1070
     3
1070
   287
1070
     3
1070
    40
1040
10.0
1070
   143
1040
0.039
1070
   172
1070
     1
1070
   271
1070
     0
1070
   279
1070
     0
1070
   288
1070
     1
1002
}
  0
DIMENSION
  5
7C1B
  8
3
  6
CONTINUOUS
  2
*D15
 10
1782.3455944582699
 20
722.66290855975194
 30
0.0
 11
1716.3455944582699
 21
747.66290855975194
 31
0.0
 70
     0
 13
1650.3455944582699
 23
740.12786555975185
 33
0.0
 14
1782.3455944582699
 24
788.15902055975187
 34
0.0
1001
ACAD
1000
DSTYLE
1002
{
1070
   287
1070
     4
1070
   287
1070
     4
1070
    40
1040
10.0
1070
    75
1070
     1
1070
   143
1040
0.039
1070
   172
1070
     1
1070
   271
1070
     0
1070
   279
1070
     1
1070
   288
1070
     1
1002
}
  0
DIMENSION
  5
7C3F
  8
3
  6
CONTINUOUS
  2
*D16
 10
1023.3455944582701
 20
1589.268215851589
 30
0.0
 11
683.03681745827043
 21
1589.268215851589
 31
0.0
 70
   128
 13
393.34559445827028
 23
1688.1505578515889
 33
0.0
 14
1023.3455944582701
 24
1688.1505578515889
 34
0.0
1001
ACAD
1000
DSTYLE
1002
{
1070
   287
1070
     3
1070
   287
1070
     3
1070
    40
1040
10.0
1070
   143
1040
0.039
1070
   172
1070
     1
1070
   271
1070
     0
1070
   279
1070
     0
1070
   288
1070
     1
1002
}
  0
DIMENSION
  5
7C4C
  8
3
  6
CONTINUOUS
  2
*D17
 10
1121.77049745827
 20
1688.1505578515889
 30
0.0
 11
1121.77049745827
 21
1902.1022938515889
 31
0.0
 70
   128
 13
1023.3455944582701
 23
2118.150557851588
 33
0.0
 14
1023.3455944582701
 24
1688.1505578515889
 34
0.0
 50
90.0
1001
ACAD
1000
DSTYLE
1002
{
1070
   287
1070
     3
1070
   287
1070
     3
1070
    40
1040
10.0
1070
   143
1040
0.039
1070
   172
1070
     1
1070
   271
1070
     0
1070
   279
1070
     0
1070
   288
1070
     1
1002
}
  0
DIMENSION
  5
7C94
  8
3
  2
*D18
 10
393.3455944582704
 20
1421.9451175180141
 30
0.0
 11
716.28589180298138
 21
1421.9451175180141
 31
0.0
 70
   128
 13
1023.3455944582701
 23
1309.159020559752
 33
0.0
 14
393.34559445827028
 24
863.15902055975198
 34
0.0
1001
ACAD
1000
DSTYLE
1002
{
1070
   287
1070
     3
1070
   287
1070
     3
1070
    40
1040
10.0
1070
   143
1040
0.039
1070
   172
1070
     1
1070
   271
1070
     0
1070
   279
1070
     0
1070
   288
1070
     1
1002
}
  0
ENDSEC
  0
EOF
