  0
SECTION
  2
HEADER
  9
$ACADVER
  1
AC1009
  9
$INSBASE
 10
0.0
 20
0.0
 30
0.0
  9
$EXTMIN
 10
250.0
 20
300.0
 30
0.0
  9
$EXTMAX
 10
1850.0
 20
2786.6522620000001
 30
0.0
  9
$LIMMIN
 10
0.0
 20
0.0
  9
$LIMMAX
 10
297.0
 20
210.0
  9
$ORTHOMODE
 70
     0
  9
$REGENMODE
 70
     1
  9
$FILLMODE
 70
     0
  9
$QTEXTMODE
 70
     0
  9
$MIRRTEXT
 70
     1
  9
$DRAGMODE
 70
     2
  9
$LTSCALE
 40
100.0
  9
$OSMODE
 70
    37
  9
$ATTMODE
 70
     1
  9
$TEXTSIZE
 40
180.0
  9
$TRACEWID
 40
0.05
  9
$TEXTSTYLE
  7
STANDARD
  9
$CLAYER
  8
3
  9
$CELTYPE
  6
BYLAYER
  9
$CECOLOR
 62
   256
  9
$DIMSCALE
 40
10.0
  9
$DIMASZ
 40
2.0
  9
$DIMEXO
 40
0.5
  9
$DIMDLI
 40
10.0
  9
$DIMRND
 40
0.0
  9
$DIMDLE
 40
0.0
  9
$DIMEXE
 40
1.0
  9
$DIMTP
 40
1.0
  9
$DIMTM
 40
1.0
  9
$DIMTXT
 40
3.0
  9
$DIMCEN
 40
0.0
  9
$DIMTSZ
 40
0.0
  9
$DIMTOL
 70
     0
  9
$DIMLIM
 70
     0
  9
$DIMTIH
 70
     0
  9
$DIMTOH
 70
     0
  9
$DIMSE1
 70
     0
  9
$DIMSE2
 70
     0
  9
$DIMTAD
 70
     1
  9
$DIMZIN
 70
     8
  9
$DIMBLK
  1

  9
$DIMASO
 70
     1
  9
$DIMSHO
 70
     1
  9
$DIMPOST
  1

  9
$DIMAPOST
  1

  9
$DIMALT
 70
     0
  9
$DIMALTD
 70
     2
  9
$DIMALTF
 40
0.039
  9
$DIMLFAC
 40
1.0
  9
$DIMTOFL
 70
     1
  9
$DIMTVP
 40
0.0
  9
$DIMTIX
 70
     0
  9
$DIMSOXD
 70
     0
  9
$DIMSAH
 70
     1
  9
$DIMBLK1
  1
OPEN
  9
$DIMBLK2
  1
OPEN
  9
$DIMSTYLE
  2
IGA
  9
$DIMCLRD
 70
     0
  9
$DIMCLRE
 70
     0
  9
$DIMCLRT
 70
     0
  9
$DIMTFAC
 40
10.0
  9
$DIMGAP
 40
1.0
  9
$LUNITS
 70
     2
  9
$LUPREC
 70
     3
  9
$SKETCHINC
 40
0.1
  9
$FILLETRAD
 40
50.0
  9
$AUNITS
 70
     0
  9
$AUPREC
 70
     0
  9
$MENU
  1
acad
  9
$ELEVATION
 40
0.0
  9
$PELEVATION
 40
0.0
  9
$THICKNESS
 40
0.0
  9
$LIMCHECK
 70
     0
  9
$BLIPMODE
 70
     0
  9
$CHAMFERA
 40
0.5
  9
$CHAMFERB
 40
0.5
  9
$SKPOLY
 70
     0
  9
$TDCREATE
 40
2450738.5395843741
  9
$TDUPDATE
 40
2454953.8604904278
  9
$TDINDWG
 40
0.0033547917
  9
$TDUSRTIMER
 40
0.0033547917
  9
$USRTIMER
 70
     1
  9
$ANGBASE
 50
0.0
  9
$ANGDIR
 70
     0
  9
$PDMODE
 70
     0
  9
$PDSIZE
 40
0.0
  9
$PLINEWID
 40
0.0
  9
$COORDS
 70
     1
  9
$SPLFRAME
 70
     0
  9
$SPLINETYPE
 70
     6
  9
$SPLINESEGS
 70
     8
  9
$ATTDIA
 70
     0
  9
$ATTREQ
 70
     1
  9
$HANDLING
 70
 10241
  9
$HANDSEED
  5
7EFF
  9
$SURFTAB1
 70
     6
  9
$SURFTAB2
 70
     6
  9
$SURFTYPE
 70
     6
  9
$SURFU
 70
     6
  9
$SURFV
 70
     6
  9
$UCSNAME
  2

  9
$UCSORG
 10
0.0
 20
0.0
 30
0.0
  9
$UCSXDIR
 10
1.0
 20
0.0
 30
0.0
  9
$UCSYDIR
 10
0.0
 20
1.0
 30
0.0
  9
$PUCSNAME
  2

  9
$PUCSORG
 10
0.0
 20
0.0
 30
0.0
  9
$PUCSXDIR
 10
1.0
 20
0.0
 30
0.0
  9
$PUCSYDIR
 10
0.0
 20
1.0
 30
0.0
  9
$USERI1
 70
     0
  9
$USERI2
 70
     0
  9
$USERI3
 70
     0
  9
$USERI4
 70
     0
  9
$USERI5
 70
     0
  9
$USERR1
 40
0.0
  9
$USERR2
 40
0.0
  9
$USERR3
 40
0.0
  9
$USERR4
 40
0.0
  9
$USERR5
 40
0.0
  9
$WORLDVIEW
 70
     1
  9
$SHADEDGE
 70
     3
  9
$SHADEDIF
 70
    70
  9
$TILEMODE
 70
     1
  9
$MAXACTVP
 70
    16
  9
$PLIMCHECK
 70
     0
  9
$PEXTMIN
 10
1.0000000000000000E+020
 20
1.0000000000000000E+020
 30
1.0000000000000000E+020
  9
$PEXTMAX
 10
-1.0000000000000000E+020
 20
-1.0000000000000000E+020
 30
-1.0000000000000000E+020
  9
$PLIMMIN
 10
0.0
 20
0.0
  9
$PLIMMAX
 10
12.0
 20
9.0
  9
$UNITMODE
 70
     0
  9
$VISRETAIN
 70
     0
  9
$PLINEGEN
 70
     0
  9
$PSLTSCALE
 70
     1
  0
ENDSEC
  0
SECTION
  2
TABLES
  0
TABLE
  2
VPORT
 70
     2
  0
VPORT
  2
*ACTIVE
 70
     0
 10
0.0
 20
0.0
 11
1.0
 21
1.0
 12
2615.5424691897611
 22
1742.999933366181
 13
0.0
 23
0.0
 14
10.0
 24
10.0
 15
10.0
 25
10.0
 16
0.0
 26
0.0
 36
1.0
 17
0.0
 27
0.0
 37
0.0
 40
3384.7202369232791
 41
1.5051150895140659
 42
50.0
 43
0.0
 44
0.0
 50
0.0
 51
0.0
 71
     0
 72
   100
 73
     1
 74
     0
 75
     0
 76
     0
 77
     0
 78
     0
  0
ENDTAB
  0
TABLE
  2
LTYPE
 70
     2
  0
LTYPE
  2
CONTINUOUS
 70
     0
  3
Solid line
 72
    65
 73
     0
 40
0.0
  0
LTYPE
  2
CENTER
 70
     0
  3
____ _ ____ _ ____ _ ____ _ ____ _ ____ _ ____ 
 72
    65
 73
     4
 40
2.0
 49
1.25
 49
-0.25
 49
0.25
 49
-0.25
  0
ENDTAB
  0
TABLE
  2
LAYER
 70
     6
  0
LAYER
  2
0
 70
     0
 62
     7
  6
CONTINUOUS
  0
LAYER
  2
3
 70
     0
 62
     2
  6
CONTINUOUS
  0
LAYER
  2
2
 70
     0
 62
     3
  6
CENTER
  0
LAYER
  2
1
 70
     0
 62
     4
  6
CONTINUOUS
  0
LAYER
  2
4
 70
     0
 62
     7
  6
CONTINUOUS
  0
LAYER
  2
DEFPOINTS
 70
     0
 62
     7
  6
CONTINUOUS
  0
ENDTAB
  0
TABLE
  2
STYLE
 70
     1
  0
STYLE
  2
STANDARD
 70
     0
 40
0.0
 41
1.0
 50
0.0
 71
     0
 42
180.0
  3
simplex.shx
  4
extfont.shx
  0
ENDTAB
  0
TABLE
  2
VIEW
 70
     0
  0
ENDTAB
  0
TABLE
  2
UCS
 70
     0
  0
ENDTAB
  0
TABLE
  2
APPID
 70
     1
  0
APPID
  2
ACAD
 70
     0
  0
ENDTAB
  0
TABLE
  2
DIMSTYLE
 70
     1
  0
DIMSTYLE
  2
IGA
 70
     0
  3

  4

  5

  6
OPEN
  7
OPEN
 40
2.0
 41
2.0
 42
0.5
 43
10.0
 44
1.0
 45
0.0
 46
0.0
 47
1.0
 48
1.0
140
3.0
141
0.0
142
0.0
143
0.03937
144
1.0
145
0.0
146
10.0
147
1.0
 71
     0
 72
     0
 73
     0
 74
     0
 75
     0
 76
     0
 77
     1
 78
     8
170
     0
171
     2
172
     0
173
     1
174
     0
175
     0
176
     0
177
     0
178
     0
  0
ENDTAB
  0
ENDSEC
  0
SECTION
  2
BLOCKS
  0
BLOCK
  8
0
  2
$MODEL_SPACE
 70
     0
 10
0.0
 20
0.0
 30
0.0
  3
$MODEL_SPACE
  1

  0
ENDBLK
  5
1B
  8
0
  0
BLOCK
 67
     1
  8
0
  2
$PAPER_SPACE
 70
     0
 10
0.0
 20
0.0
 30
0.0
  3
$PAPER_SPACE
  1

  0
ENDBLK
  5
18
 67
     1
  8
0
  0
BLOCK
  8
0
  2
_OPEN
 70
     0
 10
0.0
 20
0.0
 30
0.0
  3
_OPEN
  1

  0
LINE
  5
7B32
  8
0
  6
BYBLOCK
 62
     0
 10
-1.0
 20
0.166667
 30
0.0
 11
0.0
 21
0.0
 31
0.0
  0
LINE
  5
7B33
  8
0
  6
BYBLOCK
 62
     0
 10
0.0
 20
0.0
 30
0.0
 11
-1.0
 21
-0.166667
 31
0.0
  0
LINE
  5
7B34
  8
0
  6
BYBLOCK
 62
     0
 10
0.0
 20
0.0
 30
0.0
 11
-1.0
 21
0.0
 31
0.0
  0
ENDBLK
  5
7B35
  8
0
  0
BLOCK
  8
0
  2
*D1
 70
     1
 10
0.0
 20
0.0
 30
0.0
  3
*D1
  1

  0
LINE
  5
7E41
  8
3
  6
CONTINUOUS
 62
     0
 10
327.58301157635327
 20
825.97854305358214
 30
0.0
 11
327.58301157635327
 21
772.70802805358221
 31
0.0
  0
LINE
  5
7E42
  8
3
  6
CONTINUOUS
 62
     0
 10
797.58301157635333
 20
850.97854305358214
 30
0.0
 11
797.58301157635333
 21
772.70802805358221
 31
0.0
  0
LINE
  5
7E43
  8
3
  6
CONTINUOUS
 62
     0
 10
347.58301157635327
 20
782.70802805358221
 30
0.0
 11
777.58301157635333
 21
782.70802805358221
 31
0.0
  0
INSERT
  5
7E44
  8
3
  6
CONTINUOUS
 62
     0
  2
_OPEN
 10
327.58301157635327
 20
782.70802805358221
 30
0.0
 41
20.0
 42
20.0
 43
20.0
 50
180.0
  0
INSERT
  5
7E45
  8
3
  6
CONTINUOUS
 62
     0
  2
_OPEN
 10
797.58301157635333
 20
782.70802805358221
 30
0.0
 41
20.0
 42
20.0
 43
20.0
  0
TEXT
  8
3
  40
30
  5
7EEB
  62
0
  72
0
  71
0
 10
496.943
 20
754.608
 30
0.000000
  1
470
  0
POINT
  5
7E47
  8
DEFPOINTS
  6
CONTINUOUS
 62
     0
 10
327.58301157635327
 20
830.97854305358214
 30
0.0
  0
POINT
  5
7E48
  8
DEFPOINTS
  6
CONTINUOUS
 62
     0
 10
797.58301157635333
 20
855.97854305358226
 30
0.0
  0
POINT
  5
7E49
  8
DEFPOINTS
  6
CONTINUOUS
 62
     0
 10
797.58301157635333
 20
782.70802805358221
 30
0.0
  0
ENDBLK
  5
7B42
  8
0
  0
BLOCK
  8
0
  2
*D2
 70
     1
 10
0.0
 20
0.0
 30
0.0
  3
*D2
  1

  0
LINE
  5
7E4A
  8
3
  6
CONTINUOUS
 62
     0
 10
957.58301157635333
 20
825.97854305358214
 30
0.0
 11
957.58301157635333
 21
772.70802805358221
 31
0.0
  0
LINE
  5
7E4B
  8
3
  6
CONTINUOUS
 62
     0
 10
817.58301157635333
 20
782.70802805358221
 30
0.0
 11
937.58301157635321
 21
782.70802805358221
 31
0.0
  0
INSERT
  5
7E4C
  8
3
  6
CONTINUOUS
 62
     0
  2
_OPEN
 10
797.58301157635333
 20
782.70802805358221
 30
0.0
 41
20.0
 42
20.0
 43
20.0
 50
180.0
  0
INSERT
  5
7E4D
  8
3
  6
CONTINUOUS
 62
     0
  2
_OPEN
 10
957.58301157635333
 20
782.70802805358221
 30
0.0
 41
20.0
 42
20.0
 43
20.0
  0
TEXT
  8
3
  40
30
  5
7EEC
  62
0
  72
0
  71
0
 10
817.583
 20
754.608
 30
0.000000
  1
160
  0
POINT
  5
7E4F
  8
DEFPOINTS
  6
CONTINUOUS
 62
     0
 10
797.58301157635333
 20
855.97854305358226
 30
0.0
  0
POINT
  5
7E50
  8
DEFPOINTS
  6
CONTINUOUS
 62
     0
 10
957.58301157635333
 20
830.97854305358214
 30
0.0
  0
POINT
  5
7E51
  8
DEFPOINTS
  6
CONTINUOUS
 62
     0
 10
957.58301157635333
 20
782.70802805358221
 30
0.0
  0
ENDBLK
  5
7B4E
  8
0
  0
BLOCK
  8
0
  2
*D3
 70
     1
 10
0.0
 20
0.0
 30
0.0
  3
*D3
  1

  0
LINE
  5
7E52
  8
3
  6
CONTINUOUS
 62
     0
 10
618.58301157635321
 20
1135.9785430535819
 30
0.0
 11
618.58301157635321
 21
1315.6508590535821
 31
0.0
  0
LINE
  5
7E53
  8
3
  6
CONTINUOUS
 62
     0
 10
797.58301157635333
 20
1286.5457310535819
 30
0.0
 11
797.58301157635333
 21
1315.6508590535821
 31
0.0
  0
LINE
  5
7E54
  8
3
  6
CONTINUOUS
 62
     0
 10
638.58301157635321
 20
1305.6508590535821
 30
0.0
 11
777.58301157635333
 21
1305.6508590535821
 31
0.0
  0
INSERT
  5
7E55
  8
3
  6
CONTINUOUS
 62
     0
  2
_OPEN
 10
618.58301157635321
 20
1305.6508590535821
 30
0.0
 41
20.0
 42
20.0
 43
20.0
 50
180.0
  0
INSERT
  5
7E56
  8
3
  6
CONTINUOUS
 62
     0
  2
_OPEN
 10
797.58301157635333
 20
1305.6508590535821
 30
0.0
 41
20.0
 42
20.0
 43
20.0
  0
TEXT
  8
3
  40
30
  5
7EED
  62
0
  72
0
  71
0
 10
646.841
 20
1277.55
 30
0.000000
  1
179
  0
POINT
  5
7E58
  8
DEFPOINTS
  6
CONTINUOUS
 62
     0
 10
618.58301157635321
 20
1130.9785430535819
 30
0.0
  0
POINT
  5
7E59
  8
DEFPOINTS
  6
CONTINUOUS
 62
     0
 10
797.58301157635333
 20
1281.5457310535819
 30
0.0
  0
POINT
  5
7E5A
  8
DEFPOINTS
  6
CONTINUOUS
 62
     0
 10
797.58301157635333
 20
1305.6508590535821
 30
0.0
  0
ENDBLK
  5
7D49
  8
0
  0
BLOCK
  8
0
  2
*D4
 70
     1
 10
0.0
 20
0.0
 30
0.0
  3
*D4
  1

  0
LINE
  5
7E5B
  8
3
  6
CONTINUOUS
 62
     0
 10
957.58301157635333
 20
1156.9785430535819
 30
0.0
 11
957.58301157635333
 21
1315.6508590535821
 31
0.0
  0
LINE
  5
7E5C
  8
3
  6
CONTINUOUS
 62
     0
 10
817.58301157635333
 20
1305.6508590535821
 30
0.0
 11
937.58301157635321
 21
1305.6508590535821
 31
0.0
  0
INSERT
  5
7E5D
  8
3
  6
CONTINUOUS
 62
     0
  2
_OPEN
 10
797.58301157635333
 20
1305.6508590535821
 30
0.0
 41
20.0
 42
20.0
 43
20.0
 50
180.0
  0
INSERT
  5
7E5E
  8
3
  6
CONTINUOUS
 62
     0
  2
_OPEN
 10
957.58301157635333
 20
1305.6508590535821
 30
0.0
 41
20.0
 42
20.0
 43
20.0
  0
TEXT
  8
3
  40
30
  5
7EEE
  62
0
  72
0
  71
0
 10
817.583
 20
1277.55
 30
0.000000
  1
160
  0
POINT
  5
7E60
  8
DEFPOINTS
  6
CONTINUOUS
 62
     0
 10
797.58301157635333
 20
1281.5457310535819
 30
0.0
  0
POINT
  5
7E61
  8
DEFPOINTS
  6
CONTINUOUS
 62
     0
 10
957.58301157635333
 20
1151.9785430535819
 30
0.0
  0
POINT
  5
7E62
  8
DEFPOINTS
  6
CONTINUOUS
 62
     0
 10
957.58301157635333
 20
1305.6508590535821
 30
0.0
  0
ENDBLK
  5
7B67
  8
0
  0
BLOCK
  8
0
  2
*D5
 70
     1
 10
0.0
 20
0.0
 30
0.0
  3
*D5
  1

  0
LINE
  5
7E63
  8
3
  6
CONTINUOUS
 62
     0
 10
962.58301157635321
 20
1130.9785430535819
 30
0.0
 11
1046.5622035763531
 21
1130.9785430535819
 31
0.0
  0
LINE
  5
7E64
  8
3
  6
CONTINUOUS
 62
     0
 10
961.58301157635321
 20
930.97854305358226
 30
0.0
 11
1046.5622035763531
 21
930.97854305358226
 31
0.0
  0
LINE
  5
7E65
  8
3
  6
CONTINUOUS
 62
     0
 10
1036.5622035763531
 20
1110.9785430535819
 30
0.0
 11
1036.5622035763531
 21
950.97854305358214
 31
0.0
  0
INSERT
  5
7E66
  8
3
  6
CONTINUOUS
 62
     0
  2
_OPEN
 10
1036.5622035763531
 20
1130.9785430535819
 30
0.0
 41
20.0
 42
20.0
 43
20.0
 50
90.0
  0
INSERT
  5
7E67
  8
3
  6
CONTINUOUS
 62
     0
  2
_OPEN
 10
1036.5622035763531
 20
930.97854305358226
 30
0.0
 41
20.0
 42
20.0
 43
20.0
 50
270.0
  0
TEXT
  8
3
  40
30
  5
7EEF
  62
0
  72
0
  71
0
 10
951.562
 20
989.275
 30
0.000000
  1
200
  0
POINT
  5
7E69
  8
DEFPOINTS
  6
CONTINUOUS
 62
     0
 10
957.58301157635333
 20
1130.9785430535819
 30
0.0
  0
POINT
  5
7E6A
  8
DEFPOINTS
  6
CONTINUOUS
 62
     0
 10
956.58301157635333
 20
930.97854305358226
 30
0.0
  0
POINT
  5
7E6B
  8
DEFPOINTS
  6
CONTINUOUS
 62
     0
 10
1036.5622035763531
 20
930.97854305358226
 30
0.0
  0
ENDBLK
  5
7B74
  8
0
  0
BLOCK
  8
0
  2
*D6
 70
     1
 10
0.0
 20
0.0
 30
0.0
  3
*D6
  1

  0
LINE
  5
7E6C
  8
3
  6
CONTINUOUS
 62
     0
 10
802.58301157635333
 20
1281.5457310535819
 30
0.0
 11
1180.8257155763531
 21
1281.5457310535819
 31
0.0
  0
LINE
  5
7E6D
  8
3
  6
CONTINUOUS
 62
     0
 10
962.58301157635321
 20
1130.9785430535819
 30
0.0
 11
1180.8257155763531
 21
1130.9785430535819
 31
0.0
  0
LINE
  5
7E6E
  8
3
  6
CONTINUOUS
 62
     0
 10
1170.8257155763531
 20
1261.5457310535819
 30
0.0
 11
1170.8257155763531
 21
1150.9785430535819
 31
0.0
  0
INSERT
  5
7E6F
  8
3
  6
CONTINUOUS
 62
     0
  2
_OPEN
 10
1170.8257155763531
 20
1281.5457310535819
 30
0.0
 41
20.0
 42
20.0
 43
20.0
 50
90.0
  0
INSERT
  5
7E70
  8
3
  6
CONTINUOUS
 62
     0
  2
_OPEN
 10
1170.8257155763531
 20
1130.9785430535819
 30
0.0
 41
20.0
 42
20.0
 43
20.0
 50
270.0
  0
TEXT
  8
3
  40
30
  5
7EF0
  62
0
  72
0
  71
0
 10
1085.83
 20
1158.08
 30
0.000000
  1
151
  0
POINT
  5
7E72
  8
DEFPOINTS
  6
CONTINUOUS
 62
     0
 10
797.58301157635333
 20
1281.5457310535819
 30
0.0
  0
POINT
  5
7E73
  8
DEFPOINTS
  6
CONTINUOUS
 62
     0
 10
957.58301157635333
 20
1130.9785430535819
 30
0.0
  0
POINT
  5
7E74
  8
DEFPOINTS
  6
CONTINUOUS
 62
     0
 10
1170.8257155763531
 20
1130.9785430535819
 30
0.0
  0
ENDBLK
  5
7CD2
  8
0
  0
BLOCK
  8
0
  2
*D7
 70
     1
 10
0.0
 20
0.0
 30
0.0
  3
*D7
  1

  0
LINE
  5
7E75
  8
3
  6
CONTINUOUS
 62
     0
 10
962.58301157635321
 20
855.97854305358226
 30
0.0
 11
1180.8257155763531
 21
855.97854305358226
 31
0.0
  0
LINE
  5
7E76
  8
3
  6
CONTINUOUS
 62
     0
 10
1170.8257155763531
 20
1110.9785430535819
 30
0.0
 11
1170.8257155763531
 21
875.97854305358214
 31
0.0
  0
INSERT
  5
7E77
  8
3
  6
CONTINUOUS
 62
     0
  2
_OPEN
 10
1170.8257155763531
 20
1130.9785430535819
 30
0.0
 41
20.0
 42
20.0
 43
20.0
 50
90.0
  0
INSERT
  5
7E78
  8
3
  6
CONTINUOUS
 62
     0
  2
_OPEN
 10
1170.8257155763531
 20
855.97854305358226
 30
0.0
 41
20.0
 42
20.0
 43
20.0
 50
270.0
  0
TEXT
  8
3
  40
30
  5
7EF1
  62
0
  72
0
  71
0
 10
1085.83
 20
940.379
 30
0.000000
  1
275
  0
POINT
  5
7E7A
  8
DEFPOINTS
  6
CONTINUOUS
 62
     0
 10
957.58301157635333
 20
1130.9785430535819
 30
0.0
  0
POINT
  5
7E7B
  8
DEFPOINTS
  6
CONTINUOUS
 62
     0
 10
957.58301157635333
 20
855.97854305358226
 30
0.0
  0
POINT
  5
7E7C
  8
DEFPOINTS
  6
CONTINUOUS
 62
     0
 10
1170.8257155763531
 20
855.97854305358226
 30
0.0
  0
ENDBLK
  5
7CC7
  8
0
  0
BLOCK
  8
0
  2
*D8
 70
     1
 10
0.0
 20
0.0
 30
0.0
  3
*D8
  1

  0
LINE
  5
7E7D
  8
3
  6
CONTINUOUS
 62
     0
 10
962.58301157635321
 20
855.97854305358226
 30
0.0
 11
1180.8257155763531
 21
855.97854305358226
 31
0.0
  0
LINE
  5
7E7E
  8
3
  6
CONTINUOUS
 62
     0
 10
962.58301157635321
 20
830.97854305358214
 30
0.0
 11
1180.8257155763531
 21
830.97854305358214
 31
0.0
  0
LINE
  5
7E7F
  8
3
  6
CONTINUOUS
 62
     0
 10
1170.8257155763531
 20
875.97854305358214
 30
0.0
 11
1170.8257155763531
 21
895.97854305358214
 31
0.0
  0
LINE
  5
7E80
  8
3
  6
CONTINUOUS
 62
     0
 10
1170.8257155763531
 20
810.97854305358214
 30
0.0
 11
1170.8257155763531
 21
722.40711448215359
 31
0.0
  0
LINE
  5
7E81
  8
3
  6
CONTINUOUS
 62
     0
 10
1170.8257155763531
 20
855.97854305358226
 30
0.0
 11
1170.8257155763531
 21
830.97854305358214
 31
0.0
  0
INSERT
  5
7E82
  8
3
  6
CONTINUOUS
 62
     0
  2
_OPEN
 10
1170.8257155763531
 20
855.97854305358226
 30
0.0
 41
20.0
 42
20.0
 43
20.0
 50
270.0
  0
INSERT
  5
7E83
  8
3
  6
CONTINUOUS
 62
     0
  2
_OPEN
 10
1170.8257155763531
 20
830.97854305358214
 30
0.0
 41
20.0
 42
20.0
 43
20.0
 50
90.0
  0
TEXT
  8
3
  40
30
  5
7EF2
  62
0
  72
0
  71
0
 10
1085.83
 20
703.593
 30
0.000000
  1
25
  0
POINT
  5
7E85
  8
DEFPOINTS
  6
CONTINUOUS
 62
     0
 10
957.58301157635333
 20
855.97854305358226
 30
0.0
  0
POINT
  5
7E86
  8
DEFPOINTS
  6
CONTINUOUS
 62
     0
 10
957.58301157635333
 20
830.97854305358214
 30
0.0
  0
POINT
  5
7E87
  8
DEFPOINTS
  6
CONTINUOUS
 62
     0
 10
1170.8257155763531
 20
830.97854305358214
 30
0.0
  0
ENDBLK
  5
7D2C
  8
0
  0
BLOCK
  8
0
  2
*D9
 70
     1
 10
0.0
 20
0.0
 30
0.0
  3
*D9
  1

  0
LINE
  5
7E88
  8
3
  6
CONTINUOUS
 62
     0
 10
802.58301157635333
 20
1281.5457310535819
 30
0.0
 11
1240.116185576353
 21
1281.5457310535819
 31
0.0
  0
LINE
  5
7E89
  8
3
  6
CONTINUOUS
 62
     0
 10
962.58301157635321
 20
830.97854305358214
 30
0.0
 11
1240.116185576353
 21
830.97854305358214
 31
0.0
  0
LINE
  5
7E8A
  8
3
  6
CONTINUOUS
 62
     0
 10
1230.116185576353
 20
1261.5457310535819
 30
0.0
 11
1230.116185576353
 21
850.97854305358214
 31
0.0
  0
INSERT
  5
7E8B
  8
3
  6
CONTINUOUS
 62
     0
  2
_OPEN
 10
1230.116185576353
 20
1281.5457310535819
 30
0.0
 41
20.0
 42
20.0
 43
20.0
 50
90.0
  0
INSERT
  5
7E8C
  8
3
  6
CONTINUOUS
 62
     0
  2
_OPEN
 10
1230.116185576353
 20
830.97854305358214
 30
0.0
 41
20.0
 42
20.0
 43
20.0
 50
270.0
  0
TEXT
  8
3
  40
30
  5
7EF3
  62
0
  72
0
  71
0
 10
1145.12
 20
993.553
 30
0.000000
  1
451
  0
POINT
  5
7E8E
  8
DEFPOINTS
  6
CONTINUOUS
 62
     0
 10
797.58301157635333
 20
1281.5457310535819
 30
0.0
  0
POINT
  5
7E8F
  8
DEFPOINTS
  6
CONTINUOUS
 62
     0
 10
957.58301157635333
 20
830.97854305358214
 30
0.0
  0
POINT
  5
7E90
  8
DEFPOINTS
  6
CONTINUOUS
 62
     0
 10
1230.116185576353
 20
830.97854305358214
 30
0.0
  0
ENDBLK
  5
7CB1
  8
0
  0
BLOCK
  8
0
  2
*D10
 70
     1
 10
0.0
 20
0.0
 30
0.0
  3
*D10
  1

  0
LINE
  5
7E91
  8
3
  6
CONTINUOUS
 62
     0
 10
327.58301157635327
 20
1663.5157019115611
 30
0.0
 11
327.58301157635327
 21
1559.12899791156
 31
0.0
  0
LINE
  5
7E92
  8
3
  6
CONTINUOUS
 62
     0
 10
957.58301157635333
 20
1663.5157019115611
 30
0.0
 11
957.58301157635333
 21
1559.12899791156
 31
0.0
  0
LINE
  5
7E93
  8
3
  6
CONTINUOUS
 62
     0
 10
347.58301157635327
 20
1569.1289979115611
 30
0.0
 11
937.58301157635321
 21
1569.1289979115611
 31
0.0
  0
INSERT
  5
7E94
  8
3
  6
CONTINUOUS
 62
     0
  2
_OPEN
 10
327.58301157635327
 20
1569.1289979115611
 30
0.0
 41
20.0
 42
20.0
 43
20.0
 50
180.0
  0
INSERT
  5
7E95
  8
3
  6
CONTINUOUS
 62
     0
  2
_OPEN
 10
957.58301157635333
 20
1569.1289979115611
 30
0.0
 41
20.0
 42
20.0
 43
20.0
  0
TEXT
  8
3
  40
30
  5
7EF4
  62
0
  72
0
  71
0
 10
574.375
 20
1541.03
 30
0.000000
  1
630
  0
POINT
  5
7E97
  8
DEFPOINTS
  6
CONTINUOUS
 62
     0
 10
327.58301157635327
 20
1668.5157019115611
 30
0.0
  0
POINT
  5
7E98
  8
DEFPOINTS
  6
CONTINUOUS
 62
     0
 10
957.58301157635333
 20
1668.5157019115611
 30
0.0
  0
POINT
  5
7E99
  8
DEFPOINTS
  6
CONTINUOUS
 62
     0
 10
957.58301157635333
 20
1569.1289979115611
 30
0.0
  0
ENDBLK
  5
7BEB
  8
0
  0
BLOCK
  8
0
  2
*D11
 70
     1
 10
0.0
 20
0.0
 30
0.0
  3
*D11
  1

  0
LINE
  5
7E9A
  8
3
  6
CONTINUOUS
 62
     0
 10
962.58301157635321
 20
2098.51570191156
 30
0.0
 11
1058.0909085763531
 21
2098.51570191156
 31
0.0
  0
LINE
  5
7E9B
  8
3
  6
CONTINUOUS
 62
     0
 10
962.58301157635321
 20
1668.5157019115611
 30
0.0
 11
1058.0909085763531
 21
1668.5157019115611
 31
0.0
  0
LINE
  5
7E9C
  8
3
  6
CONTINUOUS
 62
     0
 10
1048.0909085763531
 20
2078.51570191156
 30
0.0
 11
1048.0909085763531
 21
1688.5157019115611
 31
0.0
  0
INSERT
  5
7E9D
  8
3
  6
CONTINUOUS
 62
     0
  2
_OPEN
 10
1048.0909085763531
 20
2098.51570191156
 30
0.0
 41
20.0
 42
20.0
 43
20.0
 50
90.0
  0
INSERT
  5
7E9E
  8
3
  6
CONTINUOUS
 62
     0
  2
_OPEN
 10
1048.0909085763531
 20
1668.5157019115611
 30
0.0
 41
20.0
 42
20.0
 43
20.0
 50
270.0
  0
TEXT
  8
3
  40
30
  5
7EF5
  62
0
  72
0
  71
0
 10
963.091
 20
1829.30
 30
0.000000
  1
430
  0
POINT
  5
7EA0
  8
DEFPOINTS
  6
CONTINUOUS
 62
     0
 10
957.58301157635333
 20
2098.51570191156
 30
0.0
  0
POINT
  5
7EA1
  8
DEFPOINTS
  6
CONTINUOUS
 62
     0
 10
957.58301157635333
 20
1668.5157019115611
 30
0.0
  0
POINT
  5
7EA2
  8
DEFPOINTS
  6
CONTINUOUS
 62
     0
 10
1048.0909085763531
 20
1668.5157019115611
 30
0.0
  0
ENDBLK
  5
7BF8
  8
0
  0
BLOCK
  8
0
  2
*D12
 70
     1
 10
0.0
 20
0.0
 30
0.0
  3
*D12
  1

  0
LINE
  5
7EA3
  8
3
  6
CONTINUOUS
 62
     0
 10
1345.327214201689
 20
825.97854305358214
 30
0.0
 11
1345.327214201689
 21
753.52112305358207
 31
0.0
  0
LINE
  5
7EA4
  8
3
  6
CONTINUOUS
 62
     0
 10
1643.327214201689
 20
825.97854305358214
 30
0.0
 11
1643.327214201689
 21
753.52112305358207
 31
0.0
  0
LINE
  5
7EA5
  8
3
  6
CONTINUOUS
 62
     0
 10
1365.327214201689
 20
763.52112305358219
 30
0.0
 11
1623.327214201689
 21
763.52112305358219
 31
0.0
  0
INSERT
  5
7EA6
  8
3
  6
CONTINUOUS
 62
     0
  2
_OPEN
 10
1345.327214201689
 20
763.52112305358219
 30
0.0
 41
20.0
 42
20.0
 43
20.0
 50
180.0
  0
INSERT
  5
7EA7
  8
3
  6
CONTINUOUS
 62
     0
  2
_OPEN
 10
1643.327214201689
 20
763.52112305358219
 30
0.0
 41
20.0
 42
20.0
 43
20.0
  0
TEXT
  8
3
  40
30
  5
7EF6
  62
0
  72
0
  71
0
 10
1440.37
 20
735.421
 30
0.000000
  1
298
  0
POINT
  5
7EA9
  8
DEFPOINTS
  6
CONTINUOUS
 62
     0
 10
1345.327214201689
 20
830.97854305358214
 30
0.0
  0
POINT
  5
7EAA
  8
DEFPOINTS
  6
CONTINUOUS
 62
     0
 10
1643.327214201689
 20
830.97854305358214
 30
0.0
  0
POINT
  5
7EAB
  8
DEFPOINTS
  6
CONTINUOUS
 62
     0
 10
1643.327214201689
 20
763.52112305358219
 30
0.0
  0
ENDBLK
  5
7C08
  8
0
  0
BLOCK
  8
0
  2
*D13
 70
     1
 10
0.0
 20
0.0
 30
0.0
  3
*D13
  1

  0
LINE
  5
7EAC
  8
3
  6
CONTINUOUS
 62
     0
 10
1775.327214201689
 20
825.97854305358214
 30
0.0
 11
1775.327214201689
 21
753.52112305358207
 31
0.0
  0
LINE
  5
7EAD
  8
3
  6
CONTINUOUS
 62
     0
 10
1663.327214201689
 20
763.52112305358219
 30
0.0
 11
1755.327214201689
 21
763.52112305358219
 31
0.0
  0
INSERT
  5
7EAE
  8
3
  6
CONTINUOUS
 62
     0
  2
_OPEN
 10
1643.327214201689
 20
763.52112305358219
 30
0.0
 41
20.0
 42
20.0
 43
20.0
 50
180.0
  0
INSERT
  5
7EAF
  8
3
  6
CONTINUOUS
 62
     0
  2
_OPEN
 10
1775.327214201689
 20
763.52112305358219
 30
0.0
 41
20.0
 42
20.0
 43
20.0
  0
TEXT
  8
3
  40
30
  5
7EF7
  62
0
  72
0
  71
0
 10
1649.33
 20
735.421
 30
0.000000
  1
132
  0
POINT
  5
7EB1
  8
DEFPOINTS
  6
CONTINUOUS
 62
     0
 10
1643.327214201689
 20
830.97854305358214
 30
0.0
  0
POINT
  5
7EB2
  8
DEFPOINTS
  6
CONTINUOUS
 62
     0
 10
1775.327214201689
 20
830.97854305358214
 30
0.0
  0
POINT
  5
7EB3
  8
DEFPOINTS
  6
CONTINUOUS
 62
     0
 10
1775.327214201689
 20
763.52112305358219
 30
0.0
  0
ENDBLK
  5
7C14
  8
0
  0
BLOCK
  8
0
  2
*D14
 70
     1
 10
0.0
 20
0.0
 30
0.0
  3
*D14
  1

  0
LINE
  5
7EB4
  8
3
  6
CONTINUOUS
 62
     0
 10
1573.327214201689
 20
1274.9785430535819
 30
0.0
 11
1573.327214201689
 21
1321.081490053582
 31
0.0
  0
LINE
  5
7EB5
  8
3
  6
CONTINUOUS
 62
     0
 10
1713.327214201689
 20
1274.9785430535819
 30
0.0
 11
1713.327214201689
 21
1321.081490053582
 31
0.0
  0
LINE
  5
7EB6
  8
3
  6
CONTINUOUS
 62
     0
 10
1553.327214201689
 20
1311.081490053582
 30
0.0
 11
1533.327214201689
 21
1311.081490053582
 31
0.0
  0
LINE
  5
7EB7
  8
3
  6
CONTINUOUS
 62
     0
 10
1733.327214201689
 20
1311.081490053582
 30
0.0
 11
1753.327214201689
 21
1311.081490053582
 31
0.0
  0
LINE
  5
7EB8
  8
3
  6
CONTINUOUS
 62
     0
 10
1573.327214201689
 20
1311.081490053582
 30
0.0
 11
1713.327214201689
 21
1311.081490053582
 31
0.0
  0
INSERT
  5
7EB9
  8
3
  6
CONTINUOUS
 62
     0
  2
_OPEN
 10
1573.327214201689
 20
1311.081490053582
 30
0.0
 41
20.0
 42
20.0
 43
20.0
  0
INSERT
  5
7EBA
  8
3
  6
CONTINUOUS
 62
     0
  2
_OPEN
 10
1713.327214201689
 20
1311.081490053582
 30
0.0
 41
20.0
 42
20.0
 43
20.0
 50
180.0
  0
TEXT
  8
3
  40
30
  5
7EF8
  62
0
  72
0
  71
0
 10
1579.04
 20
1282.98
 30
0.000000
  1
140
  0
POINT
  5
7EBC
  8
DEFPOINTS
  6
CONTINUOUS
 62
     0
 10
1573.327214201689
 20
1269.9785430535819
 30
0.0
  0
POINT
  5
7EBD
  8
DEFPOINTS
  6
CONTINUOUS
 62
     0
 10
1713.327214201689
 20
1269.9785430535819
 30
0.0
  0
POINT
  5
7EBE
  8
DEFPOINTS
  6
CONTINUOUS
 62
     0
 10
1713.327214201689
 20
1311.081490053582
 30
0.0
  0
ENDBLK
  5
7C21
  8
0
  0
BLOCK
  8
0
  2
*D15
 70
     1
 10
0.0
 20
0.0
 30
0.0
  3
*D15
  1

  0
LINE
  5
7EBF
  8
3
  6
CONTINUOUS
 62
     0
 10
1343.327214201689
 20
1245.9785430535819
 30
0.0
 11
1343.327214201689
 21
1381.629028053582
 31
0.0
  0
LINE
  5
7EC0
  8
3
  6
CONTINUOUS
 62
     0
 10
1643.327214201689
 20
1363.0707970535821
 30
0.0
 11
1643.327214201689
 21
1381.629028053582
 31
0.0
  0
LINE
  5
7EC1
  8
3
  6
CONTINUOUS
 62
     0
 10
1363.327214201689
 20
1371.629028053582
 30
0.0
 11
1623.327214201689
 21
1371.629028053582
 31
0.0
  0
INSERT
  5
7EC2
  8
3
  6
CONTINUOUS
 62
     0
  2
_OPEN
 10
1343.327214201689
 20
1371.629028053582
 30
0.0
 41
20.0
 42
20.0
 43
20.0
 50
180.0
  0
INSERT
  5
7EC3
  8
3
  6
CONTINUOUS
 62
     0
  2
_OPEN
 10
1643.327214201689
 20
1371.629028053582
 30
0.0
 41
20.0
 42
20.0
 43
20.0
  0
TEXT
  8
3
  40
30
  5
7EF9
  62
0
  72
0
  71
0
 10
1435.10
 20
1368.53
 30
0.000000
  1
MAX
  0
TEXT
  8
3
  40
30
  5
7EFA
  62
0
  72
0
  71
0
 10
1435.10
 20
1329.53
 30
0.000000
  1
300
  0
POINT
  5
7EC5
  8
DEFPOINTS
  6
CONTINUOUS
 62
     0
 10
1343.327214201689
 20
1240.9785430535819
 30
0.0
  0
POINT
  5
7EC6
  8
DEFPOINTS
  6
CONTINUOUS
 62
     0
 10
1643.327214201689
 20
1358.0707970535821
 30
0.0
  0
POINT
  5
7EC7
  8
DEFPOINTS
  6
CONTINUOUS
 62
     0
 10
1643.327214201689
 20
1371.629028053582
 30
0.0
  0
ENDBLK
  5
7D14
  8
0
  0
BLOCK
  8
0
  2
*D16
 70
     1
 10
0.0
 20
0.0
 30
0.0
  3
*D16
  1

  0
LINE
  5
7EC8
  8
3
  6
CONTINUOUS
 62
     0
 10
1721.327214201689
 20
1255.9785430535819
 30
0.0
 11
1721.327214201689
 21
1381.629028053582
 31
0.0
  0
LINE
  5
7EC9
  8
3
  6
CONTINUOUS
 62
     0
 10
1663.327214201689
 20
1371.629028053582
 30
0.0
 11
1701.327214201689
 21
1371.629028053582
 31
0.0
  0
TEXT
  8
3
  40
30
  5
7EFB
  62
0
  72
0
  71
0
 10
1619.56
 20
1343.53
 30
0.000000
  1
78
  0
INSERT
  5
7ECB
  8
3
  6
CONTINUOUS
 62
     0
  2
_OPEN
 10
1643.327214201689
 20
1371.629028053582
 30
0.0
 41
20.0
 42
20.0
 43
20.0
 50
180.0
  0
INSERT
  5
7ECC
  8
3
  6
CONTINUOUS
 62
     0
  2
_OPEN
 10
1721.327214201689
 20
1371.629028053582
 30
0.0
 41
20.0
 42
20.0
 43
20.0
  0
POINT
  5
7ECD
  8
DEFPOINTS
  6
CONTINUOUS
 62
     0
 10
1643.327214201689
 20
1358.0707970535821
 30
0.0
  0
POINT
  5
7ECE
  8
DEFPOINTS
  6
CONTINUOUS
 62
     0
 10
1721.327214201689
 20
1250.9785430535819
 30
0.0
  0
POINT
  5
7ECF
  8
DEFPOINTS
  6
CONTINUOUS
 62
     0
 10
1721.327214201689
 20
1371.629028053582
 30
0.0
  0
ENDBLK
  5
7CEE
  8
0
  0
BLOCK
  8
0
  2
*D17
 70
     1
 10
0.0
 20
0.0
 30
0.0
  3
*D17
  1

  0
LINE
  5
7ED0
  8
3
  6
CONTINUOUS
 62
     0
 10
1726.327214201689
 20
1230.9785430535819
 30
0.0
 11
1795.0534762016889
 21
1230.9785430535819
 31
0.0
  0
LINE
  5
7ED1
  8
3
  6
CONTINUOUS
 62
     0
 10
1726.327214201689
 20
1030.9785430535819
 30
0.0
 11
1795.0534762016889
 21
1030.9785430535819
 31
0.0
  0
LINE
  5
7ED2
  8
3
  6
CONTINUOUS
 62
     0
 10
1785.0534762016889
 20
1210.9785430535819
 30
0.0
 11
1785.0534762016889
 21
1050.9785430535819
 31
0.0
  0
INSERT
  5
7ED3
  8
3
  6
CONTINUOUS
 62
     0
  2
_OPEN
 10
1785.0534762016889
 20
1230.9785430535819
 30
0.0
 41
20.0
 42
20.0
 43
20.0
 50
90.0
  0
INSERT
  5
7ED4
  8
3
  6
CONTINUOUS
 62
     0
  2
_OPEN
 10
1785.0534762016889
 20
1030.9785430535819
 30
0.0
 41
20.0
 42
20.0
 43
20.0
 50
270.0
  0
TEXT
  8
3
  40
30
  5
7EFC
  62
0
  72
0
  71
0
 10
1700.05
 20
1064.45
 30
0.000000
  1
φ200
  0
POINT
  5
7ED6
  8
DEFPOINTS
  6
CONTINUOUS
 62
     0
 10
1721.327214201689
 20
1230.9785430535819
 30
0.0
  0
POINT
  5
7ED7
  8
DEFPOINTS
  6
CONTINUOUS
 62
     0
 10
1721.327214201689
 20
1030.9785430535819
 30
0.0
  0
POINT
  5
7ED8
  8
DEFPOINTS
  6
CONTINUOUS
 62
     0
 10
1785.0534762016889
 20
1030.9785430535819
 30
0.0
  0
ENDBLK
  5
7D1F
  8
0
  0
BLOCK
  8
0
  2
*D18
 70
     1
 10
0.0
 20
0.0
 30
0.0
  3
*D18
  1

  0
LINE
  5
7ED9
  8
3
  6
CONTINUOUS
 62
     0
 10
961.58301157635321
 20
1130.9785430535819
 30
0.0
 11
1111.6129505763529
 21
1130.9785430535819
 31
0.0
  0
LINE
  5
7EDA
  8
3
  6
CONTINUOUS
 62
     0
 10
947.58301157635344
 20
919.97854305358214
 30
0.0
 11
1111.6129505763529
 21
919.97854305358214
 31
0.0
  0
LINE
  5
7EDB
  8
3
  6
CONTINUOUS
 62
     0
 10
1101.6129505763529
 20
1110.9785430535819
 30
0.0
 11
1101.6129505763529
 21
939.97854305358226
 31
0.0
  0
INSERT
  5
7EDC
  8
3
  6
CONTINUOUS
 62
     0
  2
_OPEN
 10
1101.6129505763529
 20
1130.9785430535819
 30
0.0
 41
20.0
 42
20.0
 43
20.0
 50
90.0
  0
INSERT
  5
7EDD
  8
3
  6
CONTINUOUS
 62
     0
  2
_OPEN
 10
1101.6129505763529
 20
919.97854305358214
 30
0.0
 41
20.0
 42
20.0
 43
20.0
 50
270.0
  0
TEXT
  8
3
  40
30
  5
7EFD
  62
0
  72
0
  71
0
 10
1016.61
 20
982.061
 30
0.000000
  1
211
  0
POINT
  5
7EDF
  8
DEFPOINTS
  6
CONTINUOUS
 62
     0
 10
956.58301157635333
 20
1130.9785430535819
 30
0.0
  0
POINT
  5
7EE0
  8
DEFPOINTS
  6
CONTINUOUS
 62
     0
 10
942.58301157635333
 20
919.97854305358214
 30
0.0
  0
POINT
  5
7EE1
  8
DEFPOINTS
  6
CONTINUOUS
 62
     0
 10
1101.6129505763529
 20
919.97854305358214
 30
0.0
  0
ENDBLK
  5
7CDE
  8
0
  0
BLOCK
  8
0
  2
*D19
 70
     1
 10
0.0
 20
0.0
 30
0.0
  3
*D19
  1

  0
LINE
  5
7EE2
  8
3
 62
     0
 10
957.58301157635333
 20
1156.9785430535819
 30
0.0
 11
957.58301157635333
 21
1376.624455135059
 31
0.0
  0
LINE
  5
7EE3
  8
3
 62
     0
 10
327.58301157635327
 20
910.97854305358214
 30
0.0
 11
327.58301157635327
 21
1376.624455135059
 31
0.0
  0
LINE
  5
7EE4
  8
3
 62
     0
 10
937.58301157635321
 20
1366.624455135059
 30
0.0
 11
347.58301157635327
 21
1366.624455135059
 31
0.0
  0
INSERT
  5
7EE5
  8
3
 62
     0
  2
_OPEN
 10
957.58301157635333
 20
1366.624455135059
 30
0.0
 41
20.0
 42
20.0
 43
20.0
  0
INSERT
  5
7EE6
  8
3
 62
     0
  2
_OPEN
 10
327.58301157635327
 20
1366.624455135059
 30
0.0
 41
20.0
 42
20.0
 43
20.0
 50
180.0
  0
TEXT
  8
3
  40
30
  5
7EFE
  62
0
  72
0
  71
0
 10
602.775
 20
1338.52
 30
0.000000
  1
630
  0
POINT
  5
7EE8
  8
DEFPOINTS
 62
     0
 10
957.58301157635333
 20
1151.9785430535819
 30
0.0
  0
POINT
  5
7EE9
  8
DEFPOINTS
 62
     0
 10
327.58301157635327
 20
905.97854305358226
 30
0.0
  0
POINT
  5
7EEA
  8
DEFPOINTS
 62
     0
 10
327.58301157635327
 20
1366.624455135059
 30
0.0
  0
ENDBLK
  5
7D38
  8
0
  0
ENDSEC
  0
SECTION
  2
ENTITIES
  0
ARC
  5
7A88
  8
1
  6
CONTINUOUS
 10
813.58301157635344
 20
1114.9785430535819
 30
0.0
 40
195.0
 50
179.6999999999999
 51
270.0
  0
ARC
  5
7A89
  8
1
  6
CONTINUOUS
 10
783.58301157635333
 20
1116.9785430535819
 30
0.0
 40
165.0
 50
89.400000000000006
 51
180.30000000000001
  0
LINE
  5
7A8A
  8
1
  6
CONTINUOUS
 10
374.58301157635327
 20
1240.9785430535819
 30
0.0
 11
904.58301157635344
 21
1240.9785430535819
 31
0.0
  0
LINE
  5
7A8B
  8
1
  6
CONTINUOUS
 10
327.58301157635327
 20
855.97854305358226
 30
0.0
 11
957.58301157635333
 21
855.97854305358226
 31
0.0
  0
LINE
  5
7A8C
  8
1
  6
CONTINUOUS
 10
327.58301157635327
 20
905.97854305358226
 30
0.0
 11
957.58301157635333
 21
905.97854305358226
 31
0.0
  0
LINE
  5
7A8D
  8
1
  6
CONTINUOUS
 10
509.28301157635332
 20
974.17854305358219
 30
0.0
 11
814.48301157635319
 21
1083.9785430535819
 31
0.0
  0
LINE
  5
7A8E
  8
1
  6
CONTINUOUS
 10
482.58301157635321
 20
1038.7785430535821
 30
0.0
 11
776.38301157635328
 21
1176.2785430535821
 31
0.0
  0
LINE
  5
7A8F
  8
1
  6
CONTINUOUS
 10
374.58301157635327
 20
905.97854305358226
 30
0.0
 11
374.58301157635327
 21
1240.9785430535819
 31
0.0
  0
ARC
  5
7A90
  8
1
  6
CONTINUOUS
 10
492.98301157635319
 20
1006.678543053582
 30
0.0
 40
85.0
 50
324.69999999999987
 51
215.30000000000001
  0
LINE
  5
7A91
  8
1
  6
CONTINUOUS
 10
585.88301157635328
 20
926.67854305358219
 30
0.0
 11
334.88301157635323
 21
926.67854305358219
 31
0.0
  0
LINE
  5
7A92
  8
1
  6
CONTINUOUS
 10
352.58301157635327
 20
830.97854305358214
 30
0.0
 11
352.58301157635327
 21
855.97854305358226
 31
0.0
  0
LINE
  5
7A93
  8
1
  6
CONTINUOUS
 10
327.58301157635327
 20
830.97854305358214
 30
0.0
 11
327.58301157635327
 21
905.97854305358226
 31
0.0
  0
LINE
  5
7A94
  8
1
  6
CONTINUOUS
 10
327.58301157635327
 20
830.97854305358214
 30
0.0
 11
352.58301157635327
 21
830.97854305358214
 31
0.0
  0
LINE
  5
7A95
  8
1
  6
CONTINUOUS
 10
334.88301157635323
 20
926.67854305358219
 30
0.0
 11
334.88301157635323
 21
905.97854305358226
 31
0.0
  0
LINE
  5
7A96
  8
1
  6
CONTINUOUS
 10
415.48301157635331
 20
926.67854305358219
 30
0.0
 11
415.48301157635331
 21
934.67854305358219
 31
0.0
  0
LINE
  5
7A97
  8
1
  6
CONTINUOUS
 10
415.48301157635331
 20
934.67854305358219
 30
0.0
 11
423.68301157635329
 21
957.47854305358214
 31
0.0
  0
LINE
  5
7A98
  8
2
  6
CENTER
 10
462.38301157635323
 20
1007.0785430535821
 30
0.0
 11
532.38301157635328
 21
1007.0785430535821
 31
0.0
  0
LINE
  5
7A99
  8
2
  6
CENTER
 10
497.38301157635323
 20
972.07854305358228
 30
0.0
 11
497.38301157635323
 21
1042.0785430535821
 31
0.0
  0
CIRCLE
  5
7A9A
  8
1
  6
CONTINUOUS
 10
497.38301157635323
 20
1007.0785430535821
 30
0.0
 40
35.0
  0
LINE
  5
7A9B
  8
1
  6
CONTINUOUS
 10
570.48301157635331
 20
934.67854305358219
 30
0.0
 11
562.38301157635317
 21
957.47854305358214
 31
0.0
  0
LINE
  5
7A9C
  8
1
  6
CONTINUOUS
 10
570.48301157635331
 20
926.67854305358219
 30
0.0
 11
570.48301157635331
 21
934.67854305358219
 31
0.0
  0
LINE
  5
7A9D
  8
1
  6
CONTINUOUS
 10
585.88301157635328
 20
905.97854305358226
 30
0.0
 11
585.88301157635328
 21
926.67854305358219
 31
0.0
  0
CIRCLE
  5
7A9E
  8
1
  6
CONTINUOUS
 10
797.58301157635333
 20
1130.9785430535819
 30
0.0
 40
100.0
  0
CIRCLE
  5
7A9F
  8
1
  6
CONTINUOUS
 10
797.58301157635333
 20
1130.9785430535819
 30
0.0
 40
120.0
  0
LINE
  5
7AA0
  8
1
  6
CONTINUOUS
 10
957.58301157635333
 20
909.97854305358214
 30
0.0
 11
957.58301157635333
 21
1151.9785430535819
 31
0.0
  0
ARC
  5
7AA1
  8
1
  6
CONTINUOUS
 10
786.58301157635333
 20
1141.9785430535819
 30
0.0
 40
140.0
 50
359.60000000000002
 51
90.599999999999994
  0
LINE
  5
7AA2
  8
1
  6
CONTINUOUS
 10
662.58301157635333
 20
1184.678543053582
 30
0.0
 11
662.58301157635333
 21
905.97854305358226
 31
0.0
  0
LINE
  5
7AA3
  8
1
  6
CONTINUOUS
 10
932.58301157635333
 20
905.97854305358226
 30
0.0
 11
932.58301157635333
 21
1184.678543053582
 31
0.0
  0
LINE
  5
7AA4
  8
1
  6
CONTINUOUS
 10
904.58301157635344
 20
905.97854305358226
 30
0.0
 11
904.58301157635344
 21
1240.9785430535819
 31
0.0
  0
CIRCLE
  5
7AA5
  8
1
  6
CONTINUOUS
 10
797.58301157635333
 20
1130.9785430535819
 30
0.0
 40
50.0
  0
LINE
  5
7AA6
  8
2
  6
CENTER
 10
797.58301157635333
 20
826.99275605358207
 30
0.0
 11
797.58301157635333
 21
1293.6939610535819
 31
0.0
  0
LINE
  5
7AA7
  8
1
  6
CONTINUOUS
 10
942.58301157635333
 20
919.97854305358214
 30
0.0
 11
813.58301157635344
 21
919.97854305358214
 31
0.0
  0
LINE
  5
7AA8
  8
2
  6
CENTER
 10
365.48884657635318
 20
1130.9785430535819
 30
0.0
 11
1010.540272576353
 21
1130.9785430535819
 31
0.0
  0
LINE
  5
7AA9
  8
1
  6
CONTINUOUS
 10
932.58301157635333
 20
830.97854305358214
 30
0.0
 11
932.58301157635333
 21
855.97854305358226
 31
0.0
  0
LINE
  5
7AAA
  8
1
  6
CONTINUOUS
 10
957.58301157635333
 20
830.97854305358214
 30
0.0
 11
957.58301157635333
 21
905.97854305358226
 31
0.0
  0
LINE
  5
7AAB
  8
1
  6
CONTINUOUS
 10
932.58301157635333
 20
830.97854305358214
 30
0.0
 11
957.58301157635333
 21
830.97854305358214
 31
0.0
  0
LINE
  5
7AAC
  8
1
  6
CONTINUOUS
 10
942.58301157635333
 20
1140.9785430535819
 30
0.0
 11
926.58301157635333
 21
1140.9785430535819
 31
0.0
  0
LINE
  5
7AAD
  8
1
  6
CONTINUOUS
 10
957.58301157635333
 20
1130.9785430535819
 30
0.0
 11
942.58301157635333
 21
1130.9785430535819
 31
0.0
  0
LINE
  5
7AAE
  8
1
  6
CONTINUOUS
 10
957.58301157635333
 20
929.97854305358214
 30
0.0
 11
942.58301157635333
 21
944.97854305358214
 31
0.0
  0
LINE
  5
7AAF
  8
1
  6
CONTINUOUS
 10
942.58301157635333
 20
944.97854305358214
 30
0.0
 11
942.58301157635333
 21
1116.9785430535819
 31
0.0
  0
LINE
  5
7AB0
  8
1
  6
CONTINUOUS
 10
957.58301157635333
 20
1131.9785430535819
 30
0.0
 11
942.58301157635333
 21
1116.9785430535819
 31
0.0
  0
LINE
  5
7AB1
  8
1
  6
CONTINUOUS
 10
957.58301157635333
 20
930.97854305358226
 30
0.0
 11
942.58301157635333
 21
930.97854305358226
 31
0.0
  0
LINE
  5
7AB2
  8
1
  6
CONTINUOUS
 10
942.58301157635333
 20
919.97854305358214
 30
0.0
 11
942.58301157635333
 21
930.97854305358226
 31
0.0
  0
LINE
  5
7AB3
  8
1
  6
CONTINUOUS
 10
942.58301157635333
 20
1130.9785430535819
 30
0.0
 11
942.58301157635333
 21
1140.9785430535819
 31
0.0
  0
LINE
  5
7AB4
  8
1
  6
CONTINUOUS
 10
662.58301157635333
 20
1164.2785430535821
 30
0.0
 11
932.58301157635333
 21
1164.2785430535821
 31
0.0
  0
LINE
  5
7AB5
  8
1
  6
CONTINUOUS
 10
849.18301157635324
 20
1255.9785430535819
 30
0.0
 11
932.58301157635333
 21
1184.678543053582
 31
0.0
  0
LINE
  5
7AB6
  8
1
  6
CONTINUOUS
 10
849.18301157635324
 20
1255.9785430535819
 30
0.0
 11
745.98301157635331
 21
1255.9785430535819
 31
0.0
  0
LINE
  5
7AB7
  8
1
  6
CONTINUOUS
 10
745.98301157635331
 20
1255.9785430535819
 30
0.0
 11
662.58301157635333
 21
1184.678543053582
 31
0.0
  0
LINE
  5
7AB8
  8
1
  6
CONTINUOUS
 10
1345.327214201689
 20
830.97854305358214
 30
0.0
 11
1775.327214201689
 21
830.97854305358214
 31
0.0
  0
LINE
  5
7AB9
  8
1
  6
CONTINUOUS
 10
1453.327214201689
 20
1097.678543053582
 30
0.0
 11
1565.327214201689
 21
1184.678543053582
 31
0.0
  0
LINE
  5
7ABA
  8
1
  6
CONTINUOUS
 10
1343.327214201689
 20
905.97854305358226
 30
0.0
 11
1653.327214201689
 21
905.97854305358226
 31
0.0
  0
LINE
  5
7ABB
  8
1
  6
CONTINUOUS
 10
1345.327214201689
 20
855.97854305358226
 30
0.0
 11
1775.327214201689
 21
855.97854305358226
 31
0.0
  0
LINE
  5
7ABC
  8
1
  6
CONTINUOUS
 10
1395.827214201689
 20
1180.9785430535819
 30
0.0
 11
1395.827214201689
 21
1080.9785430535819
 31
0.0
  0
LINE
  5
7ABD
  8
1
  6
CONTINUOUS
 10
1365.827214201689
 20
1180.9785430535819
 30
0.0
 11
1365.827214201689
 21
1080.9785430535819
 31
0.0
  0
LINE
  5
7ABE
  8
1
  6
CONTINUOUS
 10
1418.327214201689
 20
1240.9785430535819
 30
0.0
 11
1418.327214201689
 21
905.97854305358226
 31
0.0
  0
LINE
  5
7ABF
  8
1
  6
CONTINUOUS
 10
1343.327214201689
 20
1240.9785430535819
 30
0.0
 11
1343.327214201689
 21
905.97854305358226
 31
0.0
  0
LINE
  5
7AC0
  8
1
  6
CONTINUOUS
 10
1345.327214201689
 20
855.97854305358226
 30
0.0
 11
1345.327214201689
 21
830.97854305358214
 31
0.0
  0
LINE
  5
7AC1
  8
1
  6
CONTINUOUS
 10
1395.827214201689
 20
1118.9785430535819
 30
0.0
 11
1480.7272142016891
 21
1118.9785430535819
 31
0.0
  0
LINE
  5
7AC2
  8
1
  6
CONTINUOUS
 10
1395.827214201689
 20
1142.9785430535819
 30
0.0
 11
1511.627214201689
 21
1142.9785430535819
 31
0.0
  0
LINE
  5
7AC3
  8
1
  6
CONTINUOUS
 10
1395.827214201689
 20
995.07854305358228
 30
0.0
 11
1453.327214201689
 21
995.07854305358228
 31
0.0
  0
LINE
  5
7AC4
  8
1
  6
CONTINUOUS
 10
1395.827214201689
 20
1019.0785430535821
 30
0.0
 11
1453.327214201689
 21
1019.0785430535821
 31
0.0
  0
LINE
  5
7AC5
  8
1
  6
CONTINUOUS
 10
1365.827214201689
 20
972.07854305358228
 30
0.0
 11
1395.827214201689
 21
972.07854305358228
 31
0.0
  0
LINE
  5
7AC6
  8
1
  6
CONTINUOUS
 10
1365.827214201689
 20
1042.0785430535821
 30
0.0
 11
1395.827214201689
 21
1042.0785430535821
 31
0.0
  0
LINE
  5
7AC7
  8
1
  6
CONTINUOUS
 10
1395.827214201689
 20
1042.0785430535821
 30
0.0
 11
1395.827214201689
 21
972.07854305358228
 31
0.0
  0
LINE
  5
7AC8
  8
1
  6
CONTINUOUS
 10
1365.827214201689
 20
1042.0785430535821
 30
0.0
 11
1365.827214201689
 21
972.07854305358228
 31
0.0
  0
LINE
  5
7AC9
  8
1
  6
CONTINUOUS
 10
1365.827214201689
 20
1080.9785430535819
 30
0.0
 11
1395.827214201689
 21
1080.9785430535819
 31
0.0
  0
LINE
  5
7ACA
  8
1
  6
CONTINUOUS
 10
1453.327214201689
 20
1097.678543053582
 30
0.0
 11
1453.327214201689
 21
905.97854305358226
 31
0.0
  0
LINE
  5
7ACB
  8
1
  6
CONTINUOUS
 10
1429.327214201689
 20
905.97854305358226
 30
0.0
 11
1429.327214201689
 21
855.97854305358226
 31
0.0
  0
LINE
  5
7ACC
  8
1
  6
CONTINUOUS
 10
1365.827214201689
 20
1180.9785430535819
 30
0.0
 11
1395.827214201689
 21
1180.9785430535819
 31
0.0
  0
LINE
  5
7ACD
  8
1
  6
CONTINUOUS
 10
1343.327214201689
 20
1240.9785430535819
 30
0.0
 11
1418.327214201689
 21
1240.9785430535819
 31
0.0
  0
LINE
  5
7ACE
  8
1
  6
CONTINUOUS
 10
1721.327214201689
 20
1010.978543053582
 30
0.0
 11
1721.327214201689
 21
1250.9785430535819
 31
0.0
  0
LINE
  5
7ACF
  8
1
  6
CONTINUOUS
 10
1713.327214201689
 20
1269.9785430535819
 30
0.0
 11
1713.327214201689
 21
930.97854305358226
 31
0.0
  0
LINE
  5
7AD0
  8
1
  6
CONTINUOUS
 10
1573.327214201689
 20
930.97854305358226
 30
0.0
 11
1573.327214201689
 21
1269.9785430535819
 31
0.0
  0
LINE
  5
7AD1
  8
1
  6
CONTINUOUS
 10
1565.527214201689
 20
905.97854305358226
 30
0.0
 11
1565.527214201689
 21
1250.9785430535819
 31
0.0
  0
LINE
  5
7AD2
  8
1
  6
CONTINUOUS
 10
1573.327214201689
 20
1130.9785430535819
 30
0.0
 11
1713.327214201689
 21
1130.9785430535819
 31
0.0
  0
LINE
  5
7AD3
  8
1
  6
CONTINUOUS
 10
1713.327214201689
 20
930.97854305358226
 30
0.0
 11
1573.327214201689
 21
930.97854305358226
 31
0.0
  0
LINE
  5
7AD4
  8
1
  6
CONTINUOUS
 10
1573.327214201689
 20
930.97854305358226
 30
0.0
 11
1713.327214201689
 21
1130.9785430535819
 31
0.0
  0
LINE
  5
7AD5
  8
1
  6
CONTINUOUS
 10
1713.327214201689
 20
930.97854305358226
 30
0.0
 11
1573.327214201689
 21
1130.9785430535819
 31
0.0
  0
LINE
  5
7AD6
  8
1
  6
CONTINUOUS
 10
1573.527214201689
 20
1010.978543053582
 30
0.0
 11
1565.527214201689
 21
1010.978543053582
 31
0.0
  0
LINE
  5
7AD7
  8
1
  6
CONTINUOUS
 10
1713.127214201689
 20
1010.978543053582
 30
0.0
 11
1721.327214201689
 21
1010.978543053582
 31
0.0
  0
LINE
  5
7AD8
  8
1
  6
CONTINUOUS
 10
1653.327214201689
 20
905.97854305358226
 30
0.0
 11
1653.327214201689
 21
855.97854305358226
 31
0.0
  0
LINE
  5
7AD9
  8
1
  6
CONTINUOUS
 10
1775.327214201689
 20
855.97854305358226
 30
0.0
 11
1775.327214201689
 21
830.97854305358214
 31
0.0
  0
LINE
  5
7ADA
  8
1
  6
CONTINUOUS
 10
1585.327214201689
 20
1281.9785430535819
 30
0.0
 11
1701.327214201689
 21
1281.9785430535819
 31
0.0
  0
LINE
  5
7ADB
  8
1
  6
CONTINUOUS
 10
1573.527214201689
 20
1250.9785430535819
 30
0.0
 11
1565.527214201689
 21
1250.9785430535819
 31
0.0
  0
ARC
  5
7ADC
  8
1
  6
CONTINUOUS
 10
1585.327214201689
 20
1269.9785430535819
 30
0.0
 40
12.0
 50
90.0
 51
180.0
  0
LINE
  5
7ADD
  8
1
  6
CONTINUOUS
 10
1713.127214201689
 20
1250.9785430535819
 30
0.0
 11
1721.327214201689
 21
1250.9785430535819
 31
0.0
  0
ARC
  5
7ADE
  8
1
  6
CONTINUOUS
 10
1701.327214201689
 20
1269.9785430535819
 30
0.0
 40
12.0
 50
0.0
 51
90.0
  0
LINE
  5
7ADF
  8
1
  6
CONTINUOUS
 10
957.58301157635333
 20
1896.51570191156
 30
0.0
 11
628.58301157635333
 21
1896.51570191156
 31
0.0
  0
LINE
  5
7AE0
  8
1
  6
CONTINUOUS
 10
957.58301157635333
 20
2036.51570191156
 30
0.0
 11
628.58301157635333
 21
2036.51570191156
 31
0.0
  0
LINE
  5
7AE1
  8
1
  6
CONTINUOUS
 10
904.58301157635344
 20
1741.5157019115611
 30
0.0
 11
374.58301157635327
 21
1741.5157019115611
 31
0.0
  0
LINE
  5
7AE2
  8
1
  6
CONTINUOUS
 10
904.58301157635344
 20
1666.5157019115611
 30
0.0
 11
374.58301157635327
 21
1666.5157019115611
 31
0.0
  0
LINE
  5
7AE3
  8
1
  6
CONTINUOUS
 10
785.58301157635333
 20
1752.5157019115611
 30
0.0
 11
509.38301157635323
 21
1752.5157019115611
 31
0.0
  0
LINE
  5
7AE4
  8
1
  6
CONTINUOUS
 10
352.58301157635327
 20
1976.51570191156
 30
0.0
 11
352.58301157635327
 21
2098.51570191156
 31
0.0
  0
LINE
  5
7AE5
  8
1
  6
CONTINUOUS
 10
327.58301157635327
 20
1668.5157019115611
 30
0.0
 11
327.58301157635327
 21
2098.51570191156
 31
0.0
  0
LINE
  5
7AE6
  8
1
  6
CONTINUOUS
 10
577.98301157635331
 20
1771.7157019115609
 30
0.0
 11
407.98301157635331
 21
1771.7157019115609
 31
0.0
  0
LINE
  5
7AE7
  8
1
  6
CONTINUOUS
 10
577.98301157635331
 20
1962.615701911561
 30
0.0
 11
407.98301157635331
 21
1962.615701911561
 31
0.0
  0
LINE
  5
7AE8
  8
1
  6
CONTINUOUS
 10
618.58301157635333
 20
1976.51570191156
 30
0.0
 11
327.58301157635327
 21
1976.51570191156
 31
0.0
  0
LINE
  5
7AE9
  8
1
  6
CONTINUOUS
 10
485.38301157635328
 20
1752.5157019115611
 30
0.0
 11
327.58301157635327
 21
1752.5157019115611
 31
0.0
  0
LINE
  5
7AEA
  8
1
  6
CONTINUOUS
 10
352.58301157635327
 20
1668.5157019115611
 30
0.0
 11
352.58301157635327
 21
1752.5157019115611
 31
0.0
  0
LINE
  5
7AEB
  8
1
  6
CONTINUOUS
 10
327.58301157635327
 20
1668.5157019115611
 30
0.0
 11
352.58301157635327
 21
1668.5157019115611
 31
0.0
  0
LINE
  5
7AEC
  8
1
  6
CONTINUOUS
 10
374.58301157635327
 20
1666.5157019115611
 30
0.0
 11
374.58301157635327
 21
1741.5157019115611
 31
0.0
  0
LINE
  5
7AED
  8
1
  6
CONTINUOUS
 10
407.98301157635331
 20
1771.7157019115609
 30
0.0
 11
407.98301157635331
 21
1962.615701911561
 31
0.0
  0
LINE
  5
7AEE
  8
1
  6
CONTINUOUS
 10
509.38301157635323
 20
1719.0157019115611
 30
0.0
 11
509.38301157635323
 21
1771.7157019115609
 31
0.0
  0
LINE
  5
7AEF
  8
1
  6
CONTINUOUS
 10
485.38301157635328
 20
1719.0157019115611
 30
0.0
 11
485.38301157635328
 21
1771.7157019115609
 31
0.0
  0
LINE
  5
7AF0
  8
1
  6
CONTINUOUS
 10
462.38301157635323
 20
1689.0157019115611
 30
0.0
 11
532.38301157635328
 21
1689.0157019115611
 31
0.0
  0
LINE
  5
7AF1
  8
1
  6
CONTINUOUS
 10
462.38301157635323
 20
1719.0157019115611
 30
0.0
 11
532.38301157635328
 21
1719.0157019115611
 31
0.0
  0
LINE
  5
7AF2
  8
1
  6
CONTINUOUS
 10
532.38301157635328
 20
1689.0157019115611
 30
0.0
 11
532.38301157635328
 21
1719.0157019115611
 31
0.0
  0
LINE
  5
7AF3
  8
1
  6
CONTINUOUS
 10
462.38301157635323
 20
1689.0157019115611
 30
0.0
 11
462.38301157635323
 21
1719.0157019115611
 31
0.0
  0
LINE
  5
7AF4
  8
1
  6
CONTINUOUS
 10
618.58301157635333
 20
2026.5157019115611
 30
0.0
 11
618.58301157635333
 21
1906.51570191156
 31
0.0
  0
ARC
  5
7AF5
  8
1
  6
CONTINUOUS
 10
628.58301157635333
 20
2026.5157019115611
 30
0.0
 40
10.0
 50
90.0
 51
180.0
  0
ARC
  5
7AF6
  8
1
  6
CONTINUOUS
 10
628.58301157635333
 20
1906.51570191156
 30
0.0
 40
10.0
 50
180.0
 51
270.0
  0
LINE
  5
7AF7
  8
1
  6
CONTINUOUS
 10
577.98301157635331
 20
1771.7157019115609
 30
0.0
 11
577.98301157635331
 21
1962.615701911561
 31
0.0
  0
LINE
  5
7AF8
  8
1
  6
CONTINUOUS
 10
327.58301157635327
 20
2098.51570191156
 30
0.0
 11
352.58301157635327
 21
2098.51570191156
 31
0.0
  0
LINE
  5
7AF9
  8
1
  6
CONTINUOUS
 10
932.58301157635333
 20
2036.51570191156
 30
0.0
 11
932.58301157635333
 21
2098.51570191156
 31
0.0
  0
LINE
  5
7AFA
  8
1
  6
CONTINUOUS
 10
957.58301157635333
 20
1668.5157019115611
 30
0.0
 11
957.58301157635333
 21
2098.51570191156
 31
0.0
  0
LINE
  5
7AFB
  8
1
  6
CONTINUOUS
 10
917.58301157635333
 20
2044.51570191156
 30
0.0
 11
677.58301157635333
 21
2044.51570191156
 31
0.0
  0
LINE
  5
7AFC
  8
1
  6
CONTINUOUS
 10
917.58301157635333
 20
1888.51570191156
 30
0.0
 11
677.58301157635333
 21
1888.51570191156
 31
0.0
  0
LINE
  5
7AFD
  8
1
  6
CONTINUOUS
 10
957.58301157635333
 20
1752.5157019115611
 30
0.0
 11
809.58301157635333
 21
1752.5157019115611
 31
0.0
  0
LINE
  5
7AFE
  8
1
  6
CONTINUOUS
 10
785.58301157635333
 20
1888.51570191156
 30
0.0
 11
785.58301157635333
 21
1719.0157019115611
 31
0.0
  0
LINE
  5
7AFF
  8
1
  6
CONTINUOUS
 10
809.58301157635333
 20
1888.51570191156
 30
0.0
 11
809.58301157635333
 21
1719.0157019115611
 31
0.0
  0
LINE
  5
7B00
  8
1
  6
CONTINUOUS
 10
747.58301157635333
 20
1719.0157019115611
 30
0.0
 11
847.58301157635344
 21
1719.0157019115611
 31
0.0
  0
LINE
  5
7B01
  8
1
  6
CONTINUOUS
 10
747.58301157635333
 20
1689.0157019115611
 30
0.0
 11
847.58301157635344
 21
1689.0157019115611
 31
0.0
  0
LINE
  5
7B02
  8
1
  6
CONTINUOUS
 10
747.58301157635333
 20
1689.0157019115611
 30
0.0
 11
747.58301157635333
 21
1719.0157019115611
 31
0.0
  0
LINE
  5
7B03
  8
1
  6
CONTINUOUS
 10
847.58301157635344
 20
1689.0157019115611
 30
0.0
 11
847.58301157635344
 21
1719.0157019115611
 31
0.0
  0
LINE
  5
7B04
  8
1
  6
CONTINUOUS
 10
677.58301157635333
 20
2036.51570191156
 30
0.0
 11
677.58301157635333
 21
2044.51570191156
 31
0.0
  0
LINE
  5
7B05
  8
1
  6
CONTINUOUS
 10
677.58301157635333
 20
1896.51570191156
 30
0.0
 11
677.58301157635333
 21
1888.51570191156
 31
0.0
  0
LINE
  5
7B06
  8
1
  6
CONTINUOUS
 10
932.58301157635333
 20
1668.5157019115611
 30
0.0
 11
957.58301157635333
 21
1668.5157019115611
 31
0.0
  0
LINE
  5
7B07
  8
1
  6
CONTINUOUS
 10
932.58301157635333
 20
1668.5157019115611
 30
0.0
 11
932.58301157635333
 21
1752.5157019115611
 31
0.0
  0
LINE
  5
7B08
  8
1
  6
CONTINUOUS
 10
904.58301157635344
 20
1666.5157019115611
 30
0.0
 11
904.58301157635344
 21
1741.5157019115611
 31
0.0
  0
LINE
  5
7B09
  8
1
  6
CONTINUOUS
 10
917.58301157635333
 20
2036.51570191156
 30
0.0
 11
917.58301157635333
 21
2044.51570191156
 31
0.0
  0
LINE
  5
7B0A
  8
1
  6
CONTINUOUS
 10
957.58301157635333
 20
2057.51570191156
 30
0.0
 11
957.58301157635333
 21
1875.5157019115611
 31
0.0
  0
LINE
  5
7B0B
  8
1
  6
CONTINUOUS
 10
957.58301157635333
 20
2037.51570191156
 30
0.0
 11
942.58301157635333
 21
2022.5157019115611
 31
0.0
  0
LINE
  5
7B0C
  8
1
  6
CONTINUOUS
 10
942.58301157635333
 20
2022.5157019115611
 30
0.0
 11
942.58301157635333
 21
1910.5157019115611
 31
0.0
  0
LINE
  5
7B0D
  8
1
  6
CONTINUOUS
 10
957.58301157635333
 20
1895.5157019115611
 30
0.0
 11
942.58301157635333
 21
1910.5157019115611
 31
0.0
  0
LINE
  5
7B0E
  8
1
  6
CONTINUOUS
 10
917.58301157635333
 20
1896.51570191156
 30
0.0
 11
917.58301157635333
 21
1888.51570191156
 31
0.0
  0
LINE
  5
7B0F
  8
1
  6
CONTINUOUS
 10
932.58301157635333
 20
2098.51570191156
 30
0.0
 11
957.58301157635333
 21
2098.51570191156
 31
0.0
  0
LINE
  5
7B10
  8
4
  6
CONTINUOUS
 10
1850.0
 20
500.0
 30
0.0
 11
1850.0
 21
300.0
 31
0.0
  0
LINE
  5
7B11
  8
4
  6
CONTINUOUS
 10
1150.0
 20
500.0
 30
0.0
 11
1150.0
 21
300.0
 31
0.0
  0
LINE
  5
7B12
  8
4
  6
CONTINUOUS
 10
650.0
 20
500.0
 30
0.0
 11
650.0
 21
300.0
 31
0.0
  0
LINE
  5
7B15
  8
4
  6
CONTINUOUS
 10
650.0
 20
300.0
 30
0.0
 11
1850.0
 21
300.0
 31
0.0
  0
LINE
  5
7B16
  8
4
  6
CONTINUOUS
 10
650.0
 20
400.0
 30
0.0
 11
1850.0
 21
400.0
 31
0.0
  0
TEXT
  5
7B17
  8
4
  6
CONTINUOUS
 10
688.50208099999998
 20
431.543026
 30
0.0
 40
50.0
  1
機器名称
  0
TEXT
  5
7B18
  8
4
  6
CONTINUOUS
 10
686.258106
 20
321.64515699999993
 30
0.0
 40
50.0
  1
機器型番
  0
TEXT
  5
7B19
  8
4
  6
CONTINUOUS
 10
1177.678744999999
 20
422.57176900000002
 30
0.0
 40
45.0
  1
ミツヤニューマルチファン
  0
TEXT
  5
7B1A
  8
4
  6
CONTINUOUS
 10
1186.6544960000001
 20
317.159584
 30
0.0
 40
50.0
  1
NM#1 1/4-1
  0
TEXT
  5
7B1C
  8
4
  6
CONTINUOUS
 10
796.60563400000001
 20
2383.4288409999999
 30
0.0
 40
54.0
  1
天井吊ベット
  0
TEXT
  5
7B1D
  8
4
  6
CONTINUOUS
 10
316.16759300000001
 20
2533.8809759999999
 30
0.0
 40
72.0
  1
ベルト駆動式片吸込片持多翼ファン
  0
LINE
  5
7B1E
  8
4
  6
CONTINUOUS
 10
250.0
 20
2469.408754
 30
0.0
 11
1850.0
 21
2469.408754
 31
0.0
  0
LINE
  5
7B1F
  8
4
  6
CONTINUOUS
 10
250.0
 20
2669.408754
 30
0.0
 11
1850.0
 21
2669.408754
 31
0.0
  0
LINE
  5
7B20
  8
4
  6
CONTINUOUS
 10
650.0
 20
500.0
 30
0.0
 11
1850.0
 21
500.0
 31
0.0
  0
LINE
  5
7B21
  8
4
  6
CONTINUOUS
 10
250.0
 20
2669.408754
 30
0.0
 11
250.0
 21
2469.408754
 31
0.0
  0
TEXT
  5
7B22
  8
4
  6
CONTINUOUS
 10
360.746802
 20
2382.3194779999999
 30
0.0
 40
54.0
  1
左回転右横向
  0
TEXT
  5
7B23
  8
4
  6
CONTINUOUS
 10
1468.9695589999999
 20
2706.0610809999998
 30
0.0
 40
56.0
  1
No.
  0
TEXT
  5
7B24
  8
4
  6
CONTINUOUS
 10
1311.296063
 20
2383.4288409999999
 30
0.0
 40
54.0
  1
縮尺：1/10
  0
LINE
  5
7B25
  8
4
  6
CONTINUOUS
 10
1850.0
 20
2669.408754
 30
0.0
 11
1850.0
 21
2469.408754
 31
0.0
  0
LINE
  5
7B27
  8
4
  6
CONTINUOUS
 10
1440.617422
 20
2681.2635829999999
 30
0.0
 11
1440.617422
 21
2786.6522620000001
 31
0.0
  0
LINE
  5
7B28
  8
4
  6
CONTINUOUS
 10
1440.617422
 20
2786.6522620000001
 30
0.0
 11
1850.0
 21
2786.6522620000001
 31
0.0
  0
LINE
  5
7B29
  8
4
  6
CONTINUOUS
 10
1850.0
 20
2786.6522620000001
 30
0.0
 11
1850.0
 21
2681.2635829999999
 31
0.0
  0
LINE
  5
7B2A
  8
4
  6
CONTINUOUS
 10
1850.0
 20
2681.2635829999999
 30
0.0
 11
1440.617422
 21
2681.2635829999999
 31
0.0
  0
DIMENSION
  5
7B43
  8
3
  6
CONTINUOUS
  2
*D1
 10
797.58301157635333
 20
782.70802805358221
 30
0.0
 11
556.94281157635328
 21
782.70802805358221
 31
0.0
 70
   128
 13
327.58301157635327
 23
830.97854305358214
 33
0.0
 14
797.58301157635333
 24
855.97854305358226
 34
0.0
1001
ACAD
1000
DSTYLE
1002
{
1070
   287
1070
     3
1070
   287
1070
     3
1070
    40
1040
10.0
1070
   143
1040
0.039
1070
   172
1070
     1
1070
   271
1070
     0
1070
   279
1070
     0
1070
   288
1070
     1
1002
}
  0
DIMENSION
  5
7B4F
  8
3
  6
CONTINUOUS
  2
*D2
 10
957.58301157635333
 20
782.70802805358221
 30
0.0
 11
877.58301157635333
 21
807.70802805358221
 31
0.0
 70
     0
 13
797.58301157635333
 23
855.97854305358226
 33
0.0
 14
957.58301157635333
 24
830.97854305358214
 34
0.0
1001
ACAD
1000
DSTYLE
1002
{
1070
   287
1070
     4
1070
   287
1070
     4
1070
    40
1040
10.0
1070
    75
1070
     1
1070
   143
1040
0.039
1070
   172
1070
     1
1070
   271
1070
     0
1070
   279
1070
     1
1070
   288
1070
     1
1002
}
  0
DIMENSION
  5
7B5C
  8
3
  6
CONTINUOUS
  2
*D3
 10
797.58301157635333
 20
1305.6508590535821
 30
0.0
 11
706.84128757635324
 21
1305.6508590535821
 31
0.0
 70
   128
 13
618.58301157635321
 23
1130.9785430535819
 33
0.0
 14
797.58301157635333
 24
1281.5457310535819
 34
0.0
1001
ACAD
1000
DSTYLE
1002
{
1070
   287
1070
     3
1070
   287
1070
     3
1070
    40
1040
10.0
1070
   143
1040
0.039
1070
   172
1070
     1
1070
   271
1070
     0
1070
   279
1070
     0
1070
   288
1070
     1
1002
}
  0
DIMENSION
  5
7B68
  8
3
  6
CONTINUOUS
  2
*D4
 10
957.58301157635333
 20
1305.6508590535821
 30
0.0
 11
877.58301157635333
 21
1330.6508590535821
 31
0.0
 70
     0
 13
797.58301157635333
 23
1281.5457310535819
 33
0.0
 14
957.58301157635333
 24
1151.9785430535819
 34
0.0
1001
ACAD
1000
DSTYLE
1002
{
1070
   287
1070
     4
1070
   287
1070
     4
1070
    40
1040
10.0
1070
    75
1070
     1
1070
   143
1040
0.039
1070
   172
1070
     1
1070
   271
1070
     0
1070
   279
1070
     1
1070
   288
1070
     1
1002
}
  0
DIMENSION
  5
7B75
  8
3
  6
CONTINUOUS
  2
*D5
 10
1036.5622035763531
 20
930.97854305358226
 30
0.0
 11
1036.5622035763531
 21
1042.375379053582
 31
0.0
 70
   128
 13
957.58301157635333
 23
1130.9785430535819
 33
0.0
 14
956.58301157635333
 24
930.97854305358226
 34
0.0
 50
90.0
1001
ACAD
1000
DSTYLE
1002
{
1070
   287
1070
     3
1070
   287
1070
     3
1070
    40
1040
10.0
1070
   143
1040
0.039
1070
   172
1070
     1
1070
   271
1070
     0
1070
   279
1070
     0
1070
   288
1070
     1
1002
}
  0
DIMENSION
  5
7B9B
  8
3
  6
CONTINUOUS
  2
*D6
 10
1170.8257155763531
 20
1130.9785430535819
 30
0.0
 11
1170.8257155763531
 21
1211.1845600535819
 31
0.0
 70
   128
 13
797.58301157635333
 23
1281.5457310535819
 33
0.0
 14
957.58301157635333
 24
1130.9785430535819
 34
0.0
 50
90.0
1001
ACAD
1000
DSTYLE
1002
{
1070
   287
1070
     3
1070
   287
1070
     3
1070
    40
1040
10.0
1070
   143
1040
0.039
1070
   172
1070
     1
1070
   271
1070
     0
1070
   279
1070
     0
1070
   288
1070
     1
1002
}
  0
DIMENSION
  5
7BA7
  8
3
  6
CONTINUOUS
  2
*D7
 10
1170.8257155763531
 20
855.97854305358226
 30
0.0
 11
1145.825715576352
 21
993.47854305358226
 31
0.0
 70
     0
 13
957.58301157635333
 23
1130.9785430535819
 33
0.0
 14
957.58301157635333
 24
855.97854305358226
 34
0.0
 50
90.0
1001
ACAD
1000
DSTYLE
1002
{
1070
   287
1070
     4
1070
   287
1070
     4
1070
    40
1040
10.0
1070
    75
1070
     1
1070
   143
1040
0.039
1070
   172
1070
     1
1070
   271
1070
     0
1070
   279
1070
     1
1070
   288
1070
     1
1002
}
  0
DIMENSION
  5
7BB7
  8
3
  6
CONTINUOUS
  2
*D8
 10
1170.8257155763531
 20
830.97854305358214
 30
0.0
 11
1170.8257155763531
 21
756.69282876786804
 31
0.0
 70
   128
 13
957.58301157635333
 23
855.97854305358226
 33
0.0
 14
957.58301157635333
 24
830.97854305358214
 34
0.0
 50
90.0
1001
ACAD
1000
DSTYLE
1002
{
1070
   287
1070
     3
1070
   287
1070
     3
1070
    40
1040
10.0
1070
   143
1040
0.039
1070
   172
1070
     1
1070
   271
1070
     0
1070
   279
1070
     0
1070
   288
1070
     1
1002
}
  0
DIMENSION
  5
7BDE
  8
3
  6
CONTINUOUS
  2
*D9
 10
1230.116185576353
 20
830.97854305358214
 30
0.0
 11
1230.116185576353
 21
1046.653194053582
 31
0.0
 70
   128
 13
797.58301157635333
 23
1281.5457310535819
 33
0.0
 14
957.58301157635333
 24
830.97854305358214
 34
0.0
 50
90.0
1001
ACAD
1000
DSTYLE
1002
{
1070
   287
1070
     3
1070
   287
1070
     3
1070
    40
1040
10.0
1070
   143
1040
0.039
1070
   172
1070
     1
1070
   271
1070
     0
1070
   279
1070
     0
1070
   288
1070
     1
1002
}
  0
LINE
  5
7BDF
  8
2
  6
CENTER
 10
1313.406482201689
 20
1130.9785430535819
 30
0.0
 11
1737.8999182016889
 21
1130.9785430535819
 31
0.0
  0
DIMENSION
  5
7BEC
  8
3
  6
CONTINUOUS
  2
*D10
 10
957.58301157635333
 20
1569.1289979115611
 30
0.0
 11
634.37515257635334
 21
1569.1289979115611
 31
0.0
 70
   128
 13
327.58301157635327
 23
1668.5157019115611
 33
0.0
 14
957.58301157635333
 24
1668.5157019115611
 34
0.0
1001
ACAD
1000
DSTYLE
1002
{
1070
   287
1070
     3
1070
   287
1070
     3
1070
    40
1040
10.0
1070
   143
1040
0.039
1070
   172
1070
     1
1070
   271
1070
     0
1070
   279
1070
     0
1070
   288
1070
     1
1002
}
  0
DIMENSION
  5
7BF9
  8
3
  6
CONTINUOUS
  2
*D11
 10
1048.0909085763531
 20
1668.5157019115611
 30
0.0
 11
1048.0909085763531
 21
1882.3967049115611
 31
0.0
 70
   128
 13
957.58301157635333
 23
2098.51570191156
 33
0.0
 14
957.58301157635333
 24
1668.5157019115611
 34
0.0
 50
90.0
1001
ACAD
1000
DSTYLE
1002
{
1070
   287
1070
     3
1070
   287
1070
     3
1070
    40
1040
10.0
1070
   143
1040
0.039
1070
   172
1070
     1
1070
   271
1070
     0
1070
   279
1070
     0
1070
   288
1070
     1
1002
}
  0
LINE
  5
7BFA
  8
2
  6
CENTER
 10
608.0424845763531
 20
1966.51570191156
 30
0.0
 11
982.2126115763532
 21
1966.51570191156
 31
0.0
  0
LINE
  5
7BFB
  8
2
  6
CENTER
 10
797.58301157635333
 20
1631.529046911561
 30
0.0
 11
797.58301157635333
 21
2066.3583209115609
 31
0.0
  0
LINE
  5
7BFC
  8
2
  6
CENTER
 10
1643.327214201689
 20
1315.071713053582
 30
0.0
 11
1643.327214201689
 21
800.37614205358216
 31
0.0
  0
DIMENSION
  5
7C09
  8
3
  6
CONTINUOUS
  2
*D12
 10
1643.327214201689
 20
763.52112305358219
 30
0.0
 11
1500.368331201689
 21
763.52112305358219
 31
0.0
 70
   128
 13
1345.327214201689
 23
830.97854305358214
 33
0.0
 14
1643.327214201689
 24
830.97854305358214
 34
0.0
1001
ACAD
1000
DSTYLE
1002
{
1070
   287
1070
     3
1070
   287
1070
     3
1070
    40
1040
10.0
1070
   143
1040
0.039
1070
   172
1070
     1
1070
   271
1070
     0
1070
   279
1070
     0
1070
   288
1070
     1
1002
}
  0
DIMENSION
  5
7C15
  8
3
  6
CONTINUOUS
  2
*D13
 10
1775.327214201689
 20
763.52112305358219
 30
0.0
 11
1709.327214201689
 21
788.52112305358219
 31
0.0
 70
     0
 13
1643.327214201689
 23
830.97854305358214
 33
0.0
 14
1775.327214201689
 24
830.97854305358214
 34
0.0
1001
ACAD
1000
DSTYLE
1002
{
1070
   287
1070
     4
1070
   287
1070
     4
1070
    40
1040
10.0
1070
    75
1070
     1
1070
   143
1040
0.039
1070
   172
1070
     1
1070
   271
1070
     0
1070
   279
1070
     1
1070
   288
1070
     1
1002
}
  0
DIMENSION
  5
7C22
  8
3
  6
CONTINUOUS
  2
*D14
 10
1713.327214201689
 20
1311.081490053582
 30
0.0
 11
1639.041499201689
 21
1311.081490053582
 31
0.0
 70
   128
 13
1573.327214201689
 23
1269.9785430535819
 33
0.0
 14
1713.327214201689
 24
1269.9785430535819
 34
0.0
1001
ACAD
1000
DSTYLE
1002
{
1070
   287
1070
     3
1070
   287
1070
     3
1070
    40
1040
10.0
1070
   143
1040
0.039
1070
   172
1070
     1
1070
   271
1070
     0
1070
   279
1070
     0
1070
   288
1070
     1
1002
}
  0
DIMENSION
  5
7C3B
  8
3
  6
CONTINUOUS
  2
*D15
 10
1643.327214201689
 20
1371.629028053582
 30
0.0
 11
1495.098067201689
 21
1371.629028053582
 31
0.0
 70
   128
  1
MAX\P300
 13
1343.327214201689
 23
1240.9785430535819
 33
0.0
 14
1643.327214201689
 24
1358.0707970535821
 34
0.0
1001
ACAD
1000
DSTYLE
1002
{
1070
   287
1070
     3
1070
   287
1070
     3
1070
    40
1040
10.0
1070
   143
1040
0.039
1070
   172
1070
     1
1070
   271
1070
     0
1070
   279
1070
     0
1070
   288
1070
     1
1002
}
  0
DIMENSION
  5
7C49
  8
3
  6
CONTINUOUS
  2
*D16
 10
1721.327214201689
 20
1371.629028053582
 30
0.0
 11
1679.557318201689
 21
1371.629028053582
 31
0.0
 70
   128
 13
1643.327214201689
 23
1358.0707970535821
 33
0.0
 14
1721.327214201689
 24
1250.9785430535819
 34
0.0
1001
ACAD
1000
DSTYLE
1002
{
1070
   287
1070
     4
1070
   287
1070
     4
1070
    40
1040
10.0
1070
    75
1070
     1
1070
   143
1040
0.039
1070
   172
1070
     1
1070
   271
1070
     0
1070
   279
1070
     1
1070
   288
1070
     1
1002
}
  0
LINE
  5
7C61
  8
3
  6
CONTINUOUS
 10
1721.327214201689
 20
1230.9785430535819
 30
0.0
 11
1729.8065642016891
 21
1230.9785430535819
 31
0.0
  0
LINE
  5
7C63
  8
3
  6
CONTINUOUS
 10
1721.327214201689
 20
1030.9785430535819
 30
0.0
 11
1730.5334862016889
 21
1030.9785430535819
 31
0.0
  0
DIMENSION
  5
7C70
  8
3
  6
CONTINUOUS
  2
*D17
 10
1785.0534762016889
 20
1030.9785430535819
 30
0.0
 11
1785.0534762016889
 21
1117.5499716250099
 31
0.0
 70
   128
 13
1721.327214201689
 23
1230.9785430535819
 33
0.0
 14
1721.327214201689
 24
1030.9785430535819
 34
0.0
 50
90.0
1001
ACAD
1000
DSTYLE
1002
{
1070
   287
1070
     3
1070
   287
1070
     3
1070
     3
1000
φ<>
1070
    40
1040
10.0
1070
   143
1040
0.039
1070
   172
1070
     1
1070
   271
1070
     0
1070
   279
1070
     0
1070
   288
1070
     1
1002
}
  0
DIMENSION
  5
7CDF
  8
3
  6
CONTINUOUS
  2
*D18
 10
1101.6129505763529
 20
919.97854305358214
 30
0.0
 11
1101.6129505763529
 21
1035.1612320535819
 31
0.0
 70
   128
 13
956.58301157635333
 23
1130.9785430535819
 33
0.0
 14
942.58301157635333
 24
919.97854305358214
 34
0.0
 50
90.0
1001
ACAD
1000
DSTYLE
1002
{
1070
   287
1070
     3
1070
   287
1070
     3
1070
    40
1040
10.0
1070
   143
1040
0.039
1070
   172
1070
     1
1070
   271
1070
     0
1070
   279
1070
     0
1070
   288
1070
     1
1002
}
  0
DIMENSION
  5
7D39
  8
3
  2
*D19
 10
327.58301157635327
 20
1366.624455135059
 30
0.0
 11
662.77465696340187
 21
1366.624455135059
 31
0.0
 70
   128
 13
957.58301157635333
 23
1151.9785430535819
 33
0.0
 14
327.58301157635327
 24
905.97854305358226
 34
0.0
1001
ACAD
1000
DSTYLE
1002
{
1070
   287
1070
     3
1070
   287
1070
     3
1070
    40
1040
10.0
1070
   143
1040
0.039
1070
   172
1070
     1
1070
   271
1070
     0
1070
   279
1070
     0
1070
   288
1070
     1
1002
}
  0
ENDSEC
  0
EOF
