  0
SECTION
  2
HEADER
  9
$ACADVER
  1
AC1009
  9
$INSBASE
 10
0.0
 20
0.0
 30
0.0
  9
$EXTMIN
 10
250.0
 20
300.0
 30
0.0
  9
$EXTMAX
 10
1850.0
 20
2786.6522620000001
 30
0.0
  9
$LIMMIN
 10
0.0
 20
0.0
  9
$LIMMAX
 10
297.0
 20
210.0
  9
$ORTHOMODE
 70
     0
  9
$REGENMODE
 70
     1
  9
$FILLMODE
 70
     0
  9
$QTEXTMODE
 70
     0
  9
$MIRRTEXT
 70
     1
  9
$DRAGMODE
 70
     2
  9
$LTSCALE
 40
100.0
  9
$OSMODE
 70
    37
  9
$ATTMODE
 70
     1
  9
$TEXTSIZE
 40
180.0
  9
$TRACEWID
 40
0.05
  9
$TEXTSTYLE
  7
STANDARD
  9
$CLAYER
  8
3
  9
$CELTYPE
  6
BYLAYER
  9
$CECOLOR
 62
   256
  9
$DIMSCALE
 40
10.0
  9
$DIMASZ
 40
2.0
  9
$DIMEXO
 40
0.5
  9
$DIMDLI
 40
10.0
  9
$DIMRND
 40
0.0
  9
$DIMDLE
 40
0.0
  9
$DIMEXE
 40
1.0
  9
$DIMTP
 40
1.0
  9
$DIMTM
 40
1.0
  9
$DIMTXT
 40
3.0
  9
$DIMCEN
 40
0.0
  9
$DIMTSZ
 40
0.0
  9
$DIMTOL
 70
     0
  9
$DIMLIM
 70
     0
  9
$DIMTIH
 70
     0
  9
$DIMTOH
 70
     0
  9
$DIMSE1
 70
     0
  9
$DIMSE2
 70
     0
  9
$DIMTAD
 70
     1
  9
$DIMZIN
 70
     8
  9
$DIMBLK
  1

  9
$DIMASO
 70
     1
  9
$DIMSHO
 70
     1
  9
$DIMPOST
  1

  9
$DIMAPOST
  1

  9
$DIMALT
 70
     0
  9
$DIMALTD
 70
     2
  9
$DIMALTF
 40
0.039
  9
$DIMLFAC
 40
1.0
  9
$DIMTOFL
 70
     1
  9
$DIMTVP
 40
0.0
  9
$DIMTIX
 70
     0
  9
$DIMSOXD
 70
     0
  9
$DIMSAH
 70
     1
  9
$DIMBLK1
  1
OPEN
  9
$DIMBLK2
  1
OPEN
  9
$DIMSTYLE
  2
IGA
  9
$DIMCLRD
 70
     0
  9
$DIMCLRE
 70
     0
  9
$DIMCLRT
 70
     0
  9
$DIMTFAC
 40
10.0
  9
$DIMGAP
 40
1.0
  9
$LUNITS
 70
     2
  9
$LUPREC
 70
     3
  9
$SKETCHINC
 40
0.1
  9
$FILLETRAD
 40
50.0
  9
$AUNITS
 70
     0
  9
$AUPREC
 70
     0
  9
$MENU
  1
acad
  9
$ELEVATION
 40
0.0
  9
$PELEVATION
 40
0.0
  9
$THICKNESS
 40
0.0
  9
$LIMCHECK
 70
     0
  9
$BLIPMODE
 70
     0
  9
$CHAMFERA
 40
0.5
  9
$CHAMFERB
 40
0.5
  9
$SKPOLY
 70
     0
  9
$TDCREATE
 40
2450738.4289425919
  9
$TDUPDATE
 40
2454953.8604293629
  9
$TDINDWG
 40
0.0118459259
  9
$TDUSRTIMER
 40
0.0118459259
  9
$USRTIMER
 70
     1
  9
$ANGBASE
 50
0.0
  9
$ANGDIR
 70
     0
  9
$PDMODE
 70
     0
  9
$PDSIZE
 40
0.0
  9
$PLINEWID
 40
0.0
  9
$COORDS
 70
     1
  9
$SPLFRAME
 70
     0
  9
$SPLINETYPE
 70
     6
  9
$SPLINESEGS
 70
     8
  9
$ATTDIA
 70
     0
  9
$ATTREQ
 70
     1
  9
$HANDLING
 70
 10241
  9
$HANDSEED
  5
7EE0
  9
$SURFTAB1
 70
     6
  9
$SURFTAB2
 70
     6
  9
$SURFTYPE
 70
     6
  9
$SURFU
 70
     6
  9
$SURFV
 70
     6
  9
$UCSNAME
  2

  9
$UCSORG
 10
0.0
 20
0.0
 30
0.0
  9
$UCSXDIR
 10
1.0
 20
0.0
 30
0.0
  9
$UCSYDIR
 10
0.0
 20
1.0
 30
0.0
  9
$PUCSNAME
  2

  9
$PUCSORG
 10
0.0
 20
0.0
 30
0.0
  9
$PUCSXDIR
 10
1.0
 20
0.0
 30
0.0
  9
$PUCSYDIR
 10
0.0
 20
1.0
 30
0.0
  9
$USERI1
 70
     0
  9
$USERI2
 70
     0
  9
$USERI3
 70
     0
  9
$USERI4
 70
     0
  9
$USERI5
 70
     0
  9
$USERR1
 40
0.0
  9
$USERR2
 40
0.0
  9
$USERR3
 40
0.0
  9
$USERR4
 40
0.0
  9
$USERR5
 40
0.0
  9
$WORLDVIEW
 70
     1
  9
$SHADEDGE
 70
     3
  9
$SHADEDIF
 70
    70
  9
$TILEMODE
 70
     1
  9
$MAXACTVP
 70
    16
  9
$PLIMCHECK
 70
     0
  9
$PEXTMIN
 10
1.0000000000000000E+020
 20
1.0000000000000000E+020
 30
1.0000000000000000E+020
  9
$PEXTMAX
 10
-1.0000000000000000E+020
 20
-1.0000000000000000E+020
 30
-1.0000000000000000E+020
  9
$PLIMMIN
 10
0.0
 20
0.0
  9
$PLIMMAX
 10
12.0
 20
9.0
  9
$UNITMODE
 70
     0
  9
$VISRETAIN
 70
     0
  9
$PLINEGEN
 70
     0
  9
$PSLTSCALE
 70
     1
  0
ENDSEC
  0
SECTION
  2
TABLES
  0
TABLE
  2
VPORT
 70
     2
  0
VPORT
  2
*ACTIVE
 70
     0
 10
0.0
 20
0.0
 11
1.0
 21
1.0
 12
2599.3954246823741
 22
1734.9264063754831
 13
0.0
 23
0.0
 14
10.0
 24
10.0
 15
10.0
 25
10.0
 16
0.0
 26
0.0
 36
1.0
 17
0.0
 27
0.0
 37
0.0
 40
3384.7202369232782
 41
1.5051150895140659
 42
50.0
 43
0.0
 44
0.0
 50
0.0
 51
0.0
 71
     0
 72
   100
 73
     1
 74
     0
 75
     0
 76
     0
 77
     0
 78
     0
  0
ENDTAB
  0
TABLE
  2
LTYPE
 70
     2
  0
LTYPE
  2
CONTINUOUS
 70
     0
  3
Solid line
 72
    65
 73
     0
 40
0.0
  0
LTYPE
  2
CENTER
 70
     0
  3
____ _ ____ _ ____ _ ____ _ ____ _ ____ _ ____ 
 72
    65
 73
     4
 40
2.0
 49
1.25
 49
-0.25
 49
0.25
 49
-0.25
  0
ENDTAB
  0
TABLE
  2
LAYER
 70
     6
  0
LAYER
  2
0
 70
     0
 62
     7
  6
CONTINUOUS
  0
LAYER
  2
3
 70
     0
 62
     2
  6
CONTINUOUS
  0
LAYER
  2
2
 70
     0
 62
     3
  6
CENTER
  0
LAYER
  2
1
 70
     0
 62
     4
  6
CONTINUOUS
  0
LAYER
  2
4
 70
     0
 62
     7
  6
CONTINUOUS
  0
LAYER
  2
DEFPOINTS
 70
     0
 62
     7
  6
CONTINUOUS
  0
ENDTAB
  0
TABLE
  2
STYLE
 70
     1
  0
STYLE
  2
STANDARD
 70
     0
 40
0.0
 41
1.0
 50
0.0
 71
     0
 42
180.0
  3
simplex.shx
  4
extfont.shx
  0
ENDTAB
  0
TABLE
  2
VIEW
 70
     0
  0
ENDTAB
  0
TABLE
  2
UCS
 70
     0
  0
ENDTAB
  0
TABLE
  2
APPID
 70
     1
  0
APPID
  2
ACAD
 70
     0
  0
ENDTAB
  0
TABLE
  2
DIMSTYLE
 70
     1
  0
DIMSTYLE
  2
IGA
 70
     0
  3

  4

  5

  6
OPEN
  7
OPEN
 40
2.0
 41
2.0
 42
0.5
 43
10.0
 44
1.0
 45
0.0
 46
0.0
 47
1.0
 48
1.0
140
3.0
141
0.0
142
0.0
143
0.03937
144
1.0
145
0.0
146
10.0
147
1.0
 71
     0
 72
     0
 73
     0
 74
     0
 75
     0
 76
     0
 77
     1
 78
     8
170
     0
171
     2
172
     0
173
     1
174
     0
175
     0
176
     0
177
     0
178
     0
  0
ENDTAB
  0
ENDSEC
  0
SECTION
  2
BLOCKS
  0
BLOCK
  8
0
  2
$MODEL_SPACE
 70
     0
 10
0.0
 20
0.0
 30
0.0
  3
$MODEL_SPACE
  1

  0
ENDBLK
  5
1B
  8
0
  0
BLOCK
 67
     1
  8
0
  2
$PAPER_SPACE
 70
     0
 10
0.0
 20
0.0
 30
0.0
  3
$PAPER_SPACE
  1

  0
ENDBLK
  5
18
 67
     1
  8
0
  0
BLOCK
  8
0
  2
_OPEN
 70
     0
 10
0.0
 20
0.0
 30
0.0
  3
_OPEN
  1

  0
LINE
  5
7B33
  8
0
  6
BYBLOCK
 62
     0
 10
-1.0
 20
0.166667
 30
0.0
 11
0.0
 21
0.0
 31
0.0
  0
LINE
  5
7B34
  8
0
  6
BYBLOCK
 62
     0
 10
0.0
 20
0.0
 30
0.0
 11
-1.0
 21
-0.166667
 31
0.0
  0
LINE
  5
7B35
  8
0
  6
BYBLOCK
 62
     0
 10
0.0
 20
0.0
 30
0.0
 11
-1.0
 21
0.0
 31
0.0
  0
ENDBLK
  5
7B36
  8
0
  0
BLOCK
  8
0
  2
*D1
 70
     1
 10
0.0
 20
0.0
 30
0.0
  3
*D1
  1

  0
LINE
  5
7E2B
  8
3
  6
CONTINUOUS
 62
     0
 10
351.97589364391848
 20
760.38396946912303
 30
0.0
 11
351.97589364391848
 21
706.34407246912315
 31
0.0
  0
LINE
  5
7E2C
  8
3
  6
CONTINUOUS
 62
     0
 10
511.97589364391848
 20
785.38396946912303
 30
0.0
 11
511.97589364391848
 21
706.34407246912315
 31
0.0
  0
LINE
  5
7E2D
  8
3
  6
CONTINUOUS
 62
     0
 10
371.97589364391848
 20
716.34407246912315
 30
0.0
 11
491.97589364391848
 21
716.34407246912315
 31
0.0
  0
INSERT
  5
7E2E
  8
3
  6
CONTINUOUS
 62
     0
  2
_OPEN
 10
351.97589364391848
 20
716.34407246912315
 30
0.0
 41
20.0
 42
20.0
 43
20.0
 50
180.0
  0
INSERT
  5
7E2F
  8
3
  6
CONTINUOUS
 62
     0
  2
_OPEN
 10
511.97589364391848
 20
716.34407246912315
 30
0.0
 41
20.0
 42
20.0
 43
20.0
  0
TEXT
  8
3
  40
30
  5
7ECD
  62
0
  72
0
  71
0
 10
373.376
 20
688.244
 30
0.000000
  1
160
  0
POINT
  5
7E31
  8
DEFPOINTS
  6
CONTINUOUS
 62
     0
 10
351.97589364391848
 20
765.38396946912303
 30
0.0
  0
POINT
  5
7E32
  8
DEFPOINTS
  6
CONTINUOUS
 62
     0
 10
511.97589364391848
 20
790.38396946912303
 30
0.0
  0
POINT
  5
7E33
  8
DEFPOINTS
  6
CONTINUOUS
 62
     0
 10
511.97589364391848
 20
716.34407246912315
 30
0.0
  0
ENDBLK
  5
7B43
  8
0
  0
BLOCK
  8
0
  2
*D2
 70
     1
 10
0.0
 20
0.0
 30
0.0
  3
*D2
  1

  0
LINE
  5
7E34
  8
3
  6
CONTINUOUS
 62
     0
 10
981.97589364391843
 20
760.38396946912303
 30
0.0
 11
981.97589364391843
 21
706.34407246912315
 31
0.0
  0
LINE
  5
7E35
  8
3
  6
CONTINUOUS
 62
     0
 10
531.97589364391854
 20
716.34407246912315
 30
0.0
 11
961.97589364391843
 21
716.34407246912315
 31
0.0
  0
INSERT
  5
7E36
  8
3
  6
CONTINUOUS
 62
     0
  2
_OPEN
 10
511.97589364391848
 20
716.34407246912315
 30
0.0
 41
20.0
 42
20.0
 43
20.0
 50
180.0
  0
INSERT
  5
7E37
  8
3
  6
CONTINUOUS
 62
     0
  2
_OPEN
 10
981.97589364391843
 20
716.34407246912315
 30
0.0
 41
20.0
 42
20.0
 43
20.0
  0
TEXT
  8
3
  40
30
  5
7ECE
  62
0
  72
0
  71
0
 10
686.976
 20
688.244
 30
0.000000
  1
470
  0
POINT
  5
7E39
  8
DEFPOINTS
  6
CONTINUOUS
 62
     0
 10
511.97589364391848
 20
790.38396946912303
 30
0.0
  0
POINT
  5
7E3A
  8
DEFPOINTS
  6
CONTINUOUS
 62
     0
 10
981.97589364391843
 20
765.38396946912303
 30
0.0
  0
POINT
  5
7E3B
  8
DEFPOINTS
  6
CONTINUOUS
 62
     0
 10
981.97589364391843
 20
716.34407246912315
 30
0.0
  0
ENDBLK
  5
7B50
  8
0
  0
BLOCK
  8
0
  2
*D3
 70
     1
 10
0.0
 20
0.0
 30
0.0
  3
*D3
  1

  0
LINE
  5
7E3C
  8
3
  6
CONTINUOUS
 62
     0
 10
737.97589364391854
 20
1225.383969469123
 30
0.0
 11
1064.161247496613
 21
1225.383969469123
 31
0.0
  0
LINE
  5
7E3D
  8
3
  6
CONTINUOUS
 62
     0
 10
727.31837464391845
 20
1065.383969469123
 30
0.0
 11
1064.161247496613
 21
1065.383969469123
 31
0.0
  0
LINE
  5
7E3E
  8
3
  6
CONTINUOUS
 62
     0
 10
1054.161247496613
 20
1205.383969469123
 30
0.0
 11
1054.161247496613
 21
1085.3839694691219
 31
0.0
  0
INSERT
  5
7E3F
  8
3
  6
CONTINUOUS
 62
     0
  2
_OPEN
 10
1054.161247496613
 20
1225.383969469123
 30
0.0
 41
20.0
 42
20.0
 43
20.0
 50
90.0
  0
INSERT
  5
7E40
  8
3
  6
CONTINUOUS
 62
     0
  2
_OPEN
 10
1054.161247496613
 20
1065.383969469123
 30
0.0
 41
20.0
 42
20.0
 43
20.0
 50
270.0
  0
TEXT
  8
3
  40
30
  5
7ECF
  62
0
  72
0
  71
0
 10
969.161
 20
1088.31
 30
0.000000
  1
160
  0
POINT
  5
7E42
  8
DEFPOINTS
  6
CONTINUOUS
 62
     0
 10
732.97589364391854
 20
1225.383969469123
 30
0.0
  0
POINT
  5
7E43
  8
DEFPOINTS
  6
CONTINUOUS
 62
     0
 10
722.31837464391845
 20
1065.383969469123
 30
0.0
  0
POINT
  5
7E44
  8
DEFPOINTS
  6
CONTINUOUS
 62
     0
 10
1054.161247496613
 20
1065.383969469123
 30
0.0
  0
ENDBLK
  5
7CD1
  8
0
  0
BLOCK
  8
0
  2
*D4
 70
     1
 10
0.0
 20
0.0
 30
0.0
  3
*D4
  1

  0
LINE
  5
7E45
  8
3
  6
CONTINUOUS
 62
     0
 10
986.97589364391843
 20
790.38396946912303
 30
0.0
 11
1064.161247496613
 21
790.38396946912303
 31
0.0
  0
LINE
  5
7E46
  8
3
  6
CONTINUOUS
 62
     0
 10
1054.161247496613
 20
1045.383969469123
 30
0.0
 11
1054.161247496613
 21
810.38396946912292
 31
0.0
  0
INSERT
  5
7E47
  8
3
  6
CONTINUOUS
 62
     0
  2
_OPEN
 10
1054.161247496613
 20
1065.383969469123
 30
0.0
 41
20.0
 42
20.0
 43
20.0
 50
90.0
  0
INSERT
  5
7E48
  8
3
  6
CONTINUOUS
 62
     0
  2
_OPEN
 10
1054.161247496613
 20
790.38396946912303
 30
0.0
 41
20.0
 42
20.0
 43
20.0
 50
270.0
  0
TEXT
  8
3
  40
30
  5
7ED0
  62
0
  72
0
  71
0
 10
969.161
 20
874.784
 30
0.000000
  1
275
  0
POINT
  5
7E4A
  8
DEFPOINTS
  6
CONTINUOUS
 62
     0
 10
722.31837464391845
 20
1065.383969469123
 30
0.0
  0
POINT
  5
7E4B
  8
DEFPOINTS
  6
CONTINUOUS
 62
     0
 10
981.97589364391843
 20
790.38396946912303
 30
0.0
  0
POINT
  5
7E4C
  8
DEFPOINTS
  6
CONTINUOUS
 62
     0
 10
1054.161247496613
 20
790.38396946912303
 30
0.0
  0
ENDBLK
  5
7CC6
  8
0
  0
BLOCK
  8
0
  2
*D5
 70
     1
 10
0.0
 20
0.0
 30
0.0
  3
*D5
  1

  0
LINE
  5
7E4D
  8
3
  6
CONTINUOUS
 62
     0
 10
986.97589364391843
 20
790.38396946912303
 30
0.0
 11
1064.161247496613
 21
790.38396946912303
 31
0.0
  0
LINE
  5
7E4E
  8
3
  6
CONTINUOUS
 62
     0
 10
986.97589364391843
 20
765.38396946912303
 30
0.0
 11
1064.161247496613
 21
765.38396946912303
 31
0.0
  0
LINE
  5
7E4F
  8
3
  6
CONTINUOUS
 62
     0
 10
1054.161247496613
 20
810.38396946912292
 30
0.0
 11
1054.161247496613
 21
830.38396946912303
 31
0.0
  0
LINE
  5
7E50
  8
3
  6
CONTINUOUS
 62
     0
 10
1054.161247496613
 20
745.38396946912303
 30
0.0
 11
1054.161247496613
 21
656.81254089769436
 31
0.0
  0
LINE
  5
7E51
  8
3
  6
CONTINUOUS
 62
     0
 10
1054.161247496613
 20
790.38396946912303
 30
0.0
 11
1054.161247496613
 21
765.38396946912303
 31
0.0
  0
INSERT
  5
7E52
  8
3
  6
CONTINUOUS
 62
     0
  2
_OPEN
 10
1054.161247496613
 20
790.38396946912303
 30
0.0
 41
20.0
 42
20.0
 43
20.0
 50
270.0
  0
INSERT
  5
7E53
  8
3
  6
CONTINUOUS
 62
     0
  2
_OPEN
 10
1054.161247496613
 20
765.38396946912303
 30
0.0
 41
20.0
 42
20.0
 43
20.0
 50
90.0
  0
TEXT
  8
3
  40
30
  5
7ED1
  62
0
  72
0
  71
0
 10
969.161
 20
637.998
 30
0.000000
  1
25
  0
POINT
  5
7E55
  8
DEFPOINTS
  6
CONTINUOUS
 62
     0
 10
981.97589364391843
 20
790.38396946912303
 30
0.0
  0
POINT
  5
7E56
  8
DEFPOINTS
  6
CONTINUOUS
 62
     0
 10
981.97589364391843
 20
765.38396946912303
 30
0.0
  0
POINT
  5
7E57
  8
DEFPOINTS
  6
CONTINUOUS
 62
     0
 10
1054.161247496613
 20
765.38396946912303
 30
0.0
  0
ENDBLK
  5
7CDE
  8
0
  0
BLOCK
  8
0
  2
*D6
 70
     1
 10
0.0
 20
0.0
 30
0.0
  3
*D6
  1

  0
LINE
  5
7E58
  8
3
  6
CONTINUOUS
 62
     0
 10
737.97589364391854
 20
1225.383969469123
 30
0.0
 11
1126.3355046439181
 21
1225.383969469123
 31
0.0
  0
LINE
  5
7E59
  8
3
  6
CONTINUOUS
 62
     0
 10
986.97589364391843
 20
765.38396946912303
 30
0.0
 11
1126.3355046439181
 21
765.38396946912303
 31
0.0
  0
LINE
  5
7E5A
  8
3
  6
CONTINUOUS
 62
     0
 10
1116.3355046439181
 20
1205.383969469123
 30
0.0
 11
1116.3355046439181
 21
785.38396946912303
 31
0.0
  0
INSERT
  5
7E5B
  8
3
  6
CONTINUOUS
 62
     0
  2
_OPEN
 10
1116.3355046439181
 20
1225.383969469123
 30
0.0
 41
20.0
 42
20.0
 43
20.0
 50
90.0
  0
INSERT
  5
7E5C
  8
3
  6
CONTINUOUS
 62
     0
  2
_OPEN
 10
1116.3355046439181
 20
765.38396946912303
 30
0.0
 41
20.0
 42
20.0
 43
20.0
 50
270.0
  0
TEXT
  8
3
  40
30
  5
7ED2
  62
0
  72
0
  71
0
 10
1031.34
 20
937.123
 30
0.000000
  1
460
  0
POINT
  5
7E5E
  8
DEFPOINTS
  6
CONTINUOUS
 62
     0
 10
732.97589364391854
 20
1225.383969469123
 30
0.0
  0
POINT
  5
7E5F
  8
DEFPOINTS
  6
CONTINUOUS
 62
     0
 10
981.97589364391843
 20
765.38396946912303
 30
0.0
  0
POINT
  5
7E60
  8
DEFPOINTS
  6
CONTINUOUS
 62
     0
 10
1116.3355046439181
 20
765.38396946912303
 30
0.0
  0
ENDBLK
  5
7BA0
  8
0
  0
BLOCK
  8
0
  2
*D7
 70
     1
 10
0.0
 20
0.0
 30
0.0
  3
*D7
  1

  0
LINE
  5
7E61
  8
3
  6
CONTINUOUS
 62
     0
 10
511.97589364391848
 20
1230.383969469123
 30
0.0
 11
511.97589364391848
 21
1269.4738274691231
 31
0.0
  0
LINE
  5
7E62
  8
3
  6
CONTINUOUS
 62
     0
 10
711.97589364391854
 20
1230.383969469123
 30
0.0
 11
711.97589364391854
 21
1269.4738274691231
 31
0.0
  0
LINE
  5
7E63
  8
3
  6
CONTINUOUS
 62
     0
 10
531.97589364391854
 20
1259.4738274691231
 30
0.0
 11
691.97589364391854
 21
1259.4738274691231
 31
0.0
  0
INSERT
  5
7E64
  8
3
  6
CONTINUOUS
 62
     0
  2
_OPEN
 10
511.97589364391848
 20
1259.4738274691231
 30
0.0
 41
20.0
 42
20.0
 43
20.0
 50
180.0
  0
INSERT
  5
7E65
  8
3
  6
CONTINUOUS
 62
     0
  2
_OPEN
 10
711.97589364391854
 20
1259.4738274691231
 30
0.0
 41
20.0
 42
20.0
 43
20.0
  0
TEXT
  8
3
  40
30
  5
7ED3
  62
0
  72
0
  71
0
 10
554.116
 20
1231.37
 30
0.000000
  1
200
  0
POINT
  5
7E67
  8
DEFPOINTS
  6
CONTINUOUS
 62
     0
 10
511.97589364391848
 20
1225.383969469123
 30
0.0
  0
POINT
  5
7E68
  8
DEFPOINTS
  6
CONTINUOUS
 62
     0
 10
711.97589364391854
 20
1225.383969469123
 30
0.0
  0
POINT
  5
7E69
  8
DEFPOINTS
  6
CONTINUOUS
 62
     0
 10
711.97589364391854
 20
1259.4738274691231
 30
0.0
  0
ENDBLK
  5
7BAD
  8
0
  0
BLOCK
  8
0
  2
*D8
 70
     1
 10
0.0
 20
0.0
 30
0.0
  3
*D8
  1

  0
LINE
  5
7E6A
  8
3
  6
CONTINUOUS
 62
     0
 10
351.97589364391848
 20
1692.326960504314
 30
0.0
 11
351.97589364391848
 21
1582.648472504314
 31
0.0
  0
LINE
  5
7E6B
  8
3
  6
CONTINUOUS
 62
     0
 10
981.97589364391843
 20
1692.326960504314
 30
0.0
 11
981.97589364391843
 21
1582.648472504314
 31
0.0
  0
LINE
  5
7E6C
  8
3
  6
CONTINUOUS
 62
     0
 10
371.97589364391848
 20
1592.648472504314
 30
0.0
 11
961.97589364391843
 21
1592.648472504314
 31
0.0
  0
INSERT
  5
7E6D
  8
3
  6
CONTINUOUS
 62
     0
  2
_OPEN
 10
351.97589364391848
 20
1592.648472504314
 30
0.0
 41
20.0
 42
20.0
 43
20.0
 50
180.0
  0
INSERT
  5
7E6E
  8
3
  6
CONTINUOUS
 62
     0
  2
_OPEN
 10
981.97589364391843
 20
1592.648472504314
 30
0.0
 41
20.0
 42
20.0
 43
20.0
  0
TEXT
  8
3
  40
30
  5
7ED4
  62
0
  72
0
  71
0
 10
580.495
 20
1564.55
 30
0.000000
  1
630
  0
POINT
  5
7E70
  8
DEFPOINTS
  6
CONTINUOUS
 62
     0
 10
351.97589364391848
 20
1697.326960504314
 30
0.0
  0
POINT
  5
7E71
  8
DEFPOINTS
  6
CONTINUOUS
 62
     0
 10
981.97589364391843
 20
1697.326960504314
 30
0.0
  0
POINT
  5
7E72
  8
DEFPOINTS
  6
CONTINUOUS
 62
     0
 10
981.97589364391843
 20
1592.648472504314
 30
0.0
  0
ENDBLK
  5
7BEC
  8
0
  0
BLOCK
  8
0
  2
*D9
 70
     1
 10
0.0
 20
0.0
 30
0.0
  3
*D9
  1

  0
LINE
  5
7E73
  8
3
  6
CONTINUOUS
 62
     0
 10
986.97589364391843
 20
2127.3269605043138
 30
0.0
 11
1093.8386636439191
 21
2127.3269605043138
 31
0.0
  0
LINE
  5
7E74
  8
3
  6
CONTINUOUS
 62
     0
 10
986.97589364391843
 20
1697.326960504314
 30
0.0
 11
1093.8386636439191
 21
1697.326960504314
 31
0.0
  0
LINE
  5
7E75
  8
3
  6
CONTINUOUS
 62
     0
 10
1083.8386636439191
 20
2107.3269605043138
 30
0.0
 11
1083.8386636439191
 21
1717.326960504314
 31
0.0
  0
INSERT
  5
7E76
  8
3
  6
CONTINUOUS
 62
     0
  2
_OPEN
 10
1083.8386636439191
 20
2127.3269605043138
 30
0.0
 41
20.0
 42
20.0
 43
20.0
 50
90.0
  0
INSERT
  5
7E77
  8
3
  6
CONTINUOUS
 62
     0
  2
_OPEN
 10
1083.8386636439191
 20
1697.326960504314
 30
0.0
 41
20.0
 42
20.0
 43
20.0
 50
270.0
  0
TEXT
  8
3
  40
30
  5
7ED5
  62
0
  72
0
  71
0
 10
998.839
 20
1854.89
 30
0.000000
  1
430
  0
POINT
  5
7E79
  8
DEFPOINTS
  6
CONTINUOUS
 62
     0
 10
981.97589364391843
 20
2127.3269605043138
 30
0.0
  0
POINT
  5
7E7A
  8
DEFPOINTS
  6
CONTINUOUS
 62
     0
 10
981.97589364391843
 20
1697.326960504314
 30
0.0
  0
POINT
  5
7E7B
  8
DEFPOINTS
  6
CONTINUOUS
 62
     0
 10
1083.8386636439191
 20
1697.326960504314
 30
0.0
  0
ENDBLK
  5
7BF9
  8
0
  0
BLOCK
  8
0
  2
*D10
 70
     1
 10
0.0
 20
0.0
 30
0.0
  3
*D10
  1

  0
LINE
  5
7E7C
  8
3
  6
CONTINUOUS
 62
     0
 10
1318.1286128472459
 20
760.38396946912303
 30
0.0
 11
1318.1286128472459
 21
676.46491246912308
 31
0.0
  0
LINE
  5
7E7D
  8
3
  6
CONTINUOUS
 62
     0
 10
1616.1286128472459
 20
760.38396946912303
 30
0.0
 11
1616.1286128472459
 21
676.46491246912308
 31
0.0
  0
LINE
  5
7E7E
  8
3
  6
CONTINUOUS
 62
     0
 10
1338.1286128472459
 20
686.46491246912296
 30
0.0
 11
1596.1286128472459
 21
686.46491246912296
 31
0.0
  0
INSERT
  5
7E7F
  8
3
  6
CONTINUOUS
 62
     0
  2
_OPEN
 10
1318.1286128472459
 20
686.46491246912296
 30
0.0
 41
20.0
 42
20.0
 43
20.0
 50
180.0
  0
INSERT
  5
7E80
  8
3
  6
CONTINUOUS
 62
     0
  2
_OPEN
 10
1616.1286128472459
 20
686.46491246912296
 30
0.0
 41
20.0
 42
20.0
 43
20.0
  0
TEXT
  8
3
  40
30
  5
7ED6
  62
0
  72
0
  71
0
 10
1402.31
 20
658.365
 30
0.000000
  1
298
  0
POINT
  5
7E82
  8
DEFPOINTS
  6
CONTINUOUS
 62
     0
 10
1318.1286128472459
 20
765.38396946912303
 30
0.0
  0
POINT
  5
7E83
  8
DEFPOINTS
  6
CONTINUOUS
 62
     0
 10
1616.1286128472459
 20
765.38396946912303
 30
0.0
  0
POINT
  5
7E84
  8
DEFPOINTS
  6
CONTINUOUS
 62
     0
 10
1616.1286128472459
 20
686.46491246912296
 30
0.0
  0
ENDBLK
  5
7C0A
  8
0
  0
BLOCK
  8
0
  2
*D11
 70
     1
 10
0.0
 20
0.0
 30
0.0
  3
*D11
  1

  0
LINE
  5
7E85
  8
3
  6
CONTINUOUS
 62
     0
 10
1748.1286128472459
 20
760.38396946912303
 30
0.0
 11
1748.1286128472459
 21
676.46491246912308
 31
0.0
  0
LINE
  5
7E86
  8
3
  6
CONTINUOUS
 62
     0
 10
1636.1286128472459
 20
686.46491246912296
 30
0.0
 11
1728.1286128472459
 21
686.46491246912296
 31
0.0
  0
INSERT
  5
7E87
  8
3
  6
CONTINUOUS
 62
     0
  2
_OPEN
 10
1616.1286128472459
 20
686.46491246912296
 30
0.0
 41
20.0
 42
20.0
 43
20.0
 50
180.0
  0
INSERT
  5
7E88
  8
3
  6
CONTINUOUS
 62
     0
  2
_OPEN
 10
1748.1286128472459
 20
686.46491246912296
 30
0.0
 41
20.0
 42
20.0
 43
20.0
  0
TEXT
  8
3
  40
30
  5
7ED7
  62
0
  72
0
  71
0
 10
1622.13
 20
658.365
 30
0.000000
  1
132
  0
POINT
  5
7E8A
  8
DEFPOINTS
  6
CONTINUOUS
 62
     0
 10
1616.1286128472459
 20
765.38396946912303
 30
0.0
  0
POINT
  5
7E8B
  8
DEFPOINTS
  6
CONTINUOUS
 62
     0
 10
1748.1286128472459
 20
765.38396946912303
 30
0.0
  0
POINT
  5
7E8C
  8
DEFPOINTS
  6
CONTINUOUS
 62
     0
 10
1748.1286128472459
 20
686.46491246912296
 30
0.0
  0
ENDBLK
  5
7C16
  8
0
  0
BLOCK
  8
0
  2
*D12
 70
     1
 10
0.0
 20
0.0
 30
0.0
  3
*D12
  1

  0
LINE
  5
7E8D
  8
3
  6
CONTINUOUS
 62
     0
 10
1546.1286128472459
 20
1229.383969469123
 30
0.0
 11
1546.1286128472459
 21
1261.538617469123
 31
0.0
  0
LINE
  5
7E8E
  8
3
  6
CONTINUOUS
 62
     0
 10
1686.1286128472459
 20
1229.383969469123
 30
0.0
 11
1686.1286128472459
 21
1261.538617469123
 31
0.0
  0
LINE
  5
7E8F
  8
3
  6
CONTINUOUS
 62
     0
 10
1526.1286128472459
 20
1251.538617469123
 30
0.0
 11
1506.1286128472459
 21
1251.538617469123
 31
0.0
  0
LINE
  5
7E90
  8
3
  6
CONTINUOUS
 62
     0
 10
1706.1286128472459
 20
1251.538617469123
 30
0.0
 11
1726.1286128472459
 21
1251.538617469123
 31
0.0
  0
LINE
  5
7E91
  8
3
  6
CONTINUOUS
 62
     0
 10
1546.1286128472459
 20
1251.538617469123
 30
0.0
 11
1686.1286128472459
 21
1251.538617469123
 31
0.0
  0
INSERT
  5
7E92
  8
3
  6
CONTINUOUS
 62
     0
  2
_OPEN
 10
1546.1286128472459
 20
1251.538617469123
 30
0.0
 41
20.0
 42
20.0
 43
20.0
  0
INSERT
  5
7E93
  8
3
  6
CONTINUOUS
 62
     0
  2
_OPEN
 10
1686.1286128472459
 20
1251.538617469123
 30
0.0
 41
20.0
 42
20.0
 43
20.0
 50
180.0
  0
TEXT
  8
3
  40
30
  5
7ED8
  62
0
  72
0
  71
0
 10
1560.41
 20
1223.44
 30
0.000000
  1
140
  0
POINT
  5
7E95
  8
DEFPOINTS
  6
CONTINUOUS
 62
     0
 10
1546.1286128472459
 20
1224.383969469123
 30
0.0
  0
POINT
  5
7E96
  8
DEFPOINTS
  6
CONTINUOUS
 62
     0
 10
1686.1286128472459
 20
1224.383969469123
 30
0.0
  0
POINT
  5
7E97
  8
DEFPOINTS
  6
CONTINUOUS
 62
     0
 10
1686.1286128472459
 20
1251.538617469123
 30
0.0
  0
ENDBLK
  5
7C23
  8
0
  0
BLOCK
  8
0
  2
*D13
 70
     1
 10
0.0
 20
0.0
 30
0.0
  3
*D13
  1

  0
LINE
  5
7E98
  8
3
  6
CONTINUOUS
 62
     0
 10
1316.1286128472459
 20
1180.383969469123
 30
0.0
 11
1316.1286128472459
 21
1319.086165469123
 31
0.0
  0
LINE
  5
7E99
  8
3
  6
CONTINUOUS
 62
     0
 10
1616.1286128472459
 20
1301.510615469123
 30
0.0
 11
1616.1286128472459
 21
1319.086165469123
 31
0.0
  0
LINE
  5
7E9A
  8
3
  6
CONTINUOUS
 62
     0
 10
1336.1286128472459
 20
1309.086165469123
 30
0.0
 11
1596.1286128472459
 21
1309.086165469123
 31
0.0
  0
INSERT
  5
7E9B
  8
3
  6
CONTINUOUS
 62
     0
  2
_OPEN
 10
1316.1286128472459
 20
1309.086165469123
 30
0.0
 41
20.0
 42
20.0
 43
20.0
 50
180.0
  0
INSERT
  5
7E9C
  8
3
  6
CONTINUOUS
 62
     0
  2
_OPEN
 10
1616.1286128472459
 20
1309.086165469123
 30
0.0
 41
20.0
 42
20.0
 43
20.0
  0
TEXT
  8
3
  40
30
  5
7ED9
  62
0
  72
0
  71
0
 10
1402.31
 20
1305.99
 30
0.000000
  1
MAX
  0
TEXT
  8
3
  40
30
  5
7EDA
  62
0
  72
0
  71
0
 10
1402.31
 20
1266.99
 30
0.000000
  1
300
  0
POINT
  5
7E9E
  8
DEFPOINTS
  6
CONTINUOUS
 62
     0
 10
1316.1286128472459
 20
1175.383969469123
 30
0.0
  0
POINT
  5
7E9F
  8
DEFPOINTS
  6
CONTINUOUS
 62
     0
 10
1616.1286128472459
 20
1296.510615469123
 30
0.0
  0
POINT
  5
7EA0
  8
DEFPOINTS
  6
CONTINUOUS
 62
     0
 10
1616.1286128472459
 20
1309.086165469123
 30
0.0
  0
ENDBLK
  5
7CF4
  8
0
  0
BLOCK
  8
0
  2
*D14
 70
     1
 10
0.0
 20
0.0
 30
0.0
  3
*D14
  1

  0
LINE
  5
7EA1
  8
3
  6
CONTINUOUS
 62
     0
 10
1694.1286128472459
 20
1190.383969469123
 30
0.0
 11
1694.1286128472459
 21
1319.086165469123
 31
0.0
  0
LINE
  5
7EA2
  8
3
  6
CONTINUOUS
 62
     0
 10
1636.1286128472459
 20
1309.086165469123
 30
0.0
 11
1674.1286128472459
 21
1309.086165469123
 31
0.0
  0
TEXT
  8
3
  40
30
  5
7EDB
  62
0
  72
0
  71
0
 10
1592.10
 20
1281.12
 30
0.000000
  1
78
  0
INSERT
  5
7EA4
  8
3
  6
CONTINUOUS
 62
     0
  2
_OPEN
 10
1616.1286128472459
 20
1309.086165469123
 30
0.0
 41
20.0
 42
20.0
 43
20.0
 50
180.0
  0
INSERT
  5
7EA5
  8
3
  6
CONTINUOUS
 62
     0
  2
_OPEN
 10
1694.1286128472459
 20
1309.086165469123
 30
0.0
 41
20.0
 42
20.0
 43
20.0
  0
POINT
  5
7EA6
  8
DEFPOINTS
  6
CONTINUOUS
 62
     0
 10
1616.1286128472459
 20
1296.510615469123
 30
0.0
  0
POINT
  5
7EA7
  8
DEFPOINTS
  6
CONTINUOUS
 62
     0
 10
1694.1286128472459
 20
1185.383969469123
 30
0.0
  0
POINT
  5
7EA8
  8
DEFPOINTS
  6
CONTINUOUS
 62
     0
 10
1694.1286128472459
 20
1309.086165469123
 30
0.0
  0
ENDBLK
  5
7C95
  8
0
  0
BLOCK
  8
0
  2
*D15
 70
     1
 10
0.0
 20
0.0
 30
0.0
  3
*D15
  1

  0
LINE
  5
7EA9
  8
3
  6
CONTINUOUS
 62
     0
 10
1699.1286128472459
 20
1165.383969469123
 30
0.0
 11
1769.0284798472469
 21
1165.383969469123
 31
0.0
  0
LINE
  5
7EAA
  8
3
  6
CONTINUOUS
 62
     0
 10
1699.1286128472459
 20
965.38396946912303
 30
0.0
 11
1769.0284798472469
 21
965.38396946912303
 31
0.0
  0
LINE
  5
7EAB
  8
3
  6
CONTINUOUS
 62
     0
 10
1759.0284798472469
 20
1145.383969469123
 30
0.0
 11
1759.0284798472469
 21
985.38396946912292
 31
0.0
  0
INSERT
  5
7EAC
  8
3
  6
CONTINUOUS
 62
     0
  2
_OPEN
 10
1759.0284798472469
 20
1165.383969469123
 30
0.0
 41
20.0
 42
20.0
 43
20.0
 50
90.0
  0
INSERT
  5
7EAD
  8
3
  6
CONTINUOUS
 62
     0
  2
_OPEN
 10
1759.0284798472469
 20
965.38396946912303
 30
0.0
 41
20.0
 42
20.0
 43
20.0
 50
270.0
  0
TEXT
  8
3
  40
30
  5
7EDC
  62
0
  72
0
  71
0
 10
1674.03
 20
1009.10
 30
0.000000
  1
φ200
  0
POINT
  5
7EAF
  8
DEFPOINTS
  6
CONTINUOUS
 62
     0
 10
1694.1286128472459
 20
1165.383969469123
 30
0.0
  0
POINT
  5
7EB0
  8
DEFPOINTS
  6
CONTINUOUS
 62
     0
 10
1694.1286128472459
 20
965.38396946912303
 30
0.0
  0
POINT
  5
7EB1
  8
DEFPOINTS
  6
CONTINUOUS
 62
     0
 10
1759.0284798472469
 20
965.38396946912303
 30
0.0
  0
ENDBLK
  5
7CE9
  8
0
  0
BLOCK
  8
0
  2
*D16
 70
     1
 10
0.0
 20
0.0
 30
0.0
  3
*D16
  1

  0
LINE
  5
7EB2
  8
3
  6
CONTINUOUS
 62
     0
 10
361.40870564391849
 20
1070.383969469123
 30
0.0
 11
361.40870564391849
 21
1325.898931469123
 31
0.0
  0
LINE
  5
7EB3
  8
3
  6
CONTINUOUS
 62
     0
 10
511.97589364391848
 20
1252.3651364691229
 30
0.0
 11
511.97589364391848
 21
1325.898931469123
 31
0.0
  0
LINE
  5
7EB4
  8
3
  6
CONTINUOUS
 62
     0
 10
381.40870564391849
 20
1315.898931469123
 30
0.0
 11
491.97589364391848
 21
1315.898931469123
 31
0.0
  0
INSERT
  5
7EB5
  8
3
  6
CONTINUOUS
 62
     0
  2
_OPEN
 10
361.40870564391849
 20
1315.898931469123
 30
0.0
 41
20.0
 42
20.0
 43
20.0
 50
180.0
  0
INSERT
  5
7EB6
  8
3
  6
CONTINUOUS
 62
     0
  2
_OPEN
 10
511.97589364391848
 20
1315.898931469123
 30
0.0
 41
20.0
 42
20.0
 43
20.0
  0
TEXT
  8
3
  40
30
  5
7EDD
  62
0
  72
0
  71
0
 10
392.690
 20
1287.80
 30
0.000000
  1
151
  0
POINT
  5
7EB8
  8
DEFPOINTS
  6
CONTINUOUS
 62
     0
 10
361.40870564391849
 20
1065.383969469123
 30
0.0
  0
POINT
  5
7EB9
  8
DEFPOINTS
  6
CONTINUOUS
 62
     0
 10
511.97589364391848
 20
1247.3651364691229
 30
0.0
  0
POINT
  5
7EBA
  8
DEFPOINTS
  6
CONTINUOUS
 62
     0
 10
511.97589364391848
 20
1315.898931469123
 30
0.0
  0
ENDBLK
  5
7D11
  8
0
  0
BLOCK
  8
0
  2
*D17
 70
     1
 10
0.0
 20
0.0
 30
0.0
  3
*D17
  1

  0
LINE
  5
7EBB
  8
3
  6
CONTINUOUS
 62
     0
 10
511.97589364391848
 20
1230.383969469123
 30
0.0
 11
511.97589364391848
 21
1325.898931469123
 31
0.0
  0
LINE
  5
7EBC
  8
3
  6
CONTINUOUS
 62
     0
 10
722.97589364391854
 20
1215.383969469123
 30
0.0
 11
722.97589364391854
 21
1325.898931469123
 31
0.0
  0
LINE
  5
7EBD
  8
3
  6
CONTINUOUS
 62
     0
 10
531.97589364391854
 20
1315.898931469123
 30
0.0
 11
702.97589364391854
 21
1315.898931469123
 31
0.0
  0
INSERT
  5
7EBE
  8
3
  6
CONTINUOUS
 62
     0
  2
_OPEN
 10
511.97589364391848
 20
1315.898931469123
 30
0.0
 41
20.0
 42
20.0
 43
20.0
 50
180.0
  0
INSERT
  5
7EBF
  8
3
  6
CONTINUOUS
 62
     0
  2
_OPEN
 10
722.97589364391854
 20
1315.898931469123
 30
0.0
 41
20.0
 42
20.0
 43
20.0
  0
TEXT
  8
3
  40
30
  5
7EDE
  62
0
  72
0
  71
0
 10
557.476
 20
1287.80
 30
0.000000
  1
211
  0
POINT
  5
7EC1
  8
DEFPOINTS
  6
CONTINUOUS
 62
     0
 10
511.97589364391848
 20
1225.383969469123
 30
0.0
  0
POINT
  5
7EC2
  8
DEFPOINTS
  6
CONTINUOUS
 62
     0
 10
722.97589364391854
 20
1210.383969469123
 30
0.0
  0
POINT
  5
7EC3
  8
DEFPOINTS
  6
CONTINUOUS
 62
     0
 10
722.97589364391854
 20
1315.898931469123
 30
0.0
  0
ENDBLK
  5
7D3B
  8
0
  0
BLOCK
  8
0
  2
*D18
 70
     1
 10
0.0
 20
0.0
 30
0.0
  3
*D18
  1

  0
LINE
  5
7EC4
  8
3
 62
     0
 10
361.40870564391849
 20
1330.898931469123
 30
0.0
 11
361.40870564391849
 21
1396.1866873007959
 31
0.0
  0
LINE
  5
7EC5
  8
3
 62
     0
 10
981.97589364391843
 20
845.38396946912314
 30
0.0
 11
981.97589364391843
 21
1396.1866873007959
 31
0.0
  0
LINE
  5
7EC6
  8
3
 62
     0
 10
381.40870564391849
 20
1386.1866873007959
 30
0.0
 11
961.97589364391843
 21
1386.1866873007959
 31
0.0
  0
INSERT
  5
7EC7
  8
3
 62
     0
  2
_OPEN
 10
361.40870564391849
 20
1386.1866873007959
 30
0.0
 41
20.0
 42
20.0
 43
20.0
 50
180.0
  0
INSERT
  5
7EC8
  8
3
 62
     0
  2
_OPEN
 10
981.97589364391843
 20
1386.1866873007959
 30
0.0
 41
20.0
 42
20.0
 43
20.0
  0
TEXT
  8
3
  40
30
  5
7EDF
  62
0
  72
0
  71
0
 10
621.465
 20
1358.09
 30
0.000000
  1
621
  0
POINT
  5
7ECA
  8
DEFPOINTS
 62
     0
 10
361.40870564391849
 20
1325.898931469123
 30
0.0
  0
POINT
  5
7ECB
  8
DEFPOINTS
 62
     0
 10
981.97589364391843
 20
840.38396946912303
 30
0.0
  0
POINT
  5
7ECC
  8
DEFPOINTS
 62
     0
 10
981.97589364391843
 20
1386.1866873007959
 30
0.0
  0
ENDBLK
  5
7D00
  8
0
  0
ENDSEC
  0
SECTION
  2
ENTITIES
  0
LINE
  5
7A89
  8
1
  6
CONTINUOUS
 10
981.97589364391843
 20
840.38396946912303
 30
0.0
 11
351.97589364391848
 21
840.38396946912303
 31
0.0
  0
LINE
  5
7A8A
  8
1
  6
CONTINUOUS
 10
981.97589364391843
 20
790.38396946912303
 30
0.0
 11
351.97589364391848
 21
790.38396946912303
 31
0.0
  0
LINE
  5
7A8B
  8
1
  6
CONTINUOUS
 10
934.97589364391854
 20
1175.383969469123
 30
0.0
 11
404.97589364391848
 21
1175.383969469123
 31
0.0
  0
LINE
  5
7A8C
  8
1
  6
CONTINUOUS
 10
722.97589364391854
 20
1210.383969469123
 30
0.0
 11
711.97589364391854
 21
1210.383969469123
 31
0.0
  0
ARC
  5
7A8D
  8
1
  6
CONTINUOUS
 10
527.97589364391854
 20
1081.383969469123
 30
0.0
 40
195.0
 50
269.69999999999999
 51
0.0
  0
LINE
  5
7A8E
  8
1
  6
CONTINUOUS
 10
732.97589364391854
 20
1225.383969469123
 30
0.0
 11
490.97589364391848
 21
1225.383969469123
 31
0.0
  0
LINE
  5
7A8F
  8
1
  6
CONTINUOUS
 10
533.17589364391847
 20
1110.683969469123
 30
0.0
 11
826.97589364391854
 21
973.1839694691231
 31
0.0
  0
LINE
  5
7A90
  8
1
  6
CONTINUOUS
 10
495.0758936439185
 20
1018.383969469123
 30
0.0
 11
800.27589364391849
 21
908.58396946912296
 31
0.0
  0
CIRCLE
  5
7A91
  8
1
  6
CONTINUOUS
 10
511.97589364391848
 20
1065.383969469123
 30
0.0
 40
100.0
  0
CIRCLE
  5
7A92
  8
1
  6
CONTINUOUS
 10
511.97589364391848
 20
1065.383969469123
 30
0.0
 40
120.0
  0
LINE
  5
7A93
  8
1
  6
CONTINUOUS
 10
404.97589364391848
 20
840.38396946912303
 30
0.0
 11
404.97589364391848
 21
1175.383969469123
 31
0.0
  0
LINE
  5
7A94
  8
1
  6
CONTINUOUS
 10
376.97589364391848
 20
840.38396946912303
 30
0.0
 11
376.97589364391848
 21
1119.0839694691231
 31
0.0
  0
LINE
  5
7A95
  8
1
  6
CONTINUOUS
 10
646.97589364391854
 20
1119.0839694691231
 30
0.0
 11
646.97589364391854
 21
840.38396946912303
 31
0.0
  0
ARC
  5
7A96
  8
1
  6
CONTINUOUS
 10
500.97589364391848
 20
1054.383969469123
 30
0.0
 40
140.0
 50
89.599999999999994
 51
180.59999999999991
  0
LINE
  5
7A97
  8
2
  6
CENTER
 10
511.97589364391848
 20
758.17107746912302
 30
0.0
 11
511.97589364391848
 21
1247.3651364691229
 31
0.0
  0
CIRCLE
  5
7A98
  8
1
  6
CONTINUOUS
 10
511.97589364391848
 20
1065.383969469123
 30
0.0
 40
50.0
  0
LINE
  5
7A99
  8
1
  6
CONTINUOUS
 10
646.97589364391854
 20
1032.0839694691231
 30
0.0
 11
376.97589364391848
 21
1032.0839694691231
 31
0.0
  0
ARC
  5
7A9A
  8
1
  6
CONTINUOUS
 10
525.97589364391854
 20
1051.3839694691219
 30
0.0
 40
165.0
 50
179.40000000000001
 51
270.30000000000001
  0
LINE
  5
7A9B
  8
2
  6
CENTER
 10
1715.022545847246
 20
1065.383969469123
 30
0.0
 11
1267.3190658472461
 21
1065.383969469123
 31
0.0
  0
LINE
  5
7A9C
  8
1
  6
CONTINUOUS
 10
351.97589364391848
 20
765.38396946912303
 30
0.0
 11
351.97589364391848
 21
840.38396946912303
 31
0.0
  0
LINE
  5
7A9D
  8
1
  6
CONTINUOUS
 10
376.97589364391848
 20
765.38396946912303
 30
0.0
 11
376.97589364391848
 21
790.38396946912303
 31
0.0
  0
LINE
  5
7A9E
  8
1
  6
CONTINUOUS
 10
376.97589364391848
 20
765.38396946912303
 30
0.0
 11
351.97589364391848
 21
765.38396946912303
 31
0.0
  0
LINE
  5
7A9F
  8
1
  6
CONTINUOUS
 10
460.37589364391852
 20
1190.383969469123
 30
0.0
 11
563.57589364391845
 21
1190.383969469123
 31
0.0
  0
LINE
  5
7AA0
  8
1
  6
CONTINUOUS
 10
510.97589364391848
 20
1225.383969469123
 30
0.0
 11
525.97589364391854
 21
1210.383969469123
 31
0.0
  0
LINE
  5
7AA1
  8
1
  6
CONTINUOUS
 10
460.37589364391852
 20
1190.383969469123
 30
0.0
 11
376.97589364391848
 21
1119.0839694691231
 31
0.0
  0
LINE
  5
7AA2
  8
1
  6
CONTINUOUS
 10
511.97589364391848
 20
1210.383969469123
 30
0.0
 11
501.97589364391848
 21
1210.383969469123
 31
0.0
  0
LINE
  5
7AA3
  8
1
  6
CONTINUOUS
 10
511.97589364391848
 20
1225.383969469123
 30
0.0
 11
511.97589364391848
 21
1210.383969469123
 31
0.0
  0
LINE
  5
7AA4
  8
1
  6
CONTINUOUS
 10
501.97589364391848
 20
1210.383969469123
 30
0.0
 11
501.97589364391848
 21
1194.383969469123
 31
0.0
  0
LINE
  5
7AA5
  8
1
  6
CONTINUOUS
 10
563.57589364391845
 20
1190.383969469123
 30
0.0
 11
646.97589364391854
 21
1119.0839694691231
 31
0.0
  0
LINE
  5
7AA6
  8
1
  6
CONTINUOUS
 10
697.97589364391854
 20
1210.383969469123
 30
0.0
 11
525.97589364391854
 21
1210.383969469123
 31
0.0
  0
LINE
  5
7AA7
  8
1
  6
CONTINUOUS
 10
711.97589364391854
 20
1225.383969469123
 30
0.0
 11
711.97589364391854
 21
1210.383969469123
 31
0.0
  0
LINE
  5
7AA8
  8
1
  6
CONTINUOUS
 10
712.97589364391854
 20
1225.383969469123
 30
0.0
 11
697.97589364391854
 21
1210.383969469123
 31
0.0
  0
LINE
  5
7AA9
  8
1
  6
CONTINUOUS
 10
934.97589364391854
 20
840.38396946912303
 30
0.0
 11
934.97589364391854
 21
1175.383969469123
 31
0.0
  0
LINE
  5
7AAA
  8
1
  6
CONTINUOUS
 10
723.67589364391847
 20
861.08396946912308
 30
0.0
 11
974.67589364391847
 21
861.08396946912308
 31
0.0
  0
CIRCLE
  5
7AAB
  8
1
  6
CONTINUOUS
 10
812.17589364391847
 20
941.48396946912305
 30
0.0
 40
35.0
  0
ARC
  5
7AAC
  8
1
  6
CONTINUOUS
 10
816.47589364391843
 20
941.08396946912308
 30
0.0
 40
85.0
 50
324.69999999999987
 51
215.30000000000001
  0
LINE
  5
7AAD
  8
2
  6
CENTER
 10
847.17589364391847
 20
941.48396946912305
 30
0.0
 11
777.17589364391847
 21
941.48396946912305
 31
0.0
  0
LINE
  5
7AAE
  8
1
  6
CONTINUOUS
 10
723.67589364391847
 20
840.38396946912303
 30
0.0
 11
723.67589364391847
 21
861.08396946912308
 31
0.0
  0
LINE
  5
7AAF
  8
1
  6
CONTINUOUS
 10
738.97589364391854
 20
861.08396946912308
 30
0.0
 11
738.97589364391854
 21
869.08396946912308
 31
0.0
  0
LINE
  5
7AB0
  8
1
  6
CONTINUOUS
 10
738.97589364391854
 20
869.08396946912308
 30
0.0
 11
747.17589364391858
 21
891.88396946912303
 31
0.0
  0
LINE
  5
7AB1
  8
2
  6
CENTER
 10
812.17589364391847
 20
906.48396946912294
 30
0.0
 11
812.17589364391847
 21
976.48396946912305
 31
0.0
  0
LINE
  5
7AB2
  8
1
  6
CONTINUOUS
 10
893.97589364391854
 20
869.08396946912308
 30
0.0
 11
885.87589364391852
 21
891.88396946912303
 31
0.0
  0
LINE
  5
7AB3
  8
1
  6
CONTINUOUS
 10
893.97589364391854
 20
861.08396946912308
 30
0.0
 11
893.97589364391854
 21
869.08396946912308
 31
0.0
  0
LINE
  5
7AB4
  8
1
  6
CONTINUOUS
 10
981.97589364391843
 20
765.38396946912303
 30
0.0
 11
981.97589364391843
 21
840.38396946912303
 31
0.0
  0
LINE
  5
7AB5
  8
1
  6
CONTINUOUS
 10
956.97589364391843
 20
765.38396946912303
 30
0.0
 11
956.97589364391843
 21
790.38396946912303
 31
0.0
  0
LINE
  5
7AB6
  8
1
  6
CONTINUOUS
 10
981.97589364391843
 20
765.38396946912303
 30
0.0
 11
956.97589364391843
 21
765.38396946912303
 31
0.0
  0
LINE
  5
7AB7
  8
1
  6
CONTINUOUS
 10
974.67589364391847
 20
861.08396946912308
 30
0.0
 11
974.67589364391847
 21
840.38396946912303
 31
0.0
  0
LINE
  5
7AB8
  8
1
  6
CONTINUOUS
 10
722.97589364391854
 20
1210.383969469123
 30
0.0
 11
722.97589364391854
 21
1081.383969469123
 31
0.0
  0
LINE
  5
7AB9
  8
1
  6
CONTINUOUS
 10
523.97589364391854
 20
1781.326960504314
 30
0.0
 11
800.17589364391858
 21
1781.326960504314
 31
0.0
  0
LINE
  5
7ABA
  8
1
  6
CONTINUOUS
 10
404.97589364391848
 20
1695.326960504314
 30
0.0
 11
934.97589364391854
 21
1695.326960504314
 31
0.0
  0
LINE
  5
7ABB
  8
1
  6
CONTINUOUS
 10
711.97589364391854
 20
2005.326960504314
 30
0.0
 11
981.97589364391843
 21
2005.326960504314
 31
0.0
  0
LINE
  5
7ABC
  8
1
  6
CONTINUOUS
 10
404.97589364391848
 20
1770.326960504314
 30
0.0
 11
934.97589364391854
 21
1770.326960504314
 31
0.0
  0
LINE
  5
7ABD
  8
1
  6
CONTINUOUS
 10
351.97589364391848
 20
1697.326960504314
 30
0.0
 11
351.97589364391848
 21
2127.3269605043138
 31
0.0
  0
LINE
  5
7ABE
  8
1
  6
CONTINUOUS
 10
376.97589364391848
 20
2065.3269605043138
 30
0.0
 11
376.97589364391848
 21
2127.3269605043138
 31
0.0
  0
LINE
  5
7ABF
  8
1
  6
CONTINUOUS
 10
561.97589364391854
 20
1717.826960504314
 30
0.0
 11
461.97589364391848
 21
1717.826960504314
 31
0.0
  0
LINE
  5
7AC0
  8
1
  6
CONTINUOUS
 10
561.97589364391854
 20
1747.8269605043149
 30
0.0
 11
461.97589364391848
 21
1747.8269605043149
 31
0.0
  0
LINE
  5
7AC1
  8
1
  6
CONTINUOUS
 10
631.97589364391854
 20
2073.126960504314
 30
0.0
 11
391.97589364391848
 21
2073.126960504314
 31
0.0
  0
LINE
  5
7AC2
  8
1
  6
CONTINUOUS
 10
631.97589364391854
 20
1917.526960504314
 30
0.0
 11
391.97589364391848
 21
1917.526960504314
 31
0.0
  0
LINE
  5
7AC3
  8
1
  6
CONTINUOUS
 10
372.97589364391848
 20
2065.3269605043138
 30
0.0
 11
711.97589364391854
 21
2065.3269605043138
 31
0.0
  0
LINE
  5
7AC4
  8
1
  6
CONTINUOUS
 10
711.97589364391854
 20
1925.326960504314
 30
0.0
 11
372.97589364391848
 21
1925.326960504314
 31
0.0
  0
LINE
  5
7AC5
  8
1
  6
CONTINUOUS
 10
711.97589364391854
 20
1925.326960504314
 30
0.0
 11
511.97589364391848
 21
2065.3269605043138
 31
0.0
  0
LINE
  5
7AC6
  8
1
  6
CONTINUOUS
 10
711.97589364391854
 20
2065.3269605043138
 30
0.0
 11
511.97589364391848
 21
1925.326960504314
 31
0.0
  0
LINE
  5
7AC7
  8
1
  6
CONTINUOUS
 10
499.97589364391848
 20
1747.8269605043149
 30
0.0
 11
499.97589364391848
 21
1917.526960504314
 31
0.0
  0
LINE
  5
7AC8
  8
1
  6
CONTINUOUS
 10
351.97589364391848
 20
1781.326960504314
 30
0.0
 11
499.97589364391848
 21
1781.326960504314
 31
0.0
  0
LINE
  5
7AC9
  8
1
  6
CONTINUOUS
 10
404.97589364391848
 20
1695.326960504314
 30
0.0
 11
404.97589364391848
 21
1770.326960504314
 31
0.0
  0
LINE
  5
7ACA
  8
1
  6
CONTINUOUS
 10
376.97589364391848
 20
1697.326960504314
 30
0.0
 11
376.97589364391848
 21
1781.326960504314
 31
0.0
  0
LINE
  5
7ACB
  8
1
  6
CONTINUOUS
 10
376.97589364391848
 20
1697.326960504314
 30
0.0
 11
351.97589364391848
 21
1697.326960504314
 31
0.0
  0
LINE
  5
7ACC
  8
1
  6
CONTINUOUS
 10
461.97589364391848
 20
1717.826960504314
 30
0.0
 11
461.97589364391848
 21
1747.8269605043149
 31
0.0
  0
LINE
  5
7ACD
  8
1
  6
CONTINUOUS
 10
360.97589364391848
 20
1937.326960504314
 30
0.0
 11
360.97589364391848
 21
2053.3269605043138
 31
0.0
  0
LINE
  5
7ACE
  8
1
  6
CONTINUOUS
 10
391.97589364391848
 20
2065.126960504314
 30
0.0
 11
391.97589364391848
 21
2073.126960504314
 31
0.0
  0
LINE
  5
7ACF
  8
1
  6
CONTINUOUS
 10
391.97589364391848
 20
1925.526960504314
 30
0.0
 11
391.97589364391848
 21
1917.526960504314
 31
0.0
  0
ARC
  5
7AD0
  8
1
  6
CONTINUOUS
 10
372.97589364391848
 20
1937.326960504314
 30
0.0
 40
12.0
 50
180.0
 51
270.0
  0
ARC
  5
7AD1
  8
1
  6
CONTINUOUS
 10
372.97589364391848
 20
2053.3269605043138
 30
0.0
 40
12.0
 50
90.0
 51
180.0
  0
LINE
  5
7AD2
  8
1
  6
CONTINUOUS
 10
351.97589364391848
 20
2005.326960504314
 30
0.0
 11
360.97589364391848
 21
2005.326960504314
 31
0.0
  0
LINE
  5
7AD3
  8
1
  6
CONTINUOUS
 10
511.97589364391848
 20
1925.326960504314
 30
0.0
 11
511.97589364391848
 21
2065.3269605043138
 31
0.0
  0
LINE
  5
7AD4
  8
1
  6
CONTINUOUS
 10
523.97589364391854
 20
1747.8269605043149
 30
0.0
 11
523.97589364391854
 21
1917.526960504314
 31
0.0
  0
LINE
  5
7AD5
  8
1
  6
CONTINUOUS
 10
561.97589364391854
 20
1717.826960504314
 30
0.0
 11
561.97589364391854
 21
1747.8269605043149
 31
0.0
  0
LINE
  5
7AD6
  8
1
  6
CONTINUOUS
 10
631.97589364391854
 20
2065.126960504314
 30
0.0
 11
631.97589364391854
 21
2073.126960504314
 31
0.0
  0
LINE
  5
7AD7
  8
1
  6
CONTINUOUS
 10
631.97589364391854
 20
1925.526960504314
 30
0.0
 11
631.97589364391854
 21
1917.526960504314
 31
0.0
  0
LINE
  5
7AD8
  8
1
  6
CONTINUOUS
 10
711.97589364391854
 20
2065.3269605043138
 30
0.0
 11
711.97589364391854
 21
1925.326960504314
 31
0.0
  0
LINE
  5
7AD9
  8
1
  6
CONTINUOUS
 10
376.97589364391848
 20
2127.3269605043138
 30
0.0
 11
351.97589364391848
 21
2127.3269605043138
 31
0.0
  0
LINE
  5
7ADA
  8
1
  6
CONTINUOUS
 10
981.97589364391843
 20
1697.326960504314
 30
0.0
 11
981.97589364391843
 21
2127.3269605043138
 31
0.0
  0
LINE
  5
7ADB
  8
1
  6
CONTINUOUS
 10
956.97589364391843
 20
2005.326960504314
 30
0.0
 11
956.97589364391843
 21
2127.3269605043138
 31
0.0
  0
LINE
  5
7ADC
  8
1
  6
CONTINUOUS
 10
824.17589364391858
 20
1781.326960504314
 30
0.0
 11
981.97589364391843
 21
1781.326960504314
 31
0.0
  0
LINE
  5
7ADD
  8
1
  6
CONTINUOUS
 10
824.17589364391858
 20
1747.8269605043149
 30
0.0
 11
824.17589364391858
 21
1800.526960504314
 31
0.0
  0
LINE
  5
7ADE
  8
1
  6
CONTINUOUS
 10
800.17589364391858
 20
1747.8269605043149
 30
0.0
 11
800.17589364391858
 21
1800.526960504314
 31
0.0
  0
LINE
  5
7ADF
  8
1
  6
CONTINUOUS
 10
847.17589364391847
 20
1747.8269605043149
 30
0.0
 11
777.17589364391847
 21
1747.8269605043149
 31
0.0
  0
LINE
  5
7AE0
  8
1
  6
CONTINUOUS
 10
847.17589364391847
 20
1717.826960504314
 30
0.0
 11
777.17589364391847
 21
1717.826960504314
 31
0.0
  0
LINE
  5
7AE1
  8
1
  6
CONTINUOUS
 10
777.17589364391847
 20
1717.826960504314
 30
0.0
 11
777.17589364391847
 21
1747.8269605043149
 31
0.0
  0
LINE
  5
7AE2
  8
1
  6
CONTINUOUS
 10
847.17589364391847
 20
1717.826960504314
 30
0.0
 11
847.17589364391847
 21
1747.8269605043149
 31
0.0
  0
LINE
  5
7AE3
  8
1
  6
CONTINUOUS
 10
731.47589364391854
 20
1991.4269605043139
 30
0.0
 11
901.47589364391843
 21
1991.4269605043139
 31
0.0
  0
LINE
  5
7AE4
  8
1
  6
CONTINUOUS
 10
731.47589364391854
 20
1800.526960504314
 30
0.0
 11
901.47589364391843
 21
1800.526960504314
 31
0.0
  0
LINE
  5
7AE5
  8
1
  6
CONTINUOUS
 10
731.47589364391854
 20
1800.526960504314
 30
0.0
 11
731.47589364391854
 21
1991.4269605043139
 31
0.0
  0
LINE
  5
7AE6
  8
1
  6
CONTINUOUS
 10
901.47589364391843
 20
1800.526960504314
 30
0.0
 11
901.47589364391843
 21
1991.4269605043139
 31
0.0
  0
LINE
  5
7AE7
  8
1
  6
CONTINUOUS
 10
934.97589364391854
 20
1695.326960504314
 30
0.0
 11
934.97589364391854
 21
1770.326960504314
 31
0.0
  0
LINE
  5
7AE8
  8
1
  6
CONTINUOUS
 10
981.97589364391843
 20
1697.326960504314
 30
0.0
 11
956.97589364391843
 21
1697.326960504314
 31
0.0
  0
LINE
  5
7AE9
  8
1
  6
CONTINUOUS
 10
956.97589364391843
 20
1697.326960504314
 30
0.0
 11
956.97589364391843
 21
1781.326960504314
 31
0.0
  0
LINE
  5
7AEA
  8
1
  6
CONTINUOUS
 10
981.97589364391843
 20
2127.3269605043138
 30
0.0
 11
956.97589364391843
 21
2127.3269605043138
 31
0.0
  0
LINE
  5
7AEB
  8
1
  6
CONTINUOUS
 10
1318.1286128472459
 20
765.38396946912303
 30
0.0
 11
1748.1286128472459
 21
765.38396946912303
 31
0.0
  0
LINE
  5
7AEC
  8
1
  6
CONTINUOUS
 10
1368.6286128472459
 20
1053.383969469123
 30
0.0
 11
1453.528612847246
 21
1053.383969469123
 31
0.0
  0
LINE
  5
7AED
  8
1
  6
CONTINUOUS
 10
1368.6286128472459
 20
1077.383969469123
 30
0.0
 11
1484.4286128472461
 21
1077.383969469123
 31
0.0
  0
LINE
  5
7AEE
  8
1
  6
CONTINUOUS
 10
1368.6286128472459
 20
929.48396946912305
 30
0.0
 11
1426.1286128472459
 21
929.48396946912305
 31
0.0
  0
LINE
  5
7AEF
  8
1
  6
CONTINUOUS
 10
1368.6286128472459
 20
953.48396946912305
 30
0.0
 11
1426.1286128472459
 21
953.48396946912305
 31
0.0
  0
LINE
  5
7AF0
  8
1
  6
CONTINUOUS
 10
1316.1286128472459
 20
840.38396946912303
 30
0.0
 11
1626.1286128472459
 21
840.38396946912303
 31
0.0
  0
LINE
  5
7AF1
  8
1
  6
CONTINUOUS
 10
1318.1286128472459
 20
790.38396946912303
 30
0.0
 11
1748.1286128472459
 21
790.38396946912303
 31
0.0
  0
LINE
  5
7AF2
  8
1
  6
CONTINUOUS
 10
1368.6286128472459
 20
1115.3839694691219
 30
0.0
 11
1368.6286128472459
 21
1015.383969469123
 31
0.0
  0
LINE
  5
7AF3
  8
1
  6
CONTINUOUS
 10
1338.6286128472459
 20
1115.3839694691219
 30
0.0
 11
1338.6286128472459
 21
1015.383969469123
 31
0.0
  0
LINE
  5
7AF4
  8
1
  6
CONTINUOUS
 10
1391.1286128472459
 20
1175.383969469123
 30
0.0
 11
1391.1286128472459
 21
840.38396946912303
 31
0.0
  0
LINE
  5
7AF5
  8
1
  6
CONTINUOUS
 10
1316.1286128472459
 20
1175.383969469123
 30
0.0
 11
1316.1286128472459
 21
840.38396946912303
 31
0.0
  0
LINE
  5
7AF6
  8
1
  6
CONTINUOUS
 10
1318.1286128472459
 20
790.38396946912303
 30
0.0
 11
1318.1286128472459
 21
765.38396946912303
 31
0.0
  0
LINE
  5
7AF7
  8
1
  6
CONTINUOUS
 10
1338.6286128472459
 20
906.48396946912294
 30
0.0
 11
1368.6286128472459
 21
906.48396946912294
 31
0.0
  0
LINE
  5
7AF8
  8
1
  6
CONTINUOUS
 10
1338.6286128472459
 20
976.48396946912305
 30
0.0
 11
1368.6286128472459
 21
976.48396946912305
 31
0.0
  0
LINE
  5
7AF9
  8
1
  6
CONTINUOUS
 10
1368.6286128472459
 20
976.48396946912305
 30
0.0
 11
1368.6286128472459
 21
906.48396946912294
 31
0.0
  0
LINE
  5
7AFA
  8
1
  6
CONTINUOUS
 10
1338.6286128472459
 20
976.48396946912305
 30
0.0
 11
1338.6286128472459
 21
906.48396946912294
 31
0.0
  0
LINE
  5
7AFB
  8
1
  6
CONTINUOUS
 10
1338.6286128472459
 20
1015.383969469123
 30
0.0
 11
1368.6286128472459
 21
1015.383969469123
 31
0.0
  0
LINE
  5
7AFC
  8
1
  6
CONTINUOUS
 10
1402.1286128472459
 20
840.38396946912303
 30
0.0
 11
1402.1286128472459
 21
790.38396946912303
 31
0.0
  0
LINE
  5
7AFD
  8
1
  6
CONTINUOUS
 10
1338.6286128472459
 20
1115.3839694691219
 30
0.0
 11
1368.6286128472459
 21
1115.3839694691219
 31
0.0
  0
LINE
  5
7AFE
  8
1
  6
CONTINUOUS
 10
1316.1286128472459
 20
1175.383969469123
 30
0.0
 11
1391.1286128472459
 21
1175.383969469123
 31
0.0
  0
LINE
  5
7AFF
  8
1
  6
CONTINUOUS
 10
1694.1286128472459
 20
1185.383969469123
 30
0.0
 11
1694.1286128472459
 21
945.38396946912314
 31
0.0
  0
LINE
  5
7B00
  8
1
  6
CONTINUOUS
 10
1546.1286128472459
 20
1225.383969469123
 30
0.0
 11
1546.1286128472459
 21
896.38396946912303
 31
0.0
  0
LINE
  5
7B01
  8
1
  6
CONTINUOUS
 10
1686.1286128472459
 20
1225.383969469123
 30
0.0
 11
1686.1286128472459
 21
896.38396946912303
 31
0.0
  0
LINE
  5
7B02
  8
1
  6
CONTINUOUS
 10
1538.1286128472459
 20
1185.383969469123
 30
0.0
 11
1538.1286128472459
 21
840.38396946912303
 31
0.0
  0
LINE
  5
7B03
  8
1
  6
CONTINUOUS
 10
1426.1286128472459
 20
1032.0839694691231
 30
0.0
 11
1538.1286128472459
 21
1119.0839694691231
 31
0.0
  0
LINE
  5
7B04
  8
1
  6
CONTINUOUS
 10
1556.1286128472459
 20
886.38396946912314
 30
0.0
 11
1676.1286128472459
 21
886.38396946912314
 31
0.0
  0
LINE
  5
7B05
  8
1
  6
CONTINUOUS
 10
1426.1286128472459
 20
1032.0839694691231
 30
0.0
 11
1426.1286128472459
 21
840.38396946912303
 31
0.0
  0
ARC
  5
7B06
  8
1
  6
CONTINUOUS
 10
1556.1286128472459
 20
896.38396946912303
 30
0.0
 40
10.0
 50
180.0
 51
270.0
  0
LINE
  5
7B07
  8
1
  6
CONTINUOUS
 10
1546.1286128472459
 20
945.38396946912314
 30
0.0
 11
1538.1286128472459
 21
945.38396946912314
 31
0.0
  0
LINE
  5
7B08
  8
1
  6
CONTINUOUS
 10
1748.1286128472459
 20
790.38396946912303
 30
0.0
 11
1748.1286128472459
 21
765.38396946912303
 31
0.0
  0
LINE
  5
7B09
  8
1
  6
CONTINUOUS
 10
1686.1286128472459
 20
945.38396946912314
 30
0.0
 11
1694.1286128472459
 21
945.38396946912314
 31
0.0
  0
ARC
  5
7B0A
  8
1
  6
CONTINUOUS
 10
1676.1286128472459
 20
896.38396946912303
 30
0.0
 40
10.0
 50
270.0
 51
0.0
  0
LINE
  5
7B0B
  8
1
  6
CONTINUOUS
 10
1626.1286128472459
 20
840.38396946912303
 30
0.0
 11
1626.1286128472459
 21
790.38396946912303
 31
0.0
  0
LINE
  5
7B0C
  8
1
  6
CONTINUOUS
 10
1560.1286128472459
 20
1210.383969469123
 30
0.0
 11
1672.1286128472459
 21
1210.383969469123
 31
0.0
  0
LINE
  5
7B0D
  8
1
  6
CONTINUOUS
 10
1525.1286128472459
 20
1225.383969469123
 30
0.0
 11
1707.1286128472459
 21
1225.383969469123
 31
0.0
  0
LINE
  5
7B0E
  8
1
  6
CONTINUOUS
 10
1545.1286128472459
 20
1225.383969469123
 30
0.0
 11
1560.1286128472459
 21
1210.383969469123
 31
0.0
  0
LINE
  5
7B0F
  8
1
  6
CONTINUOUS
 10
1546.1286128472459
 20
1185.383969469123
 30
0.0
 11
1538.1286128472459
 21
1185.383969469123
 31
0.0
  0
LINE
  5
7B10
  8
1
  6
CONTINUOUS
 10
1686.1286128472459
 20
1185.383969469123
 30
0.0
 11
1694.1286128472459
 21
1185.383969469123
 31
0.0
  0
LINE
  5
7B11
  8
1
  6
CONTINUOUS
 10
1687.1286128472459
 20
1225.383969469123
 30
0.0
 11
1672.1286128472459
 21
1210.383969469123
 31
0.0
  0
LINE
  5
7B12
  8
4
  6
CONTINUOUS
 10
1850.0
 20
500.0
 30
0.0
 11
1850.0
 21
300.0
 31
0.0
  0
LINE
  5
7B13
  8
4
  6
CONTINUOUS
 10
1150.0
 20
500.0
 30
0.0
 11
1150.0
 21
300.0
 31
0.0
  0
LINE
  5
7B14
  8
4
  6
CONTINUOUS
 10
650.0
 20
500.0
 30
0.0
 11
650.0
 21
300.0
 31
0.0
  0
LINE
  5
7B17
  8
4
  6
CONTINUOUS
 10
650.0
 20
300.0
 30
0.0
 11
1850.0
 21
300.0
 31
0.0
  0
LINE
  5
7B18
  8
4
  6
CONTINUOUS
 10
650.0
 20
400.0
 30
0.0
 11
1850.0
 21
400.0
 31
0.0
  0
TEXT
  5
7B19
  8
4
  6
CONTINUOUS
 10
688.50208099999998
 20
431.543026
 30
0.0
 40
50.0
  1
機器名称
  0
TEXT
  5
7B1A
  8
4
  6
CONTINUOUS
 10
686.258106
 20
321.64515699999993
 30
0.0
 40
50.0
  1
機器型番
  0
TEXT
  5
7B1B
  8
4
  6
CONTINUOUS
 10
1177.678744999999
 20
422.57176900000002
 30
0.0
 40
45.0
  1
ミツヤニューマルチファン
  0
TEXT
  5
7B1C
  8
4
  6
CONTINUOUS
 10
1186.6544960000001
 20
317.159584
 30
0.0
 40
50.0
  1
NM#1 1/4-1
  0
TEXT
  5
7B1E
  8
4
  6
CONTINUOUS
 10
832.66567399999997
 20
2383.4288409999999
 30
0.0
 40
54.0
  1
天井吊ベット
  0
TEXT
  5
7B1F
  8
4
  6
CONTINUOUS
 10
316.16759300000001
 20
2533.8809759999999
 30
0.0
 40
72.0
  1
ベルト駆動式片吸込片持多翼ファン
  0
LINE
  5
7B20
  8
4
  6
CONTINUOUS
 10
250.0
 20
2469.408754
 30
0.0
 11
1850.0
 21
2469.408754
 31
0.0
  0
LINE
  5
7B21
  8
4
  6
CONTINUOUS
 10
250.0
 20
2669.408754
 30
0.0
 11
1850.0
 21
2669.408754
 31
0.0
  0
LINE
  5
7B22
  8
4
  6
CONTINUOUS
 10
650.0
 20
500.0
 30
0.0
 11
1850.0
 21
500.0
 31
0.0
  0
LINE
  5
7B23
  8
4
  6
CONTINUOUS
 10
250.0
 20
2669.408754
 30
0.0
 11
250.0
 21
2469.408754
 31
0.0
  0
TEXT
  5
7B24
  8
4
  6
CONTINUOUS
 10
396.80684200000002
 20
2382.3194779999999
 30
0.0
 40
54.0
  1
左回転上向
  0
TEXT
  5
7B25
  8
4
  6
CONTINUOUS
 10
1468.9695589999999
 20
2706.0610809999998
 30
0.0
 40
56.0
  1
No.
  0
TEXT
  5
7B26
  8
4
  6
CONTINUOUS
 10
1311.296063
 20
2383.4288409999999
 30
0.0
 40
54.0
  1
縮尺：1/10
  0
LINE
  5
7B27
  8
4
  6
CONTINUOUS
 10
1850.0
 20
2669.408754
 30
0.0
 11
1850.0
 21
2469.408754
 31
0.0
  0
LINE
  5
7B29
  8
4
  6
CONTINUOUS
 10
1440.617422
 20
2681.2635829999999
 30
0.0
 11
1440.617422
 21
2786.6522620000001
 31
0.0
  0
LINE
  5
7B2A
  8
4
  6
CONTINUOUS
 10
1440.617422
 20
2786.6522620000001
 30
0.0
 11
1850.0
 21
2786.6522620000001
 31
0.0
  0
LINE
  5
7B2B
  8
4
  6
CONTINUOUS
 10
1850.0
 20
2786.6522620000001
 30
0.0
 11
1850.0
 21
2681.2635829999999
 31
0.0
  0
LINE
  5
7B2C
  8
4
  6
CONTINUOUS
 10
1850.0
 20
2681.2635829999999
 30
0.0
 11
1440.617422
 21
2681.2635829999999
 31
0.0
  0
DIMENSION
  5
7B44
  8
3
  6
CONTINUOUS
  2
*D1
 10
511.97589364391848
 20
716.34407246912315
 30
0.0
 11
433.37585064391862
 21
716.34407246912315
 31
0.0
 70
   128
 13
351.97589364391848
 23
765.38396946912303
 33
0.0
 14
511.97589364391848
 24
790.38396946912303
 34
0.0
1001
ACAD
1000
DSTYLE
1002
{
1070
   287
1070
     3
1070
   287
1070
     3
1070
    40
1040
10.0
1070
   143
1040
0.039
1070
   172
1070
     1
1070
   271
1070
     0
1070
   279
1070
     0
1070
   288
1070
     1
1002
}
  0
DIMENSION
  5
7B51
  8
3
  6
CONTINUOUS
  2
*D2
 10
981.97589364391843
 20
716.34407246912315
 30
0.0
 11
746.97589364391843
 21
741.34407246912315
 31
0.0
 70
     0
 13
511.97589364391848
 23
790.38396946912303
 33
0.0
 14
981.97589364391843
 24
765.38396946912303
 34
0.0
1001
ACAD
1000
DSTYLE
1002
{
1070
   287
1070
     4
1070
   287
1070
     4
1070
    40
1040
10.0
1070
    75
1070
     1
1070
   143
1040
0.039
1070
   172
1070
     1
1070
   271
1070
     0
1070
   279
1070
     1
1070
   288
1070
     1
1002
}
  0
DIMENSION
  5
7B5E
  8
3
  6
CONTINUOUS
  2
*D3
 10
1054.161247496613
 20
1065.383969469123
 30
0.0
 11
1054.161247496613
 21
1141.4056724691229
 31
0.0
 70
   128
 13
732.97589364391854
 23
1225.383969469123
 33
0.0
 14
722.31837464391845
 24
1065.383969469123
 34
0.0
 50
90.0
1001
ACAD
1000
DSTYLE
1002
{
1070
   287
1070
     3
1070
   287
1070
     3
1070
    40
1040
10.0
1070
   143
1040
0.039
1070
   172
1070
     1
1070
   271
1070
     0
1070
   279
1070
     0
1070
   288
1070
     1
1002
}
  0
DIMENSION
  5
7B6A
  8
3
  6
CONTINUOUS
  2
*D4
 10
1054.161247496613
 20
790.38396946912303
 30
0.0
 11
1029.161247496613
 21
927.88396946912314
 31
0.0
 70
     0
 13
722.31837464391845
 23
1065.383969469123
 33
0.0
 14
981.97589364391843
 24
790.38396946912303
 34
0.0
 50
90.0
1001
ACAD
1000
DSTYLE
1002
{
1070
   287
1070
     4
1070
   287
1070
     4
1070
    40
1040
10.0
1070
    75
1070
     1
1070
   143
1040
0.039
1070
   172
1070
     1
1070
   271
1070
     0
1070
   279
1070
     1
1070
   288
1070
     1
1002
}
  0
DIMENSION
  5
7B7A
  8
3
  6
CONTINUOUS
  2
*D5
 10
1054.161247496613
 20
765.38396946912303
 30
0.0
 11
1054.161247496613
 21
691.09825518340892
 31
0.0
 70
   128
 13
981.97589364391843
 23
790.38396946912303
 33
0.0
 14
981.97589364391843
 24
765.38396946912303
 34
0.0
 50
90.0
1001
ACAD
1000
DSTYLE
1002
{
1070
   287
1070
     3
1070
   287
1070
     3
1070
    40
1040
10.0
1070
   143
1040
0.039
1070
   172
1070
     1
1070
   271
1070
     0
1070
   279
1070
     0
1070
   288
1070
     1
1002
}
  0
DIMENSION
  5
7BA1
  8
3
  6
CONTINUOUS
  2
*D6
 10
1116.3355046439181
 20
765.38396946912303
 30
0.0
 11
1116.3355046439181
 21
990.22268146912302
 31
0.0
 70
   128
 13
732.97589364391854
 23
1225.383969469123
 33
0.0
 14
981.97589364391843
 24
765.38396946912303
 34
0.0
 50
90.0
1001
ACAD
1000
DSTYLE
1002
{
1070
   287
1070
     3
1070
   287
1070
     3
1070
    40
1040
10.0
1070
   143
1040
0.039
1070
   172
1070
     1
1070
   271
1070
     0
1070
   279
1070
     0
1070
   288
1070
     1
1002
}
  0
DIMENSION
  5
7BAE
  8
3
  6
CONTINUOUS
  2
*D7
 10
711.97589364391854
 20
1259.4738274691231
 30
0.0
 11
614.11625064391853
 21
1259.4738274691231
 31
0.0
 70
   128
 13
511.97589364391848
 23
1225.383969469123
 33
0.0
 14
711.97589364391854
 24
1225.383969469123
 34
0.0
1001
ACAD
1000
DSTYLE
1002
{
1070
   287
1070
     3
1070
   287
1070
     3
1070
    40
1040
10.0
1070
   143
1040
0.039
1070
   172
1070
     1
1070
   271
1070
     0
1070
   279
1070
     0
1070
   288
1070
     1
1002
}
  0
DIMENSION
  5
7BED
  8
3
  6
CONTINUOUS
  2
*D8
 10
981.97589364391843
 20
1592.648472504314
 30
0.0
 11
640.49518064391862
 21
1592.648472504314
 31
0.0
 70
   128
 13
351.97589364391848
 23
1697.326960504314
 33
0.0
 14
981.97589364391843
 24
1697.326960504314
 34
0.0
1001
ACAD
1000
DSTYLE
1002
{
1070
   287
1070
     3
1070
   287
1070
     3
1070
    40
1040
10.0
1070
   143
1040
0.039
1070
   172
1070
     1
1070
   271
1070
     0
1070
   279
1070
     0
1070
   288
1070
     1
1002
}
  0
DIMENSION
  5
7BFA
  8
3
  6
CONTINUOUS
  2
*D9
 10
1083.8386636439191
 20
1697.326960504314
 30
0.0
 11
1083.8386636439179
 21
1907.993922504314
 31
0.0
 70
   128
 13
981.97589364391843
 23
2127.3269605043138
 33
0.0
 14
981.97589364391843
 24
1697.326960504314
 34
0.0
 50
90.0
1001
ACAD
1000
DSTYLE
1002
{
1070
   287
1070
     3
1070
   287
1070
     3
1070
    40
1040
10.0
1070
   143
1040
0.039
1070
   172
1070
     1
1070
   271
1070
     0
1070
   279
1070
     0
1070
   288
1070
     1
1002
}
  0
LINE
  5
7BFB
  8
2
  6
CENTER
 10
765.17710864391836
 20
1995.326960504314
 30
0.0
 11
310.6476266439185
 21
1995.326960504314
 31
0.0
  0
LINE
  5
7BFC
  8
2
  6
CENTER
 10
511.97589364391848
 20
1649.339785504314
 30
0.0
 11
511.97589364391848
 21
2109.586604504314
 31
0.0
  0
LINE
  5
7BFD
  8
2
  6
CENTER
 10
1616.1286128472459
 20
698.59397346912294
 30
0.0
 11
1616.1286128472459
 21
1256.4418024691231
 31
0.0
  0
LINE
  5
7BFE
  8
2
  6
CENTER
 10
784.66943264391853
 20
1065.383969469123
 30
0.0
 11
319.1026636439185
 21
1065.383969469123
 31
0.0
  0
DIMENSION
  5
7C0B
  8
3
  6
CONTINUOUS
  2
*D10
 10
1616.1286128472459
 20
686.46491246912296
 30
0.0
 11
1462.3072008472459
 21
686.46491246912296
 31
0.0
 70
   128
 13
1318.1286128472459
 23
765.38396946912303
 33
0.0
 14
1616.1286128472459
 24
765.38396946912303
 34
0.0
1001
ACAD
1000
DSTYLE
1002
{
1070
   287
1070
     3
1070
   287
1070
     3
1070
    40
1040
10.0
1070
   143
1040
0.039
1070
   172
1070
     1
1070
   271
1070
     0
1070
   279
1070
     0
1070
   288
1070
     1
1002
}
  0
DIMENSION
  5
7C17
  8
3
  6
CONTINUOUS
  2
*D11
 10
1748.1286128472459
 20
686.46491246912296
 30
0.0
 11
1682.1286128472459
 21
711.46491246912296
 31
0.0
 70
     0
 13
1616.1286128472459
 23
765.38396946912303
 33
0.0
 14
1748.1286128472459
 24
765.38396946912303
 34
0.0
1001
ACAD
1000
DSTYLE
1002
{
1070
   287
1070
     4
1070
   287
1070
     4
1070
    40
1040
10.0
1070
    75
1070
     1
1070
   143
1040
0.039
1070
   172
1070
     1
1070
   271
1070
     0
1070
   279
1070
     1
1070
   288
1070
     1
1002
}
  0
DIMENSION
  5
7C24
  8
3
  6
CONTINUOUS
  2
*D12
 10
1686.1286128472459
 20
1251.538617469123
 30
0.0
 11
1620.4143278472461
 21
1251.538617469123
 31
0.0
 70
   128
 13
1546.1286128472459
 23
1224.383969469123
 33
0.0
 14
1686.1286128472459
 24
1224.383969469123
 34
0.0
1001
ACAD
1000
DSTYLE
1002
{
1070
   287
1070
     3
1070
   287
1070
     3
1070
    40
1040
10.0
1070
   143
1040
0.039
1070
   172
1070
     1
1070
   271
1070
     0
1070
   279
1070
     0
1070
   288
1070
     1
1002
}
  0
DIMENSION
  5
7C31
  8
3
  6
CONTINUOUS
  2
*D13
 10
1616.1286128472459
 20
1309.086165469123
 30
0.0
 11
1462.3072008472459
 21
1309.086165469123
 31
0.0
 70
   128
  1
MAX\P300
 13
1316.1286128472459
 23
1175.383969469123
 33
0.0
 14
1616.1286128472459
 24
1296.510615469123
 34
0.0
1001
ACAD
1000
DSTYLE
1002
{
1070
   287
1070
     3
1070
   287
1070
     3
1070
    40
1040
10.0
1070
   143
1040
0.039
1070
   172
1070
     1
1070
   271
1070
     0
1070
   279
1070
     0
1070
   288
1070
     1
1002
}
  0
DIMENSION
  5
7C3F
  8
3
  6
CONTINUOUS
  2
*D14
 10
1694.1286128472459
 20
1309.086165469123
 30
0.0
 11
1652.1018868472461
 21
1309.218040469123
 31
0.0
 70
   128
 13
1616.1286128472459
 23
1296.510615469123
 33
0.0
 14
1694.1286128472459
 24
1185.383969469123
 34
0.0
1001
ACAD
1000
DSTYLE
1002
{
1070
   287
1070
     4
1070
   287
1070
     4
1070
    40
1040
10.0
1070
    75
1070
     1
1070
   143
1040
0.039
1070
   172
1070
     1
1070
   271
1070
     0
1070
   279
1070
     1
1070
   288
1070
     1
1002
}
  0
LINE
  5
7C57
  8
3
  6
CONTINUOUS
 10
1694.1286128472459
 20
1165.383969469123
 30
0.0
 11
1708.238346847246
 21
1165.383969469123
 31
0.0
  0
LINE
  5
7C59
  8
3
  6
CONTINUOUS
 10
1694.1286128472459
 20
965.38396946912303
 30
0.0
 11
1708.238346847246
 21
965.38396946912303
 31
0.0
  0
DIMENSION
  5
7C67
  8
3
  6
CONTINUOUS
  2
*D15
 10
1759.0284798472469
 20
965.38396946912303
 30
0.0
 11
1759.0284798472469
 21
1062.1971434691229
 31
0.0
 70
   128
 13
1694.1286128472459
 23
1165.383969469123
 33
0.0
 14
1694.1286128472459
 24
965.38396946912303
 34
0.0
 50
90.0
1001
ACAD
1000
DSTYLE
1002
{
1070
   287
1070
     3
1070
   287
1070
     3
1070
     3
1000
φ<>
1070
    40
1040
10.0
1070
   143
1040
0.039
1070
   172
1070
     1
1070
   271
1070
     0
1070
   279
1070
     0
1070
   288
1070
     1
1002
}
  0
DIMENSION
  5
7C79
  8
3
  6
CONTINUOUS
  2
*D16
 10
511.97589364391848
 20
1315.898931469123
 30
0.0
 11
452.6901793582042
 21
1315.898931469123
 31
0.0
 70
   128
 13
361.40870564391849
 23
1065.383969469123
 33
0.0
 14
511.97589364391848
 24
1247.3651364691229
 34
0.0
1001
ACAD
1000
DSTYLE
1002
{
1070
   287
1070
     3
1070
   287
1070
     3
1070
    40
1040
10.0
1070
   143
1040
0.039
1070
   172
1070
     1
1070
   271
1070
     0
1070
   279
1070
     0
1070
   288
1070
     1
1002
}
  0
DIMENSION
  5
7C85
  8
3
  6
CONTINUOUS
  2
*D17
 10
722.97589364391854
 20
1315.898931469123
 30
0.0
 11
617.47589364391854
 21
1340.898931469123
 31
0.0
 70
     0
 13
511.97589364391848
 23
1225.383969469123
 33
0.0
 14
722.97589364391854
 24
1210.383969469123
 34
0.0
1001
ACAD
1000
DSTYLE
1002
{
1070
   287
1070
     3
1070
   287
1070
     3
1070
    40
1040
10.0
1070
   143
1040
0.039
1070
   172
1070
     1
1070
   271
1070
     0
1070
   279
1070
     0
1070
   288
1070
     1
1002
}
  0
DIMENSION
  5
7D01
  8
3
  2
*D18
 10
981.97589364391843
 20
1386.1866873007959
 30
0.0
 11
681.46476699329276
 21
1386.1866873007959
 31
0.0
 70
   128
 13
361.40870564391849
 23
1325.898931469123
 33
0.0
 14
981.97589364391843
 24
840.38396946912303
 34
0.0
1001
ACAD
1000
DSTYLE
1002
{
1070
   287
1070
     3
1070
   287
1070
     3
1070
    40
1040
10.0
1070
   143
1040
0.039
1070
   172
1070
     1
1070
   271
1070
     0
1070
   279
1070
     0
1070
   288
1070
     1
1002
}
  0
ENDSEC
  0
EOF
