  0
SECTION
  2
HEADER
  9
$ACADVER
  1
AC1009
  9
$INSBASE
 10
0.0
 20
0.0
 30
0.0
  9
$EXTMIN
 10
250.0
 20
300.0
 30
0.0
  9
$EXTMAX
 10
1850.0
 20
2786.6522620000001
 30
0.0
  9
$LIMMIN
 10
0.0
 20
0.0
  9
$LIMMAX
 10
297.0
 20
210.0
  9
$ORTHOMODE
 70
     0
  9
$REGENMODE
 70
     1
  9
$FILLMODE
 70
     0
  9
$QTEXTMODE
 70
     0
  9
$MIRRTEXT
 70
     1
  9
$DRAGMODE
 70
     2
  9
$LTSCALE
 40
100.0
  9
$OSMODE
 70
    37
  9
$ATTMODE
 70
     1
  9
$TEXTSIZE
 40
180.0
  9
$TRACEWID
 40
0.05
  9
$TEXTSTYLE
  7
STANDARD
  9
$CLAYER
  8
3
  9
$CELTYPE
  6
BYLAYER
  9
$CECOLOR
 62
   256
  9
$DIMSCALE
 40
10.0
  9
$DIMASZ
 40
2.0
  9
$DIMEXO
 40
0.5
  9
$DIMDLI
 40
10.0
  9
$DIMRND
 40
0.0
  9
$DIMDLE
 40
0.0
  9
$DIMEXE
 40
1.0
  9
$DIMTP
 40
1.0
  9
$DIMTM
 40
1.0
  9
$DIMTXT
 40
3.0
  9
$DIMCEN
 40
0.0
  9
$DIMTSZ
 40
0.0
  9
$DIMTOL
 70
     0
  9
$DIMLIM
 70
     0
  9
$DIMTIH
 70
     0
  9
$DIMTOH
 70
     0
  9
$DIMSE1
 70
     0
  9
$DIMSE2
 70
     0
  9
$DIMTAD
 70
     1
  9
$DIMZIN
 70
     8
  9
$DIMBLK
  1

  9
$DIMASO
 70
     1
  9
$DIMSHO
 70
     1
  9
$DIMPOST
  1

  9
$DIMAPOST
  1

  9
$DIMALT
 70
     0
  9
$DIMALTD
 70
     2
  9
$DIMALTF
 40
0.039
  9
$DIMLFAC
 40
1.0
  9
$DIMTOFL
 70
     1
  9
$DIMTVP
 40
0.0
  9
$DIMTIX
 70
     0
  9
$DIMSOXD
 70
     0
  9
$DIMSAH
 70
     1
  9
$DIMBLK1
  1
OPEN
  9
$DIMBLK2
  1
OPEN
  9
$DIMSTYLE
  2
IGA
  9
$DIMCLRD
 70
     0
  9
$DIMCLRE
 70
     0
  9
$DIMCLRT
 70
     0
  9
$DIMTFAC
 40
10.0
  9
$DIMGAP
 40
1.0
  9
$LUNITS
 70
     2
  9
$LUPREC
 70
     3
  9
$SKETCHINC
 40
0.1
  9
$FILLETRAD
 40
50.0
  9
$AUNITS
 70
     0
  9
$AUPREC
 70
     0
  9
$MENU
  1
acad
  9
$ELEVATION
 40
0.0
  9
$PELEVATION
 40
0.0
  9
$THICKNESS
 40
0.0
  9
$LIMCHECK
 70
     0
  9
$BLIPMODE
 70
     0
  9
$CHAMFERA
 40
0.5
  9
$CHAMFERB
 40
0.5
  9
$SKPOLY
 70
     0
  9
$TDCREATE
 40
2450738.3741163192
  9
$TDUPDATE
 40
2454953.8603688311
  9
$TDINDWG
 40
0.004214456
  9
$TDUSRTIMER
 40
0.004214456
  9
$USRTIMER
 70
     1
  9
$ANGBASE
 50
0.0
  9
$ANGDIR
 70
     0
  9
$PDMODE
 70
     0
  9
$PDSIZE
 40
0.0
  9
$PLINEWID
 40
0.0
  9
$COORDS
 70
     1
  9
$SPLFRAME
 70
     0
  9
$SPLINETYPE
 70
     6
  9
$SPLINESEGS
 70
     8
  9
$ATTDIA
 70
     0
  9
$ATTREQ
 70
     1
  9
$HANDLING
 70
 10241
  9
$HANDSEED
  5
7E70
  9
$SURFTAB1
 70
     6
  9
$SURFTAB2
 70
     6
  9
$SURFTYPE
 70
     6
  9
$SURFU
 70
     6
  9
$SURFV
 70
     6
  9
$UCSNAME
  2

  9
$UCSORG
 10
0.0
 20
0.0
 30
0.0
  9
$UCSXDIR
 10
1.0
 20
0.0
 30
0.0
  9
$UCSYDIR
 10
0.0
 20
1.0
 30
0.0
  9
$PUCSNAME
  2

  9
$PUCSORG
 10
0.0
 20
0.0
 30
0.0
  9
$PUCSXDIR
 10
1.0
 20
0.0
 30
0.0
  9
$PUCSYDIR
 10
0.0
 20
1.0
 30
0.0
  9
$USERI1
 70
     0
  9
$USERI2
 70
     0
  9
$USERI3
 70
     0
  9
$USERI4
 70
     0
  9
$USERI5
 70
     0
  9
$USERR1
 40
0.0
  9
$USERR2
 40
0.0
  9
$USERR3
 40
0.0
  9
$USERR4
 40
0.0
  9
$USERR5
 40
0.0
  9
$WORLDVIEW
 70
     1
  9
$SHADEDGE
 70
     3
  9
$SHADEDIF
 70
    70
  9
$TILEMODE
 70
     1
  9
$MAXACTVP
 70
    16
  9
$PLIMCHECK
 70
     0
  9
$PEXTMIN
 10
1.0000000000000000E+020
 20
1.0000000000000000E+020
 30
1.0000000000000000E+020
  9
$PEXTMAX
 10
-1.0000000000000000E+020
 20
-1.0000000000000000E+020
 30
-1.0000000000000000E+020
  9
$PLIMMIN
 10
0.0
 20
0.0
  9
$PLIMMAX
 10
12.0
 20
9.0
  9
$UNITMODE
 70
     0
  9
$VISRETAIN
 70
     0
  9
$PLINEGEN
 70
     0
  9
$PSLTSCALE
 70
     1
  0
ENDSEC
  0
SECTION
  2
TABLES
  0
TABLE
  2
VPORT
 70
     2
  0
VPORT
  2
*ACTIVE
 70
     0
 10
0.0
 20
0.0
 11
1.0
 21
1.0
 12
2587.2851359069109
 22
1759.146976704674
 13
0.0
 23
0.0
 14
10.0
 24
10.0
 15
10.0
 25
10.0
 16
0.0
 26
0.0
 36
1.0
 17
0.0
 27
0.0
 37
0.0
 40
3384.7202297544959
 41
1.5051150895140659
 42
50.0
 43
0.0
 44
0.0
 50
0.0
 51
0.0
 71
     0
 72
   100
 73
     1
 74
     0
 75
     0
 76
     0
 77
     0
 78
     0
  0
ENDTAB
  0
TABLE
  2
LTYPE
 70
     2
  0
LTYPE
  2
CONTINUOUS
 70
     0
  3
Solid line
 72
    65
 73
     0
 40
0.0
  0
LTYPE
  2
CENTER
 70
     0
  3
____ _ ____ _ ____ _ ____ _ ____ _ ____ _ ____ 
 72
    65
 73
     4
 40
2.0
 49
1.25
 49
-0.25
 49
0.25
 49
-0.25
  0
ENDTAB
  0
TABLE
  2
LAYER
 70
     6
  0
LAYER
  2
0
 70
     0
 62
     7
  6
CONTINUOUS
  0
LAYER
  2
3
 70
     0
 62
     2
  6
CONTINUOUS
  0
LAYER
  2
2
 70
     0
 62
     3
  6
CENTER
  0
LAYER
  2
1
 70
     0
 62
     4
  6
CONTINUOUS
  0
LAYER
  2
4
 70
     0
 62
     7
  6
CONTINUOUS
  0
LAYER
  2
DEFPOINTS
 70
     0
 62
     7
  6
CONTINUOUS
  0
ENDTAB
  0
TABLE
  2
STYLE
 70
     1
  0
STYLE
  2
STANDARD
 70
     0
 40
0.0
 41
1.0
 50
0.0
 71
     0
 42
180.0
  3
simplex.shx
  4
extfont.shx
  0
ENDTAB
  0
TABLE
  2
VIEW
 70
     0
  0
ENDTAB
  0
TABLE
  2
UCS
 70
     0
  0
ENDTAB
  0
TABLE
  2
APPID
 70
     1
  0
APPID
  2
ACAD
 70
     0
  0
ENDTAB
  0
TABLE
  2
DIMSTYLE
 70
     1
  0
DIMSTYLE
  2
IGA
 70
     0
  3

  4

  5

  6
OPEN
  7
OPEN
 40
2.0
 41
2.0
 42
0.5
 43
10.0
 44
1.0
 45
0.0
 46
0.0
 47
1.0
 48
1.0
140
3.0
141
0.0
142
0.0
143
0.03937
144
1.0
145
0.0
146
10.0
147
1.0
 71
     0
 72
     0
 73
     0
 74
     0
 75
     0
 76
     0
 77
     1
 78
     8
170
     0
171
     2
172
     0
173
     1
174
     0
175
     0
176
     0
177
     0
178
     0
  0
ENDTAB
  0
ENDSEC
  0
SECTION
  2
BLOCKS
  0
BLOCK
  8
0
  2
$MODEL_SPACE
 70
     0
 10
0.0
 20
0.0
 30
0.0
  3
$MODEL_SPACE
  1

  0
ENDBLK
  5
1B
  8
0
  0
BLOCK
 67
     1
  8
0
  2
$PAPER_SPACE
 70
     0
 10
0.0
 20
0.0
 30
0.0
  3
$PAPER_SPACE
  1

  0
ENDBLK
  5
18
 67
     1
  8
0
  0
BLOCK
  8
0
  2
_OPEN
 70
     0
 10
0.0
 20
0.0
 30
0.0
  3
_OPEN
  1

  0
LINE
  5
7B33
  8
0
  6
BYBLOCK
 62
     0
 10
-1.0
 20
0.166667
 30
0.0
 11
0.0
 21
0.0
 31
0.0
  0
LINE
  5
7B34
  8
0
  6
BYBLOCK
 62
     0
 10
0.0
 20
0.0
 30
0.0
 11
-1.0
 21
-0.166667
 31
0.0
  0
LINE
  5
7B35
  8
0
  6
BYBLOCK
 62
     0
 10
0.0
 20
0.0
 30
0.0
 11
-1.0
 21
0.0
 31
0.0
  0
ENDBLK
  5
7B36
  8
0
  0
BLOCK
  8
0
  2
*D1
 70
     1
 10
0.0
 20
0.0
 30
0.0
  3
*D1
  1

  0
LINE
  5
7DBE
  8
3
  6
CONTINUOUS
 62
     0
 10
560.5842756455545
 20
777.27962927051226
 30
0.0
 11
560.5842756455545
 21
722.53021627051237
 31
0.0
  0
LINE
  5
7DBF
  8
3
  6
CONTINUOUS
 62
     0
 10
720.58427564555438
 20
802.27962927051226
 30
0.0
 11
720.58427564555438
 21
722.53021627051237
 31
0.0
  0
LINE
  5
7DC0
  8
3
  6
CONTINUOUS
 62
     0
 10
580.5842756455545
 20
732.53021627051226
 30
0.0
 11
700.58427564555438
 21
732.53021627051226
 31
0.0
  0
INSERT
  5
7DC1
  8
3
  6
CONTINUOUS
 62
     0
  2
_OPEN
 10
560.5842756455545
 20
732.53021627051226
 30
0.0
 41
20.0
 42
20.0
 43
20.0
 50
180.0
  0
INSERT
  5
7DC2
  8
3
  6
CONTINUOUS
 62
     0
  2
_OPEN
 10
720.58427564555438
 20
732.53021627051226
 30
0.0
 41
20.0
 42
20.0
 43
20.0
  0
TEXT
  8
3
  40
30
  5
7E5D
  62
0
  72
0
  71
0
 10
582.331
 20
704.430
 30
0.000000
  1
160
  0
POINT
  5
7DC4
  8
DEFPOINTS
  6
CONTINUOUS
 62
     0
 10
560.5842756455545
 20
782.27962927051226
 30
0.0
  0
POINT
  5
7DC5
  8
DEFPOINTS
  6
CONTINUOUS
 62
     0
 10
720.58427564555438
 20
807.27962927051237
 30
0.0
  0
POINT
  5
7DC6
  8
DEFPOINTS
  6
CONTINUOUS
 62
     0
 10
720.58427564555438
 20
732.53021627051226
 30
0.0
  0
ENDBLK
  5
7B44
  8
0
  0
BLOCK
  8
0
  2
*D2
 70
     1
 10
0.0
 20
0.0
 30
0.0
  3
*D2
  1

  0
LINE
  5
7DC7
  8
3
  6
CONTINUOUS
 62
     0
 10
1190.584275645554
 20
777.27962927051226
 30
0.0
 11
1190.584275645554
 21
722.53021627051237
 31
0.0
  0
LINE
  5
7DC8
  8
3
  6
CONTINUOUS
 62
     0
 10
740.5842756455545
 20
732.53021627051226
 30
0.0
 11
1170.584275645554
 21
732.53021627051226
 31
0.0
  0
INSERT
  5
7DC9
  8
3
  6
CONTINUOUS
 62
     0
  2
_OPEN
 10
720.58427564555438
 20
732.53021627051226
 30
0.0
 41
20.0
 42
20.0
 43
20.0
 50
180.0
  0
INSERT
  5
7DCA
  8
3
  6
CONTINUOUS
 62
     0
  2
_OPEN
 10
1190.584275645554
 20
732.53021627051226
 30
0.0
 41
20.0
 42
20.0
 43
20.0
  0
TEXT
  8
3
  40
30
  5
7E5E
  62
0
  72
0
  71
0
 10
895.584
 20
704.430
 30
0.000000
  1
470
  0
POINT
  5
7DCC
  8
DEFPOINTS
  6
CONTINUOUS
 62
     0
 10
720.58427564555438
 20
807.27962927051237
 30
0.0
  0
POINT
  5
7DCD
  8
DEFPOINTS
  6
CONTINUOUS
 62
     0
 10
1190.584275645554
 20
782.27962927051226
 30
0.0
  0
POINT
  5
7DCE
  8
DEFPOINTS
  6
CONTINUOUS
 62
     0
 10
1190.584275645554
 20
732.53021627051226
 30
0.0
  0
ENDBLK
  5
7B50
  8
0
  0
BLOCK
  8
0
  2
*D3
 70
     1
 10
0.0
 20
0.0
 30
0.0
  3
*D3
  1

  0
LINE
  5
7DCF
  8
3
  6
CONTINUOUS
 62
     0
 10
555.5842756455545
 20
1282.279629270512
 30
0.0
 11
516.83158264555482
 21
1282.279629270512
 31
0.0
  0
LINE
  5
7DD0
  8
3
  6
CONTINUOUS
 62
     0
 10
555.5842756455545
 20
1082.279629270512
 30
0.0
 11
516.8315826455547
 21
1082.279629270512
 31
0.0
  0
LINE
  5
7DD1
  8
3
  6
CONTINUOUS
 62
     0
 10
526.83158264555459
 20
1262.279629270512
 30
0.0
 11
526.83158264555459
 21
1102.279629270512
 31
0.0
  0
INSERT
  5
7DD2
  8
3
  6
CONTINUOUS
 62
     0
  2
_OPEN
 10
526.8315826455547
 20
1282.279629270512
 30
0.0
 41
20.0
 42
20.0
 43
20.0
 50
90.0
  0
INSERT
  5
7DD3
  8
3
  6
CONTINUOUS
 62
     0
  2
_OPEN
 10
526.83158264555459
 20
1082.279629270512
 30
0.0
 41
20.0
 42
20.0
 43
20.0
 50
270.0
  0
TEXT
  8
3
  40
30
  5
7E5F
  62
0
  72
0
  71
0
 10
441.832
 20
1132.60
 30
0.000000
  1
200
  0
POINT
  5
7DD5
  8
DEFPOINTS
  6
CONTINUOUS
 62
     0
 10
560.5842756455545
 20
1282.279629270512
 30
0.0
  0
POINT
  5
7DD6
  8
DEFPOINTS
  6
CONTINUOUS
 62
     0
 10
560.5842756455545
 20
1082.279629270512
 30
0.0
  0
POINT
  5
7DD7
  8
DEFPOINTS
  6
CONTINUOUS
 62
     0
 10
526.83158264555459
 20
1082.279629270512
 30
0.0
  0
ENDBLK
  5
7B5D
  8
0
  0
BLOCK
  8
0
  2
*D4
 70
     1
 10
0.0
 20
0.0
 30
0.0
  3
*D4
  1

  0
LINE
  5
7DD8
  8
3
  6
CONTINUOUS
 62
     0
 10
570.58427564555438
 20
1293.279629270512
 30
0.0
 11
451.48891764555481
 21
1293.279629270512
 31
0.0
  0
LINE
  5
7DD9
  8
3
  6
CONTINUOUS
 62
     0
 10
555.5842756455545
 20
1082.279629270512
 30
0.0
 11
451.48891764555469
 21
1082.279629270512
 31
0.0
  0
LINE
  5
7DDA
  8
3
  6
CONTINUOUS
 62
     0
 10
461.48891764555469
 20
1273.279629270512
 30
0.0
 11
461.48891764555469
 21
1102.279629270512
 31
0.0
  0
INSERT
  5
7DDB
  8
3
  6
CONTINUOUS
 62
     0
  2
_OPEN
 10
461.48891764555469
 20
1293.279629270512
 30
0.0
 41
20.0
 42
20.0
 43
20.0
 50
90.0
  0
INSERT
  5
7DDC
  8
3
  6
CONTINUOUS
 62
     0
  2
_OPEN
 10
461.48891764555469
 20
1082.279629270512
 30
0.0
 41
20.0
 42
20.0
 43
20.0
 50
270.0
  0
TEXT
  8
3
  40
30
  5
7E60
  62
0
  72
0
  71
0
 10
376.489
 20
1128.50
 30
0.000000
  1
211
  0
POINT
  5
7DDE
  8
DEFPOINTS
  6
CONTINUOUS
 62
     0
 10
575.58427564555438
 20
1293.279629270512
 30
0.0
  0
POINT
  5
7DDF
  8
DEFPOINTS
  6
CONTINUOUS
 62
     0
 10
560.5842756455545
 20
1082.279629270512
 30
0.0
  0
POINT
  5
7DE0
  8
DEFPOINTS
  6
CONTINUOUS
 62
     0
 10
461.48891764555469
 20
1082.279629270512
 30
0.0
  0
ENDBLK
  5
7B6A
  8
0
  0
BLOCK
  8
0
  2
*D5
 70
     1
 10
0.0
 20
0.0
 30
0.0
  3
*D5
  1

  0
LINE
  5
7DE1
  8
3
  6
CONTINUOUS
 62
     0
 10
555.5842756455545
 20
807.27962927051237
 30
0.0
 11
451.48891764555458
 21
807.27962927051237
 31
0.0
  0
LINE
  5
7DE2
  8
3
  6
CONTINUOUS
 62
     0
 10
461.48891764555458
 20
1062.279629270512
 30
0.0
 11
461.48891764555452
 21
827.27962927051226
 31
0.0
  0
INSERT
  5
7DE3
  8
3
  6
CONTINUOUS
 62
     0
  2
_OPEN
 10
461.48891764555458
 20
1082.279629270512
 30
0.0
 41
20.0
 42
20.0
 43
20.0
 50
90.0
  0
INSERT
  5
7DE4
  8
3
  6
CONTINUOUS
 62
     0
  2
_OPEN
 10
461.48891764555452
 20
807.27962927051237
 30
0.0
 41
20.0
 42
20.0
 43
20.0
 50
270.0
  0
TEXT
  8
3
  40
30
  5
7E61
  62
0
  72
0
  71
0
 10
376.489
 20
891.680
 30
0.000000
  1
275
  0
POINT
  5
7DE6
  8
DEFPOINTS
  6
CONTINUOUS
 62
     0
 10
560.5842756455545
 20
1082.279629270512
 30
0.0
  0
POINT
  5
7DE7
  8
DEFPOINTS
  6
CONTINUOUS
 62
     0
 10
560.5842756455545
 20
807.27962927051237
 30
0.0
  0
POINT
  5
7DE8
  8
DEFPOINTS
  6
CONTINUOUS
 62
     0
 10
461.48891764555452
 20
807.27962927051237
 30
0.0
  0
ENDBLK
  5
7B76
  8
0
  0
BLOCK
  8
0
  2
*D6
 70
     1
 10
0.0
 20
0.0
 30
0.0
  3
*D6
  1

  0
LINE
  5
7DE9
  8
3
  6
CONTINUOUS
 62
     0
 10
555.5842756455545
 20
807.27962927051237
 30
0.0
 11
451.48891764555469
 21
807.27962927051237
 31
0.0
  0
LINE
  5
7DEA
  8
3
  6
CONTINUOUS
 62
     0
 10
555.5842756455545
 20
782.27962927051226
 30
0.0
 11
451.48891764555469
 21
782.27962927051226
 31
0.0
  0
LINE
  5
7DEB
  8
3
  6
CONTINUOUS
 62
     0
 10
461.48891764555458
 20
827.27962927051226
 30
0.0
 11
461.48891764555458
 21
847.27962927051226
 31
0.0
  0
LINE
  5
7DEC
  8
3
  6
CONTINUOUS
 62
     0
 10
461.48891764555458
 20
762.27962927051237
 30
0.0
 11
461.48891764555458
 21
673.70820069908382
 31
0.0
  0
LINE
  5
7DED
  8
3
  6
CONTINUOUS
 62
     0
 10
461.48891764555458
 20
807.27962927051237
 30
0.0
 11
461.48891764555458
 21
782.27962927051226
 31
0.0
  0
INSERT
  5
7DEE
  8
3
  6
CONTINUOUS
 62
     0
  2
_OPEN
 10
461.48891764555458
 20
807.27962927051237
 30
0.0
 41
20.0
 42
20.0
 43
20.0
 50
270.0
  0
INSERT
  5
7DEF
  8
3
  6
CONTINUOUS
 62
     0
  2
_OPEN
 10
461.48891764555458
 20
782.27962927051226
 30
0.0
 41
20.0
 42
20.0
 43
20.0
 50
90.0
  0
TEXT
  8
3
  40
30
  5
7E62
  62
0
  72
0
  71
0
 10
376.489
 20
654.894
 30
0.000000
  1
25
  0
POINT
  5
7DF1
  8
DEFPOINTS
  6
CONTINUOUS
 62
     0
 10
560.5842756455545
 20
807.27962927051237
 30
0.0
  0
POINT
  5
7DF2
  8
DEFPOINTS
  6
CONTINUOUS
 62
     0
 10
560.5842756455545
 20
782.27962927051226
 30
0.0
  0
POINT
  5
7DF3
  8
DEFPOINTS
  6
CONTINUOUS
 62
     0
 10
461.48891764555458
 20
782.27962927051226
 30
0.0
  0
ENDBLK
  5
7CA8
  8
0
  0
BLOCK
  8
0
  2
*D7
 70
     1
 10
0.0
 20
0.0
 30
0.0
  3
*D7
  1

  0
LINE
  5
7DF4
  8
3
  6
CONTINUOUS
 62
     0
 10
555.5842756455545
 20
1303.279629270512
 30
0.0
 11
391.51254764555478
 21
1303.279629270512
 31
0.0
  0
LINE
  5
7DF5
  8
3
  6
CONTINUOUS
 62
     0
 10
555.5842756455545
 20
782.27962927051226
 30
0.0
 11
391.51254764555472
 21
782.27962927051226
 31
0.0
  0
LINE
  5
7DF6
  8
3
  6
CONTINUOUS
 62
     0
 10
401.51254764555478
 20
1283.279629270512
 30
0.0
 11
401.51254764555472
 21
802.27962927051226
 31
0.0
  0
INSERT
  5
7DF7
  8
3
  6
CONTINUOUS
 62
     0
  2
_OPEN
 10
401.51254764555478
 20
1303.279629270512
 30
0.0
 41
20.0
 42
20.0
 43
20.0
 50
90.0
  0
INSERT
  5
7DF8
  8
3
  6
CONTINUOUS
 62
     0
  2
_OPEN
 10
401.51254764555472
 20
782.27962927051226
 30
0.0
 41
20.0
 42
20.0
 43
20.0
 50
270.0
  0
TEXT
  8
3
  40
30
  5
7E63
  62
0
  72
0
  71
0
 10
316.513
 20
987.228
 30
0.000000
  1
521
  0
POINT
  5
7DFA
  8
DEFPOINTS
  6
CONTINUOUS
 62
     0
 10
560.5842756455545
 20
1303.279629270512
 30
0.0
  0
POINT
  5
7DFB
  8
DEFPOINTS
  6
CONTINUOUS
 62
     0
 10
560.5842756455545
 20
782.27962927051226
 30
0.0
  0
POINT
  5
7DFC
  8
DEFPOINTS
  6
CONTINUOUS
 62
     0
 10
401.51254764555472
 20
782.27962927051226
 30
0.0
  0
ENDBLK
  5
7BAD
  8
0
  0
BLOCK
  8
0
  2
*D8
 70
     1
 10
0.0
 20
0.0
 30
0.0
  3
*D8
  1

  0
LINE
  5
7DFD
  8
3
  6
CONTINUOUS
 62
     0
 10
899.58427564555438
 20
1087.279629270512
 30
0.0
 11
899.58427564555438
 21
1335.4046792705119
 31
0.0
  0
LINE
  5
7DFE
  8
3
  6
CONTINUOUS
 62
     0
 10
720.58427564555438
 20
1297.6221102705119
 30
0.0
 11
720.58427564555438
 21
1335.4046792705119
 31
0.0
  0
LINE
  5
7DFF
  8
3
  6
CONTINUOUS
 62
     0
 10
879.5842756455545
 20
1325.4046792705119
 30
0.0
 11
740.5842756455545
 21
1325.4046792705119
 31
0.0
  0
INSERT
  5
7E00
  8
3
  6
CONTINUOUS
 62
     0
  2
_OPEN
 10
899.58427564555438
 20
1325.4046792705119
 30
0.0
 41
20.0
 42
20.0
 43
20.0
  0
INSERT
  5
7E01
  8
3
  6
CONTINUOUS
 62
     0
  2
_OPEN
 10
720.58427564555438
 20
1325.4046792705119
 30
0.0
 41
20.0
 42
20.0
 43
20.0
 50
180.0
  0
TEXT
  8
3
  40
30
  5
7E64
  62
0
  72
0
  71
0
 10
745.564
 20
1297.30
 30
0.000000
  1
179
  0
POINT
  5
7E03
  8
DEFPOINTS
  6
CONTINUOUS
 62
     0
 10
899.58427564555438
 20
1082.279629270512
 30
0.0
  0
POINT
  5
7E04
  8
DEFPOINTS
  6
CONTINUOUS
 62
     0
 10
720.58427564555438
 20
1292.6221102705119
 30
0.0
  0
POINT
  5
7E05
  8
DEFPOINTS
  6
CONTINUOUS
 62
     0
 10
720.58427564555438
 20
1325.4046792705119
 30
0.0
  0
ENDBLK
  5
7CC5
  8
0
  0
BLOCK
  8
0
  2
*D9
 70
     1
 10
0.0
 20
0.0
 30
0.0
  3
*D9
  1

  0
LINE
  5
7E06
  8
3
  6
CONTINUOUS
 62
     0
 10
560.5842756455545
 20
1308.279629270512
 30
0.0
 11
560.5842756455545
 21
1335.4046792705119
 31
0.0
  0
LINE
  5
7E07
  8
3
  6
CONTINUOUS
 62
     0
 10
700.58427564555438
 20
1325.4046792705119
 30
0.0
 11
580.5842756455545
 21
1325.4046792705119
 31
0.0
  0
INSERT
  5
7E08
  8
3
  6
CONTINUOUS
 62
     0
  2
_OPEN
 10
720.58427564555438
 20
1325.4046792705119
 30
0.0
 41
20.0
 42
20.0
 43
20.0
  0
INSERT
  5
7E09
  8
3
  6
CONTINUOUS
 62
     0
  2
_OPEN
 10
560.5842756455545
 20
1325.4046792705119
 30
0.0
 41
20.0
 42
20.0
 43
20.0
 50
180.0
  0
TEXT
  8
3
  40
30
  5
7E65
  62
0
  72
0
  71
0
 10
580.584
 20
1297.30
 30
0.000000
  1
160
  0
POINT
  5
7E0B
  8
DEFPOINTS
  6
CONTINUOUS
 62
     0
 10
720.58427564555438
 20
1292.6221102705119
 30
0.0
  0
POINT
  5
7E0C
  8
DEFPOINTS
  6
CONTINUOUS
 62
     0
 10
560.5842756455545
 20
1303.279629270512
 30
0.0
  0
POINT
  5
7E0D
  8
DEFPOINTS
  6
CONTINUOUS
 62
     0
 10
560.5842756455545
 20
1325.4046792705119
 30
0.0
  0
ENDBLK
  5
7BDF
  8
0
  0
BLOCK
  8
0
  2
*D10
 70
     1
 10
0.0
 20
0.0
 30
0.0
  3
*D10
  1

  0
LINE
  5
7E0E
  8
3
  6
CONTINUOUS
 62
     0
 10
560.5842756455545
 20
1708.498361801797
 30
0.0
 11
560.5842756455545
 21
1614.744095801798
 31
0.0
  0
LINE
  5
7E0F
  8
3
  6
CONTINUOUS
 62
     0
 10
1190.584275645554
 20
1708.498361801797
 30
0.0
 11
1190.584275645554
 21
1614.744095801798
 31
0.0
  0
LINE
  5
7E10
  8
3
  6
CONTINUOUS
 62
     0
 10
580.5842756455545
 20
1624.744095801798
 30
0.0
 11
1170.584275645554
 21
1624.744095801798
 31
0.0
  0
INSERT
  5
7E11
  8
3
  6
CONTINUOUS
 62
     0
  2
_OPEN
 10
560.5842756455545
 20
1624.744095801798
 30
0.0
 41
20.0
 42
20.0
 43
20.0
 50
180.0
  0
INSERT
  5
7E12
  8
3
  6
CONTINUOUS
 62
     0
  2
_OPEN
 10
1190.584275645554
 20
1624.744095801798
 30
0.0
 41
20.0
 42
20.0
 43
20.0
  0
TEXT
  8
3
  40
30
  5
7E66
  62
0
  72
0
  71
0
 10
797.640
 20
1596.64
 30
0.000000
  1
630
  0
POINT
  5
7E14
  8
DEFPOINTS
  6
CONTINUOUS
 62
     0
 10
560.5842756455545
 20
1713.498361801797
 30
0.0
  0
POINT
  5
7E15
  8
DEFPOINTS
  6
CONTINUOUS
 62
     0
 10
1190.584275645554
 20
1713.498361801797
 30
0.0
  0
POINT
  5
7E16
  8
DEFPOINTS
  6
CONTINUOUS
 62
     0
 10
1190.584275645554
 20
1624.744095801798
 30
0.0
  0
ENDBLK
  5
7BEC
  8
0
  0
BLOCK
  8
0
  2
*D11
 70
     1
 10
0.0
 20
0.0
 30
0.0
  3
*D11
  1

  0
LINE
  5
7E17
  8
3
  6
CONTINUOUS
 62
     0
 10
1195.584275645554
 20
2143.4983618017968
 30
0.0
 11
1295.222032645554
 21
2143.4983618017968
 31
0.0
  0
LINE
  5
7E18
  8
3
  6
CONTINUOUS
 62
     0
 10
1195.584275645554
 20
1713.498361801797
 30
0.0
 11
1295.222032645554
 21
1713.498361801797
 31
0.0
  0
LINE
  5
7E19
  8
3
  6
CONTINUOUS
 62
     0
 10
1285.222032645554
 20
2123.4983618017982
 30
0.0
 11
1285.222032645554
 21
1733.498361801798
 31
0.0
  0
INSERT
  5
7E1A
  8
3
  6
CONTINUOUS
 62
     0
  2
_OPEN
 10
1285.222032645554
 20
2143.4983618017968
 30
0.0
 41
20.0
 42
20.0
 43
20.0
 50
90.0
  0
INSERT
  5
7E1B
  8
3
  6
CONTINUOUS
 62
     0
  2
_OPEN
 10
1285.222032645554
 20
1713.498361801797
 30
0.0
 41
20.0
 42
20.0
 43
20.0
 50
270.0
  0
TEXT
  8
3
  40
30
  5
7E67
  62
0
  72
0
  71
0
 10
1200.22
 20
1877.35
 30
0.000000
  1
430
  0
POINT
  5
7E1D
  8
DEFPOINTS
  6
CONTINUOUS
 62
     0
 10
1190.584275645554
 20
2143.4983618017968
 30
0.0
  0
POINT
  5
7E1E
  8
DEFPOINTS
  6
CONTINUOUS
 62
     0
 10
1190.584275645554
 20
1713.498361801797
 30
0.0
  0
POINT
  5
7E1F
  8
DEFPOINTS
  6
CONTINUOUS
 62
     0
 10
1285.222032645554
 20
1713.498361801797
 30
0.0
  0
ENDBLK
  5
7BF9
  8
0
  0
BLOCK
  8
0
  2
*D12
 70
     1
 10
0.0
 20
0.0
 30
0.0
  3
*D12
  1

  0
LINE
  5
7E20
  8
3
  6
CONTINUOUS
 62
     0
 10
1361.410786201689
 20
777.27962927051226
 30
0.0
 11
1361.410786201689
 21
708.58316927051237
 31
0.0
  0
LINE
  5
7E21
  8
3
  6
CONTINUOUS
 62
     0
 10
1659.410786201689
 20
777.27962927051226
 30
0.0
 11
1659.410786201689
 21
708.58316927051237
 31
0.0
  0
LINE
  5
7E22
  8
3
  6
CONTINUOUS
 62
     0
 10
1381.410786201689
 20
718.58316927051226
 30
0.0
 11
1639.410786201689
 21
718.58316927051226
 31
0.0
  0
INSERT
  5
7E23
  8
3
  6
CONTINUOUS
 62
     0
  2
_OPEN
 10
1361.410786201689
 20
718.58316927051226
 30
0.0
 41
20.0
 42
20.0
 43
20.0
 50
180.0
  0
INSERT
  5
7E24
  8
3
  6
CONTINUOUS
 62
     0
  2
_OPEN
 10
1659.410786201689
 20
718.58316927051226
 30
0.0
 41
20.0
 42
20.0
 43
20.0
  0
TEXT
  8
3
  40
30
  5
7E68
  62
0
  72
0
  71
0
 10
1444.49
 20
690.483
 30
0.000000
  1
298
  0
POINT
  5
7E26
  8
DEFPOINTS
  6
CONTINUOUS
 62
     0
 10
1361.410786201689
 20
782.27962927051226
 30
0.0
  0
POINT
  5
7E27
  8
DEFPOINTS
  6
CONTINUOUS
 62
     0
 10
1659.410786201689
 20
782.27962927051226
 30
0.0
  0
POINT
  5
7E28
  8
DEFPOINTS
  6
CONTINUOUS
 62
     0
 10
1659.410786201689
 20
718.58316927051226
 30
0.0
  0
ENDBLK
  5
7C0A
  8
0
  0
BLOCK
  8
0
  2
*D13
 70
     1
 10
0.0
 20
0.0
 30
0.0
  3
*D13
  1

  0
LINE
  5
7E29
  8
3
  6
CONTINUOUS
 62
     0
 10
1791.410786201689
 20
777.27962927051226
 30
0.0
 11
1791.410786201689
 21
708.58316927051237
 31
0.0
  0
LINE
  5
7E2A
  8
3
  6
CONTINUOUS
 62
     0
 10
1679.410786201689
 20
718.58316927051226
 30
0.0
 11
1771.410786201689
 21
718.58316927051226
 31
0.0
  0
INSERT
  5
7E2B
  8
3
  6
CONTINUOUS
 62
     0
  2
_OPEN
 10
1659.410786201689
 20
718.58316927051226
 30
0.0
 41
20.0
 42
20.0
 43
20.0
 50
180.0
  0
INSERT
  5
7E2C
  8
3
  6
CONTINUOUS
 62
     0
  2
_OPEN
 10
1791.410786201689
 20
718.58316927051226
 30
0.0
 41
20.0
 42
20.0
 43
20.0
  0
TEXT
  8
3
  40
30
  5
7E69
  62
0
  72
0
  71
0
 10
1665.41
 20
690.483
 30
0.000000
  1
132
  0
POINT
  5
7E2E
  8
DEFPOINTS
  6
CONTINUOUS
 62
     0
 10
1659.410786201689
 20
782.27962927051226
 30
0.0
  0
POINT
  5
7E2F
  8
DEFPOINTS
  6
CONTINUOUS
 62
     0
 10
1791.410786201689
 20
782.27962927051226
 30
0.0
  0
POINT
  5
7E30
  8
DEFPOINTS
  6
CONTINUOUS
 62
     0
 10
1791.410786201689
 20
718.58316927051226
 30
0.0
  0
ENDBLK
  5
7C16
  8
0
  0
BLOCK
  8
0
  2
*D14
 70
     1
 10
0.0
 20
0.0
 30
0.0
  3
*D14
  1

  0
LINE
  5
7E31
  8
3
  6
CONTINUOUS
 62
     0
 10
1742.410786201689
 20
1182.279629270512
 30
0.0
 11
1812.862369201689
 21
1182.279629270512
 31
0.0
  0
LINE
  5
7E32
  8
3
  6
CONTINUOUS
 62
     0
 10
1742.410786201689
 20
982.27962927051237
 30
0.0
 11
1812.862369201689
 21
982.27962927051237
 31
0.0
  0
LINE
  5
7E33
  8
3
  6
CONTINUOUS
 62
     0
 10
1802.862369201689
 20
1162.279629270512
 30
0.0
 11
1802.862369201689
 21
1002.279629270512
 31
0.0
  0
INSERT
  5
7E34
  8
3
  6
CONTINUOUS
 62
     0
  2
_OPEN
 10
1802.862369201689
 20
1182.279629270512
 30
0.0
 41
20.0
 42
20.0
 43
20.0
 50
90.0
  0
INSERT
  5
7E35
  8
3
  6
CONTINUOUS
 62
     0
  2
_OPEN
 10
1802.862369201689
 20
982.27962927051237
 30
0.0
 41
20.0
 42
20.0
 43
20.0
 50
270.0
  0
TEXT
  8
3
  40
30
  5
7E6A
  62
0
  72
0
  71
0
 10
1717.86
 20
1015.75
 30
0.000000
  1
φ200
  0
POINT
  5
7E37
  8
DEFPOINTS
  6
CONTINUOUS
 62
     0
 10
1737.410786201689
 20
1182.279629270512
 30
0.0
  0
POINT
  5
7E38
  8
DEFPOINTS
  6
CONTINUOUS
 62
     0
 10
1737.410786201689
 20
982.27962927051237
 30
0.0
  0
POINT
  5
7E39
  8
DEFPOINTS
  6
CONTINUOUS
 62
     0
 10
1802.862369201689
 20
982.27962927051237
 30
0.0
  0
ENDBLK
  5
7CD1
  8
0
  0
BLOCK
  8
0
  2
*D15
 70
     1
 10
0.0
 20
0.0
 30
0.0
  3
*D15
  1

  0
LINE
  5
7E3A
  8
3
  6
CONTINUOUS
 62
     0
 10
1589.410786201689
 20
1287.279629270512
 30
0.0
 11
1589.410786201689
 21
1336.6391832705119
 31
0.0
  0
LINE
  5
7E3B
  8
3
  6
CONTINUOUS
 62
     0
 10
1729.410786201689
 20
1287.279629270512
 30
0.0
 11
1729.410786201689
 21
1336.6391832705119
 31
0.0
  0
LINE
  5
7E3C
  8
3
  6
CONTINUOUS
 62
     0
 10
1609.410786201689
 20
1326.6391832705119
 30
0.0
 11
1709.410786201689
 21
1326.6391832705119
 31
0.0
  0
INSERT
  5
7E3D
  8
3
  6
CONTINUOUS
 62
     0
  2
_OPEN
 10
1589.410786201689
 20
1326.6391832705119
 30
0.0
 41
20.0
 42
20.0
 43
20.0
 50
180.0
  0
INSERT
  5
7E3E
  8
3
  6
CONTINUOUS
 62
     0
  2
_OPEN
 10
1729.410786201689
 20
1326.6391832705119
 30
0.0
 41
20.0
 42
20.0
 43
20.0
  0
TEXT
  8
3
  40
30
  5
7E6B
  62
0
  72
0
  71
0
 10
1595.13
 20
1298.54
 30
0.000000
  1
140
  0
POINT
  5
7E40
  8
DEFPOINTS
  6
CONTINUOUS
 62
     0
 10
1589.410786201689
 20
1282.279629270512
 30
0.0
  0
POINT
  5
7E41
  8
DEFPOINTS
  6
CONTINUOUS
 62
     0
 10
1729.410786201689
 20
1282.279629270512
 30
0.0
  0
POINT
  5
7E42
  8
DEFPOINTS
  6
CONTINUOUS
 62
     0
 10
1729.410786201689
 20
1326.6391832705119
 30
0.0
  0
ENDBLK
  5
7C34
  8
0
  0
BLOCK
  8
0
  2
*D16
 70
     1
 10
0.0
 20
0.0
 30
0.0
  3
*D16
  1

  0
LINE
  5
7E43
  8
3
  6
CONTINUOUS
 62
     0
 10
1359.410786201689
 20
1197.279629270512
 30
0.0
 11
1359.410786201689
 21
1404.7167042705121
 31
0.0
  0
LINE
  5
7E44
  8
3
  6
CONTINUOUS
 62
     0
 10
1659.410786201689
 20
1378.3925052705119
 30
0.0
 11
1659.410786201689
 21
1404.7167042705121
 31
0.0
  0
LINE
  5
7E45
  8
3
  6
CONTINUOUS
 62
     0
 10
1379.410786201689
 20
1394.7167042705121
 30
0.0
 11
1639.410786201689
 21
1394.7167042705121
 31
0.0
  0
INSERT
  5
7E46
  8
3
  6
CONTINUOUS
 62
     0
  2
_OPEN
 10
1359.410786201689
 20
1394.7167042705121
 30
0.0
 41
20.0
 42
20.0
 43
20.0
 50
180.0
  0
INSERT
  5
7E47
  8
3
  6
CONTINUOUS
 62
     0
  2
_OPEN
 10
1659.410786201689
 20
1394.7167042705121
 30
0.0
 41
20.0
 42
20.0
 43
20.0
  0
TEXT
  8
3
  40
30
  5
7E6C
  62
0
  72
0
  71
0
 10
1448.13
 20
1391.62
 30
0.000000
  1
MAX
  0
TEXT
  8
3
  40
30
  5
7E6D
  62
0
  72
0
  71
0
 10
1448.13
 20
1352.62
 30
0.000000
  1
300
  0
POINT
  5
7E49
  8
DEFPOINTS
  6
CONTINUOUS
 62
     0
 10
1359.410786201689
 20
1192.279629270512
 30
0.0
  0
POINT
  5
7E4A
  8
DEFPOINTS
  6
CONTINUOUS
 62
     0
 10
1659.410786201689
 20
1373.3925052705119
 30
0.0
  0
POINT
  5
7E4B
  8
DEFPOINTS
  6
CONTINUOUS
 62
     0
 10
1659.410786201689
 20
1394.7167042705121
 30
0.0
  0
ENDBLK
  5
7C9B
  8
0
  0
BLOCK
  8
0
  2
*D17
 70
     1
 10
0.0
 20
0.0
 30
0.0
  3
*D17
  1

  0
LINE
  5
7E4C
  8
3
  6
CONTINUOUS
 62
     0
 10
1737.410786201689
 20
1207.279629270512
 30
0.0
 11
1737.410786201689
 21
1404.7167042705121
 31
0.0
  0
LINE
  5
7E4D
  8
3
  6
CONTINUOUS
 62
     0
 10
1679.410786201689
 20
1394.7167042705121
 30
0.0
 11
1717.410786201689
 21
1394.7167042705121
 31
0.0
  0
TEXT
  8
3
  40
30
  5
7E6E
  62
0
  72
0
  71
0
 10
1638.94
 20
1366.62
 30
0.000000
  1
78
  0
INSERT
  5
7E4F
  8
3
  6
CONTINUOUS
 62
     0
  2
_OPEN
 10
1659.410786201689
 20
1394.7167042705121
 30
0.0
 41
20.0
 42
20.0
 43
20.0
 50
180.0
  0
INSERT
  5
7E50
  8
3
  6
CONTINUOUS
 62
     0
  2
_OPEN
 10
1737.410786201689
 20
1394.7167042705121
 30
0.0
 41
20.0
 42
20.0
 43
20.0
  0
POINT
  5
7E51
  8
DEFPOINTS
  6
CONTINUOUS
 62
     0
 10
1659.410786201689
 20
1373.3925052705119
 30
0.0
  0
POINT
  5
7E52
  8
DEFPOINTS
  6
CONTINUOUS
 62
     0
 10
1737.410786201689
 20
1202.279629270512
 30
0.0
  0
POINT
  5
7E53
  8
DEFPOINTS
  6
CONTINUOUS
 62
     0
 10
1737.410786201689
 20
1394.7167042705121
 30
0.0
  0
ENDBLK
  5
7C81
  8
0
  0
BLOCK
  8
0
  2
*D18
 70
     1
 10
0.0
 20
0.0
 30
0.0
  3
*D18
  1

  0
LINE
  5
7E54
  8
3
 62
     0
 10
560.5842756455545
 20
1308.279629270512
 30
0.0
 11
560.5842756455545
 21
1403.3816463485939
 31
0.0
  0
LINE
  5
7E55
  8
3
 62
     0
 10
1190.584275645554
 20
862.27962927051226
 30
0.0
 11
1190.584275645554
 21
1403.3816463485939
 31
0.0
  0
LINE
  5
7E56
  8
3
 62
     0
 10
580.5842756455545
 20
1393.3816463485939
 30
0.0
 11
1170.584275645554
 21
1393.3816463485939
 31
0.0
  0
INSERT
  5
7E57
  8
3
 62
     0
  2
_OPEN
 10
560.5842756455545
 20
1393.3816463485939
 30
0.0
 41
20.0
 42
20.0
 43
20.0
 50
180.0
  0
INSERT
  5
7E58
  8
3
 62
     0
  2
_OPEN
 10
1190.584275645554
 20
1393.3816463485939
 30
0.0
 41
20.0
 42
20.0
 43
20.0
  0
TEXT
  8
3
  40
30
  5
7E6F
  62
0
  72
0
  71
0
 10
776.430
 20
1365.28
 30
0.000000
  1
630
  0
POINT
  5
7E5A
  8
DEFPOINTS
 62
     0
 10
560.5842756455545
 20
1303.279629270512
 30
0.0
  0
POINT
  5
7E5B
  8
DEFPOINTS
 62
     0
 10
1190.584275645554
 20
857.27962927051237
 30
0.0
  0
POINT
  5
7E5C
  8
DEFPOINTS
 62
     0
 10
1190.584275645554
 20
1393.3816463485939
 30
0.0
  0
ENDBLK
  5
7CB4
  8
0
  0
ENDSEC
  0
SECTION
  2
ENTITIES
  0
LINE
  5
7A89
  8
1
  6
CONTINUOUS
 10
1143.584275645554
 20
1192.279629270512
 30
0.0
 11
613.5842756455545
 21
1192.279629270512
 31
0.0
  0
ARC
  5
7A8A
  8
1
  6
CONTINUOUS
 10
704.58427564555438
 20
1098.279629270512
 30
0.0
 40
195.0
 50
359.69999999999999
 51
90.0
  0
ARC
  5
7A8B
  8
1
  6
CONTINUOUS
 10
734.5842756455545
 20
1096.279629270512
 30
0.0
 40
165.0
 50
269.39999999999992
 51
0.3
  0
LINE
  5
7A8C
  8
1
  6
CONTINUOUS
 10
855.5842756455545
 20
1048.9796292705121
 30
0.0
 11
585.5842756455545
 21
1048.9796292705121
 31
0.0
  0
LINE
  5
7A8D
  8
1
  6
CONTINUOUS
 10
772.18427564555441
 20
1207.279629270512
 30
0.0
 11
855.5842756455545
 21
1135.9796292705121
 31
0.0
  0
LINE
  5
7A8E
  8
1
  6
CONTINUOUS
 10
1190.584275645554
 20
807.27962927051237
 30
0.0
 11
560.5842756455545
 21
807.27962927051237
 31
0.0
  0
LINE
  5
7A8F
  8
1
  6
CONTINUOUS
 10
1190.584275645554
 20
857.27962927051237
 30
0.0
 11
560.5842756455545
 21
857.27962927051237
 31
0.0
  0
LINE
  5
7A90
  8
1
  6
CONTINUOUS
 10
703.68427564555452
 20
1035.279629270512
 30
0.0
 11
1008.884275645554
 21
925.47962927051231
 31
0.0
  0
LINE
  5
7A91
  8
1
  6
CONTINUOUS
 10
741.78427564555454
 20
1127.579629270512
 30
0.0
 11
1035.584275645554
 21
990.07962927051233
 31
0.0
  0
CIRCLE
  5
7A92
  8
1
  6
CONTINUOUS
 10
720.58427564555438
 20
1082.279629270512
 30
0.0
 40
100.0
  0
LINE
  5
7A93
  8
1
  6
CONTINUOUS
 10
613.5842756455545
 20
857.27962927051237
 30
0.0
 11
613.5842756455545
 21
1192.279629270512
 31
0.0
  0
CIRCLE
  5
7A94
  8
1
  6
CONTINUOUS
 10
720.58427564555438
 20
1082.279629270512
 30
0.0
 40
120.0
  0
LINE
  5
7A95
  8
1
  6
CONTINUOUS
 10
560.5842756455545
 20
1303.279629270512
 30
0.0
 11
560.5842756455545
 21
1061.279629270512
 31
0.0
  0
LINE
  5
7A96
  8
1
  6
CONTINUOUS
 10
575.58427564555438
 20
1268.279629270512
 30
0.0
 11
575.58427564555438
 21
1096.279629270512
 31
0.0
  0
LINE
  5
7A97
  8
1
  6
CONTINUOUS
 10
585.5842756455545
 20
857.27962927051237
 30
0.0
 11
585.5842756455545
 21
1135.9796292705121
 31
0.0
  0
CIRCLE
  5
7A98
  8
1
  6
CONTINUOUS
 10
720.58427564555438
 20
1082.279629270512
 30
0.0
 40
50.0
  0
LINE
  5
7A99
  8
2
  6
CENTER
 10
720.58427564555438
 20
788.49246527051241
 30
0.0
 11
720.58427564555438
 21
1310.7172082705119
 31
0.0
  0
ARC
  5
7A9A
  8
1
  6
CONTINUOUS
 10
731.5842756455545
 20
1071.279629270512
 30
0.0
 40
140.0
 50
179.59999999999999
 51
270.60000000000002
  0
LINE
  5
7A9B
  8
1
  6
CONTINUOUS
 10
560.5842756455545
 20
782.27962927051226
 30
0.0
 11
560.5842756455545
 21
857.27962927051237
 31
0.0
  0
LINE
  5
7A9C
  8
1
  6
CONTINUOUS
 10
585.5842756455545
 20
782.27962927051226
 30
0.0
 11
585.5842756455545
 21
807.27962927051237
 31
0.0
  0
LINE
  5
7A9D
  8
1
  6
CONTINUOUS
 10
585.5842756455545
 20
782.27962927051226
 30
0.0
 11
560.5842756455545
 21
782.27962927051226
 31
0.0
  0
LINE
  5
7A9E
  8
1
  6
CONTINUOUS
 10
575.58427564555438
 20
1072.279629270512
 30
0.0
 11
591.58427564555438
 21
1072.279629270512
 31
0.0
  0
LINE
  5
7A9F
  8
1
  6
CONTINUOUS
 10
560.5842756455545
 20
1082.279629270512
 30
0.0
 11
575.58427564555438
 21
1082.279629270512
 31
0.0
  0
LINE
  5
7AA0
  8
1
  6
CONTINUOUS
 10
560.5842756455545
 20
1081.279629270512
 30
0.0
 11
575.58427564555438
 21
1096.279629270512
 31
0.0
  0
LINE
  5
7AA1
  8
1
  6
CONTINUOUS
 10
575.58427564555438
 20
1082.279629270512
 30
0.0
 11
575.58427564555438
 21
1072.279629270512
 31
0.0
  0
LINE
  5
7AA2
  8
2
  6
CENTER
 10
1746.357521201689
 20
1082.279629270512
 30
0.0
 11
1347.707352201689
 21
1082.279629270512
 31
0.0
  0
LINE
  5
7AA3
  8
1
  6
CONTINUOUS
 10
575.58427564555438
 20
1293.279629270512
 30
0.0
 11
704.58427564555438
 21
1293.279629270512
 31
0.0
  0
LINE
  5
7AA4
  8
1
  6
CONTINUOUS
 10
668.98427564555436
 20
1207.279629270512
 30
0.0
 11
585.5842756455545
 21
1135.9796292705121
 31
0.0
  0
LINE
  5
7AA5
  8
1
  6
CONTINUOUS
 10
560.5842756455545
 20
1283.279629270512
 30
0.0
 11
575.58427564555438
 21
1268.279629270512
 31
0.0
  0
LINE
  5
7AA6
  8
1
  6
CONTINUOUS
 10
560.5842756455545
 20
1282.279629270512
 30
0.0
 11
575.58427564555438
 21
1282.279629270512
 31
0.0
  0
LINE
  5
7AA7
  8
1
  6
CONTINUOUS
 10
575.58427564555438
 20
1293.279629270512
 30
0.0
 11
575.58427564555438
 21
1282.279629270512
 31
0.0
  0
LINE
  5
7AA8
  8
1
  6
CONTINUOUS
 10
668.98427564555436
 20
1207.279629270512
 30
0.0
 11
772.18427564555441
 21
1207.279629270512
 31
0.0
  0
LINE
  5
7AA9
  8
1
  6
CONTINUOUS
 10
1143.584275645554
 20
857.27962927051237
 30
0.0
 11
1143.584275645554
 21
1192.279629270512
 31
0.0
  0
LINE
  5
7AAA
  8
1
  6
CONTINUOUS
 10
855.5842756455545
 20
1135.9796292705121
 30
0.0
 11
855.5842756455545
 21
857.27962927051237
 31
0.0
  0
LINE
  5
7AAB
  8
2
  6
CENTER
 10
1055.7842756455541
 20
958.37962927051228
 30
0.0
 11
985.78427564555454
 21
958.37962927051228
 31
0.0
  0
ARC
  5
7AAC
  8
1
  6
CONTINUOUS
 10
1025.084275645554
 20
957.97962927051242
 30
0.0
 40
85.0
 50
324.69999999999987
 51
215.30000000000001
  0
CIRCLE
  5
7AAD
  8
1
  6
CONTINUOUS
 10
1020.784275645554
 20
958.37962927051228
 30
0.0
 40
35.0
  0
LINE
  5
7AAE
  8
1
  6
CONTINUOUS
 10
932.28427564555454
 20
877.97962927051231
 30
0.0
 11
1183.2842756455541
 21
877.97962927051231
 31
0.0
  0
LINE
  5
7AAF
  8
1
  6
CONTINUOUS
 10
932.28427564555454
 20
857.27962927051237
 30
0.0
 11
932.28427564555454
 21
877.97962927051231
 31
0.0
  0
LINE
  5
7AB0
  8
2
  6
CENTER
 10
1020.784275645554
 20
923.37962927051217
 30
0.0
 11
1020.784275645554
 21
993.37962927051228
 31
0.0
  0
LINE
  5
7AB1
  8
1
  6
CONTINUOUS
 10
947.58427564555473
 20
885.97962927051231
 30
0.0
 11
955.78427564555454
 21
908.77962927051226
 31
0.0
  0
LINE
  5
7AB2
  8
1
  6
CONTINUOUS
 10
947.58427564555473
 20
877.97962927051231
 30
0.0
 11
947.58427564555473
 21
885.97962927051231
 31
0.0
  0
LINE
  5
7AB3
  8
1
  6
CONTINUOUS
 10
1190.584275645554
 20
782.27962927051226
 30
0.0
 11
1190.584275645554
 21
857.27962927051237
 31
0.0
  0
LINE
  5
7AB4
  8
1
  6
CONTINUOUS
 10
1165.584275645554
 20
782.27962927051226
 30
0.0
 11
1165.584275645554
 21
807.27962927051237
 31
0.0
  0
LINE
  5
7AB5
  8
1
  6
CONTINUOUS
 10
1190.584275645554
 20
782.27962927051226
 30
0.0
 11
1165.584275645554
 21
782.27962927051226
 31
0.0
  0
LINE
  5
7AB6
  8
1
  6
CONTINUOUS
 10
1102.584275645554
 20
877.97962927051231
 30
0.0
 11
1102.584275645554
 21
885.97962927051231
 31
0.0
  0
LINE
  5
7AB7
  8
1
  6
CONTINUOUS
 10
1102.584275645554
 20
885.97962927051231
 30
0.0
 11
1094.4842756455539
 21
908.77962927051226
 31
0.0
  0
LINE
  5
7AB8
  8
1
  6
CONTINUOUS
 10
1183.2842756455541
 20
877.97962927051231
 30
0.0
 11
1183.2842756455541
 21
857.27962927051237
 31
0.0
  0
LINE
  5
7AB9
  8
1
  6
CONTINUOUS
 10
732.5842756455545
 20
1797.498361801798
 30
0.0
 11
1008.784275645554
 21
1797.498361801798
 31
0.0
  0
LINE
  5
7ABA
  8
1
  6
CONTINUOUS
 10
613.5842756455545
 20
1786.498361801798
 30
0.0
 11
1143.584275645554
 21
1786.498361801798
 31
0.0
  0
LINE
  5
7ABB
  8
1
  6
CONTINUOUS
 10
613.5842756455545
 20
1711.498361801798
 30
0.0
 11
1143.584275645554
 21
1711.498361801798
 31
0.0
  0
LINE
  5
7ABC
  8
1
  6
CONTINUOUS
 10
560.5842756455545
 20
1941.498361801798
 30
0.0
 11
889.5842756455545
 21
1941.498361801798
 31
0.0
  0
LINE
  5
7ABD
  8
1
  6
CONTINUOUS
 10
560.5842756455545
 20
2081.4983618017982
 30
0.0
 11
889.5842756455545
 21
2081.4983618017982
 31
0.0
  0
LINE
  5
7ABE
  8
1
  6
CONTINUOUS
 10
560.5842756455545
 20
1713.498361801797
 30
0.0
 11
560.5842756455545
 21
2143.4983618017968
 31
0.0
  0
LINE
  5
7ABF
  8
1
  6
CONTINUOUS
 10
585.5842756455545
 20
2081.4983618017982
 30
0.0
 11
585.5842756455545
 21
2143.4983618017968
 31
0.0
  0
LINE
  5
7AC0
  8
1
  6
CONTINUOUS
 10
560.5842756455545
 20
1797.498361801798
 30
0.0
 11
708.58427564555438
 21
1797.498361801798
 31
0.0
  0
LINE
  5
7AC1
  8
1
  6
CONTINUOUS
 10
600.58427564555438
 20
2089.4983618017982
 30
0.0
 11
840.5842756455545
 21
2089.4983618017982
 31
0.0
  0
LINE
  5
7AC2
  8
1
  6
CONTINUOUS
 10
600.58427564555438
 20
1933.498361801797
 30
0.0
 11
840.5842756455545
 21
1933.498361801797
 31
0.0
  0
LINE
  5
7AC3
  8
1
  6
CONTINUOUS
 10
613.5842756455545
 20
1711.498361801798
 30
0.0
 11
613.5842756455545
 21
1786.498361801798
 31
0.0
  0
LINE
  5
7AC4
  8
1
  6
CONTINUOUS
 10
585.5842756455545
 20
1713.498361801797
 30
0.0
 11
560.5842756455545
 21
1713.498361801797
 31
0.0
  0
LINE
  5
7AC5
  8
1
  6
CONTINUOUS
 10
585.5842756455545
 20
1713.498361801797
 30
0.0
 11
585.5842756455545
 21
1797.498361801798
 31
0.0
  0
LINE
  5
7AC6
  8
1
  6
CONTINUOUS
 10
600.58427564555438
 20
2081.4983618017982
 30
0.0
 11
600.58427564555438
 21
2089.4983618017982
 31
0.0
  0
LINE
  5
7AC7
  8
1
  6
CONTINUOUS
 10
560.5842756455545
 20
2102.4983618017982
 30
0.0
 11
560.5842756455545
 21
1920.498361801798
 31
0.0
  0
LINE
  5
7AC8
  8
1
  6
CONTINUOUS
 10
560.5842756455545
 20
2082.4983618017982
 30
0.0
 11
575.58427564555438
 21
2067.4983618017982
 31
0.0
  0
LINE
  5
7AC9
  8
1
  6
CONTINUOUS
 10
575.58427564555438
 20
2067.4983618017982
 30
0.0
 11
575.58427564555438
 21
1955.498361801798
 31
0.0
  0
LINE
  5
7ACA
  8
1
  6
CONTINUOUS
 10
560.5842756455545
 20
1940.498361801798
 30
0.0
 11
575.58427564555438
 21
1955.498361801798
 31
0.0
  0
LINE
  5
7ACB
  8
1
  6
CONTINUOUS
 10
600.58427564555438
 20
1941.498361801798
 30
0.0
 11
600.58427564555438
 21
1933.498361801797
 31
0.0
  0
LINE
  5
7ACC
  8
1
  6
CONTINUOUS
 10
708.58427564555438
 20
1933.498361801797
 30
0.0
 11
708.58427564555438
 21
1763.998361801798
 31
0.0
  0
LINE
  5
7ACD
  8
1
  6
CONTINUOUS
 10
732.5842756455545
 20
1933.498361801797
 30
0.0
 11
732.5842756455545
 21
1763.998361801798
 31
0.0
  0
LINE
  5
7ACE
  8
1
  6
CONTINUOUS
 10
770.58427564555438
 20
1763.998361801798
 30
0.0
 11
670.58427564555438
 21
1763.998361801798
 31
0.0
  0
LINE
  5
7ACF
  8
1
  6
CONTINUOUS
 10
770.58427564555438
 20
1733.998361801798
 30
0.0
 11
670.58427564555438
 21
1733.998361801798
 31
0.0
  0
LINE
  5
7AD0
  8
1
  6
CONTINUOUS
 10
670.58427564555438
 20
1733.998361801798
 30
0.0
 11
670.58427564555438
 21
1763.998361801798
 31
0.0
  0
LINE
  5
7AD1
  8
1
  6
CONTINUOUS
 10
770.58427564555438
 20
1733.998361801798
 30
0.0
 11
770.58427564555438
 21
1763.998361801798
 31
0.0
  0
LINE
  5
7AD2
  8
1
  6
CONTINUOUS
 10
840.5842756455545
 20
2081.4983618017982
 30
0.0
 11
840.5842756455545
 21
2089.4983618017982
 31
0.0
  0
LINE
  5
7AD3
  8
1
  6
CONTINUOUS
 10
840.5842756455545
 20
1941.498361801798
 30
0.0
 11
840.5842756455545
 21
1933.498361801797
 31
0.0
  0
LINE
  5
7AD4
  8
1
  6
CONTINUOUS
 10
585.5842756455545
 20
2143.4983618017968
 30
0.0
 11
560.5842756455545
 21
2143.4983618017968
 31
0.0
  0
LINE
  5
7AD5
  8
1
  6
CONTINUOUS
 10
1190.584275645554
 20
1713.498361801797
 30
0.0
 11
1190.584275645554
 21
2143.4983618017968
 31
0.0
  0
LINE
  5
7AD6
  8
1
  6
CONTINUOUS
 10
1165.584275645554
 20
2021.498361801798
 30
0.0
 11
1165.584275645554
 21
2143.4983618017968
 31
0.0
  0
LINE
  5
7AD7
  8
1
  6
CONTINUOUS
 10
1032.7842756455541
 20
1797.498361801798
 30
0.0
 11
1190.584275645554
 21
1797.498361801798
 31
0.0
  0
LINE
  5
7AD8
  8
1
  6
CONTINUOUS
 10
940.08427564555461
 20
1816.698361801798
 30
0.0
 11
1110.084275645554
 21
1816.698361801798
 31
0.0
  0
LINE
  5
7AD9
  8
1
  6
CONTINUOUS
 10
940.08427564555461
 20
2007.5983618017981
 30
0.0
 11
1110.084275645554
 21
2007.5983618017981
 31
0.0
  0
LINE
  5
7ADA
  8
1
  6
CONTINUOUS
 10
1055.7842756455541
 20
1733.998361801798
 30
0.0
 11
985.78427564555454
 21
1733.998361801798
 31
0.0
  0
LINE
  5
7ADB
  8
1
  6
CONTINUOUS
 10
1055.7842756455541
 20
1763.998361801798
 30
0.0
 11
985.78427564555454
 21
1763.998361801798
 31
0.0
  0
LINE
  5
7ADC
  8
1
  6
CONTINUOUS
 10
899.58427564555438
 20
2021.498361801798
 30
0.0
 11
1190.584275645554
 21
2021.498361801798
 31
0.0
  0
LINE
  5
7ADD
  8
1
  6
CONTINUOUS
 10
1008.784275645554
 20
1763.998361801798
 30
0.0
 11
1008.784275645554
 21
1816.698361801798
 31
0.0
  0
LINE
  5
7ADE
  8
1
  6
CONTINUOUS
 10
1032.7842756455541
 20
1763.998361801798
 30
0.0
 11
1032.7842756455541
 21
1816.698361801798
 31
0.0
  0
LINE
  5
7ADF
  8
1
  6
CONTINUOUS
 10
985.78427564555454
 20
1733.998361801798
 30
0.0
 11
985.78427564555454
 21
1763.998361801798
 31
0.0
  0
LINE
  5
7AE0
  8
1
  6
CONTINUOUS
 10
940.08427564555461
 20
1816.698361801798
 30
0.0
 11
940.08427564555461
 21
2007.5983618017981
 31
0.0
  0
LINE
  5
7AE1
  8
1
  6
CONTINUOUS
 10
899.58427564555438
 20
2071.4983618017982
 30
0.0
 11
899.58427564555438
 21
1951.498361801798
 31
0.0
  0
ARC
  5
7AE2
  8
1
  6
CONTINUOUS
 10
889.5842756455545
 20
2071.4983618017982
 30
0.0
 40
10.0
 50
0.0
 51
90.0
  0
ARC
  5
7AE3
  8
1
  6
CONTINUOUS
 10
889.5842756455545
 20
1951.498361801798
 30
0.0
 40
10.0
 50
270.0
 51
0.0
  0
LINE
  5
7AE4
  8
1
  6
CONTINUOUS
 10
1055.7842756455541
 20
1733.998361801798
 30
0.0
 11
1055.7842756455541
 21
1763.998361801798
 31
0.0
  0
LINE
  5
7AE5
  8
1
  6
CONTINUOUS
 10
1143.584275645554
 20
1711.498361801798
 30
0.0
 11
1143.584275645554
 21
1786.498361801798
 31
0.0
  0
LINE
  5
7AE6
  8
1
  6
CONTINUOUS
 10
1165.584275645554
 20
1713.498361801797
 30
0.0
 11
1165.584275645554
 21
1797.498361801798
 31
0.0
  0
LINE
  5
7AE7
  8
1
  6
CONTINUOUS
 10
1190.584275645554
 20
1713.498361801797
 30
0.0
 11
1165.584275645554
 21
1713.498361801797
 31
0.0
  0
LINE
  5
7AE8
  8
1
  6
CONTINUOUS
 10
1110.084275645554
 20
1816.698361801798
 30
0.0
 11
1110.084275645554
 21
2007.5983618017981
 31
0.0
  0
LINE
  5
7AE9
  8
1
  6
CONTINUOUS
 10
1190.584275645554
 20
2143.4983618017968
 30
0.0
 11
1165.584275645554
 21
2143.4983618017968
 31
0.0
  0
LINE
  5
7AEA
  8
1
  6
CONTINUOUS
 10
1361.410786201689
 20
782.27962927051226
 30
0.0
 11
1791.410786201689
 21
782.27962927051226
 31
0.0
  0
LINE
  5
7AEB
  8
1
  6
CONTINUOUS
 10
1361.410786201689
 20
807.27962927051237
 30
0.0
 11
1791.410786201689
 21
807.27962927051237
 31
0.0
  0
LINE
  5
7AEC
  8
1
  6
CONTINUOUS
 10
1359.410786201689
 20
857.27962927051237
 30
0.0
 11
1669.410786201689
 21
857.27962927051237
 31
0.0
  0
LINE
  5
7AED
  8
1
  6
CONTINUOUS
 10
1359.410786201689
 20
1192.279629270512
 30
0.0
 11
1434.410786201689
 21
1192.279629270512
 31
0.0
  0
LINE
  5
7AEE
  8
1
  6
CONTINUOUS
 10
1359.410786201689
 20
1192.279629270512
 30
0.0
 11
1359.410786201689
 21
857.27962927051237
 31
0.0
  0
LINE
  5
7AEF
  8
1
  6
CONTINUOUS
 10
1361.410786201689
 20
807.27962927051237
 30
0.0
 11
1361.410786201689
 21
782.27962927051226
 31
0.0
  0
LINE
  5
7AF0
  8
1
  6
CONTINUOUS
 10
1729.410786201689
 20
1282.279629270512
 30
0.0
 11
1589.410786201689
 21
1082.279629270512
 31
0.0
  0
LINE
  5
7AF1
  8
1
  6
CONTINUOUS
 10
1589.410786201689
 20
1282.279629270512
 30
0.0
 11
1729.410786201689
 21
1082.279629270512
 31
0.0
  0
LINE
  5
7AF2
  8
1
  6
CONTINUOUS
 10
1589.410786201689
 20
1282.279629270512
 30
0.0
 11
1589.410786201689
 21
943.27962927051226
 31
0.0
  0
LINE
  5
7AF3
  8
1
  6
CONTINUOUS
 10
1729.410786201689
 20
943.27962927051226
 30
0.0
 11
1729.410786201689
 21
1282.279629270512
 31
0.0
  0
LINE
  5
7AF4
  8
1
  6
CONTINUOUS
 10
1737.410786201689
 20
1202.279629270512
 30
0.0
 11
1737.410786201689
 21
962.27962927051249
 31
0.0
  0
LINE
  5
7AF5
  8
1
  6
CONTINUOUS
 10
1581.410786201689
 20
1202.279629270512
 30
0.0
 11
1581.410786201689
 21
857.27962927051237
 31
0.0
  0
LINE
  5
7AF6
  8
1
  6
CONTINUOUS
 10
1469.410786201689
 20
1048.9796292705121
 30
0.0
 11
1581.410786201689
 21
1135.9796292705121
 31
0.0
  0
LINE
  5
7AF7
  8
1
  6
CONTINUOUS
 10
1434.410786201689
 20
1192.279629270512
 30
0.0
 11
1434.410786201689
 21
857.27962927051237
 31
0.0
  0
LINE
  5
7AF8
  8
1
  6
CONTINUOUS
 10
1381.910786201689
 20
1132.279629270512
 30
0.0
 11
1381.910786201689
 21
1032.279629270512
 31
0.0
  0
LINE
  5
7AF9
  8
1
  6
CONTINUOUS
 10
1411.910786201689
 20
1132.279629270512
 30
0.0
 11
1411.910786201689
 21
1032.279629270512
 31
0.0
  0
LINE
  5
7AFA
  8
1
  6
CONTINUOUS
 10
1411.910786201689
 20
1094.279629270512
 30
0.0
 11
1527.710786201689
 21
1094.279629270512
 31
0.0
  0
LINE
  5
7AFB
  8
1
  6
CONTINUOUS
 10
1411.910786201689
 20
1070.279629270512
 30
0.0
 11
1496.8107862016891
 21
1070.279629270512
 31
0.0
  0
LINE
  5
7AFC
  8
1
  6
CONTINUOUS
 10
1445.410786201689
 20
857.27962927051237
 30
0.0
 11
1445.410786201689
 21
807.27962927051237
 31
0.0
  0
LINE
  5
7AFD
  8
1
  6
CONTINUOUS
 10
1469.410786201689
 20
1048.9796292705121
 30
0.0
 11
1469.410786201689
 21
857.27962927051237
 31
0.0
  0
LINE
  5
7AFE
  8
1
  6
CONTINUOUS
 10
1381.910786201689
 20
1032.279629270512
 30
0.0
 11
1411.910786201689
 21
1032.279629270512
 31
0.0
  0
LINE
  5
7AFF
  8
1
  6
CONTINUOUS
 10
1381.910786201689
 20
993.37962927051228
 30
0.0
 11
1381.910786201689
 21
923.37962927051217
 31
0.0
  0
LINE
  5
7B00
  8
1
  6
CONTINUOUS
 10
1411.910786201689
 20
993.37962927051228
 30
0.0
 11
1411.910786201689
 21
923.37962927051217
 31
0.0
  0
LINE
  5
7B01
  8
1
  6
CONTINUOUS
 10
1381.910786201689
 20
993.37962927051228
 30
0.0
 11
1411.910786201689
 21
993.37962927051228
 31
0.0
  0
LINE
  5
7B02
  8
1
  6
CONTINUOUS
 10
1381.910786201689
 20
923.37962927051217
 30
0.0
 11
1411.910786201689
 21
923.37962927051217
 31
0.0
  0
LINE
  5
7B03
  8
1
  6
CONTINUOUS
 10
1411.910786201689
 20
970.3796292705124
 30
0.0
 11
1469.410786201689
 21
970.3796292705124
 31
0.0
  0
LINE
  5
7B04
  8
1
  6
CONTINUOUS
 10
1411.910786201689
 20
946.37962927051217
 30
0.0
 11
1469.410786201689
 21
946.37962927051217
 31
0.0
  0
LINE
  5
7B05
  8
1
  6
CONTINUOUS
 10
1589.410786201689
 20
1082.279629270512
 30
0.0
 11
1729.410786201689
 21
1082.279629270512
 31
0.0
  0
LINE
  5
7B06
  8
1
  6
CONTINUOUS
 10
1601.410786201689
 20
931.27962927051237
 30
0.0
 11
1717.410786201689
 21
931.27962927051237
 31
0.0
  0
ARC
  5
7B07
  8
1
  6
CONTINUOUS
 10
1601.410786201689
 20
943.27962927051226
 30
0.0
 40
12.0
 50
180.0
 51
270.0
  0
LINE
  5
7B08
  8
1
  6
CONTINUOUS
 10
1589.6107862016891
 20
962.27962927051249
 30
0.0
 11
1581.410786201689
 21
962.27962927051249
 31
0.0
  0
LINE
  5
7B09
  8
1
  6
CONTINUOUS
 10
1669.410786201689
 20
857.27962927051237
 30
0.0
 11
1669.410786201689
 21
807.27962927051237
 31
0.0
  0
ARC
  5
7B0A
  8
1
  6
CONTINUOUS
 10
1717.410786201689
 20
943.27962927051226
 30
0.0
 40
12.0
 50
270.0
 51
0.0
  0
LINE
  5
7B0B
  8
1
  6
CONTINUOUS
 10
1729.210786201689
 20
962.27962927051249
 30
0.0
 11
1737.410786201689
 21
962.27962927051249
 31
0.0
  0
ARC
  5
7B0C
  8
1
  6
CONTINUOUS
 10
1717.410786201689
 20
943.27962927051226
 30
0.0
 40
12.0
 50
270.0
 51
0.0
  0
LINE
  5
7B0D
  8
1
  6
CONTINUOUS
 10
1381.910786201689
 20
1132.279629270512
 30
0.0
 11
1411.910786201689
 21
1132.279629270512
 31
0.0
  0
LINE
  5
7B0E
  8
1
  6
CONTINUOUS
 10
1729.410786201689
 20
1282.279629270512
 30
0.0
 11
1589.410786201689
 21
1282.279629270512
 31
0.0
  0
LINE
  5
7B0F
  8
1
  6
CONTINUOUS
 10
1589.6107862016891
 20
1202.279629270512
 30
0.0
 11
1581.410786201689
 21
1202.279629270512
 31
0.0
  0
LINE
  5
7B10
  8
1
  6
CONTINUOUS
 10
1729.210786201689
 20
1202.279629270512
 30
0.0
 11
1737.410786201689
 21
1202.279629270512
 31
0.0
  0
LINE
  5
7B11
  8
1
  6
CONTINUOUS
 10
1791.410786201689
 20
807.27962927051237
 30
0.0
 11
1791.410786201689
 21
782.27962927051226
 31
0.0
  0
LINE
  5
7B12
  8
4
  6
CONTINUOUS
 10
1850.0
 20
500.0
 30
0.0
 11
1850.0
 21
300.0
 31
0.0
  0
LINE
  5
7B13
  8
4
  6
CONTINUOUS
 10
1150.0
 20
500.0
 30
0.0
 11
1150.0
 21
300.0
 31
0.0
  0
LINE
  5
7B14
  8
4
  6
CONTINUOUS
 10
650.0
 20
500.0
 30
0.0
 11
650.0
 21
300.0
 31
0.0
  0
LINE
  5
7B17
  8
4
  6
CONTINUOUS
 10
650.0
 20
300.0
 30
0.0
 11
1850.0
 21
300.0
 31
0.0
  0
LINE
  5
7B18
  8
4
  6
CONTINUOUS
 10
650.0
 20
400.0
 30
0.0
 11
1850.0
 21
400.0
 31
0.0
  0
TEXT
  5
7B19
  8
4
  6
CONTINUOUS
 10
688.50208099999998
 20
431.543026
 30
0.0
 40
50.0
  1
機器名称
  0
TEXT
  5
7B1A
  8
4
  6
CONTINUOUS
 10
686.258106
 20
321.64515699999993
 30
0.0
 40
50.0
  1
機器型番
  0
TEXT
  5
7B1B
  8
4
  6
CONTINUOUS
 10
1177.678744999999
 20
422.57176900000002
 30
0.0
 40
45.0
  1
ミツヤニューマルチファン
  0
TEXT
  5
7B1C
  8
4
  6
CONTINUOUS
 10
1186.6544960000001
 20
317.159584
 30
0.0
 40
50.0
  1
NM#1 1/4-1
  0
TEXT
  5
7B1E
  8
4
  6
CONTINUOUS
 10
823.14861399999995
 20
2383.4288409999999
 30
0.0
 40
54.0
  1
天井吊ベット
  0
TEXT
  5
7B1F
  8
4
  6
CONTINUOUS
 10
316.16759300000001
 20
2533.8809759999999
 30
0.0
 40
72.0
  1
ベルト駆動式片吸込片持多翼ファン
  0
LINE
  5
7B20
  8
4
  6
CONTINUOUS
 10
250.0
 20
2469.408754
 30
0.0
 11
1850.0
 21
2469.408754
 31
0.0
  0
LINE
  5
7B21
  8
4
  6
CONTINUOUS
 10
250.0
 20
2669.408754
 30
0.0
 11
1850.0
 21
2669.408754
 31
0.0
  0
LINE
  5
7B22
  8
4
  6
CONTINUOUS
 10
650.0
 20
500.0
 30
0.0
 11
1850.0
 21
500.0
 31
0.0
  0
LINE
  5
7B23
  8
4
  6
CONTINUOUS
 10
250.0
 20
2669.408754
 30
0.0
 11
250.0
 21
2469.408754
 31
0.0
  0
TEXT
  5
7B24
  8
4
  6
CONTINUOUS
 10
387.289782
 20
2382.3194779999999
 30
0.0
 40
54.0
  1
左回転左横向
  0
TEXT
  5
7B25
  8
4
  6
CONTINUOUS
 10
1468.9695589999999
 20
2706.0610809999998
 30
0.0
 40
56.0
  1
No.
  0
TEXT
  5
7B26
  8
4
  6
CONTINUOUS
 10
1311.296063
 20
2383.4288409999999
 30
0.0
 40
54.0
  1
縮尺：1/10
  0
LINE
  5
7B27
  8
4
  6
CONTINUOUS
 10
1850.0
 20
2669.408754
 30
0.0
 11
1850.0
 21
2469.408754
 31
0.0
  0
LINE
  5
7B29
  8
4
  6
CONTINUOUS
 10
1440.617422
 20
2681.2635829999999
 30
0.0
 11
1440.617422
 21
2786.6522620000001
 31
0.0
  0
LINE
  5
7B2A
  8
4
  6
CONTINUOUS
 10
1440.617422
 20
2786.6522620000001
 30
0.0
 11
1850.0
 21
2786.6522620000001
 31
0.0
  0
LINE
  5
7B2B
  8
4
  6
CONTINUOUS
 10
1850.0
 20
2786.6522620000001
 30
0.0
 11
1850.0
 21
2681.2635829999999
 31
0.0
  0
LINE
  5
7B2C
  8
4
  6
CONTINUOUS
 10
1850.0
 20
2681.2635829999999
 30
0.0
 11
1440.617422
 21
2681.2635829999999
 31
0.0
  0
DIMENSION
  5
7B45
  8
3
  6
CONTINUOUS
  2
*D1
 10
720.58427564555438
 20
732.53021627051226
 30
0.0
 11
642.33095064555437
 21
732.53021627051226
 31
0.0
 70
   128
 13
560.5842756455545
 23
782.27962927051226
 33
0.0
 14
720.58427564555438
 24
807.27962927051237
 34
0.0
1001
ACAD
1000
DSTYLE
1002
{
1070
   287
1070
     3
1070
   287
1070
     3
1070
    40
1040
10.0
1070
   143
1040
0.039
1070
   172
1070
     1
1070
   271
1070
     0
1070
   279
1070
     0
1070
   288
1070
     1
1002
}
  0
DIMENSION
  5
7B51
  8
3
  6
CONTINUOUS
  2
*D2
 10
1190.584275645554
 20
732.53021627051226
 30
0.0
 11
955.5842756455545
 21
757.53021627051226
 31
0.0
 70
     0
 13
720.58427564555438
 23
807.27962927051237
 33
0.0
 14
1190.584275645554
 24
782.27962927051226
 34
0.0
1001
ACAD
1000
DSTYLE
1002
{
1070
   287
1070
     4
1070
   287
1070
     4
1070
    40
1040
10.0
1070
    75
1070
     1
1070
   143
1040
0.039
1070
   172
1070
     1
1070
   271
1070
     0
1070
   279
1070
     1
1070
   288
1070
     1
1002
}
  0
DIMENSION
  5
7B5E
  8
3
  6
CONTINUOUS
  2
*D3
 10
526.83158264555459
 20
1082.279629270512
 30
0.0
 11
526.83158264555459
 21
1185.696828270512
 31
0.0
 70
   128
 13
560.5842756455545
 23
1282.279629270512
 33
0.0
 14
560.5842756455545
 24
1082.279629270512
 34
0.0
 50
90.0
1001
ACAD
1000
DSTYLE
1002
{
1070
   287
1070
     3
1070
   287
1070
     3
1070
    40
1040
10.0
1070
   143
1040
0.039
1070
   172
1070
     1
1070
   271
1070
     0
1070
   279
1070
     0
1070
   288
1070
     1
1002
}
  0
DIMENSION
  5
7B6B
  8
3
  6
CONTINUOUS
  2
*D4
 10
461.48891764555469
 20
1082.279629270512
 30
0.0
 11
461.48891764555452
 21
1181.597279270512
 31
0.0
 70
   128
 13
575.58427564555438
 23
1293.279629270512
 33
0.0
 14
560.5842756455545
 24
1082.279629270512
 34
0.0
 50
90.0
1001
ACAD
1000
DSTYLE
1002
{
1070
   287
1070
     3
1070
   287
1070
     3
1070
    40
1040
10.0
1070
   143
1040
0.039
1070
   172
1070
     1
1070
   271
1070
     0
1070
   279
1070
     0
1070
   288
1070
     1
1002
}
  0
DIMENSION
  5
7B77
  8
3
  6
CONTINUOUS
  2
*D5
 10
461.48891764555452
 20
807.27962927051237
 30
0.0
 11
436.48891764555452
 21
944.7796292705126
 31
0.0
 70
     0
 13
560.5842756455545
 23
1082.279629270512
 33
0.0
 14
560.5842756455545
 24
807.27962927051237
 34
0.0
 50
90.0
1001
ACAD
1000
DSTYLE
1002
{
1070
   287
1070
     4
1070
   287
1070
     4
1070
    40
1040
10.0
1070
    75
1070
     1
1070
   143
1040
0.039
1070
   172
1070
     1
1070
   271
1070
     0
1070
   279
1070
     1
1070
   288
1070
     1
1002
}
  0
DIMENSION
  5
7B87
  8
3
  6
CONTINUOUS
  2
*D6
 10
461.48891764555458
 20
782.27962927051226
 30
0.0
 11
461.48891764555452
 21
707.99391498479815
 31
0.0
 70
   128
 13
560.5842756455545
 23
807.27962927051237
 33
0.0
 14
560.5842756455545
 24
782.27962927051226
 34
0.0
 50
90.0
1001
ACAD
1000
DSTYLE
1002
{
1070
   287
1070
     3
1070
   287
1070
     3
1070
    40
1040
10.0
1070
   143
1040
0.039
1070
   172
1070
     1
1070
   271
1070
     0
1070
   279
1070
     0
1070
   288
1070
     1
1002
}
  0
DIMENSION
  5
7BAE
  8
3
  6
CONTINUOUS
  2
*D7
 10
401.51254764555472
 20
782.27962927051226
 30
0.0
 11
401.5125476455546
 21
1040.3282662705119
 31
0.0
 70
   128
 13
560.5842756455545
 23
1303.279629270512
 33
0.0
 14
560.5842756455545
 24
782.27962927051226
 34
0.0
 50
90.0
1001
ACAD
1000
DSTYLE
1002
{
1070
   287
1070
     3
1070
   287
1070
     3
1070
    40
1040
10.0
1070
   143
1040
0.039
1070
   172
1070
     1
1070
   271
1070
     0
1070
   279
1070
     0
1070
   288
1070
     1
1002
}
  0
DIMENSION
  5
7BC8
  8
3
  6
CONTINUOUS
  2
*D8
 10
720.58427564555438
 20
1325.4046792705119
 30
0.0
 11
805.56390364555455
 21
1325.4046792705119
 31
0.0
 70
   128
 13
899.58427564555438
 23
1082.279629270512
 33
0.0
 14
720.58427564555438
 24
1292.6221102705119
 34
0.0
1001
ACAD
1000
DSTYLE
1002
{
1070
   287
1070
     3
1070
   287
1070
     3
1070
    40
1040
10.0
1070
   143
1040
0.039
1070
   172
1070
     1
1070
   271
1070
     0
1070
   279
1070
     0
1070
   288
1070
     1
1002
}
  0
DIMENSION
  5
7BE0
  8
3
  6
CONTINUOUS
  2
*D9
 10
560.5842756455545
 20
1325.4046792705119
 30
0.0
 11
640.5842756455545
 21
1350.4046792705119
 31
0.0
 70
     0
 13
720.58427564555438
 23
1292.6221102705119
 33
0.0
 14
560.5842756455545
 24
1303.279629270512
 34
0.0
1001
ACAD
1000
DSTYLE
1002
{
1070
   287
1070
     4
1070
   287
1070
     4
1070
    40
1040
10.0
1070
    75
1070
     1
1070
   143
1040
0.039
1070
   172
1070
     1
1070
   271
1070
     0
1070
   279
1070
     1
1070
   288
1070
     1
1002
}
  0
DIMENSION
  5
7BED
  8
3
  6
CONTINUOUS
  2
*D10
 10
1190.584275645554
 20
1624.744095801798
 30
0.0
 11
857.63972364555457
 21
1624.744095801798
 31
0.0
 70
   128
 13
560.5842756455545
 23
1713.498361801797
 33
0.0
 14
1190.584275645554
 24
1713.498361801797
 34
0.0
1001
ACAD
1000
DSTYLE
1002
{
1070
   287
1070
     3
1070
   287
1070
     3
1070
    40
1040
10.0
1070
   143
1040
0.039
1070
   172
1070
     1
1070
   271
1070
     0
1070
   279
1070
     0
1070
   288
1070
     1
1002
}
  0
DIMENSION
  5
7BFA
  8
3
  6
CONTINUOUS
  2
*D11
 10
1285.222032645554
 20
1713.498361801797
 30
0.0
 11
1285.222032645554
 21
1930.4534128017981
 31
0.0
 70
   128
 13
1190.584275645554
 23
2143.4983618017968
 33
0.0
 14
1190.584275645554
 24
1713.498361801797
 34
0.0
 50
90.0
1001
ACAD
1000
DSTYLE
1002
{
1070
   287
1070
     3
1070
   287
1070
     3
1070
    40
1040
10.0
1070
   143
1040
0.039
1070
   172
1070
     1
1070
   271
1070
     0
1070
   279
1070
     0
1070
   288
1070
     1
1002
}
  0
LINE
  5
7BFB
  8
2
  6
CENTER
 10
924.73616664555459
 20
2011.498361801798
 30
0.0
 11
534.85698064555459
 21
2011.498361801798
 31
0.0
  0
LINE
  5
7BFC
  8
2
  6
CENTER
 10
720.58427564555438
 20
1686.7338758017979
 30
0.0
 11
720.58427564555438
 21
2145.8403438017981
 31
0.0
  0
LINE
  5
7BFD
  8
2
  6
CENTER
 10
1659.410786201689
 20
1329.713731270512
 30
0.0
 11
1659.410786201689
 21
760.87476027051241
 31
0.0
  0
LINE
  5
7BFE
  8
2
  6
CENTER
 10
1168.683658645554
 20
1082.279629270512
 30
0.0
 11
535.40176664555452
 21
1082.279629270512
 31
0.0
  0
DIMENSION
  5
7C0B
  8
3
  6
CONTINUOUS
  2
*D12
 10
1659.410786201689
 20
718.58316927051226
 30
0.0
 11
1504.4881492016891
 21
718.58316927051226
 31
0.0
 70
   128
 13
1361.410786201689
 23
782.27962927051226
 33
0.0
 14
1659.410786201689
 24
782.27962927051226
 34
0.0
1001
ACAD
1000
DSTYLE
1002
{
1070
   287
1070
     3
1070
   287
1070
     3
1070
    40
1040
10.0
1070
   143
1040
0.039
1070
   172
1070
     1
1070
   271
1070
     0
1070
   279
1070
     0
1070
   288
1070
     1
1002
}
  0
DIMENSION
  5
7C17
  8
3
  6
CONTINUOUS
  2
*D13
 10
1791.410786201689
 20
718.58316927051226
 30
0.0
 11
1725.410786201689
 21
743.58316927051226
 31
0.0
 70
     0
 13
1659.410786201689
 23
782.27962927051226
 33
0.0
 14
1791.410786201689
 24
782.27962927051226
 34
0.0
1001
ACAD
1000
DSTYLE
1002
{
1070
   287
1070
     4
1070
   287
1070
     4
1070
    40
1040
10.0
1070
    75
1070
     1
1070
   143
1040
0.039
1070
   172
1070
     1
1070
   271
1070
     0
1070
   279
1070
     1
1070
   288
1070
     1
1002
}
  0
LINE
  5
7C19
  8
3
  6
CONTINUOUS
 10
1737.410786201689
 20
1182.279629270512
 30
0.0
 11
1745.6201142016889
 21
1182.279629270512
 31
0.0
  0
LINE
  5
7C1B
  8
3
  6
CONTINUOUS
 10
1737.410786201689
 20
982.27962927051237
 30
0.0
 11
1744.257197201689
 21
982.27962927051237
 31
0.0
  0
DIMENSION
  5
7C28
  8
3
  6
CONTINUOUS
  2
*D14
 10
1802.862369201689
 20
982.27962927051237
 30
0.0
 11
1802.862369201689
 21
1068.8510578419409
 31
0.0
 70
   128
 13
1737.410786201689
 23
1182.279629270512
 33
0.0
 14
1737.410786201689
 24
982.27962927051237
 34
0.0
 50
90.0
1001
ACAD
1000
DSTYLE
1002
{
1070
   287
1070
     3
1070
   287
1070
     3
1070
     3
1000
φ<>
1070
    40
1040
10.0
1070
   143
1040
0.039
1070
   172
1070
     1
1070
   271
1070
     0
1070
   279
1070
     0
1070
   288
1070
     1
1002
}
  0
DIMENSION
  5
7C35
  8
3
  6
CONTINUOUS
  2
*D15
 10
1729.410786201689
 20
1326.6391832705119
 30
0.0
 11
1655.1250722016889
 21
1326.6391832705119
 31
0.0
 70
   128
 13
1589.410786201689
 23
1282.279629270512
 33
0.0
 14
1729.410786201689
 24
1282.279629270512
 34
0.0
1001
ACAD
1000
DSTYLE
1002
{
1070
   287
1070
     3
1070
   287
1070
     3
1070
    40
1040
10.0
1070
   143
1040
0.039
1070
   172
1070
     1
1070
   271
1070
     0
1070
   279
1070
     0
1070
   288
1070
     1
1002
}
  0
DIMENSION
  5
7C42
  8
3
  6
CONTINUOUS
  2
*D16
 10
1659.410786201689
 20
1394.7167042705121
 30
0.0
 11
1508.132888201689
 21
1394.7167042705121
 31
0.0
 70
   128
  1
MAX\P300
 13
1359.410786201689
 23
1192.279629270512
 33
0.0
 14
1659.410786201689
 24
1373.3925052705119
 34
0.0
1001
ACAD
1000
DSTYLE
1002
{
1070
   287
1070
     3
1070
   287
1070
     3
1070
    40
1040
10.0
1070
   143
1040
0.039
1070
   172
1070
     1
1070
   271
1070
     0
1070
   279
1070
     0
1070
   288
1070
     1
1002
}
  0
DIMENSION
  5
7C50
  8
3
  6
CONTINUOUS
  2
*D17
 10
1737.410786201689
 20
1394.7167042705121
 30
0.0
 11
1698.940421201688
 21
1394.7167042705121
 31
0.0
 70
   128
 13
1659.410786201689
 23
1373.3925052705119
 33
0.0
 14
1737.410786201689
 24
1202.279629270512
 34
0.0
1001
ACAD
1000
DSTYLE
1002
{
1070
   287
1070
     4
1070
   287
1070
     4
1070
    40
1040
10.0
1070
    75
1070
     1
1070
   143
1040
0.039
1070
   172
1070
     1
1070
   271
1070
     0
1070
   279
1070
     1
1070
   288
1070
     1
1002
}
  0
DIMENSION
  5
7CB5
  8
3
  2
*D18
 10
1190.584275645554
 20
1393.3816463485939
 30
0.0
 11
836.43012139329767
 21
1393.3816463485939
 31
0.0
 70
   128
 13
560.5842756455545
 23
1303.279629270512
 33
0.0
 14
1190.584275645554
 24
857.27962927051237
 34
0.0
1001
ACAD
1000
DSTYLE
1002
{
1070
   287
1070
     3
1070
   287
1070
     3
1070
    40
1040
10.0
1070
   143
1040
0.039
1070
   172
1070
     1
1070
   271
1070
     0
1070
   279
1070
     0
1070
   288
1070
     1
1002
}
  0
ENDSEC
  0
EOF
