  0
SECTION
  2
HEADER
  9
$ACADVER
  1
AC1027
  9
$ACADMAINTVER
 70
    81
  9
$DWGCODEPAGE
  3
ANSI_932
  9
$LASTSAVEDBY
  1
reiko.miyawaki
  9
$REQUIREDVERSIONS
160
                 0
  9
$INSBASE
 10
0.0
 20
0.0
 30
0.0
  9
$EXTMIN
 10
250.0
 20
300.0
 30
0.0
  9
$EXTMAX
 10
1850.0
 20
2786.652262
 30
0.0
  9
$LIMMIN
 10
0.0
 20
0.0
  9
$LIMMAX
 10
297.0
 20
210.0
  9
$ORTHOMODE
 70
     0
  9
$REGENMODE
 70
     1
  9
$FILLMODE
 70
     0
  9
$QTEXTMODE
 70
     0
  9
$MIRRTEXT
 70
     1
  9
$LTSCALE
 40
100.0
  9
$ATTMODE
 70
     1
  9
$TEXTSIZE
 40
180.0
  9
$TRACEWID
 40
0.05
  9
$TEXTSTYLE
  7
STANDARD
  9
$CLAYER
  8
3
  9
$CELTYPE
  6
CONTINUOUS
  9
$CECOLOR
 62
   256
  9
$CELTSCALE
 40
1.0
  9
$DISPSILH
 70
     0
  9
$DIMSCALE
 40
10.0
  9
$DIMASZ
 40
2.0
  9
$DIMEXO
 40
0.5
  9
$DIMDLI
 40
10.0
  9
$DIMRND
 40
0.0
  9
$DIMDLE
 40
0.0
  9
$DIMEXE
 40
1.0
  9
$DIMTP
 40
1.0
  9
$DIMTM
 40
1.0
  9
$DIMTXT
 40
3.0
  9
$DIMCEN
 40
0.0
  9
$DIMTSZ
 40
0.0
  9
$DIMTOL
 70
     0
  9
$DIMLIM
 70
     0
  9
$DIMTIH
 70
     0
  9
$DIMTOH
 70
     0
  9
$DIMSE1
 70
     0
  9
$DIMSE2
 70
     0
  9
$DIMTAD
 70
     1
  9
$DIMZIN
 70
     8
  9
$DIMBLK
  1

  9
$DIMASO
 70
     1
  9
$DIMSHO
 70
     1
  9
$DIMPOST
  1
(<>)
  9
$DIMAPOST
  1

  9
$DIMALT
 70
     0
  9
$DIMALTD
 70
     2
  9
$DIMALTF
 40
0.039
  9
$DIMLFAC
 40
1.0
  9
$DIMTOFL
 70
     1
  9
$DIMTVP
 40
0.0
  9
$DIMTIX
 70
     0
  9
$DIMSOXD
 70
     0
  9
$DIMSAH
 70
     1
  9
$DIMBLK1
  1
DOT
  9
$DIMBLK2
  1
OPEN
  9
$DIMSTYLE
  2
IGA
  9
$DIMCLRD
 70
     0
  9
$DIMCLRE
 70
     0
  9
$DIMCLRT
 70
     0
  9
$DIMTFAC
 40
10.0
  9
$DIMGAP
 40
1.0
  9
$DIMJUST
 70
     0
  9
$DIMSD1
 70
     0
  9
$DIMSD2
 70
     0
  9
$DIMTOLJ
 70
     1
  9
$DIMTZIN
 70
     8
  9
$DIMALTZ
 70
     0
  9
$DIMALTTZ
 70
     0
  9
$DIMUPT
 70
     0
  9
$DIMDEC
 70
     0
  9
$DIMTDEC
 70
     0
  9
$DIMALTU
 70
     2
  9
$DIMALTTD
 70
     2
  9
$DIMTXSTY
  7
STANDARD
  9
$DIMAUNIT
 70
     0
  9
$DIMADEC
 70
     0
  9
$DIMALTRND
 40
0.0
  9
$DIMAZIN
 70
     0
  9
$DIMDSEP
 70
    46
  9
$DIMATFIT
 70
     3
  9
$DIMFRAC
 70
     0
  9
$DIMLDRBLK
  1
DOT
  9
$DIMLUNIT
 70
     2
  9
$DIMLWD
 70
    -2
  9
$DIMLWE
 70
    -2
  9
$DIMTMOVE
 70
     2
  9
$DIMFXL
 40
1.0
  9
$DIMFXLON
 70
     0
  9
$DIMJOGANG
 40
0.7853981633974483
  9
$DIMTFILL
 70
     0
  9
$DIMTFILLCLR
 70
     0
  9
$DIMARCSYM
 70
     0
  9
$DIMLTYPE
  6

  9
$DIMLTEX1
  6

  9
$DIMLTEX2
  6

  9
$DIMTXTDIRECTION
 70
     0
  9
$LUNITS
 70
     2
  9
$LUPREC
 70
     3
  9
$SKETCHINC
 40
0.1
  9
$FILLETRAD
 40
50.0
  9
$AUNITS
 70
     0
  9
$AUPREC
 70
     0
  9
$MENU
  1
acad
  9
$ELEVATION
 40
0.0
  9
$PELEVATION
 40
0.0
  9
$THICKNESS
 40
0.0
  9
$LIMCHECK
 70
     0
  9
$CHAMFERA
 40
0.5
  9
$CHAMFERB
 40
0.5
  9
$CHAMFERC
 40
20.0
  9
$CHAMFERD
 40
0.0
  9
$SKPOLY
 70
     0
  9
$TDCREATE
 40
2450731.624551736
  9
$TDUCREATE
 40
2450731.249551736
  9
$TDUPDATE
 40
2459024.537834908
  9
$TDUUPDATE
 40
2459024.162834908
  9
$TDINDWG
 40
0.0226905671
  9
$TDUSRTIMER
 40
0.0226905671
  9
$USRTIMER
 70
     1
  9
$ANGBASE
 50
0.0
  9
$ANGDIR
 70
     0
  9
$PDMODE
 70
     0
  9
$PDSIZE
 40
0.0
  9
$PLINEWID
 40
0.0
  9
$SPLFRAME
 70
     0
  9
$SPLINETYPE
 70
     6
  9
$SPLINESEGS
 70
     8
  9
$HANDSEED
  5
8196
  9
$SURFTAB1
 70
     6
  9
$SURFTAB2
 70
     6
  9
$SURFTYPE
 70
     6
  9
$SURFU
 70
     6
  9
$SURFV
 70
     6
  9
$UCSBASE
  2

  9
$UCSNAME
  2

  9
$UCSORG
 10
0.0
 20
0.0
 30
0.0
  9
$UCSXDIR
 10
1.0
 20
0.0
 30
0.0
  9
$UCSYDIR
 10
0.0
 20
1.0
 30
0.0
  9
$UCSORTHOREF
  2

  9
$UCSORTHOVIEW
 70
     0
  9
$UCSORGTOP
 10
0.0
 20
0.0
 30
0.0
  9
$UCSORGBOTTOM
 10
0.0
 20
0.0
 30
0.0
  9
$UCSORGLEFT
 10
0.0
 20
0.0
 30
0.0
  9
$UCSORGRIGHT
 10
0.0
 20
0.0
 30
0.0
  9
$UCSORGFRONT
 10
0.0
 20
0.0
 30
0.0
  9
$UCSORGBACK
 10
0.0
 20
0.0
 30
0.0
  9
$PUCSBASE
  2

  9
$PUCSNAME
  2

  9
$PUCSORG
 10
0.0
 20
0.0
 30
0.0
  9
$PUCSXDIR
 10
1.0
 20
0.0
 30
0.0
  9
$PUCSYDIR
 10
0.0
 20
1.0
 30
0.0
  9
$PUCSORTHOREF
  2

  9
$PUCSORTHOVIEW
 70
     0
  9
$PUCSORGTOP
 10
0.0
 20
0.0
 30
0.0
  9
$PUCSORGBOTTOM
 10
0.0
 20
0.0
 30
0.0
  9
$PUCSORGLEFT
 10
0.0
 20
0.0
 30
0.0
  9
$PUCSORGRIGHT
 10
0.0
 20
0.0
 30
0.0
  9
$PUCSORGFRONT
 10
0.0
 20
0.0
 30
0.0
  9
$PUCSORGBACK
 10
0.0
 20
0.0
 30
0.0
  9
$USERI1
 70
     0
  9
$USERI2
 70
     0
  9
$USERI3
 70
     0
  9
$USERI4
 70
     0
  9
$USERI5
 70
     0
  9
$USERR1
 40
0.0
  9
$USERR2
 40
0.0
  9
$USERR3
 40
0.0
  9
$USERR4
 40
0.0
  9
$USERR5
 40
0.0
  9
$WORLDVIEW
 70
     1
  9
$SHADEDGE
 70
     3
  9
$SHADEDIF
 70
    70
  9
$TILEMODE
 70
     1
  9
$MAXACTVP
 70
    16
  9
$PINSBASE
 10
0.0
 20
0.0
 30
0.0
  9
$PLIMCHECK
 70
     0
  9
$PEXTMIN
 10
1.000000000000000E+20
 20
1.000000000000000E+20
 30
1.000000000000000E+20
  9
$PEXTMAX
 10
-1.000000000000000E+20
 20
-1.000000000000000E+20
 30
-1.000000000000000E+20
  9
$PLIMMIN
 10
0.0
 20
0.0
  9
$PLIMMAX
 10
12.0
 20
9.0
  9
$UNITMODE
 70
     0
  9
$VISRETAIN
 70
     0
  9
$PLINEGEN
 70
     0
  9
$PSLTSCALE
 70
     1
  9
$TREEDEPTH
 70
  3020
  9
$CMLSTYLE
  2
STANDARD
  9
$CMLJUST
 70
     0
  9
$CMLSCALE
 40
20.0
  9
$PROXYGRAPHICS
 70
     1
  9
$MEASUREMENT
 70
     0
  9
$CELWEIGHT
370
    -1
  9
$ENDCAPS
280
     0
  9
$JOINSTYLE
280
     0
  9
$LWDISPLAY
290
     0
  9
$INSUNITS
 70
     0
  9
$HYPERLINKBASE
  1

  9
$STYLESHEET
  1

  9
$XEDIT
290
     1
  9
$CEPSNTYPE
380
     0
  9
$PSTYLEMODE
290
     1
  9
$FINGERPRINTGUID
  2
{93D6D315-1F46-4026-954B-9C010942FCD6}
  9
$VERSIONGUID
  2
{5B12F087-E94F-42B6-8192-BE3C5659833F}
  9
$EXTNAMES
290
     1
  9
$PSVPSCALE
 40
0.0
  9
$OLESTARTUP
290
     0
  9
$SORTENTS
280
   127
  9
$INDEXCTL
280
     0
  9
$HIDETEXT
280
     0
  9
$XCLIPFRAME
280
     2
  9
$HALOGAP
280
     0
  9
$OBSCOLOR
 70
   257
  9
$OBSLTYPE
280
     0
  9
$INTERSECTIONDISPLAY
280
     0
  9
$INTERSECTIONCOLOR
 70
   257
  9
$DIMASSOC
280
     1
  9
$PROJECTNAME
  1

  9
$CAMERADISPLAY
290
     0
  9
$LENSLENGTH
 40
50.0
  9
$CAMERAHEIGHT
 40
0.0
  9
$STEPSPERSEC
 40
2.0
  9
$STEPSIZE
 40
6.0
  9
$3DDWFPREC
 40
2.0
  9
$PSOLWIDTH
 40
0.25
  9
$PSOLHEIGHT
 40
4.0
  9
$LOFTANG1
 40
1.570796326794896
  9
$LOFTANG2
 40
1.570796326794896
  9
$LOFTMAG1
 40
0.0
  9
$LOFTMAG2
 40
0.0
  9
$LOFTPARAM
 70
     7
  9
$LOFTNORMALS
280
     1
  9
$LATITUDE
 40
37.795
  9
$LONGITUDE
 40
-122.394
  9
$NORTHDIRECTION
 40
0.0
  9
$TIMEZONE
 70
 -8000
  9
$LIGHTGLYPHDISPLAY
280
     1
  9
$TILEMODELIGHTSYNCH
280
     1
  9
$CMATERIAL
347
7F96
  9
$SOLIDHIST
280
     0
  9
$SHOWHIST
280
     1
  9
$DWFFRAME
280
     2
  9
$DGNFRAME
280
     0
  9
$REALWORLDSCALE
290
     1
  9
$INTERFERECOLOR
 62
     1
  9
$INTERFEREOBJVS
345
7FB8
  9
$INTERFEREVPVS
346
7FB5
  9
$CSHADOW
280
     0
  9
$SHADOWPLANELOCATION
 40
0.0
  0
ENDSEC
  0
SECTION
  2
CLASSES
  0
CLASS
  1
ACDBDICTIONARYWDFLT
  2
AcDbDictionaryWithDefault
  3
ObjectDBX Classes
 90
        0
 91
        1
280
     0
281
     0
  0
CLASS
  1
DICTIONARYVAR
  2
AcDbDictionaryVar
  3
ObjectDBX Classes
 90
        0
 91
       10
280
     0
281
     0
  0
CLASS
  1
MATERIAL
  2
AcDbMaterial
  3
ObjectDBX Classes
 90
     1153
 91
        3
280
     0
281
     0
  0
CLASS
  1
VISUALSTYLE
  2
AcDbVisualStyle
  3
ObjectDBX Classes
 90
     4095
 91
       24
280
     0
281
     0
  0
CLASS
  1
TABLESTYLE
  2
AcDbTableStyle
  3
ObjectDBX Classes
 90
     4095
 91
        1
280
     0
281
     0
  0
CLASS
  1
SCALE
  2
AcDbScale
  3
ObjectDBX Classes
 90
     1153
 91
       17
280
     0
281
     0
  0
CLASS
  1
MLEADERSTYLE
  2
AcDbMLeaderStyle
  3
ACDB_MLEADERSTYLE_CLASS
 90
     4095
 91
        1
280
     0
281
     0
  0
CLASS
  1
ACDBSECTIONVIEWSTYLE
  2
AcDbSectionViewStyle
  3
ObjectDBX Classes
 90
     1025
 91
        1
280
     0
281
     0
  0
CLASS
  1
ACDBDETAILVIEWSTYLE
  2
AcDbDetailViewStyle
  3
ObjectDBX Classes
 90
     1025
 91
        1
280
     0
281
     0
  0
CLASS
  1
CELLSTYLEMAP
  2
AcDbCellStyleMap
  3
ObjectDBX Classes
 90
     1152
 91
        1
280
     0
281
     0
  0
ENDSEC
  0
SECTION
  2
TABLES
  0
TABLE
  2
VPORT
  5
8
330
0
100
AcDbSymbolTable
 70
     1
  0
VPORT
  5
7F93
330
8
100
AcDbSymbolTableRecord
100
AcDbViewportTableRecord
  2
*Active
 70
     0
 10
0.0
 20
0.0
 11
1.0
 21
1.0
 12
1049.976353841969
 22
1602.837341890046
 13
0.0
 23
0.0
 14
10.0
 24
10.0
 15
10.0
 25
10.0
 16
0.0
 26
0.0
 36
1.0
 17
0.0
 27
0.0
 37
0.0
 40
2621.761552567065
 41
1.957107843137254
 42
50.0
 43
0.0
 44
0.0
 50
0.0
 51
0.0
 71
     0
 72
   100
 73
     1
 74
     0
 75
     0
 76
     0
 77
     0
 78
     0
281
     0
 65
     1
110
0.0
120
0.0
130
0.0
111
1.0
121
0.0
131
0.0
112
0.0
122
1.0
132
0.0
 79
     0
146
0.0
348
7FB4
 60
     3
 61
     5
292
     1
282
     1
141
0.0
142
0.0
 63
   250
421
  3355443
1001
ACAD_NAV_VCDISPLAY
1070
     3
  0
ENDTAB
  0
TABLE
  2
LTYPE
  5
5
330
0
100
AcDbSymbolTable
 70
     2
  0
LTYPE
  5
13
330
5
100
AcDbSymbolTableRecord
100
AcDbLinetypeTableRecord
  2
BYBLOCK
 70
     0
  3

 72
    65
 73
     0
 40
0.0
  0
LTYPE
  5
14
330
5
100
AcDbSymbolTableRecord
100
AcDbLinetypeTableRecord
  2
BYLAYER
 70
     0
  3

 72
    65
 73
     0
 40
0.0
  0
LTYPE
  5
15
330
5
100
AcDbSymbolTableRecord
100
AcDbLinetypeTableRecord
  2
CONTINUOUS
 70
     0
  3
Solid line
 72
    65
 73
     0
 40
0.0
  0
LTYPE
  5
1F
330
5
100
AcDbSymbolTableRecord
100
AcDbLinetypeTableRecord
  2
CENTER
 70
     0
  3
____ _ ____ _ ____ _ ____ _ ____ _ ____ _ ____ 
 72
    65
 73
     4
 40
2.0
 49
1.25
 74
     0
 49
-0.25
 74
     0
 49
0.25
 74
     0
 49
-0.25
 74
     0
  0
ENDTAB
  0
TABLE
  2
LAYER
  5
2
102
{ACAD_XDICTIONARY
360
803D
102
}
330
0
100
AcDbSymbolTable
 70
     6
  0
LAYER
  5
F
102
{ACAD_XDICTIONARY
360
8030
102
}
330
2
100
AcDbSymbolTableRecord
100
AcDbLayerTableRecord
  2
0
 70
     0
 62
     7
  6
CONTINUOUS
370
    -3
390
7EE0
347
7FA6
348
0
  0
LAYER
  5
31
102
{ACAD_XDICTIONARY
360
8032
102
}
330
2
100
AcDbSymbolTableRecord
100
AcDbLayerTableRecord
  2
3
 70
     0
 62
     2
  6
CONTINUOUS
370
    -3
390
7EE0
347
7FA6
348
0
  0
LAYER
  5
76D0
102
{ACAD_XDICTIONARY
360
8034
102
}
330
2
100
AcDbSymbolTableRecord
100
AcDbLayerTableRecord
  2
2
 70
     0
 62
     3
  6
CENTER
370
    -3
390
7EE0
347
7FA6
348
0
  0
LAYER
  5
76D1
102
{ACAD_XDICTIONARY
360
8036
102
}
330
2
100
AcDbSymbolTableRecord
100
AcDbLayerTableRecord
  2
1
 70
     0
 62
     4
  6
CONTINUOUS
370
    -3
390
7EE0
347
7FA6
348
0
  0
LAYER
  5
76D2
102
{ACAD_XDICTIONARY
360
8038
102
}
330
2
100
AcDbSymbolTableRecord
100
AcDbLayerTableRecord
  2
4
 70
     0
 62
     7
  6
CONTINUOUS
370
    -3
390
7EE0
347
7FA6
348
0
  0
LAYER
  5
7B27
330
2
100
AcDbSymbolTableRecord
100
AcDbLayerTableRecord
  2
DEFPOINTS
 70
     0
 62
     7
  6
CONTINUOUS
290
     0
370
    -3
390
7EE0
347
7FA6
348
0
  0
ENDTAB
  0
TABLE
  2
STYLE
  5
3
330
0
100
AcDbSymbolTable
 70
     1
  0
STYLE
  5
10
330
3
100
AcDbSymbolTableRecord
100
AcDbTextStyleTableRecord
  2
STANDARD
 70
     0
 40
0.0
 41
1.0
 50
0.0
 71
     0
 42
180.0
  3
simplex.shx
  4
extfont.shx
  0
ENDTAB
  0
TABLE
  2
VIEW
  5
6
330
0
100
AcDbSymbolTable
 70
     0
  0
ENDTAB
  0
TABLE
  2
UCS
  5
7
330
0
100
AcDbSymbolTable
 70
     0
  0
ENDTAB
  0
TABLE
  2
APPID
  5
9
330
0
100
AcDbSymbolTable
 70
     4
  0
APPID
  5
11
330
9
100
AcDbSymbolTableRecord
100
AcDbRegAppTableRecord
  2
ACAD
 70
     0
  0
APPID
  5
7FE5
330
9
100
AcDbSymbolTableRecord
100
AcDbRegAppTableRecord
  2
ACAD_NAV_VCDISPLAY
 70
     0
  0
APPID
  5
80A8
330
9
100
AcDbSymbolTableRecord
100
AcDbRegAppTableRecord
  2
AcadAnnoMonitorAlertIconDisabled
 70
     0
  0
APPID
  5
80A9
330
9
100
AcDbSymbolTableRecord
100
AcDbRegAppTableRecord
  2
ACAD_EXEMPT_FROM_CAD_STANDARDS
 70
     0
  0
ENDTAB
  0
TABLE
  2
DIMSTYLE
  5
A
330
0
100
AcDbSymbolTable
 70
     1
100
AcDbDimStyleTable
 71
     1
340
1D
  0
DIMSTYLE
105
1D
102
{ACAD_REACTORS
330
7B2C
330
7B3A
330
7B4A
330
7B73
330
7B80
330
7B8E
330
7BB3
330
7BFF
330
7C0B
330
7C1A
330
7C26
330
7C40
330
7C4D
330
7D5A
330
7DA1
330
7E10
330
7ECA
330
7ED7
330
80D5
102
}
330
A
100
AcDbSymbolTableRecord
100
AcDbDimStyleTableRecord
  2
IGA
 70
     0
 40
2.0
 41
2.0
 42
0.5
 43
10.0
 44
1.0
 47
1.0
 48
1.0
 73
     0
 74
     0
 77
     1
 78
     8
140
3.0
141
0.0
143
0.03937
146
10.0
147
1.0
173
     1
271
     1
272
     0
279
     2
284
     8
340
10
341
7B19
343
7B19
344
7B19
  0
ENDTAB
  0
TABLE
  2
BLOCK_RECORD
  5
1
330
0
100
AcDbSymbolTable
 70
    21
  0
BLOCK_RECORD
  5
19
102
{ACAD_XDICTIONARY
360
7F0E
102
}
330
1
100
AcDbSymbolTableRecord
100
AcDbBlockTableRecord
  2
*MODEL_SPACE
340
7EE3
 70
     0
280
     1
281
     0
  0
BLOCK_RECORD
  5
16
102
{ACAD_XDICTIONARY
360
7F0C
102
}
330
1
100
AcDbSymbolTableRecord
100
AcDbBlockTableRecord
  2
*PAPER_SPACE
340
7EE4
 70
     0
280
     1
281
     0
  0
BLOCK_RECORD
  5
7B19
330
1
100
AcDbSymbolTableRecord
100
AcDbBlockTableRecord
  2
_OPEN
340
0
102
{BLKREFS
331
7E5E
331
7E5F
331
7E69
331
7E6A
331
7E74
331
7E75
331
7E8C
331
7E8D
331
7F33
331
7F34
331
7F3B
331
7F3C
331
7F54
331
7F55
331
7F5D
331
7F5E
331
7F66
331
7F67
331
7F6E
331
7F6F
331
7F77
331
7F78
331
7FF2
331
7FF3
331
7FFD
331
7FFE
331
8005
331
8006
331
800D
331
800E
331
8080
331
808A
331
80B7
331
80B8
331
817D
331
817E
102
}
 70
     0
280
     1
281
     0
  0
BLOCK_RECORD
  5
7B1F
330
1
100
AcDbSymbolTableRecord
100
AcDbBlockTableRecord
  2
*D1
340
0
 70
     0
280
     1
281
     0
  0
BLOCK_RECORD
  5
7B2E
330
1
100
AcDbSymbolTableRecord
100
AcDbBlockTableRecord
  2
*D2
340
0
 70
     0
280
     1
281
     0
  0
BLOCK_RECORD
  5
7B3B
330
1
100
AcDbSymbolTableRecord
100
AcDbBlockTableRecord
  2
*D3
340
0
 70
     0
280
     1
281
     0
  0
BLOCK_RECORD
  5
7B65
330
1
100
AcDbSymbolTableRecord
100
AcDbBlockTableRecord
  2
*D4
340
0
 70
     0
280
     1
281
     0
  0
BLOCK_RECORD
  5
7B74
330
1
100
AcDbSymbolTableRecord
100
AcDbBlockTableRecord
  2
*D5
340
0
 70
     0
280
     1
281
     0
  0
BLOCK_RECORD
  5
7B81
330
1
100
AcDbSymbolTableRecord
100
AcDbBlockTableRecord
  2
*D6
340
0
 70
     0
280
     1
281
     0
  0
BLOCK_RECORD
  5
7BA7
330
1
100
AcDbSymbolTableRecord
100
AcDbBlockTableRecord
  2
*D7
340
0
 70
     0
280
     1
281
     0
  0
BLOCK_RECORD
  5
7BF3
330
1
100
AcDbSymbolTableRecord
100
AcDbBlockTableRecord
  2
*D8
340
0
 70
     0
280
     1
281
     0
  0
BLOCK_RECORD
  5
7C00
330
1
100
AcDbSymbolTableRecord
100
AcDbBlockTableRecord
  2
*D9
340
0
 70
     0
280
     1
281
     0
  0
BLOCK_RECORD
  5
7C0C
330
1
100
AcDbSymbolTableRecord
100
AcDbBlockTableRecord
  2
*D10
340
0
 70
     0
280
     1
281
     0
  0
BLOCK_RECORD
  5
7C1B
330
1
100
AcDbSymbolTableRecord
100
AcDbBlockTableRecord
  2
*D11
340
0
 70
     0
280
     1
281
     0
  0
BLOCK_RECORD
  5
7C34
330
1
100
AcDbSymbolTableRecord
100
AcDbBlockTableRecord
  2
*D12
340
0
 70
     0
280
     1
281
     0
  0
BLOCK_RECORD
  5
7C41
330
1
100
AcDbSymbolTableRecord
100
AcDbBlockTableRecord
  2
*D13
340
0
 70
     0
280
     1
281
     0
  0
BLOCK_RECORD
  5
7D4C
330
1
100
AcDbSymbolTableRecord
100
AcDbBlockTableRecord
  2
*D14
340
0
 70
     0
280
     1
281
     0
  0
BLOCK_RECORD
  5
7D96
330
1
100
AcDbSymbolTableRecord
100
AcDbBlockTableRecord
  2
*D15
340
0
 70
     0
280
     1
281
     0
  0
BLOCK_RECORD
  5
7E04
330
1
100
AcDbSymbolTableRecord
100
AcDbBlockTableRecord
  2
*D16
340
0
 70
     0
280
     1
281
     0
  0
BLOCK_RECORD
  5
7EB4
330
1
100
AcDbSymbolTableRecord
100
AcDbBlockTableRecord
  2
_DOT
340
0
102
{BLKREFS
331
807F
331
8089
102
}
 70
     0
280
     1
281
     0
  0
BLOCK_RECORD
  5
7EBC
330
1
100
AcDbSymbolTableRecord
100
AcDbBlockTableRecord
  2
*D18
340
0
 70
     0
280
     1
281
     0
  0
BLOCK_RECORD
  5
7ECB
330
1
100
AcDbSymbolTableRecord
100
AcDbBlockTableRecord
  2
*D19
340
0
 70
     0
280
     1
281
     0
  0
BLOCK_RECORD
  5
80D6
330
1
100
AcDbSymbolTableRecord
100
AcDbBlockTableRecord
  2
*D20
340
0
 70
     0
280
     1
281
     0
  0
ENDTAB
  0
ENDSEC
  0
SECTION
  2
BLOCKS
  0
BLOCK
  5
1A
330
19
100
AcDbEntity
  8
0
100
AcDbBlockBegin
  2
*MODEL_SPACE
 70
     0
 10
0.0
 20
0.0
 30
0.0
  3
*MODEL_SPACE
  1

  0
ENDBLK
  5
1B
330
19
100
AcDbEntity
  8
0
100
AcDbBlockEnd
  0
BLOCK
  5
17
330
16
100
AcDbEntity
 67
     1
  8
0
100
AcDbBlockBegin
  2
*PAPER_SPACE
 70
     0
 10
0.0
 20
0.0
 30
0.0
  3
*PAPER_SPACE
  1

  0
ENDBLK
  5
18
330
16
100
AcDbEntity
 67
     1
  8
0
100
AcDbBlockEnd
  0
BLOCK
  5
7B1A
330
7B19
100
AcDbEntity
  8
0
100
AcDbBlockBegin
  2
_OPEN
 70
     0
 10
0.0
 20
0.0
 30
0.0
  3
_OPEN
  1

  0
LINE
  5
7B1B
330
7B19
100
AcDbEntity
  8
0
  6
ByBlock
 62
     0
100
AcDbLine
 10
-1.0
 20
0.166667
 30
0.0
 11
0.0
 21
0.0
 31
0.0
  0
LINE
  5
7B1C
330
7B19
100
AcDbEntity
  8
0
  6
ByBlock
 62
     0
100
AcDbLine
 10
0.0
 20
0.0
 30
0.0
 11
-1.0
 21
-0.166667
 31
0.0
  0
LINE
  5
7B1D
330
7B19
100
AcDbEntity
  8
0
  6
ByBlock
 62
     0
100
AcDbLine
 10
0.0
 20
0.0
 30
0.0
 11
-1.0
 21
0.0
 31
0.0
  0
ENDBLK
  5
7B1E
330
7B19
100
AcDbEntity
  8
0
100
AcDbBlockEnd
  0
BLOCK
  5
7E59
330
7B1F
100
AcDbEntity
  8
0
100
AcDbBlockBegin
  2
*D1
 70
     1
 10
0.0
 20
0.0
 30
0.0
  3
*D1
  1

  0
LINE
  5
7E5A
330
7B1F
100
AcDbEntity
  8
0
  6
ByBlock
 62
     0
440
 16777216
100
AcDbLine
 10
1746.688744930849
 20
1230.1186987992
 30
0.0
 11
1820.553082930849
 21
1230.1186987992
 31
0.0
  0
LINE
  5
7E5B
330
7B1F
100
AcDbEntity
  8
0
  6
ByBlock
 62
     0
440
 16777216
100
AcDbLine
 10
1746.688744930849
 20
1070.118698799199
 30
0.0
 11
1820.553082930849
 21
1070.118698799199
 31
0.0
  0
LINE
  5
7E5C
330
7B1F
100
AcDbEntity
  8
0
  6
ByBlock
 62
     0
440
 16777216
100
AcDbLine
 10
1810.553082930849
 20
1210.118698799199
 30
0.0
 11
1810.553082930849
 21
1090.118698799199
 31
0.0
  0
MTEXT
  5
7E5D
330
7B1F
100
AcDbEntity
  8
0
  6
ByBlock
 62
     0
440
 16777216
100
AcDbMText
 10
1788.242925988925
 20
1150.118698799199
 30
0.0
 40
30.0
 41
0.0
 46
0.0
 71
     5
 72
     5
  1
\A1;φ160
 11
0.0
 21
1.0
 31
0.0
 73
     1
 44
1.0
  0
INSERT
  5
7E5E
330
7B1F
100
AcDbEntity
  8
0
  6
ByBlock
 62
     0
440
 16777216
100
AcDbBlockReference
  2
_OPEN
 10
1810.553082930849
 20
1230.1186987992
 30
0.0
 41
20.0
 42
20.0
 43
20.0
 50
90.0
  0
INSERT
  5
7E5F
330
7B1F
100
AcDbEntity
  8
0
  6
ByBlock
 62
     0
440
 16777216
100
AcDbBlockReference
  2
_OPEN
 10
1810.553082930849
 20
1070.118698799199
 30
0.0
 41
20.0
 42
20.0
 43
20.0
 50
270.0
  0
POINT
  5
7E60
330
7B1F
100
AcDbEntity
  8
DEFPOINTS
  6
ByBlock
 62
     0
440
 16777216
100
AcDbPoint
 10
1741.688744930849
 20
1230.1186987992
 30
0.0
  0
POINT
  5
7E61
330
7B1F
100
AcDbEntity
  8
DEFPOINTS
  6
ByBlock
 62
     0
440
 16777216
100
AcDbPoint
 10
1741.688744930849
 20
1070.118698799199
 30
0.0
  0
POINT
  5
7E62
330
7B1F
100
AcDbEntity
  8
DEFPOINTS
  6
ByBlock
 62
     0
440
 16777216
100
AcDbPoint
 10
1810.553082930849
 20
1070.118698799199
 30
0.0
  0
ENDBLK
  5
7E63
330
7B1F
100
AcDbEntity
  8
0
100
AcDbBlockEnd
  0
BLOCK
  5
7B2F
330
7B2E
100
AcDbEntity
  8
0
100
AcDbBlockBegin
  2
*D2
 70
     1
 10
0.0
 20
0.0
 30
0.0
  3
*D2
  1

  0
LINE
  5
7FEF
330
7B2E
100
AcDbEntity
  8
3
  6
Continuous
 62
     0
440
 16777216
370
    -2
100
AcDbLine
 10
1489.688744930849
 20
792.6909108904482
 30
0.0
 11
1489.688744930849
 21
715.9162598904482
 31
0.0
  0
LINE
  5
7FF0
330
7B2E
100
AcDbEntity
  8
3
  6
Continuous
 62
     0
440
 16777216
370
    -2
100
AcDbLine
 10
1677.688744930849
 20
785.4026028904483
 30
0.0
 11
1677.688744930849
 21
715.9162598904482
 31
0.0
  0
LINE
  5
7FF1
330
7B2E
100
AcDbEntity
  8
3
  6
Continuous
 62
     0
440
 16777216
370
    -2
100
AcDbLine
 10
1509.688744930849
 20
725.9162598904482
 30
0.0
 11
1657.688744930849
 21
725.9162598904482
 31
0.0
  0
INSERT
  5
7FF2
330
7B2E
100
AcDbEntity
  8
3
  6
Continuous
 62
     0
440
 16777216
370
    -2
100
AcDbBlockReference
  2
_OPEN
 10
1489.688744930849
 20
725.9162598904482
 30
0.0
 41
20.0
 42
20.0
 43
20.0
 50
180.0
  0
INSERT
  5
7FF3
330
7B2E
100
AcDbEntity
  8
3
  6
Continuous
 62
     0
440
 16777216
370
    -2
100
AcDbBlockReference
  2
_OPEN
 10
1677.688744930849
 20
725.9162598904482
 30
0.0
 41
20.0
 42
20.0
 43
20.0
  0
MTEXT
  5
7FF4
330
7B2E
100
AcDbEntity
  8
3
  6
Continuous
 62
     0
440
 16777216
100
AcDbMText
 10
1578.813400930849
 20
750.9162598904482
 30
0.0
 40
30.0
 41
0.0
 46
0.0
 71
     5
 72
     1
  1
\A1;188
 73
     1
 44
1.0
  0
POINT
  5
7FF5
330
7B2E
100
AcDbEntity
  8
DEFPOINTS
  6
Continuous
 62
     0
440
 16777216
100
AcDbPoint
 10
1489.688744930849
 20
797.6909108904483
 30
0.0
  0
POINT
  5
7FF6
330
7B2E
100
AcDbEntity
  8
DEFPOINTS
  6
Continuous
 62
     0
440
 16777216
100
AcDbPoint
 10
1677.688744930849
 20
790.4026028904483
 30
0.0
  0
POINT
  5
7FF7
330
7B2E
100
AcDbEntity
  8
DEFPOINTS
  6
Continuous
 62
     0
440
 16777216
100
AcDbPoint
 10
1677.688744930849
 20
725.9162598904482
 30
0.0
  0
ENDBLK
  5
7B39
330
7B2E
100
AcDbEntity
  8
0
100
AcDbBlockEnd
  0
BLOCK
  5
7B59
330
7B3B
100
AcDbEntity
  8
0
100
AcDbBlockBegin
  2
*D3
 70
     1
 10
0.0
 20
0.0
 30
0.0
  3
*D3
  1

  0
LINE
  5
7FF8
330
7B3B
100
AcDbEntity
  8
3
  6
Continuous
 62
     0
440
 16777216
370
    -2
100
AcDbLine
 10
1713.688744930849
 20
792.6909108904482
 30
0.0
 11
1713.688744930849
 21
715.9162598904482
 31
0.0
  0
LINE
  5
7FF9
330
7B3B
100
AcDbEntity
  8
3
  6
Continuous
 62
     0
440
 16777216
370
    -2
100
AcDbLine
 10
1657.688744930849
 20
725.9162598904482
 30
0.0
 11
1637.688744930849
 21
725.9162598904482
 31
0.0
  0
LINE
  5
7FFA
330
7B3B
100
AcDbEntity
  8
3
  6
Continuous
 62
     0
440
 16777216
370
    -2
100
AcDbLine
 10
1733.688744930849
 20
725.9162598904482
 30
0.0
 11
1753.688744930849
 21
725.9162598904482
 31
0.0
  0
MTEXT
  5
7FFB
330
7B3B
100
AcDbEntity
  8
3
  6
Continuous
 62
     0
440
 16777216
100
AcDbMText
 10
1750.962874930849
 20
750.7517618904483
 30
0.0
 40
30.0
 41
0.0
 46
0.0
 71
     5
 72
     1
  1
\A1;36
 73
     1
 44
1.0
  0
LINE
  5
7FFC
330
7B3B
100
AcDbEntity
  8
3
  6
Continuous
 62
     0
440
 16777216
370
    -2
100
AcDbLine
 10
1677.688744930849
 20
725.9162598904482
 30
0.0
 11
1713.688744930849
 21
725.9162598904482
 31
0.0
  0
INSERT
  5
7FFD
330
7B3B
100
AcDbEntity
  8
3
  6
Continuous
 62
     0
440
 16777216
370
    -2
100
AcDbBlockReference
  2
_OPEN
 10
1677.688744930849
 20
725.9162598904482
 30
0.0
 41
20.0
 42
20.0
 43
20.0
  0
INSERT
  5
7FFE
330
7B3B
100
AcDbEntity
  8
3
  6
Continuous
 62
     0
440
 16777216
370
    -2
100
AcDbBlockReference
  2
_OPEN
 10
1713.688744930849
 20
725.9162598904482
 30
0.0
 41
20.0
 42
20.0
 43
20.0
 50
180.0
  0
POINT
  5
7FFF
330
7B3B
100
AcDbEntity
  8
DEFPOINTS
  6
Continuous
 62
     0
440
 16777216
100
AcDbPoint
 10
1677.688744930849
 20
790.4026028904483
 30
0.0
  0
POINT
  5
8000
330
7B3B
100
AcDbEntity
  8
DEFPOINTS
  6
Continuous
 62
     0
440
 16777216
100
AcDbPoint
 10
1713.688744930849
 20
797.6909108904483
 30
0.0
  0
POINT
  5
8001
330
7B3B
100
AcDbEntity
  8
DEFPOINTS
  6
Continuous
 62
     0
440
 16777216
100
AcDbPoint
 10
1713.688744930849
 20
725.9162598904482
 30
0.0
  0
ENDBLK
  5
7B64
330
7B3B
100
AcDbEntity
  8
0
100
AcDbBlockEnd
  0
BLOCK
  5
7E87
330
7B65
100
AcDbEntity
  8
0
100
AcDbBlockBegin
  2
*D4
 70
     1
 10
0.0
 20
0.0
 30
0.0
  3
*D4
  1

  0
LINE
  5
7E88
330
7B65
100
AcDbEntity
  8
0
  6
ByBlock
 62
     0
440
 16777216
100
AcDbLine
 10
1621.688744930849
 20
1255.1186987992
 30
0.0
 11
1621.688744930849
 21
1315.620839799199
 31
0.0
  0
LINE
  5
7E89
330
7B65
100
AcDbEntity
  8
0
  6
ByBlock
 62
     0
440
 16777216
100
AcDbLine
 10
1733.688744930849
 20
1255.1186987992
 30
0.0
 11
1733.688744930849
 21
1315.620839799199
 31
0.0
  0
LINE
  5
7E8A
330
7B65
100
AcDbEntity
  8
0
  6
ByBlock
 62
     0
440
 16777216
100
AcDbLine
 10
1641.688744930849
 20
1305.620839799199
 30
0.0
 11
1713.688744930849
 21
1305.620839799199
 31
0.0
  0
MTEXT
  5
7E8B
330
7B65
100
AcDbEntity
  8
0
  6
ByBlock
 62
     0
440
 16777216
100
AcDbMText
 10
1677.688744930849
 20
1327.97946161799
 30
0.0
 40
30.0
 41
0.0
 46
0.0
 71
     5
 72
     5
  1
\A1;112
 73
     1
 44
1.0
  0
INSERT
  5
7E8C
330
7B65
100
AcDbEntity
  8
0
  6
ByBlock
 62
     0
440
 16777216
100
AcDbBlockReference
  2
_OPEN
 10
1621.688744930849
 20
1305.620839799199
 30
0.0
 41
20.0
 42
20.0
 43
20.0
 50
180.0
  0
INSERT
  5
7E8D
330
7B65
100
AcDbEntity
  8
0
  6
ByBlock
 62
     0
440
 16777216
100
AcDbBlockReference
  2
_OPEN
 10
1733.688744930849
 20
1305.620839799199
 30
0.0
 41
20.0
 42
20.0
 43
20.0
  0
POINT
  5
7E8E
330
7B65
100
AcDbEntity
  8
DEFPOINTS
  6
ByBlock
 62
     0
440
 16777216
100
AcDbPoint
 10
1621.688744930849
 20
1250.118698799199
 30
0.0
  0
POINT
  5
7E8F
330
7B65
100
AcDbEntity
  8
DEFPOINTS
  6
ByBlock
 62
     0
440
 16777216
100
AcDbPoint
 10
1733.688744930849
 20
1250.118698799199
 30
0.0
  0
POINT
  5
7E90
330
7B65
100
AcDbEntity
  8
DEFPOINTS
  6
ByBlock
 62
     0
440
 16777216
100
AcDbPoint
 10
1733.688744930849
 20
1305.620839799199
 30
0.0
  0
ENDBLK
  5
7E91
330
7B65
100
AcDbEntity
  8
0
100
AcDbBlockEnd
  0
BLOCK
  5
7E9F
330
7B74
100
AcDbEntity
  8
0
100
AcDbBlockBegin
  2
*D5
 70
     1
 10
0.0
 20
0.0
 30
0.0
  3
*D5
  1

  0
LINE
  5
80B4
330
7B74
100
AcDbEntity
  8
3
  6
Continuous
 62
     0
440
 16777216
370
    -2
100
AcDbLine
 10
1417.688744930849
 20
1227.690910890448
 30
0.0
 11
1417.688744930849
 21
1352.718905890448
 31
0.0
  0
LINE
  5
80B5
330
7B74
100
AcDbEntity
  8
3
  6
Continuous
 62
     0
440
 16777216
370
    -2
100
AcDbLine
 10
1677.688744930849
 20
1316.839508890448
 30
0.0
 11
1677.688744930849
 21
1352.718905890448
 31
0.0
  0
LINE
  5
80B6
330
7B74
100
AcDbEntity
  8
3
  6
Continuous
 62
     0
440
 16777216
370
    -2
100
AcDbLine
 10
1437.688744930849
 20
1342.718905890448
 30
0.0
 11
1657.688744930849
 21
1342.718905890448
 31
0.0
  0
INSERT
  5
80B7
330
7B74
100
AcDbEntity
  8
3
  6
Continuous
 62
     0
440
 16777216
370
    -2
100
AcDbBlockReference
  2
_OPEN
 10
1417.688744930849
 20
1342.718905890448
 30
0.0
 41
20.0
 42
20.0
 43
20.0
 50
180.0
  0
INSERT
  5
80B8
330
7B74
100
AcDbEntity
  8
3
  6
Continuous
 62
     0
440
 16777216
370
    -2
100
AcDbBlockReference
  2
_OPEN
 10
1677.688744930849
 20
1342.718905890448
 30
0.0
 41
20.0
 42
20.0
 43
20.0
  0
MTEXT
  5
80B9
330
7B74
100
AcDbEntity
  8
3
  6
Continuous
 62
     0
440
 16777216
100
AcDbMText
 10
1549.680660930849
 20
1375.576048747591
 30
0.0
 40
30.0
 41
0.0
 46
0.0
 71
     5
 72
     1
  1
\A1;(260)
 73
     1
 44
1.0
  0
POINT
  5
80BA
330
7B74
100
AcDbEntity
  8
DEFPOINTS
  6
Continuous
 62
     0
440
 16777216
100
AcDbPoint
 10
1417.688744930849
 20
1222.690910890448
 30
0.0
  0
POINT
  5
80BB
330
7B74
100
AcDbEntity
  8
DEFPOINTS
  6
Continuous
 62
     0
440
 16777216
100
AcDbPoint
 10
1677.688744930849
 20
1311.839508890448
 30
0.0
  0
POINT
  5
80BC
330
7B74
100
AcDbEntity
  8
DEFPOINTS
  6
Continuous
 62
     0
440
 16777216
100
AcDbPoint
 10
1677.688744930849
 20
1342.718905890448
 30
0.0
  0
ENDBLK
  5
7EA9
330
7B74
100
AcDbEntity
  8
0
100
AcDbBlockEnd
  0
BLOCK
  5
7B9C
330
7B81
100
AcDbEntity
  8
0
100
AcDbBlockBegin
  2
*D6
 70
     1
 10
0.0
 20
0.0
 30
0.0
  3
*D6
  1

  0
LINE
  5
7F30
330
7B81
100
AcDbEntity
  8
3
  6
Continuous
 62
     0
440
 16777216
100
AcDbLine
 10
1741.688744930849
 20
1232.690910890448
 30
0.0
 11
1741.688744930849
 21
1352.718905890448
 31
0.0
  0
LINE
  5
7F31
330
7B81
100
AcDbEntity
  8
3
  6
Continuous
 62
     0
440
 16777216
100
AcDbLine
 10
1697.688744930849
 20
1342.718905890448
 30
0.0
 11
1721.688744930849
 21
1342.718905890448
 31
0.0
  0
MTEXT
  5
7F32
330
7B81
100
AcDbEntity
  8
3
  6
Continuous
 62
     0
440
 16777216
100
AcDbMText
 10
1706.104946930849
 20
1367.883412890448
 30
0.0
 40
30.0
 41
0.0
 46
0.0
 71
     5
 72
     5
  1
\A1;64
 73
     1
 44
1.0
  0
INSERT
  5
7F33
330
7B81
100
AcDbEntity
  8
3
  6
Continuous
 62
     0
440
 16777216
100
AcDbBlockReference
  2
_OPEN
 10
1677.688744930849
 20
1342.718905890448
 30
0.0
 41
20.0
 42
20.0
 43
20.0
 50
180.0
  0
INSERT
  5
7F34
330
7B81
100
AcDbEntity
  8
3
  6
Continuous
 62
     0
440
 16777216
100
AcDbBlockReference
  2
_OPEN
 10
1741.688744930849
 20
1342.718905890448
 30
0.0
 41
20.0
 42
20.0
 43
20.0
  0
POINT
  5
7F35
330
7B81
100
AcDbEntity
  8
DEFPOINTS
  6
Continuous
 62
     0
440
 16777216
100
AcDbPoint
 10
1677.688744930849
 20
1311.839508890448
 30
0.0
  0
POINT
  5
7F36
330
7B81
100
AcDbEntity
  8
DEFPOINTS
  6
Continuous
 62
     0
440
 16777216
100
AcDbPoint
 10
1741.688744930849
 20
1227.690910890448
 30
0.0
  0
POINT
  5
7F37
330
7B81
100
AcDbEntity
  8
DEFPOINTS
  6
Continuous
 62
     0
440
 16777216
100
AcDbPoint
 10
1741.688744930849
 20
1342.718905890448
 30
0.0
  0
ENDBLK
  5
7BA5
330
7B81
100
AcDbEntity
  8
0
100
AcDbBlockEnd
  0
BLOCK
  5
7BA8
330
7BA7
100
AcDbEntity
  8
0
100
AcDbBlockBegin
  2
*D7
 70
     1
 10
0.0
 20
0.0
 30
0.0
  3
*D7
  1

  0
LINE
  5
7F38
330
7BA7
100
AcDbEntity
  8
3
  6
Continuous
 62
     0
440
 16777216
100
AcDbLine
 10
597.4558310682818
 20
967.6909108904483
 30
0.0
 11
558.4385600682818
 21
967.6909108904483
 31
0.0
  0
LINE
  5
7F39
330
7BA7
100
AcDbEntity
  8
3
  6
Continuous
 62
     0
440
 16777216
100
AcDbLine
 10
597.4558310682818
 20
1127.690910890448
 30
0.0
 11
558.4385600682818
 21
1127.690910890448
 31
0.0
  0
LINE
  5
7F3A
330
7BA7
100
AcDbEntity
  8
3
  6
Continuous
 62
     0
440
 16777216
100
AcDbLine
 10
568.4385600682818
 20
987.6909108904483
 30
0.0
 11
568.4385600682818
 21
1107.690910890448
 31
0.0
  0
INSERT
  5
7F3B
330
7BA7
100
AcDbEntity
  8
3
  6
Continuous
 62
     0
440
 16777216
100
AcDbBlockReference
  2
_OPEN
 10
568.4385600682818
 20
967.6909108904483
 30
0.0
 41
20.0
 42
20.0
 43
20.0
 50
270.0
  0
INSERT
  5
7F3C
330
7BA7
100
AcDbEntity
  8
3
  6
Continuous
 62
     0
440
 16777216
100
AcDbBlockReference
  2
_OPEN
 10
568.4385600682818
 20
1127.690910890448
 30
0.0
 41
20.0
 42
20.0
 43
20.0
 50
90.0
  0
MTEXT
  5
7F3D
330
7BA7
100
AcDbEntity
  8
3
  6
Continuous
 62
     0
440
 16777216
100
AcDbMText
 10
543.4385600682817
 20
1046.414166890448
 30
0.0
 40
30.0
 41
0.0
 46
0.0
 71
     5
 72
     5
  1
\A1;160
 11
0.0000000000000001
 21
1.0
 31
0.0
 73
     1
 44
1.0
  0
POINT
  5
7F3E
330
7BA7
100
AcDbEntity
  8
DEFPOINTS
  6
Continuous
 62
     0
440
 16777216
100
AcDbPoint
 10
602.4558310682817
 20
967.6909108904483
 30
0.0
  0
POINT
  5
7F3F
330
7BA7
100
AcDbEntity
  8
DEFPOINTS
  6
Continuous
 62
     0
440
 16777216
100
AcDbPoint
 10
602.4558310682817
 20
1127.690910890448
 30
0.0
  0
POINT
  5
7F40
330
7BA7
100
AcDbEntity
  8
DEFPOINTS
  6
Continuous
 62
     0
440
 16777216
100
AcDbPoint
 10
568.4385600682818
 20
1127.690910890448
 30
0.0
  0
ENDBLK
  5
7BB2
330
7BA7
100
AcDbEntity
  8
0
100
AcDbBlockEnd
  0
BLOCK
  5
7BF4
330
7BF3
100
AcDbEntity
  8
0
100
AcDbBlockBegin
  2
*D8
 70
     1
 10
0.0
 20
0.0
 30
0.0
  3
*D8
  1

  0
LINE
  5
8002
330
7BF3
100
AcDbEntity
  8
3
  6
Continuous
 62
     0
440
 16777216
370
    -2
100
AcDbLine
 10
572.4558310682819
 20
792.6909108904482
 30
0.0
 11
572.4558310682819
 21
730.3600878904482
 31
0.0
  0
LINE
  5
8003
330
7BF3
100
AcDbEntity
  8
3
  6
Continuous
 62
     0
440
 16777216
370
    -2
100
AcDbLine
 10
732.4558310682818
 20
782.6172518904481
 30
0.0
 11
732.4558310682818
 21
730.3600878904482
 31
0.0
  0
LINE
  5
8004
330
7BF3
100
AcDbEntity
  8
3
  6
Continuous
 62
     0
440
 16777216
370
    -2
100
AcDbLine
 10
592.4558310682819
 20
740.3600878904483
 30
0.0
 11
712.4558310682819
 21
740.3600878904483
 31
0.0
  0
INSERT
  5
8005
330
7BF3
100
AcDbEntity
  8
3
  6
Continuous
 62
     0
440
 16777216
370
    -2
100
AcDbBlockReference
  2
_OPEN
 10
572.4558310682819
 20
740.3600878904483
 30
0.0
 41
20.0
 42
20.0
 43
20.0
 50
180.0
  0
INSERT
  5
8006
330
7BF3
100
AcDbEntity
  8
3
  6
Continuous
 62
     0
440
 16777216
370
    -2
100
AcDbBlockReference
  2
_OPEN
 10
732.4558310682818
 20
740.3600878904483
 30
0.0
 41
20.0
 42
20.0
 43
20.0
  0
MTEXT
  5
8007
330
7BF3
100
AcDbEntity
  8
3
  6
Continuous
 62
     0
440
 16777216
100
AcDbMText
 10
666.7415460682819
 20
765.3600878904483
 30
0.0
 40
30.0
 41
0.0
 46
0.0
 71
     5
 72
     1
  1
\A1;160
 73
     1
 44
1.0
  0
POINT
  5
8008
330
7BF3
100
AcDbEntity
  8
DEFPOINTS
  6
Continuous
 62
     0
440
 16777216
100
AcDbPoint
 10
572.4558310682819
 20
797.6909108904483
 30
0.0
  0
POINT
  5
8009
330
7BF3
100
AcDbEntity
  8
DEFPOINTS
  6
Continuous
 62
     0
440
 16777216
100
AcDbPoint
 10
732.4558310682818
 20
787.6172518904482
 30
0.0
  0
POINT
  5
800A
330
7BF3
100
AcDbEntity
  8
DEFPOINTS
  6
Continuous
 62
     0
440
 16777216
100
AcDbPoint
 10
732.4558310682818
 20
740.3600878904483
 30
0.0
  0
ENDBLK
  5
7BFE
330
7BF3
100
AcDbEntity
  8
0
100
AcDbBlockEnd
  0
BLOCK
  5
7C01
330
7C00
100
AcDbEntity
  8
0
100
AcDbBlockBegin
  2
*D9
 70
     1
 10
0.0
 20
0.0
 30
0.0
  3
*D9
  1

  0
LINE
  5
800B
330
7C00
100
AcDbEntity
  8
3
  6
Continuous
 62
     0
440
 16777216
370
    -2
100
AcDbLine
 10
1182.455831068281
 20
792.6909108904482
 30
0.0
 11
1182.455831068281
 21
730.3600878904482
 31
0.0
  0
LINE
  5
800C
330
7C00
100
AcDbEntity
  8
3
  6
Continuous
 62
     0
440
 16777216
370
    -2
100
AcDbLine
 10
752.4558310682818
 20
740.3600878904483
 30
0.0
 11
1162.455831068281
 21
740.3600878904483
 31
0.0
  0
INSERT
  5
800D
330
7C00
100
AcDbEntity
  8
3
  6
Continuous
 62
     0
440
 16777216
370
    -2
100
AcDbBlockReference
  2
_OPEN
 10
732.4558310682818
 20
740.3600878904483
 30
0.0
 41
20.0
 42
20.0
 43
20.0
 50
180.0
  0
INSERT
  5
800E
330
7C00
100
AcDbEntity
  8
3
  6
Continuous
 62
     0
440
 16777216
370
    -2
100
AcDbBlockReference
  2
_OPEN
 10
1182.455831068281
 20
740.3600878904483
 30
0.0
 41
20.0
 42
20.0
 43
20.0
  0
MTEXT
  5
800F
330
7C00
100
AcDbEntity
  8
3
  6
Continuous
 62
     0
440
 16777216
100
AcDbMText
 10
957.4558310682817
 20
765.3600878904483
 30
0.0
 40
30.0
 41
0.0
 46
0.0
 71
     5
 72
     1
  1
\A1;450
 73
     1
 44
1.0
  0
POINT
  5
8010
330
7C00
100
AcDbEntity
  8
DEFPOINTS
  6
Continuous
 62
     0
440
 16777216
100
AcDbPoint
 10
732.4558310682818
 20
787.6172518904482
 30
0.0
  0
POINT
  5
8011
330
7C00
100
AcDbEntity
  8
DEFPOINTS
  6
Continuous
 62
     0
440
 16777216
100
AcDbPoint
 10
1182.455831068281
 20
797.6909108904483
 30
0.0
  0
POINT
  5
8012
330
7C00
100
AcDbEntity
  8
DEFPOINTS
  6
Continuous
 62
     0
440
 16777216
100
AcDbPoint
 10
1182.455831068281
 20
740.3600878904483
 30
0.0
  0
ENDBLK
  5
7C0A
330
7C00
100
AcDbEntity
  8
0
100
AcDbBlockEnd
  0
BLOCK
  5
7E6F
330
7C0C
100
AcDbEntity
  8
0
100
AcDbBlockBegin
  2
*D10
 70
     1
 10
0.0
 20
0.0
 30
0.0
  3
*D10
  1

  0
LINE
  5
7E70
330
7C0C
100
AcDbEntity
  8
0
  6
ByBlock
 62
     0
440
 16777216
100
AcDbLine
 10
602.4558310682817
 20
1154.690910890448
 30
0.0
 11
602.4558310682817
 21
1344.442916890448
 31
0.0
  0
LINE
  5
7E71
330
7C0C
100
AcDbEntity
  8
0
  6
ByBlock
 62
     0
440
 16777216
100
AcDbLine
 10
732.4558310682817
 20
1325.171309890448
 30
0.0
 11
732.4558310682817
 21
1344.442916890448
 31
0.0
  0
LINE
  5
7E72
330
7C0C
100
AcDbEntity
  8
0
  6
ByBlock
 62
     0
440
 16777216
100
AcDbLine
 10
622.4558310682818
 20
1334.442916890448
 30
0.0
 11
712.4558310682817
 21
1334.442916890448
 31
0.0
  0
MTEXT
  5
7E73
330
7C0C
100
AcDbEntity
  8
0
  6
ByBlock
 62
     0
440
 16777216
100
AcDbMText
 10
667.4558310682818
 20
1361.788053091148
 30
0.0
 40
30.0
 41
0.0
 46
0.0
 71
     5
 72
     5
  1
\A1;130
 73
     1
 44
1.0
  0
INSERT
  5
7E74
330
7C0C
100
AcDbEntity
  8
0
  6
ByBlock
 62
     0
440
 16777216
100
AcDbBlockReference
  2
_OPEN
 10
602.4558310682817
 20
1334.442916890448
 30
0.0
 41
20.0
 42
20.0
 43
20.0
 50
180.0
  0
INSERT
  5
7E75
330
7C0C
100
AcDbEntity
  8
0
  6
ByBlock
 62
     0
440
 16777216
100
AcDbBlockReference
  2
_OPEN
 10
732.4558310682817
 20
1334.442916890448
 30
0.0
 41
20.0
 42
20.0
 43
20.0
  0
POINT
  5
7E76
330
7C0C
100
AcDbEntity
  8
DEFPOINTS
  6
ByBlock
 62
     0
440
 16777216
100
AcDbPoint
 10
602.4558310682817
 20
1149.690910890448
 30
0.0
  0
POINT
  5
7E77
330
7C0C
100
AcDbEntity
  8
DEFPOINTS
  6
ByBlock
 62
     0
440
 16777216
100
AcDbPoint
 10
732.4558310682817
 20
1320.171309890448
 30
0.0
  0
POINT
  5
7E78
330
7C0C
100
AcDbEntity
  8
DEFPOINTS
  6
ByBlock
 62
     0
440
 16777216
100
AcDbPoint
 10
732.4558310682817
 20
1334.442916890448
 30
0.0
  0
ENDBLK
  5
7E79
330
7C0C
100
AcDbEntity
  8
0
100
AcDbBlockEnd
  0
BLOCK
  5
7C1C
330
7C1B
100
AcDbEntity
  8
0
100
AcDbBlockBegin
  2
*D11
 70
     1
 10
0.0
 20
0.0
 30
0.0
  3
*D11
  1

  0
LINE
  5
7F52
330
7C1B
100
AcDbEntity
  8
3
  6
Continuous
 62
     0
440
 16777216
100
AcDbLine
 10
876.9201130682818
 20
1132.690910890448
 30
0.0
 11
876.9201130682818
 21
1344.442916890448
 31
0.0
  0
LINE
  5
7F53
330
7C1B
100
AcDbEntity
  8
3
  6
Continuous
 62
     0
440
 16777216
100
AcDbLine
 10
752.4558310682817
 20
1334.442916890448
 30
0.0
 11
856.9201130682818
 21
1334.442916890448
 31
0.0
  0
INSERT
  5
7F54
330
7C1B
100
AcDbEntity
  8
3
  6
Continuous
 62
     0
440
 16777216
100
AcDbBlockReference
  2
_OPEN
 10
732.4558310682817
 20
1334.442916890448
 30
0.0
 41
20.0
 42
20.0
 43
20.0
 50
180.0
  0
INSERT
  5
7F55
330
7C1B
100
AcDbEntity
  8
3
  6
Continuous
 62
     0
440
 16777216
100
AcDbBlockReference
  2
_OPEN
 10
876.9201130682818
 20
1334.442916890448
 30
0.0
 41
20.0
 42
20.0
 43
20.0
  0
MTEXT
  5
7F56
330
7C1B
100
AcDbEntity
  8
3
  6
Continuous
 62
     0
440
 16777216
100
AcDbMText
 10
804.6879720682818
 20
1359.442916890448
 30
0.0
 40
30.0
 41
0.0
 46
0.0
 71
     5
 72
     5
  1
\A1;144
 73
     1
 44
1.0
  0
POINT
  5
7F57
330
7C1B
100
AcDbEntity
  8
DEFPOINTS
  6
Continuous
 62
     0
440
 16777216
100
AcDbPoint
 10
732.4558310682817
 20
1320.171309890448
 30
0.0
  0
POINT
  5
7F58
330
7C1B
100
AcDbEntity
  8
DEFPOINTS
  6
Continuous
 62
     0
440
 16777216
100
AcDbPoint
 10
876.9201130682818
 20
1127.690910890448
 30
0.0
  0
POINT
  5
7F59
330
7C1B
100
AcDbEntity
  8
DEFPOINTS
  6
Continuous
 62
     0
440
 16777216
100
AcDbPoint
 10
876.9201130682818
 20
1334.442916890448
 30
0.0
  0
ENDBLK
  5
7C25
330
7C1B
100
AcDbEntity
  8
0
100
AcDbBlockEnd
  0
BLOCK
  5
7C79
330
7C34
100
AcDbEntity
  8
0
100
AcDbBlockBegin
  2
*D12
 70
     1
 10
0.0
 20
0.0
 30
0.0
  3
*D12
  1

  0
LINE
  5
7F5A
330
7C34
100
AcDbEntity
  8
3
  6
Continuous
 62
     0
440
 16777216
100
AcDbLine
 10
572.4558310682818
 20
1829.932298091248
 30
0.0
 11
572.4558310682818
 21
1680.138215091249
 31
0.0
  0
LINE
  5
7F5B
330
7C34
100
AcDbEntity
  8
3
  6
Continuous
 62
     0
440
 16777216
100
AcDbLine
 10
1182.455831068281
 20
1829.932298091248
 30
0.0
 11
1182.455831068281
 21
1680.138215091249
 31
0.0
  0
LINE
  5
7F5C
330
7C34
100
AcDbEntity
  8
3
  6
Continuous
 62
     0
440
 16777216
100
AcDbLine
 10
592.4558310682818
 20
1690.138215091249
 30
0.0
 11
1162.455831068281
 21
1690.138215091249
 31
0.0
  0
INSERT
  5
7F5D
330
7C34
100
AcDbEntity
  8
3
  6
Continuous
 62
     0
440
 16777216
100
AcDbBlockReference
  2
_OPEN
 10
572.4558310682818
 20
1690.138215091249
 30
0.0
 41
20.0
 42
20.0
 43
20.0
 50
180.0
  0
INSERT
  5
7F5E
330
7C34
100
AcDbEntity
  8
3
  6
Continuous
 62
     0
440
 16777216
100
AcDbBlockReference
  2
_OPEN
 10
1182.455831068281
 20
1690.138215091249
 30
0.0
 41
20.0
 42
20.0
 43
20.0
  0
MTEXT
  5
7F5F
330
7C34
100
AcDbEntity
  8
3
  6
Continuous
 62
     0
440
 16777216
100
AcDbMText
 10
871.3059450682818
 20
1715.138215091249
 30
0.0
 40
30.0
 41
0.0
 46
0.0
 71
     5
 72
     5
  1
\A1;610
 73
     1
 44
1.0
  0
POINT
  5
7F60
330
7C34
100
AcDbEntity
  8
DEFPOINTS
  6
Continuous
 62
     0
440
 16777216
100
AcDbPoint
 10
572.4558310682818
 20
1834.932298091248
 30
0.0
  0
POINT
  5
7F61
330
7C34
100
AcDbEntity
  8
DEFPOINTS
  6
Continuous
 62
     0
440
 16777216
100
AcDbPoint
 10
1182.455831068281
 20
1834.932298091248
 30
0.0
  0
POINT
  5
7F62
330
7C34
100
AcDbEntity
  8
DEFPOINTS
  6
Continuous
 62
     0
440
 16777216
100
AcDbPoint
 10
1182.455831068281
 20
1690.138215091249
 30
0.0
  0
ENDBLK
  5
7C83
330
7C34
100
AcDbEntity
  8
0
100
AcDbBlockEnd
  0
BLOCK
  5
7C42
330
7C41
100
AcDbEntity
  8
0
100
AcDbBlockBegin
  2
*D13
 70
     1
 10
0.0
 20
0.0
 30
0.0
  3
*D13
  1

  0
LINE
  5
7F63
330
7C41
100
AcDbEntity
  8
3
  6
Continuous
 62
     0
440
 16777216
100
AcDbLine
 10
1187.455831068281
 20
2058.932298091249
 30
0.0
 11
1284.302168068282
 21
2058.932298091249
 31
0.0
  0
LINE
  5
7F64
330
7C41
100
AcDbEntity
  8
3
  6
Continuous
 62
     0
440
 16777216
100
AcDbLine
 10
1187.455831068281
 20
1834.932298091248
 30
0.0
 11
1284.302168068282
 21
1834.932298091248
 31
0.0
  0
LINE
  5
7F65
330
7C41
100
AcDbEntity
  8
3
  6
Continuous
 62
     0
440
 16777216
100
AcDbLine
 10
1274.302168068282
 20
2038.932298091249
 30
0.0
 11
1274.302168068282
 21
1854.932298091248
 31
0.0
  0
INSERT
  5
7F66
330
7C41
100
AcDbEntity
  8
3
  6
Continuous
 62
     0
440
 16777216
100
AcDbBlockReference
  2
_OPEN
 10
1274.302168068282
 20
2058.932298091249
 30
0.0
 41
20.0
 42
20.0
 43
20.0
 50
90.0
  0
INSERT
  5
7F67
330
7C41
100
AcDbEntity
  8
3
  6
Continuous
 62
     0
440
 16777216
100
AcDbBlockReference
  2
_OPEN
 10
1274.302168068282
 20
1834.932298091248
 30
0.0
 41
20.0
 42
20.0
 43
20.0
 50
270.0
  0
MTEXT
  5
7F68
330
7C41
100
AcDbEntity
  8
3
  6
Continuous
 62
     0
440
 16777216
100
AcDbMText
 10
1249.302168068282
 20
1938.675911091248
 30
0.0
 40
30.0
 41
0.0
 46
0.0
 71
     5
 72
     5
  1
\A1;224
 11
0.0000000000000001
 21
1.0
 31
0.0
 73
     1
 44
1.0
  0
POINT
  5
7F69
330
7C41
100
AcDbEntity
  8
DEFPOINTS
  6
Continuous
 62
     0
440
 16777216
100
AcDbPoint
 10
1182.455831068281
 20
2058.932298091249
 30
0.0
  0
POINT
  5
7F6A
330
7C41
100
AcDbEntity
  8
DEFPOINTS
  6
Continuous
 62
     0
440
 16777216
100
AcDbPoint
 10
1182.455831068281
 20
1834.932298091248
 30
0.0
  0
POINT
  5
7F6B
330
7C41
100
AcDbEntity
  8
DEFPOINTS
  6
Continuous
 62
     0
440
 16777216
100
AcDbPoint
 10
1274.302168068282
 20
1834.932298091248
 30
0.0
  0
ENDBLK
  5
7C4C
330
7C41
100
AcDbEntity
  8
0
100
AcDbBlockEnd
  0
BLOCK
  5
7E64
330
7D4C
100
AcDbEntity
  8
0
100
AcDbBlockBegin
  2
*D14
 70
     1
 10
0.0
 20
0.0
 30
0.0
  3
*D14
  1

  0
LINE
  5
7E65
330
7D4C
100
AcDbEntity
  8
0
  6
ByBlock
 62
     0
440
 16777216
100
AcDbLine
 10
727.4558310682817
 20
1250.335092890448
 30
0.0
 11
438.4074020682817
 21
1250.335092890448
 31
0.0
  0
LINE
  5
7E66
330
7D4C
100
AcDbEntity
  8
0
  6
ByBlock
 62
     0
440
 16777216
100
AcDbLine
 10
525.6368930682818
 20
1127.690910890448
 30
0.0
 11
438.4074020682817
 21
1127.690910890448
 31
0.0
  0
LINE
  5
7E67
330
7D4C
100
AcDbEntity
  8
0
  6
ByBlock
 62
     0
440
 16777216
100
AcDbLine
 10
448.4074020682817
 20
1230.335092890448
 30
0.0
 11
448.4074020682817
 21
1147.690910890448
 31
0.0
  0
MTEXT
  5
7E68
330
7D4C
100
AcDbEntity
  8
0
  6
ByBlock
 62
     0
440
 16777216
100
AcDbMText
 10
423.5705654420926
 20
1189.013001890448
 30
0.0
 40
30.0
 41
0.0
 46
0.0
 71
     5
 72
     5
  1
\A1;123
 11
0.0
 21
1.0
 31
0.0
 73
     1
 44
1.0
  0
INSERT
  5
7E69
330
7D4C
100
AcDbEntity
  8
0
  6
ByBlock
 62
     0
440
 16777216
100
AcDbBlockReference
  2
_OPEN
 10
448.4074020682817
 20
1250.335092890448
 30
0.0
 41
20.0
 42
20.0
 43
20.0
 50
90.0
  0
INSERT
  5
7E6A
330
7D4C
100
AcDbEntity
  8
0
  6
ByBlock
 62
     0
440
 16777216
100
AcDbBlockReference
  2
_OPEN
 10
448.4074020682817
 20
1127.690910890448
 30
0.0
 41
20.0
 42
20.0
 43
20.0
 50
270.0
  0
POINT
  5
7E6B
330
7D4C
100
AcDbEntity
  8
DEFPOINTS
  6
ByBlock
 62
     0
440
 16777216
100
AcDbPoint
 10
732.4558310682817
 20
1250.335092890448
 30
0.0
  0
POINT
  5
7E6C
330
7D4C
100
AcDbEntity
  8
DEFPOINTS
  6
ByBlock
 62
     0
440
 16777216
100
AcDbPoint
 10
530.6368930682817
 20
1127.690910890448
 30
0.0
  0
POINT
  5
7E6D
330
7D4C
100
AcDbEntity
  8
DEFPOINTS
  6
ByBlock
 62
     0
440
 16777216
100
AcDbPoint
 10
448.4074020682817
 20
1127.690910890448
 30
0.0
  0
ENDBLK
  5
7E6E
330
7D4C
100
AcDbEntity
  8
0
100
AcDbBlockEnd
  0
BLOCK
  5
7DE2
330
7D96
100
AcDbEntity
  8
0
100
AcDbBlockBegin
  2
*D15
 70
     1
 10
0.0
 20
0.0
 30
0.0
  3
*D15
  1

  0
LINE
  5
7F6C
330
7D96
100
AcDbEntity
  8
3
  6
Continuous
 62
     0
440
 16777216
100
AcDbLine
 10
592.4558310682818
 20
892.6909108904483
 30
0.0
 11
438.4074020682817
 21
892.6909108904483
 31
0.0
  0
LINE
  5
7F6D
330
7D96
100
AcDbEntity
  8
3
  6
Continuous
 62
     0
440
 16777216
100
AcDbLine
 10
448.4074020682817
 20
1107.690910890448
 30
0.0
 11
448.4074020682817
 21
912.6909108904483
 31
0.0
  0
INSERT
  5
7F6E
330
7D96
100
AcDbEntity
  8
3
  6
Continuous
 62
     0
440
 16777216
100
AcDbBlockReference
  2
_OPEN
 10
448.4074020682817
 20
1127.690910890448
 30
0.0
 41
20.0
 42
20.0
 43
20.0
 50
90.0
  0
INSERT
  5
7F6F
330
7D96
100
AcDbEntity
  8
3
  6
Continuous
 62
     0
440
 16777216
100
AcDbBlockReference
  2
_OPEN
 10
448.4074020682817
 20
892.6909108904483
 30
0.0
 41
20.0
 42
20.0
 43
20.0
 50
270.0
  0
MTEXT
  5
7F70
330
7D96
100
AcDbEntity
  8
3
  6
Continuous
 62
     0
440
 16777216
100
AcDbMText
 10
423.4074020682816
 20
1010.190910890448
 30
0.0
 40
30.0
 41
0.0
 46
0.0
 71
     5
 72
     5
  1
\A1;235
 11
0.0000000000000001
 21
1.0
 31
0.0
 73
     1
 44
1.0
  0
POINT
  5
7F71
330
7D96
100
AcDbEntity
  8
DEFPOINTS
  6
Continuous
 62
     0
440
 16777216
100
AcDbPoint
 10
530.6368930682817
 20
1127.690910890448
 30
0.0
  0
POINT
  5
7F72
330
7D96
100
AcDbEntity
  8
DEFPOINTS
  6
Continuous
 62
     0
440
 16777216
100
AcDbPoint
 10
597.4558310682818
 20
892.6909108904483
 30
0.0
  0
POINT
  5
7F73
330
7D96
100
AcDbEntity
  8
DEFPOINTS
  6
Continuous
 62
     0
440
 16777216
100
AcDbPoint
 10
448.4074020682817
 20
892.6909108904483
 30
0.0
  0
ENDBLK
  5
7DEB
330
7D96
100
AcDbEntity
  8
0
100
AcDbBlockEnd
  0
BLOCK
  5
7E05
330
7E04
100
AcDbEntity
  8
0
100
AcDbBlockBegin
  2
*D16
 70
     1
 10
0.0
 20
0.0
 30
0.0
  3
*D16
  1

  0
LINE
  5
7F74
330
7E04
100
AcDbEntity
  8
3
  6
Continuous
 62
     0
440
 16777216
100
AcDbLine
 10
598.4558310682817
 20
1127.690910890448
 30
0.0
 11
510.1885530682818
 21
1127.690910890448
 31
0.0
  0
LINE
  5
7F75
330
7E04
100
AcDbEntity
  8
3
  6
Continuous
 62
     0
440
 16777216
100
AcDbLine
 10
612.4558310682817
 20
956.6909108904482
 30
0.0
 11
510.1885530682818
 21
956.6909108904482
 31
0.0
  0
LINE
  5
7F76
330
7E04
100
AcDbEntity
  8
3
  6
Continuous
 62
     0
440
 16777216
100
AcDbLine
 10
520.1885530682818
 20
1107.690910890448
 30
0.0
 11
520.1885530682818
 21
976.6909108904483
 31
0.0
  0
INSERT
  5
7F77
330
7E04
100
AcDbEntity
  8
3
  6
Continuous
 62
     0
440
 16777216
100
AcDbBlockReference
  2
_OPEN
 10
520.1885530682818
 20
1127.690910890448
 30
0.0
 41
20.0
 42
20.0
 43
20.0
 50
90.0
  0
INSERT
  5
7F78
330
7E04
100
AcDbEntity
  8
3
  6
Continuous
 62
     0
440
 16777216
100
AcDbBlockReference
  2
_OPEN
 10
520.1885530682818
 20
956.6909108904482
 30
0.0
 41
20.0
 42
20.0
 43
20.0
 50
270.0
  0
MTEXT
  5
7F79
330
7E04
100
AcDbEntity
  8
3
  6
Continuous
 62
     0
440
 16777216
100
AcDbMText
 10
495.1885530682816
 20
1043.885506890448
 30
0.0
 40
30.0
 41
0.0
 46
0.0
 71
     5
 72
     5
  1
\A1;171
 11
0.0000000000000001
 21
1.0
 31
0.0
 73
     1
 44
1.0
  0
POINT
  5
7F7A
330
7E04
100
AcDbEntity
  8
DEFPOINTS
  6
Continuous
 62
     0
440
 16777216
100
AcDbPoint
 10
603.4558310682817
 20
1127.690910890448
 30
0.0
  0
POINT
  5
7F7B
330
7E04
100
AcDbEntity
  8
DEFPOINTS
  6
Continuous
 62
     0
440
 16777216
100
AcDbPoint
 10
617.4558310682818
 20
956.6909108904482
 30
0.0
  0
POINT
  5
7F7C
330
7E04
100
AcDbEntity
  8
DEFPOINTS
  6
Continuous
 62
     0
440
 16777216
100
AcDbPoint
 10
520.1885530682818
 20
956.6909108904482
 30
0.0
  0
ENDBLK
  5
7E0F
330
7E04
100
AcDbEntity
  8
0
100
AcDbBlockEnd
  0
BLOCK
  5
7EB5
330
7EB4
100
AcDbEntity
  8
0
100
AcDbBlockBegin
  2
_DOT
 70
     0
 10
0.0
 20
0.0
 30
0.0
  3
_DOT
  1

  0
LWPOLYLINE
  5
7EB6
330
7EB4
100
AcDbEntity
  8
0
  6
ByBlock
 62
     0
100
AcDbPolyline
 90
        2
 70
     1
 43
0.5
 10
-0.25
 20
0.0
 42
1.0
 10
0.25
 20
0.0
 42
1.0
  0
LINE
  5
7EBA
330
7EB4
100
AcDbEntity
  8
0
  6
ByBlock
 62
     0
100
AcDbLine
 10
-0.5
 20
0.0
 30
0.0
 11
-1.0
 21
0.0
 31
0.0
  0
ENDBLK
  5
7EBB
330
7EB4
100
AcDbEntity
  8
0
100
AcDbBlockEnd
  0
BLOCK
  5
7EBD
330
7EBC
100
AcDbEntity
  8
0
100
AcDbBlockBegin
  2
*D18
 70
     1
 10
0.0
 20
0.0
 30
0.0
  3
*D18
  1

  0
LINE
  5
8084
330
7EBC
100
AcDbEntity
  8
3
  6
Continuous
 62
     0
440
 16777216
370
    -2
100
AcDbLine
 10
567.4558310682819
 20
822.6909108904482
 30
0.0
 11
438.3887315500285
 21
822.6909108904482
 31
0.0
  0
LINE
  5
8085
330
7EBC
100
AcDbEntity
  8
3
  6
Continuous
 62
     0
440
 16777216
370
    -2
100
AcDbLine
 10
567.4558310682819
 20
797.6909108904483
 30
0.0
 11
438.3887315500285
 21
797.6909108904483
 31
0.0
  0
LINE
  5
8086
330
7EBC
100
AcDbEntity
  8
3
  6
Continuous
 62
     0
440
 16777216
370
    -2
100
AcDbLine
 10
448.3887315500285
 20
842.6909108904483
 30
0.0
 11
448.3887315500285
 21
862.6909108904483
 31
0.0
  0
LINE
  5
8087
330
7EBC
100
AcDbEntity
  8
3
  6
Continuous
 62
     0
440
 16777216
370
    -2
100
AcDbLine
 10
448.3887315500285
 20
777.6909108904483
 30
0.0
 11
448.3887315500285
 21
689.1194823190196
 31
0.0
  0
LINE
  5
8088
330
7EBC
100
AcDbEntity
  8
3
  6
Continuous
 62
     0
440
 16777216
370
    -2
100
AcDbLine
 10
448.3887315500285
 20
822.6909108904482
 30
0.0
 11
448.3887315500285
 21
797.6909108904483
 31
0.0
  0
INSERT
  5
8089
330
7EBC
100
AcDbEntity
  8
3
  6
Continuous
 62
     0
440
 16777216
370
    -2
100
AcDbBlockReference
  2
_DOT
 10
448.3887315500285
 20
822.6909108904482
 30
0.0
 41
20.0
 42
20.0
 43
20.0
 50
270.0
  0
INSERT
  5
808A
330
7EBC
100
AcDbEntity
  8
3
  6
Continuous
 62
     0
440
 16777216
370
    -2
100
AcDbBlockReference
  2
_OPEN
 10
448.3887315500285
 20
797.6909108904483
 30
0.0
 41
20.0
 42
20.0
 43
20.0
 50
90.0
  0
MTEXT
  5
808B
330
7EBC
100
AcDbEntity
  8
3
  6
Continuous
 62
     0
440
 16777216
100
AcDbMText
 10
423.3887315500284
 20
723.405196604734
 30
0.0
 40
30.0
 41
0.0
 46
0.0
 71
     5
 72
     1
  1
\A1;25
 11
0.0000000000000001
 21
1.0
 31
0.0
 73
     1
 44
1.0
  0
POINT
  5
808C
330
7EBC
100
AcDbEntity
  8
DEFPOINTS
  6
Continuous
 62
     0
440
 16777216
100
AcDbPoint
 10
572.4558310682819
 20
822.6909108904482
 30
0.0
  0
POINT
  5
808D
330
7EBC
100
AcDbEntity
  8
DEFPOINTS
  6
Continuous
 62
     0
440
 16777216
100
AcDbPoint
 10
572.4558310682819
 20
797.6909108904483
 30
0.0
  0
POINT
  5
808E
330
7EBC
100
AcDbEntity
  8
DEFPOINTS
  6
Continuous
 62
     0
440
 16777216
100
AcDbPoint
 10
448.3887315500285
 20
797.6909108904483
 30
0.0
  0
ENDBLK
  5
7EC9
330
7EBC
100
AcDbEntity
  8
0
100
AcDbBlockEnd
  0
BLOCK
  5
7ECC
330
7ECB
100
AcDbEntity
  8
0
100
AcDbBlockBegin
  2
*D19
 70
     1
 10
0.0
 20
0.0
 30
0.0
  3
*D19
  1

  0
LINE
  5
807B
330
7ECB
100
AcDbEntity
  8
3
  6
Continuous
 62
     0
440
 16777216
370
    -2
100
AcDbLine
 10
567.4558310682819
 20
822.6909108904482
 30
0.0
 11
438.3887315500285
 21
822.6909108904482
 31
0.0
  0
LINE
  5
807C
330
7ECB
100
AcDbEntity
  8
3
  6
Continuous
 62
     0
440
 16777216
370
    -2
100
AcDbLine
 10
592.4558310682818
 20
892.6909108904483
 30
0.0
 11
438.3887315500285
 21
892.6909108904483
 31
0.0
  0
LINE
  5
807D
330
7ECB
100
AcDbEntity
  8
3
  6
Continuous
 62
     0
440
 16777216
370
    -2
100
AcDbLine
 10
448.3887315500285
 20
842.6909108904483
 30
0.0
 11
448.3887315500285
 21
872.6909108904482
 31
0.0
  0
MTEXT
  5
807E
330
7ECB
100
AcDbEntity
  8
3
  6
Continuous
 62
     0
440
 16777216
100
AcDbMText
 10
411.001543276403
 20
861.0156307044089
 30
0.0
 40
30.0
 41
0.0
 46
0.0
 71
     5
 72
     1
  1
\A1;(70)
 11
0.0000000000000001
 21
1.0
 31
0.0
 73
     1
 44
1.0
  0
INSERT
  5
807F
330
7ECB
100
AcDbEntity
  8
3
  6
Continuous
 62
     0
440
 16777216
370
    -2
100
AcDbBlockReference
  2
_DOT
 10
448.3887315500285
 20
822.6909108904482
 30
0.0
 41
20.0
 42
20.0
 43
20.0
 50
270.0
  0
INSERT
  5
8080
330
7ECB
100
AcDbEntity
  8
3
  6
Continuous
 62
     0
440
 16777216
370
    -2
100
AcDbBlockReference
  2
_OPEN
 10
448.3887315500285
 20
892.6909108904483
 30
0.0
 41
20.0
 42
20.0
 43
20.0
 50
90.0
  0
POINT
  5
8081
330
7ECB
100
AcDbEntity
  8
DEFPOINTS
  6
Continuous
 62
     0
440
 16777216
100
AcDbPoint
 10
572.4558310682819
 20
822.6909108904482
 30
0.0
  0
POINT
  5
8082
330
7ECB
100
AcDbEntity
  8
DEFPOINTS
  6
Continuous
 62
     0
440
 16777216
100
AcDbPoint
 10
597.4558310682818
 20
892.6909108904483
 30
0.0
  0
POINT
  5
8083
330
7ECB
100
AcDbEntity
  8
DEFPOINTS
  6
Continuous
 62
     0
440
 16777216
100
AcDbPoint
 10
448.3887315500285
 20
892.6909108904483
 30
0.0
  0
ENDBLK
  5
7ED6
330
7ECB
100
AcDbEntity
  8
0
100
AcDbBlockEnd
  0
BLOCK
  5
80D7
330
80D6
100
AcDbEntity
  8
0
100
AcDbBlockBegin
  2
*D20
 70
     1
 10
0.0
 20
0.0
 30
0.0
  3
*D20
  1

  0
LINE
  5
817A
330
80D6
100
AcDbEntity
  8
3
  6
Continuous
 62
     0
440
 16777216
370
    -2
100
AcDbLine
 10
567.4558310682819
 20
797.6909108904483
 30
0.0
 11
351.8669582003822
 21
797.6909108904483
 31
0.0
  0
LINE
  5
817B
330
80D6
100
AcDbEntity
  8
3
  6
Continuous
 62
     0
440
 16777216
370
    -2
100
AcDbLine
 10
738.4558310682818
 20
1250.690910890448
 30
0.0
 11
351.8669582003823
 21
1250.690910890448
 31
0.0
  0
LINE
  5
817C
330
80D6
100
AcDbEntity
  8
3
  6
Continuous
 62
     0
440
 16777216
370
    -2
100
AcDbLine
 10
361.8669582003822
 20
817.6909108904483
 30
0.0
 11
361.8669582003823
 21
1230.690910890448
 31
0.0
  0
INSERT
  5
817D
330
80D6
100
AcDbEntity
  8
3
  6
Continuous
 62
     0
440
 16777216
370
    -2
100
AcDbBlockReference
  2
_OPEN
 10
361.8669582003822
 20
797.6909108904483
 30
0.0
 41
20.0
 42
20.0
 43
20.0
 50
270.0
  0
INSERT
  5
817E
330
80D6
100
AcDbEntity
  8
3
  6
Continuous
 62
     0
440
 16777216
370
    -2
100
AcDbBlockReference
  2
_OPEN
 10
361.8669582003823
 20
1250.690910890448
 30
0.0
 41
20.0
 42
20.0
 43
20.0
 50
90.0
  0
MTEXT
  5
817F
330
80D6
100
AcDbEntity
  8
3
  6
Continuous
 62
     0
440
 16777216
100
AcDbMText
 10
329.0098153432392
 20
1024.190910890448
 30
0.0
 40
30.0
 41
0.0
 46
0.0
 71
     5
 72
     1
  1
\A1;(453)
 11
0.0000000000000001
 21
1.0
 31
0.0
 73
     1
 44
1.0
  0
POINT
  5
8180
330
80D6
100
AcDbEntity
  8
DEFPOINTS
  6
Continuous
 62
     0
440
 16777216
100
AcDbPoint
 10
572.4558310682819
 20
797.6909108904483
 30
0.0
  0
POINT
  5
8181
330
80D6
100
AcDbEntity
  8
DEFPOINTS
  6
Continuous
 62
     0
440
 16777216
100
AcDbPoint
 10
743.4558310682818
 20
1250.690910890448
 30
0.0
  0
POINT
  5
8182
330
80D6
100
AcDbEntity
  8
DEFPOINTS
  6
Continuous
 62
     0
440
 16777216
100
AcDbPoint
 10
361.8669582003823
 20
1250.690910890448
 30
0.0
  0
ENDBLK
  5
80D8
330
80D6
100
AcDbEntity
  8
0
100
AcDbBlockEnd
  0
ENDSEC
  0
SECTION
  2
ENTITIES
  0
LINE
  5
7A88
330
19
100
AcDbEntity
  8
1
  6
Continuous
100
AcDbLine
 10
877.4558310682818
 20
2058.932298091249
 30
0.0
 11
1182.455831068281
 21
2058.932298091249
 31
0.0
  0
LINE
  5
7A89
330
19
100
AcDbEntity
  8
1
  6
Continuous
100
AcDbLine
 10
635.1558310682818
 20
1837.932298091249
 30
0.0
 11
1115.155831068282
 21
1837.932298091249
 31
0.0
  0
LINE
  5
7A8A
330
19
100
AcDbEntity
  8
1
  6
Continuous
100
AcDbLine
 10
635.1558310682818
 20
1762.932298091248
 30
0.0
 11
1115.155831068282
 21
1762.932298091248
 31
0.0
  0
LINE
  5
7A8B
330
19
100
AcDbEntity
  8
1
  6
Continuous
100
AcDbLine
 10
1182.455831068281
 20
1834.932298091248
 30
0.0
 11
1027.455831068281
 21
1834.932298091248
 31
0.0
  0
LINE
  5
7A8C
330
19
100
AcDbEntity
  8
1
  6
Continuous
100
AcDbLine
 10
635.1558310682818
 20
1222.690910890448
 30
0.0
 11
1115.155831068282
 21
1222.690910890448
 31
0.0
  0
LINE
  5
7A8D
330
19
100
AcDbEntity
  8
1
  6
Continuous
100
AcDbLine
 10
1157.455831068281
 20
942.6909108904483
 30
0.0
 11
597.4558310682818
 21
942.6909108904483
 31
0.0
  0
LINE
  5
7A8E
330
19
100
AcDbEntity
  8
1
  6
Continuous
100
AcDbLine
 10
1157.455831068281
 20
892.6909108904483
 30
0.0
 11
597.4558310682818
 21
892.6909108904483
 31
0.0
  0
LINE
  5
7A8F
330
19
100
AcDbEntity
  8
1
  6
Continuous
100
AcDbLine
 10
1157.455831068281
 20
962.6909108904483
 30
0.0
 11
906.4558310682818
 21
962.6909108904483
 31
0.0
  0
LINE
  5
7A90
330
19
100
AcDbEntity
  8
1
  6
Continuous
100
AcDbLine
 10
1182.455831068281
 20
797.6909108904483
 30
0.0
 11
572.4558310682819
 21
797.6909108904483
 31
0.0
  0
LINE
  5
7A91
330
19
100
AcDbEntity
  8
1
  6
Continuous
100
AcDbLine
 10
1182.455831068281
 20
822.6909108904482
 30
0.0
 11
572.4558310682819
 21
822.6909108904482
 31
0.0
  0
CIRCLE
  5
7A92
330
19
100
AcDbEntity
  8
1
  6
Continuous
100
AcDbCircle
 10
732.4558310682817
 20
1127.690910890448
 30
0.0
 40
80.0
  0
CIRCLE
  5
7A93
330
19
100
AcDbEntity
  8
1
  6
Continuous
100
AcDbCircle
 10
732.4558310682817
 20
1127.690910890448
 30
0.0
 40
100.0
  0
LINE
  5
7A94
330
19
100
AcDbEntity
  8
1
  6
Continuous
100
AcDbLine
 10
617.4558310682818
 20
956.6909108904482
 30
0.0
 11
719.4558310682817
 21
956.6909108904482
 31
0.0
  0
ARC
  5
7A95
330
19
100
AcDbEntity
  8
1
  6
Continuous
100
AcDbCircle
 10
741.4558310682817
 20
1136.690910890448
 30
0.0
 40
114.0
100
AcDbArc
 50
89.50000000000001
 51
179.5
  0
LINE
  5
7A96
330
19
100
AcDbEntity
  8
1
  6
Continuous
100
AcDbLine
 10
842.4558310682817
 20
1094.390910890448
 30
0.0
 11
622.4558310682818
 21
1094.390910890448
 31
0.0
  0
LINE
  5
7A97
330
19
100
AcDbEntity
  8
1
  6
Continuous
100
AcDbLine
 10
622.4558310682818
 20
1169.790910890448
 30
0.0
 11
695.8558310682818
 21
1232.690910890448
 31
0.0
  0
LINE
  5
7A98
330
19
100
AcDbEntity
  8
1
  6
Continuous
100
AcDbLine
 10
602.4558310682817
 20
945.6909108904483
 30
0.0
 11
602.4558310682817
 21
1149.690910890448
 31
0.0
  0
LINE
  5
7A99
330
19
100
AcDbEntity
  8
1
  6
Continuous
100
AcDbLine
 10
617.4558310682818
 20
981.6909108904482
 30
0.0
 11
617.4558310682818
 21
1113.690910890448
 31
0.0
  0
LINE
  5
7A9A
330
19
100
AcDbEntity
  8
1
  6
Continuous
100
AcDbLine
 10
622.4558310682818
 20
942.6909108904483
 30
0.0
 11
622.4558310682818
 21
1169.790910890448
 31
0.0
  0
LINE
  5
7A9B
330
19
100
AcDbEntity
  8
1
  6
Continuous
100
AcDbLine
 10
635.1558310682818
 20
942.6909108904483
 30
0.0
 11
635.1558310682818
 21
1222.690910890448
 31
0.0
  0
LINE
  5
7A9C
330
19
100
AcDbEntity
  8
1
  6
Continuous
100
AcDbLine
 10
617.4558310682818
 20
967.6909108904483
 30
0.0
 11
602.4558310682817
 21
967.6909108904483
 31
0.0
  0
LINE
  5
7A9D
330
19
100
AcDbEntity
  8
1
  6
Continuous
100
AcDbLine
 10
617.4558310682818
 20
956.6909108904482
 30
0.0
 11
617.4558310682818
 21
967.6909108904483
 31
0.0
  0
LINE
  5
7A9E
330
19
100
AcDbEntity
  8
1
  6
Continuous
100
AcDbLine
 10
602.4558310682817
 20
966.6909108904484
 30
0.0
 11
617.4558310682818
 21
981.6909108904482
 31
0.0
  0
LINE
  5
7A9F
330
19
100
AcDbEntity
  8
1
  6
Continuous
100
AcDbLine
 10
597.4558310682818
 20
892.6909108904483
 30
0.0
 11
597.4558310682818
 21
942.6909108904483
 31
0.0
  0
LINE
  5
7AA0
330
19
100
AcDbEntity
  8
1
  6
Continuous
100
AcDbLine
 10
572.4558310682819
 20
797.6909108904483
 30
0.0
 11
572.4558310682819
 21
822.6909108904482
 31
0.0
  0
LINE
  5
7AA1
330
19
100
AcDbEntity
  8
1
  6
Continuous
100
AcDbLine
 10
602.4558310682817
 20
1127.690910890448
 30
0.0
 11
617.4558310682818
 21
1127.690910890448
 31
0.0
  0
LINE
  5
7AA2
330
19
100
AcDbEntity
  8
1
  6
Continuous
100
AcDbLine
 10
617.4558310682818
 20
1127.690910890448
 30
0.0
 11
617.4558310682818
 21
1137.690910890448
 31
0.0
  0
LINE
  5
7AA3
330
19
100
AcDbEntity
  8
1
  6
Continuous
100
AcDbLine
 10
617.4558310682818
 20
1137.690910890448
 30
0.0
 11
627.4558310682817
 21
1137.690910890448
 31
0.0
  0
LINE
  5
7AA4
330
19
100
AcDbEntity
  8
1
  6
Continuous
100
AcDbLine
 10
602.4558310682817
 20
1128.690910890448
 30
0.0
 11
617.4558310682818
 21
1113.690910890448
 31
0.0
  0
LINE
  5
7AA5
330
19
100
AcDbEntity
  8
1
  6
Continuous
100
AcDbLine
 10
1095.455831068282
 20
970.6909108904483
 30
0.0
 11
1087.255831068281
 21
993.4909108904482
 31
0.0
  0
LINE
  5
7AA6
330
19
100
AcDbEntity
  8
1
  6
Continuous
100
AcDbLine
 10
940.4558310682817
 20
970.6909108904483
 30
0.0
 11
948.6558310682816
 21
993.4909108904482
 31
0.0
  0
ARC
  5
7AA7
330
19
100
AcDbEntity
  8
1
  6
Continuous
100
AcDbCircle
 10
719.4558310682817
 20
1114.690910890448
 30
0.0
 40
158.0
100
AcDbArc
 50
270.0
 51
9.099999999999999
  0
LINE
  5
7AA8
330
19
100
AcDbEntity
  8
1
  6
Continuous
100
AcDbLine
 10
842.4558310682817
 20
1169.790910890448
 30
0.0
 11
842.4558310682817
 21
942.6909108904483
 31
0.0
  0
ARC
  5
7AA9
330
19
100
AcDbEntity
  8
1
  6
Continuous
100
AcDbCircle
 10
1017.955831068281
 20
1042.690910890448
 30
0.0
 40
85.0
100
AcDbArc
 50
324.7
 51
215.3
  0
LINE
  5
7AAA
330
19
100
AcDbEntity
  8
1
  6
Continuous
100
AcDbLine
 10
940.4558310682817
 20
962.6909108904483
 30
0.0
 11
940.4558310682817
 21
970.6909108904483
 31
0.0
  0
LINE
  5
7AAB
330
19
100
AcDbEntity
  8
1
  6
Continuous
100
AcDbLine
 10
906.4558310682818
 20
962.6909108904483
 30
0.0
 11
906.4558310682818
 21
942.6909108904483
 31
0.0
  0
LINE
  5
7AAC
330
19
100
AcDbEntity
  8
1
  6
Continuous
100
AcDbLine
 10
1095.455831068282
 20
962.6909108904483
 30
0.0
 11
1095.455831068282
 21
970.6909108904483
 31
0.0
  0
LINE
  5
7AAD
330
19
100
AcDbEntity
  8
1
  6
Continuous
100
AcDbLine
 10
1029.055831068282
 20
1075.890910890448
 30
0.0
 11
746.7558310682818
 21
1170.390910890448
 31
0.0
  0
ARC
  5
7AAE
330
19
100
AcDbEntity
  8
1
  6
Continuous
100
AcDbCircle
 10
743.4558310682818
 20
1116.690910890448
 30
0.0
 40
134.0
100
AcDbArc
 50
9.9
 51
90.5
  0
LINE
  5
7AAF
330
19
100
AcDbEntity
  8
1
  6
Continuous
100
AcDbLine
 10
1009.055831068282
 20
1008.790910890448
 30
0.0
 11
721.0558310682817
 21
1084.190910890448
 31
0.0
  0
LINE
  5
7AB0
330
19
100
AcDbEntity
  8
1
  6
Continuous
100
AcDbLine
 10
842.4558310682817
 20
1169.790910890448
 30
0.0
 11
769.0558310682818
 21
1232.690910890448
 31
0.0
  0
CIRCLE
  5
7AB1
330
19
100
AcDbEntity
  8
1
  6
Continuous
100
AcDbCircle
 10
732.4558310682817
 20
1127.690910890448
 30
0.0
 40
45.0
  0
LINE
  5
7AB2
330
19
100
AcDbEntity
  8
2
  6
CENTER
100
AcDbLine
 10
732.4558310682818
 20
797.6909108904483
 30
0.0
 11
732.4558310682817
 21
1320.171309890448
 31
0.0
  0
LINE
  5
7AB3
330
19
100
AcDbEntity
  8
2
  6
CENTER
100
AcDbLine
 10
1764.658913930849
 20
1127.690910890448
 30
0.0
 11
1347.417151930849
 21
1127.690910890448
 31
0.0
  0
LINE
  5
7AB4
330
19
100
AcDbEntity
  8
1
  6
Continuous
100
AcDbLine
 10
695.8558310682818
 20
1232.690910890448
 30
0.0
 11
769.0558310682818
 21
1232.690910890448
 31
0.0
  0
LINE
  5
7AB5
330
19
100
AcDbEntity
  8
2
  6
CENTER
100
AcDbLine
 10
1052.955831068281
 20
1042.690910890448
 30
0.0
 11
982.9558310682816
 21
1042.690910890448
 31
0.0
  0
CIRCLE
  5
7AB6
330
19
100
AcDbEntity
  8
1
  6
Continuous
100
AcDbCircle
 10
1017.955831068281
 20
1042.690910890448
 30
0.0
 40
35.0
  0
LINE
  5
7AB7
330
19
100
AcDbEntity
  8
2
  6
CENTER
100
AcDbLine
 10
1017.955831068281
 20
1007.690910890448
 30
0.0
 11
1017.955831068281
 21
1077.690910890448
 31
0.0
  0
LINE
  5
7AB8
330
19
100
AcDbEntity
  8
1
  6
Continuous
100
AcDbLine
 10
720.4558310682817
 20
1834.932298091248
 30
0.0
 11
572.4558310682818
 21
1834.932298091248
 31
0.0
  0
LINE
  5
7AB9
330
19
100
AcDbEntity
  8
1
  6
Continuous
100
AcDbLine
 10
622.4558310682818
 20
1959.332298091248
 30
0.0
 11
842.4558310682817
 21
1959.332298091248
 31
0.0
  0
LINE
  5
7ABA
330
19
100
AcDbEntity
  8
1
  6
Continuous
100
AcDbLine
 10
869.4558310682818
 20
2078.932298091249
 30
0.0
 11
602.4558310682817
 21
2078.932298091249
 31
0.0
  0
LINE
  5
7ABB
330
19
100
AcDbEntity
  8
1
  6
Continuous
100
AcDbLine
 10
869.4558310682818
 20
1966.932298091249
 30
0.0
 11
602.4558310682817
 21
1966.932298091249
 31
0.0
  0
LINE
  5
7ABC
330
19
100
AcDbEntity
  8
1
  6
Continuous
100
AcDbLine
 10
632.4558310682817
 20
2086.932298091249
 30
0.0
 11
832.4558310682817
 21
2086.932298091249
 31
0.0
  0
LINE
  5
7ABD
330
19
100
AcDbEntity
  8
1
  6
Continuous
100
AcDbLine
 10
602.4558310682817
 20
2099.932298091249
 30
0.0
 11
602.4558310682817
 21
1945.932298091248
 31
0.0
  0
LINE
  5
7ABE
330
19
100
AcDbEntity
  8
1
  6
Continuous
100
AcDbLine
 10
617.4558310682818
 20
2064.932298091249
 30
0.0
 11
617.4558310682818
 21
1980.932298091248
 31
0.0
  0
LINE
  5
7ABF
330
19
100
AcDbEntity
  8
1
  6
Continuous
100
AcDbLine
 10
572.4558310682818
 20
1834.932298091248
 30
0.0
 11
572.4558310682818
 21
2058.932298091249
 31
0.0
  0
LINE
  5
7AC0
330
19
100
AcDbEntity
  8
1
  6
Continuous
100
AcDbLine
 10
622.4558310682818
 20
1834.932298091248
 30
0.0
 11
622.4558310682818
 21
1959.332298091248
 31
0.0
  0
LINE
  5
7AC1
330
19
100
AcDbEntity
  8
1
  6
Continuous
100
AcDbLine
 10
632.4558310682817
 20
1959.332298091248
 30
0.0
 11
632.4558310682817
 21
1966.932298091249
 31
0.0
  0
LINE
  5
7AC2
330
19
100
AcDbEntity
  8
1
  6
Continuous
100
AcDbLine
 10
602.4558310682817
 20
1965.932298091249
 30
0.0
 11
617.4558310682818
 21
1980.932298091248
 31
0.0
  0
LINE
  5
7AC3
330
19
100
AcDbEntity
  8
1
  6
Continuous
100
AcDbLine
 10
635.1558310682818
 20
1762.932298091248
 30
0.0
 11
635.1558310682818
 21
1837.932298091249
 31
0.0
  0
LINE
  5
7AC4
330
19
100
AcDbEntity
  8
1
  6
Continuous
100
AcDbLine
 10
572.4558310682818
 20
2058.932298091249
 30
0.0
 11
602.4558310682817
 21
2058.932298091249
 31
0.0
  0
LINE
  5
7AC5
330
19
100
AcDbEntity
  8
1
  6
Continuous
100
AcDbLine
 10
632.4558310682817
 20
2086.932298091249
 30
0.0
 11
632.4558310682817
 21
2078.932298091249
 31
0.0
  0
LINE
  5
7AC6
330
19
100
AcDbEntity
  8
1
  6
Continuous
100
AcDbLine
 10
602.4558310682817
 20
2079.932298091249
 30
0.0
 11
617.4558310682818
 21
2064.932298091249
 31
0.0
  0
LINE
  5
7AC7
330
19
100
AcDbEntity
  8
1
  6
Continuous
100
AcDbLine
 10
877.4558310682818
 20
2070.932298091249
 30
0.0
 11
877.4558310682818
 21
1974.932298091249
 31
0.0
  0
LINE
  5
7AC8
330
19
100
AcDbEntity
  8
1
  6
Continuous
100
AcDbLine
 10
1008.455831068282
 20
1834.932298091248
 30
0.0
 11
744.4558310682817
 21
1834.932298091248
 31
0.0
  0
LINE
  5
7AC9
330
19
100
AcDbEntity
  8
1
  6
Continuous
100
AcDbLine
 10
687.4558310682817
 20
1818.832298091249
 30
0.0
 11
777.4558310682817
 21
1818.832298091249
 31
0.0
  0
LINE
  5
7ACA
330
19
100
AcDbEntity
  8
1
  6
Continuous
100
AcDbLine
 10
687.4558310682817
 20
1783.832298091249
 30
0.0
 11
777.4558310682817
 21
1783.832298091249
 31
0.0
  0
LINE
  5
7ACB
330
19
100
AcDbEntity
  8
1
  6
Continuous
100
AcDbLine
 10
687.4558310682817
 20
1818.832298091249
 30
0.0
 11
687.4558310682817
 21
1783.832298091249
 31
0.0
  0
LINE
  5
7ACC
330
19
100
AcDbEntity
  8
1
  6
Continuous
100
AcDbLine
 10
777.4558310682817
 20
1818.832298091249
 30
0.0
 11
777.4558310682817
 21
1783.832298091249
 31
0.0
  0
LINE
  5
7ACD
330
19
100
AcDbEntity
  8
1
  6
Continuous
100
AcDbLine
 10
720.4558310682817
 20
1959.332298091248
 30
0.0
 11
720.4558310682817
 21
1818.832298091249
 31
0.0
  0
LINE
  5
7ACE
330
19
100
AcDbEntity
  8
1
  6
Continuous
100
AcDbLine
 10
744.4558310682817
 20
1959.332298091248
 30
0.0
 11
744.4558310682817
 21
1818.832298091249
 31
0.0
  0
LINE
  5
7ACF
330
19
100
AcDbEntity
  8
1
  6
Continuous
100
AcDbLine
 10
842.4558310682817
 20
1959.332298091248
 30
0.0
 11
842.4558310682817
 21
1834.932298091248
 31
0.0
  0
LINE
  5
7AD0
330
19
100
AcDbEntity
  8
1
  6
Continuous
100
AcDbLine
 10
832.4558310682817
 20
1959.332298091248
 30
0.0
 11
832.4558310682817
 21
1966.932298091249
 31
0.0
  0
ARC
  5
7AD1
330
19
100
AcDbEntity
  8
1
  6
Continuous
100
AcDbCircle
 10
869.4558310682818
 20
1974.932298091249
 30
0.0
 40
8.0
100
AcDbArc
 50
270.0
 51
0.0
  0
LINE
  5
7AD2
330
19
100
AcDbEntity
  8
1
  6
Continuous
100
AcDbLine
 10
932.9558310682818
 20
2039.432298091249
 30
0.0
 11
1102.955831068281
 21
2039.432298091249
 31
0.0
  0
LINE
  5
7AD3
330
19
100
AcDbEntity
  8
1
  6
Continuous
100
AcDbLine
 10
932.9558310682818
 20
1848.632298091249
 30
0.0
 11
1102.955831068281
 21
1848.632298091249
 31
0.0
  0
LINE
  5
7AD4
330
19
100
AcDbEntity
  8
1
  6
Continuous
100
AcDbLine
 10
982.9558310682816
 20
1783.832298091249
 30
0.0
 11
1052.955831068281
 21
1783.832298091249
 31
0.0
  0
LINE
  5
7AD5
330
19
100
AcDbEntity
  8
1
  6
Continuous
100
AcDbLine
 10
982.9558310682816
 20
1818.832298091249
 30
0.0
 11
1052.955831068281
 21
1818.832298091249
 31
0.0
  0
LINE
  5
7AD6
330
19
100
AcDbEntity
  8
1
  6
Continuous
100
AcDbLine
 10
932.9558310682818
 20
1848.632298091249
 30
0.0
 11
932.9558310682818
 21
2039.432298091249
 31
0.0
  0
LINE
  5
7AD7
330
19
100
AcDbEntity
  8
1
  6
Continuous
100
AcDbLine
 10
982.9558310682816
 20
1818.832298091249
 30
0.0
 11
982.9558310682816
 21
1783.832298091249
 31
0.0
  0
LINE
  5
7AD8
330
19
100
AcDbEntity
  8
1
  6
Continuous
100
AcDbLine
 10
1102.955831068281
 20
1848.632298091249
 30
0.0
 11
1102.955831068281
 21
2039.432298091249
 31
0.0
  0
LINE
  5
7AD9
330
19
100
AcDbEntity
  8
1
  6
Continuous
100
AcDbLine
 10
1052.955831068281
 20
1818.832298091249
 30
0.0
 11
1052.955831068281
 21
1783.832298091249
 31
0.0
  0
LINE
  5
7ADA
330
19
100
AcDbEntity
  8
1
  6
Continuous
100
AcDbLine
 10
1027.455831068281
 20
1818.832298091249
 30
0.0
 11
1027.455831068281
 21
1848.632298091249
 31
0.0
  0
LINE
  5
7ADB
330
19
100
AcDbEntity
  8
1
  6
Continuous
100
AcDbLine
 10
1008.455831068282
 20
1818.832298091249
 30
0.0
 11
1008.455831068282
 21
1848.632298091249
 31
0.0
  0
LINE
  5
7ADC
330
19
100
AcDbEntity
  8
1
  6
Continuous
100
AcDbLine
 10
832.4558310682817
 20
2086.932298091249
 30
0.0
 11
832.4558310682817
 21
2078.932298091249
 31
0.0
  0
ARC
  5
7ADD
330
19
100
AcDbEntity
  8
1
  6
Continuous
100
AcDbCircle
 10
869.4558310682818
 20
2070.932298091249
 30
0.0
 40
8.0
100
AcDbArc
 50
0.0
 51
90.0
  0
LINE
  5
7ADE
330
19
100
AcDbEntity
  8
1
  6
Continuous
100
AcDbLine
 10
1115.155831068282
 20
1222.690910890448
 30
0.0
 11
1115.155831068282
 21
942.6909108904483
 31
0.0
  0
LINE
  5
7ADF
330
19
100
AcDbEntity
  8
1
  6
Continuous
100
AcDbLine
 10
1157.455831068281
 20
962.6909108904483
 30
0.0
 11
1157.455831068281
 21
892.6909108904483
 31
0.0
  0
LINE
  5
7AE0
330
19
100
AcDbEntity
  8
1
  6
Continuous
100
AcDbLine
 10
1182.455831068281
 20
822.6909108904482
 30
0.0
 11
1182.455831068281
 21
797.6909108904483
 31
0.0
  0
LINE
  5
7AE1
330
19
100
AcDbEntity
  8
1
  6
Continuous
100
AcDbLine
 10
1182.455831068281
 20
2058.932298091249
 30
0.0
 11
1182.455831068281
 21
1834.932298091248
 31
0.0
  0
LINE
  5
7AE2
330
19
100
AcDbEntity
  8
1
  6
Continuous
100
AcDbLine
 10
1115.155831068282
 20
1837.932298091249
 30
0.0
 11
1115.155831068282
 21
1762.932298091248
 31
0.0
  0
LINE
  5
7AE3
330
19
100
AcDbEntity
  8
1
  6
Continuous
100
AcDbLine
 10
1492.688744930849
 20
942.6909108904483
 30
0.0
 11
1492.688744930849
 21
1222.690910890448
 31
0.0
  0
LINE
  5
7AE4
330
19
100
AcDbEntity
  8
1
  6
Continuous
100
AcDbLine
 10
1417.688744930849
 20
942.6909108904483
 30
0.0
 11
1417.688744930849
 21
1222.690910890448
 31
0.0
  0
LINE
  5
7AE5
330
19
100
AcDbEntity
  8
1
  6
Continuous
100
AcDbLine
 10
1614.088744930849
 20
1227.690910890448
 30
0.0
 11
1614.088744930849
 21
942.6909108904483
 31
0.0
  0
LINE
  5
7AE6
330
19
100
AcDbEntity
  8
1
  6
Continuous
100
AcDbLine
 10
1733.688744930849
 20
1238.690910890448
 30
0.0
 11
1733.688744930849
 21
967.6909108904483
 31
0.0
  0
LINE
  5
7AE7
330
19
100
AcDbEntity
  8
1
  6
Continuous
100
AcDbLine
 10
1621.688744930849
 20
967.6909108904483
 30
0.0
 11
1621.688744930849
 21
1238.690910890448
 31
0.0
  0
LINE
  5
7AEA
330
19
100
AcDbEntity
  8
1
  6
Continuous
100
AcDbLine
 10
1514.688744930849
 20
1094.390910890448
 30
0.0
 11
1514.688744930849
 21
942.6909108904483
 31
0.0
  0
LINE
  5
7AEB
330
19
100
AcDbEntity
  8
1
  6
Continuous
100
AcDbLine
 10
1489.688744930849
 20
797.6909108904483
 30
0.0
 11
1713.688744930849
 21
797.6909108904483
 31
0.0
  0
LINE
  5
7AEC
330
19
100
AcDbEntity
  8
1
  6
Continuous
100
AcDbLine
 10
1489.688744930849
 20
822.6909108904482
 30
0.0
 11
1713.688744930849
 21
822.6909108904482
 31
0.0
  0
LINE
  5
7AED
330
19
100
AcDbEntity
  8
1
  6
Continuous
100
AcDbLine
 10
1489.688744930849
 20
892.6909108904483
 30
0.0
 11
1713.688744930849
 21
892.6909108904483
 31
0.0
  0
LINE
  5
7AEE
330
19
100
AcDbEntity
  8
1
  6
Continuous
100
AcDbLine
 10
1417.688744930849
 20
942.6909108904483
 30
0.0
 11
1713.688744930849
 21
942.6909108904483
 31
0.0
  0
LINE
  5
7AF3
330
19
100
AcDbEntity
  8
1
  6
Continuous
100
AcDbLine
 10
1489.688744930849
 20
822.6909108904482
 30
0.0
 11
1489.688744930849
 21
797.6909108904483
 31
0.0
  0
LINE
  5
7AF4
330
19
100
AcDbEntity
  8
1
  6
Continuous
100
AcDbLine
 10
1489.688744930849
 20
942.6909108904483
 30
0.0
 11
1489.688744930849
 21
892.6909108904483
 31
0.0
  0
LINE
  5
7AF5
330
19
100
AcDbEntity
  8
1
  6
Continuous
100
AcDbLine
 10
1733.688744930849
 20
967.6909108904483
 30
0.0
 11
1621.688744930849
 21
967.6909108904483
 31
0.0
  0
LINE
  5
7AF6
330
19
100
AcDbEntity
  8
1
  6
Continuous
100
AcDbLine
 10
1713.688744930849
 20
822.6909108904482
 30
0.0
 11
1713.688744930849
 21
797.6909108904483
 31
0.0
  0
LINE
  5
7AF7
330
19
100
AcDbEntity
  8
1
  6
Continuous
100
AcDbLine
 10
1713.688744930849
 20
942.6909108904483
 30
0.0
 11
1713.688744930849
 21
892.6909108904483
 31
0.0
  0
LINE
  5
7AF8
330
19
100
AcDbEntity
  8
1
  6
Continuous
100
AcDbLine
 10
1542.788744930849
 20
1115.690910890448
 30
0.0
 11
1472.688744930849
 21
1115.690910890448
 31
0.0
  0
LINE
  5
7AF9
330
19
100
AcDbEntity
  8
1
  6
Continuous
100
AcDbLine
 10
1574.388744930849
 20
1139.690910890448
 30
0.0
 11
1472.688744930849
 21
1139.690910890448
 31
0.0
  0
LINE
  5
7AFA
330
19
100
AcDbEntity
  8
1
  6
Continuous
100
AcDbLine
 10
1614.088744930849
 20
1169.790910890448
 30
0.0
 11
1514.688744930849
 21
1094.390910890448
 31
0.0
  0
LINE
  5
7AFB
330
19
100
AcDbEntity
  8
1
  6
Continuous
100
AcDbLine
 10
1492.688744930849
 20
1222.690910890448
 30
0.0
 11
1417.688744930849
 21
1222.690910890448
 31
0.0
  0
LINE
  5
7AFC
330
19
100
AcDbEntity
  8
1
  6
Continuous
100
AcDbLine
 10
1472.688744930849
 20
1082.690910890448
 30
0.0
 11
1472.688744930849
 21
1172.690910890448
 31
0.0
  0
LINE
  5
7AFD
330
19
100
AcDbEntity
  8
1
  6
Continuous
100
AcDbLine
 10
1437.688744930849
 20
1082.690910890448
 30
0.0
 11
1437.688744930849
 21
1172.690910890448
 31
0.0
  0
LINE
  5
7AFE
330
19
100
AcDbEntity
  8
1
  6
Continuous
100
AcDbLine
 10
1472.688744930849
 20
1082.690910890448
 30
0.0
 11
1437.688744930849
 21
1082.690910890448
 31
0.0
  0
LINE
  5
7AFF
330
19
100
AcDbEntity
  8
1
  6
Continuous
100
AcDbLine
 10
1472.688744930849
 20
1172.690910890448
 30
0.0
 11
1437.688744930849
 21
1172.690910890448
 31
0.0
  0
LINE
  5
7B00
330
19
100
AcDbEntity
  8
1
  6
Continuous
100
AcDbLine
 10
1472.688744930849
 20
1077.690910890448
 30
0.0
 11
1437.688744930849
 21
1077.690910890448
 31
0.0
  0
LINE
  5
7B01
330
19
100
AcDbEntity
  8
1
  6
Continuous
100
AcDbLine
 10
1472.688744930849
 20
1007.690910890448
 30
0.0
 11
1437.688744930849
 21
1007.690910890448
 31
0.0
  0
LINE
  5
7B02
330
19
100
AcDbEntity
  8
1
  6
Continuous
100
AcDbLine
 10
1472.688744930849
 20
1052.190910890448
 30
0.0
 11
1514.688744930849
 21
1052.190910890448
 31
0.0
  0
LINE
  5
7B03
330
19
100
AcDbEntity
  8
1
  6
Continuous
100
AcDbLine
 10
1472.688744930849
 20
1033.190910890448
 30
0.0
 11
1514.688744930849
 21
1033.190910890448
 31
0.0
  0
LINE
  5
7B04
330
19
100
AcDbEntity
  8
1
  6
Continuous
100
AcDbLine
 10
1437.688744930849
 20
1007.690910890448
 30
0.0
 11
1437.688744930849
 21
1077.690910890448
 31
0.0
  0
LINE
  5
7B05
330
19
100
AcDbEntity
  8
1
  6
Continuous
100
AcDbLine
 10
1472.688744930849
 20
1007.690910890448
 30
0.0
 11
1472.688744930849
 21
1077.690910890448
 31
0.0
  0
LINE
  5
7B06
330
19
100
AcDbEntity
  8
1
  6
Continuous
100
AcDbLine
 10
1633.688744930849
 20
1250.690910890448
 30
0.0
 11
1721.688744930849
 21
1250.690910890448
 31
0.0
  0
LINE
  5
7B08
330
19
100
AcDbEntity
  8
1
  6
Continuous
100
AcDbLine
 10
1614.088744930849
 20
1227.690910890448
 30
0.0
 11
1622.088744930849
 21
1227.690910890448
 31
0.0
  0
ARC
  5
7B09
330
19
100
AcDbEntity
  8
1
  6
Continuous
100
AcDbCircle
 10
1633.688744930849
 20
1238.690910890448
 30
0.0
 40
12.0
100
AcDbArc
 50
90.0
 51
180.0
  0
LINE
  5
7B0A
330
19
100
AcDbEntity
  8
1
  6
Continuous
100
AcDbLine
 10
1614.088744930849
 20
1027.690910890448
 30
0.0
 11
1622.088744930849
 21
1027.690910890448
 31
0.0
  0
LINE
  5
7B0B
330
19
100
AcDbEntity
  8
1
  6
Continuous
100
AcDbLine
 10
1741.688744930849
 20
1227.690910890448
 30
0.0
 11
1733.288744930849
 21
1227.690910890448
 31
0.0
  0
ARC
  5
7B0C
330
19
100
AcDbEntity
  8
1
  6
Continuous
100
AcDbCircle
 10
1721.688744930849
 20
1238.690910890448
 30
0.0
 40
12.0
100
AcDbArc
 50
0.0
 51
90.0
  0
LINE
  5
7B0D
330
19
100
AcDbEntity
  8
1
  6
Continuous
100
AcDbLine
 10
1741.688744930849
 20
1027.690910890448
 30
0.0
 11
1733.288744930849
 21
1027.690910890448
 31
0.0
  0
LINE
  5
7B0E
330
19
100
AcDbEntity
  8
1
  6
Continuous
100
AcDbLine
 10
1741.688744930849
 20
1027.690910890448
 30
0.0
 11
1741.688744930849
 21
1227.690910890448
 31
0.0
  0
LINE
  5
7B0F
330
19
100
AcDbEntity
  8
2
  6
CENTER
100
AcDbLine
 10
1213.108334068282
 20
1127.690910890448
 30
0.0
 11
530.6368930682817
 21
1127.690910890448
 31
0.0
  0
LINE
  5
7B10
330
19
100
AcDbEntity
  8
2
  6
CENTER
100
AcDbLine
 10
1224.881463068281
 20
1946.932298091249
 30
0.0
 11
526.0975840682817
 21
1946.932298091249
 31
0.0
  0
LINE
  5
7B11
330
19
100
AcDbEntity
  8
2
  6
CENTER
100
AcDbLine
 10
732.4558310682817
 20
1747.896976091249
 30
0.0
 11
732.4558310682817
 21
2124.041113091249
 31
0.0
  0
LINE
  5
7B12
330
19
100
AcDbEntity
  8
2
  6
CENTER
100
AcDbLine
 10
1677.688744930849
 20
797.6909108904483
 30
0.0
 11
1677.688744930849
 21
1270.791830890448
 31
0.0
  0
LINE
  5
7B15
330
19
100
AcDbEntity
  8
3
  6
Continuous
100
AcDbLine
 10
1741.688744930849
 20
1127.690910890448
 30
0.0
 11
1741.688744930849
 21
1207.690910890448
 31
0.0
  0
LINE
  5
7B16
330
19
100
AcDbEntity
  8
3
  6
Continuous
100
AcDbLine
 10
1741.688744930849
 20
1207.690910890448
 30
0.0
 11
1762.342950930849
 21
1207.690910890448
 31
0.0
  0
LINE
  5
7B17
330
19
100
AcDbEntity
  8
3
  6
Continuous
100
AcDbLine
 10
1741.688744930849
 20
1127.690910890448
 30
0.0
 11
1741.688744930849
 21
1047.690910890448
 31
0.0
  0
LINE
  5
7B18
330
19
100
AcDbEntity
  8
3
  6
Continuous
100
AcDbLine
 10
1741.688744930849
 20
1047.690910890448
 30
0.0
 11
1755.307993930849
 21
1047.690910890448
 31
0.0
  0
DIMENSION
  5
7B2C
330
19
100
AcDbEntity
  8
3
  6
Continuous
100
AcDbDimension
280
     0
  2
*D1
 10
1810.553082930849
 20
1047.690910890448
 30
0.0
 11
1788.242925988925
 21
1127.690910890448
 31
0.0
 12
0.0
 22
-22.42778790875127
 32
0.0
 70
   160
 71
     5
 42
-1.0
 73
     0
 74
     0
 75
     0
  3
IGA
100
AcDbAlignedDimension
 13
1741.688744930849
 23
1207.690910890448
 33
0.0
 14
1741.688744930849
 24
1047.690910890448
 34
0.0
 50
90.0
100
AcDbRotatedDimension
1001
ACAD
1000
DSTYLE
1002
{
1070
   288
1070
     1
1070
   172
1070
     1
1070
    40
1040
10.0
1070
     3
1000
φ<>
1070
   271
1070
     0
1070
   143
1040
0.039
1002
}
  0
DIMENSION
  5
7B3A
330
19
100
AcDbEntity
  8
3
  6
Continuous
100
AcDbDimension
280
     0
  2
*D2
 10
1677.688744930849
 20
725.9162598904482
 30
0.0
 11
1578.813400930849
 21
725.9162598904482
 31
0.0
 70
   160
 71
     5
 42
188.0
 73
     0
 74
     0
 75
     0
  3
IGA
100
AcDbAlignedDimension
 13
1489.688744930849
 23
797.6909108904483
 33
0.0
 14
1677.688744930849
 24
790.4026028904483
 34
0.0
100
AcDbRotatedDimension
1001
ACAD
1000
DSTYLE
1002
{
1070
   287
1070
     3
1070
    40
1040
10.0
1070
   143
1040
0.039
1070
   172
1070
     1
1070
   271
1070
     0
1070
   279
1070
     0
1070
   288
1070
     1
1002
}
  0
DIMENSION
  5
7B4A
330
19
100
AcDbEntity
  8
3
  6
Continuous
100
AcDbDimension
280
     0
  2
*D3
 10
1713.688744930849
 20
725.9162598904482
 30
0.0
 11
1750.962874930849
 21
725.7517618904483
 31
0.0
 70
   160
 71
     5
 42
36.0
 73
     0
 74
     0
 75
     0
  3
IGA
100
AcDbAlignedDimension
 13
1677.688744930849
 23
790.4026028904483
 33
0.0
 14
1713.688744930849
 24
797.6909108904483
 34
0.0
100
AcDbRotatedDimension
1001
ACAD
1000
DSTYLE
1002
{
1070
   287
1070
     4
1070
    40
1040
10.0
1070
    75
1070
     1
1070
   143
1040
0.039
1070
   172
1070
     1
1070
   271
1070
     0
1070
   279
1070
     1
1070
   288
1070
     1
1002
}
  0
DIMENSION
  5
7B73
330
19
100
AcDbEntity
  8
3
  6
Continuous
100
AcDbDimension
280
     0
  2
*D4
 10
1733.688744930849
 20
1283.193051890448
 30
0.0
 11
1677.688744930849
 21
1305.551673709239
 31
0.0
 12
0.0
 22
-22.42778790875127
 32
0.0
 70
   160
 71
     5
 42
-1.0
 73
     0
 74
     0
 75
     0
  3
IGA
100
AcDbAlignedDimension
 13
1621.688744930849
 23
1227.690910890448
 33
0.0
 14
1733.688744930849
 24
1227.690910890448
 34
0.0
100
AcDbRotatedDimension
1001
ACAD
1000
DSTYLE
1002
{
1070
   288
1070
     1
1070
   172
1070
     1
1070
    40
1040
10.0
1070
   271
1070
     0
1070
   143
1040
0.039
1002
}
  0
DIMENSION
  5
7B80
330
19
100
AcDbEntity
  8
3
  6
Continuous
100
AcDbDimension
280
     0
  2
*D5
 10
1677.688744930849
 20
1342.718905890448
 30
0.0
 11
1549.680660930849
 21
1342.718905890448
 31
0.0
 70
   160
  1
(260)
 71
     5
 42
260.0
 73
     0
 74
     0
 75
     0
  3
IGA
100
AcDbAlignedDimension
 13
1417.688744930849
 23
1222.690910890448
 33
0.0
 14
1677.688744930849
 24
1311.839508890448
 34
0.0
100
AcDbRotatedDimension
1001
ACAD
1000
DSTYLE
1002
{
1070
   287
1070
     3
1070
    40
1040
10.0
1070
   143
1040
0.039
1070
   172
1070
     1
1070
   271
1070
     0
1070
   279
1070
     0
1070
   288
1070
     1
1002
}
  0
DIMENSION
  5
7B8E
330
19
100
AcDbEntity
  8
3
  6
Continuous
100
AcDbDimension
280
     0
  2
*D6
 10
1741.688744930849
 20
1342.718905890448
 30
0.0
 11
1706.104946930849
 21
1342.883412890448
 31
0.0
 70
   160
 71
     5
 42
-1.0
 73
     0
 74
     0
 75
     0
  3
IGA
100
AcDbAlignedDimension
 13
1677.688744930849
 23
1311.839508890448
 33
0.0
 14
1741.688744930849
 24
1227.690910890448
 34
0.0
100
AcDbRotatedDimension
1001
ACAD
1000
DSTYLE
1002
{
1070
   287
1070
     4
1070
    40
1040
10.0
1070
    75
1070
     1
1070
   143
1040
0.039
1070
   172
1070
     1
1070
   271
1070
     0
1070
   279
1070
     1
1070
   288
1070
     1
1002
}
  0
DIMENSION
  5
7BB3
330
19
100
AcDbEntity
  8
3
  6
Continuous
100
AcDbDimension
280
     0
  2
*D7
 10
568.4385600682818
 20
1127.690910890448
 30
0.0
 11
568.4385600682817
 21
1046.414166890448
 31
0.0
 70
   160
 71
     5
 42
-1.0
 73
     0
 74
     0
 75
     0
  3
IGA
100
AcDbAlignedDimension
 13
602.4558310682817
 23
967.6909108904483
 33
0.0
 14
602.4558310682817
 24
1127.690910890448
 34
0.0
 50
90.0
100
AcDbRotatedDimension
1001
ACAD
1000
DSTYLE
1002
{
1070
   287
1070
     3
1070
    40
1040
10.0
1070
   143
1040
0.039
1070
   172
1070
     1
1070
   271
1070
     0
1070
   279
1070
     0
1070
   288
1070
     1
1002
}
  0
DIMENSION
  5
7BFF
330
19
100
AcDbEntity
  8
3
  6
Continuous
100
AcDbDimension
280
     0
  2
*D8
 10
732.4558310682818
 20
740.3600878904483
 30
0.0
 11
666.7415460682819
 21
740.3600878904483
 31
0.0
 70
   160
 71
     5
 42
160.0
 73
     0
 74
     0
 75
     0
  3
IGA
100
AcDbAlignedDimension
 13
572.4558310682819
 23
797.6909108904483
 33
0.0
 14
732.4558310682818
 24
787.6172518904482
 34
0.0
100
AcDbRotatedDimension
1001
ACAD
1000
DSTYLE
1002
{
1070
   287
1070
     3
1070
    40
1040
10.0
1070
   143
1040
0.039
1070
   172
1070
     1
1070
   271
1070
     0
1070
   279
1070
     0
1070
   288
1070
     1
1002
}
  0
DIMENSION
  5
7C0B
330
19
100
AcDbEntity
  8
3
  6
Continuous
100
AcDbDimension
280
     0
  2
*D9
 10
1182.455831068281
 20
740.3600878904483
 30
0.0
 11
957.4558310682817
 21
765.3600878904483
 31
0.0
 70
    32
 71
     5
 42
449.9999999999998
 73
     0
 74
     0
 75
     0
  3
IGA
100
AcDbAlignedDimension
 13
732.4558310682818
 23
787.6172518904482
 33
0.0
 14
1182.455831068281
 24
797.6909108904483
 34
0.0
100
AcDbRotatedDimension
1001
ACAD
1000
DSTYLE
1002
{
1070
   287
1070
     4
1070
    40
1040
10.0
1070
    75
1070
     1
1070
   143
1040
0.039
1070
   172
1070
     1
1070
   271
1070
     0
1070
   279
1070
     1
1070
   288
1070
     1
1002
}
  0
DIMENSION
  5
7C1A
330
19
100
AcDbEntity
  8
3
  6
Continuous
100
AcDbDimension
280
     0
  2
*D10
 10
732.4558310682817
 20
1334.442916890448
 30
0.0
 11
667.4558310682818
 21
1361.788053091148
 31
0.0
 70
   160
 71
     5
 42
-1.0
 73
     0
 74
     0
 75
     0
  3
IGA
100
AcDbAlignedDimension
 13
602.4558310682817
 23
1149.690910890448
 33
0.0
 14
732.4558310682817
 24
1320.171309890448
 34
0.0
100
AcDbRotatedDimension
1001
ACAD
1000
DSTYLE
1002
{
1070
   288
1070
     1
1070
   172
1070
     1
1070
    40
1040
10.0
1070
   271
1070
     0
1070
   143
1040
0.039
1002
}
  0
DIMENSION
  5
7C26
330
19
100
AcDbEntity
  8
3
  6
Continuous
100
AcDbDimension
280
     0
  2
*D11
 10
876.9201130682818
 20
1334.442916890448
 30
0.0
 11
804.6879720682818
 21
1359.442916890448
 31
0.0
 70
    32
 71
     5
 42
-1.0
 73
     0
 74
     0
 75
     0
  3
IGA
100
AcDbAlignedDimension
 13
732.4558310682817
 23
1320.171309890448
 33
0.0
 14
876.9201130682818
 24
1127.690910890448
 34
0.0
100
AcDbRotatedDimension
1001
ACAD
1000
DSTYLE
1002
{
1070
   287
1070
     4
1070
    40
1040
10.0
1070
    75
1070
     1
1070
   143
1040
0.039
1070
   172
1070
     1
1070
   271
1070
     0
1070
   279
1070
     1
1070
   288
1070
     1
1002
}
  0
DIMENSION
  5
7C40
330
19
100
AcDbEntity
  8
3
  6
Continuous
100
AcDbDimension
280
     0
  2
*D12
 10
1182.455831068281
 20
1690.138215091249
 30
0.0
 11
871.3059450682818
 21
1690.138215091249
 31
0.0
 70
   160
 71
     5
 42
-1.0
 73
     0
 74
     0
 75
     0
  3
IGA
100
AcDbAlignedDimension
 13
572.4558310682818
 23
1834.932298091248
 33
0.0
 14
1182.455831068281
 24
1834.932298091248
 34
0.0
100
AcDbRotatedDimension
1001
ACAD
1000
DSTYLE
1002
{
1070
   287
1070
     3
1070
    40
1040
10.0
1070
   143
1040
0.039
1070
   172
1070
     1
1070
   271
1070
     0
1070
   279
1070
     0
1070
   288
1070
     1
1002
}
  0
DIMENSION
  5
7C4D
330
19
100
AcDbEntity
  8
3
  6
Continuous
100
AcDbDimension
280
     0
  2
*D13
 10
1274.302168068282
 20
1834.932298091248
 30
0.0
 11
1274.302168068282
 21
1938.675911091248
 31
0.0
 70
   160
 71
     5
 42
-1.0
 73
     0
 74
     0
 75
     0
  3
IGA
100
AcDbAlignedDimension
 13
1182.455831068281
 23
2058.932298091249
 33
0.0
 14
1182.455831068281
 24
1834.932298091248
 34
0.0
 50
90.0
100
AcDbRotatedDimension
1001
ACAD
1000
DSTYLE
1002
{
1070
   287
1070
     3
1070
    40
1040
10.0
1070
   143
1040
0.039
1070
   172
1070
     1
1070
   271
1070
     0
1070
   279
1070
     0
1070
   288
1070
     1
1002
}
  0
LINE
  5
7C4F
330
19
100
AcDbEntity
  8
4
  6
Continuous
100
AcDbLine
 10
1850.0
 20
500.0
 30
0.0
 11
1850.0
 21
300.0
 31
0.0
  0
LINE
  5
7C50
330
19
100
AcDbEntity
  8
4
  6
Continuous
100
AcDbLine
 10
1150.0
 20
500.0
 30
0.0
 11
1150.0
 21
300.0
 31
0.0
  0
LINE
  5
7C51
330
19
100
AcDbEntity
  8
4
  6
Continuous
100
AcDbLine
 10
650.0
 20
500.0
 30
0.0
 11
650.0
 21
300.0
 31
0.0
  0
LINE
  5
7C54
330
19
100
AcDbEntity
  8
4
  6
Continuous
100
AcDbLine
 10
650.0
 20
300.0
 30
0.0
 11
1850.0
 21
300.0
 31
0.0
  0
LINE
  5
7C55
330
19
100
AcDbEntity
  8
4
  6
Continuous
100
AcDbLine
 10
650.0
 20
400.0
 30
0.0
 11
1850.0
 21
400.0
 31
0.0
  0
TEXT
  5
7C56
330
19
100
AcDbEntity
  8
4
  6
Continuous
100
AcDbText
 10
688.502081
 20
431.543026
 30
0.0
 40
50.0
  1
機器名称
100
AcDbText
  0
TEXT
  5
7C57
330
19
100
AcDbEntity
  8
4
  6
Continuous
100
AcDbText
 10
686.258106
 20
321.645157
 30
0.0
 40
50.0
  1
機器型番
100
AcDbText
  0
TEXT
  5
7C58
330
19
100
AcDbEntity
  8
4
  6
Continuous
100
AcDbText
 10
1177.678745
 20
422.571769
 30
0.0
 40
45.0
  1
ミツヤニューマルチファン
100
AcDbText
  0
TEXT
  5
7C59
330
19
100
AcDbEntity
  8
4
  6
Continuous
100
AcDbText
 10
1186.654496
 20
317.159584
 30
0.0
 40
50.0
  1
NM#1-1
100
AcDbText
  0
TEXT
  5
7C5B
330
19
100
AcDbEntity
  8
4
  6
Continuous
100
AcDbText
 10
694.3804459999999
 20
2383.428841
 30
0.0
 40
54.0
  1
床置防振ベット
100
AcDbText
  0
TEXT
  5
7C5C
330
19
100
AcDbEntity
  8
4
  6
Continuous
100
AcDbText
 10
316.167593
 20
2533.880976000001
 30
0.0
 40
72.0
  1
ベルト駆動式片吸込片持多翼ファン
100
AcDbText
  0
LINE
  5
7C5D
330
19
100
AcDbEntity
  8
4
  6
Continuous
100
AcDbLine
 10
250.0
 20
2469.408754
 30
0.0
 11
1850.0
 21
2469.408754
 31
0.0
  0
LINE
  5
7C5E
330
19
100
AcDbEntity
  8
4
  6
Continuous
100
AcDbLine
 10
250.0
 20
2669.408754
 30
0.0
 11
1850.0
 21
2669.408754
 31
0.0
  0
LINE
  5
7C5F
330
19
100
AcDbEntity
  8
4
  6
Continuous
100
AcDbLine
 10
650.0
 20
500.0
 30
0.0
 11
1850.0
 21
500.0
 31
0.0
  0
LINE
  5
7C60
330
19
100
AcDbEntity
  8
4
  6
Continuous
100
AcDbLine
 10
250.0
 20
2669.408754
 30
0.0
 11
250.0
 21
2469.408754
 31
0.0
  0
TEXT
  5
7C61
330
19
100
AcDbEntity
  8
4
  6
Continuous
100
AcDbText
 10
258.521614
 20
2382.319478000001
 30
0.0
 40
54.0
  1
右回転左横向
100
AcDbText
  0
TEXT
  5
7C62
330
19
100
AcDbEntity
  8
4
  6
Continuous
100
AcDbText
 10
1468.969559
 20
2706.061081
 30
0.0
 40
56.0
  1
No.
100
AcDbText
  0
TEXT
  5
7C63
330
19
100
AcDbEntity
  8
4
  6
Continuous
100
AcDbText
 10
1311.296063
 20
2383.428841
 30
0.0
 40
54.0
  1
縮尺：1/10
100
AcDbText
  0
LINE
  5
7C64
330
19
100
AcDbEntity
  8
4
  6
Continuous
100
AcDbLine
 10
1850.0
 20
2669.408754
 30
0.0
 11
1850.0
 21
2469.408754
 31
0.0
  0
LINE
  5
7C66
330
19
100
AcDbEntity
  8
4
  6
Continuous
100
AcDbLine
 10
1440.617422
 20
2681.263583
 30
0.0
 11
1440.617422
 21
2786.652262
 31
0.0
  0
LINE
  5
7C67
330
19
100
AcDbEntity
  8
4
  6
Continuous
100
AcDbLine
 10
1440.617422
 20
2786.652262
 30
0.0
 11
1850.0
 21
2786.652262
 31
0.0
  0
LINE
  5
7C68
330
19
100
AcDbEntity
  8
4
  6
Continuous
100
AcDbLine
 10
1850.0
 20
2786.652262
 30
0.0
 11
1850.0
 21
2681.263583
 31
0.0
  0
LINE
  5
7C69
330
19
100
AcDbEntity
  8
4
  6
Continuous
100
AcDbLine
 10
1850.0
 20
2681.263583
 30
0.0
 11
1440.617422
 21
2681.263583
 31
0.0
  0
DIMENSION
  5
7D5A
330
19
100
AcDbEntity
  8
3
  6
Continuous
100
AcDbDimension
280
     0
  2
*D14
 10
448.4074020682817
 20
1127.690910890448
 30
0.0
 11
423.5705654420926
 21
1189.013001890448
 31
0.0
 70
   160
 71
     5
 42
-1.0
 73
     0
 74
     0
 75
     0
  3
IGA
100
AcDbAlignedDimension
 13
732.4558310682817
 23
1250.335092890448
 33
0.0
 14
530.6368930682817
 24
1127.690910890448
 34
0.0
 50
90.0
100
AcDbRotatedDimension
1001
ACAD
1000
DSTYLE
1002
{
1070
   288
1070
     1
1070
   172
1070
     1
1070
    40
1040
10.0
1070
   271
1070
     0
1070
   143
1040
0.039
1002
}
  0
DIMENSION
  5
7DA1
330
19
100
AcDbEntity
  8
3
  6
Continuous
100
AcDbDimension
280
     0
  2
*D15
 10
448.4074020682817
 20
892.6909108904483
 30
0.0
 11
423.4074020682816
 21
1010.190910890448
 31
0.0
 70
    32
 71
     5
 42
-1.0
 73
     0
 74
     0
 75
     0
  3
IGA
100
AcDbAlignedDimension
 13
530.6368930682817
 23
1127.690910890448
 33
0.0
 14
597.4558310682818
 24
892.6909108904483
 34
0.0
 50
90.0
100
AcDbRotatedDimension
1001
ACAD
1000
DSTYLE
1002
{
1070
   287
1070
     4
1070
    40
1040
10.0
1070
    75
1070
     1
1070
   143
1040
0.039
1070
   172
1070
     1
1070
   271
1070
     0
1070
   279
1070
     1
1070
   288
1070
     1
1002
}
  0
DIMENSION
  5
7E10
330
19
100
AcDbEntity
  8
3
  6
Continuous
100
AcDbDimension
280
     0
  2
*D16
 10
520.1885530682818
 20
956.6909108904482
 30
0.0
 11
520.1885530682817
 21
1043.885506890448
 31
0.0
 70
   160
 71
     5
 42
-1.0
 73
     0
 74
     0
 75
     0
  3
IGA
100
AcDbAlignedDimension
 13
603.4558310682817
 23
1127.690910890448
 33
0.0
 14
617.4558310682818
 24
956.6909108904482
 34
0.0
 50
90.0
100
AcDbRotatedDimension
1001
ACAD
1000
DSTYLE
1002
{
1070
   287
1070
     3
1070
    40
1040
10.0
1070
   143
1040
0.039
1070
   172
1070
     1
1070
   271
1070
     0
1070
   279
1070
     0
1070
   288
1070
     1
1002
}
  0
DIMENSION
  5
7ECA
330
19
100
AcDbEntity
  8
3
  6
Continuous
100
AcDbDimension
280
     0
  2
*D18
 10
448.3887315500285
 20
797.6909108904483
 30
0.0
 11
423.3887315500284
 21
723.405196604734
 31
0.0
 70
    32
 71
     5
 42
25.0
 73
     0
 74
     0
 75
     0
  3
IGA
100
AcDbAlignedDimension
 13
572.4558310682819
 23
822.6909108904482
 33
0.0
 14
572.4558310682819
 24
797.6909108904483
 34
0.0
 50
90.0
100
AcDbRotatedDimension
1001
ACAD
1000
DSTYLE
1002
{
1070
    40
1040
10.0
1070
   143
1040
0.039
1070
   172
1070
     1
1070
   271
1070
     0
1070
   279
1070
     0
1070
   343
1005
7EB4
1002
}
  0
DIMENSION
  5
7ED7
330
19
100
AcDbEntity
  8
3
  6
Continuous
100
AcDbDimension
280
     0
  2
*D19
 10
448.3887315500285
 20
892.6909108904483
 30
0.0
 11
411.001543276403
 21
861.0156307044089
 31
0.0
 70
   160
 71
     5
 42
70.0
 73
     0
 74
     0
 75
     0
  3
IGA
100
AcDbAlignedDimension
 13
572.4558310682819
 23
822.6909108904482
 33
0.0
 14
597.4558310682818
 24
892.6909108904483
 34
0.0
 50
90.0
100
AcDbRotatedDimension
1001
ACAD
1000
DSTYLE
1002
{
1070
     3
1000
(<>)
1070
    40
1040
10.0
1070
   143
1040
0.039
1070
   172
1070
     1
1070
   271
1070
     0
1070
   343
1005
7EB4
1002
}
  0
DIMENSION
  5
80D5
330
19
100
AcDbEntity
  8
3
  6
Continuous
100
AcDbDimension
280
     0
  2
*D20
 10
361.8669582003823
 20
1250.690910890448
 30
0.0
 11
329.0098153432392
 21
1024.190910890448
 31
0.0
 70
    32
 71
     5
 42
453.0000000000001
 73
     0
 74
     0
 75
     0
  3
IGA
100
AcDbAlignedDimension
 13
572.4558310682819
 23
797.6909108904483
 33
0.0
 14
743.4558310682818
 24
1250.690910890448
 34
0.0
 50
90.0
100
AcDbRotatedDimension
1001
ACAD
1000
DSTYLE
1002
{
1070
     3
1000
(<>)
1070
    40
1040
10.0
1070
   143
1040
0.039
1070
   172
1070
     1
1070
   271
1070
     0
1070
   341
1005
7EB4
1070
   343
1005
7B19
1002
}
  0
ENDSEC
  0
SECTION
  2
OBJECTS
  0
DICTIONARY
  5
C
330
0
100
AcDbDictionary
281
     1
  3
ACAD_CIP_PREVIOUS_PRODUCT_INFO
350
7FE4
  3
ACAD_COLOR
350
7FC7
  3
ACAD_DETAILVIEWSTYLE
350
7FE0
  3
ACAD_GROUP
350
D
  3
ACAD_LAYOUT
350
7EE1
  3
ACAD_MATERIAL
350
7F95
  3
ACAD_MLEADERSTYLE
350
7FDC
  3
ACAD_MLINESTYLE
350
E
  3
ACAD_PLOTSETTINGS
350
7EE2
  3
ACAD_PLOTSTYLENAME
350
7EDF
  3
ACAD_SCALELIST
350
7FCA
  3
ACAD_SECTIONVIEWSTYLE
350
7FDE
  3
ACAD_TABLESTYLE
350
7FC8
  3
ACAD_VISUALSTYLE
350
7FAE
  3
ACDB_RECOMPOSE_DATA
350
8195
  3
AcDbVariableDictionary
350
7F8D
  0
DICTIONARY
  5
803D
330
2
100
AcDbDictionary
280
     1
281
     1
  3
ACAD_LAYERSTATES
360
803E
  0
DICTIONARY
  5
8030
330
F
100
AcDbDictionary
280
     1
281
     1
  3
ADSK_XREC_LAYER_RECONCILED
360
8031
  0
DICTIONARY
  5
8032
330
31
100
AcDbDictionary
280
     1
281
     1
  3
ADSK_XREC_LAYER_RECONCILED
360
8033
  0
DICTIONARY
  5
8034
330
76D0
100
AcDbDictionary
280
     1
281
     1
  3
ADSK_XREC_LAYER_RECONCILED
360
8035
  0
DICTIONARY
  5
8036
330
76D1
100
AcDbDictionary
280
     1
281
     1
  3
ADSK_XREC_LAYER_RECONCILED
360
8037
  0
DICTIONARY
  5
8038
330
76D2
100
AcDbDictionary
280
     1
281
     1
  3
ADSK_XREC_LAYER_RECONCILED
360
8039
  0
DICTIONARY
  5
7F0E
330
19
100
AcDbDictionary
280
     1
281
     1
  3
ACAD_LAYOUTSELFREF
360
7F0F
  0
DICTIONARY
  5
7F0C
330
16
100
AcDbDictionary
280
     1
281
     1
  3
ACAD_LAYOUTSELFREF
360
7F0D
  0
XRECORD
  5
7FE4
102
{ACAD_REACTORS
330
C
102
}
330
C
100
AcDbXrecord
280
     1
300
ACDLT
300
2015
300
INVLTS_F_S
  0
DICTIONARY
  5
7FC7
102
{ACAD_REACTORS
330
C
102
}
330
C
100
AcDbDictionary
281
     1
  0
DICTIONARY
  5
7FE0
102
{ACAD_REACTORS
330
C
102
}
330
C
100
AcDbDictionary
281
     1
  3
Imperial24
350
7FE1
  0
DICTIONARY
  5
D
102
{ACAD_REACTORS
330
C
102
}
330
0
100
AcDbDictionary
281
     1
  0
DICTIONARY
  5
7EE1
102
{ACAD_REACTORS
330
C
102
}
330
C
100
AcDbDictionary
281
     1
  3
Model
350
7EE3
  3
ﾚｲｱｳﾄ1
350
7EE4
  0
DICTIONARY
  5
7F95
102
{ACAD_REACTORS
330
C
102
}
330
C
100
AcDbDictionary
281
     1
  3
ByBlock
350
7F9E
  3
ByLayer
350
7F96
  3
Global
350
7FA6
  0
DICTIONARY
  5
7FDC
102
{ACAD_REACTORS
330
C
102
}
330
C
100
AcDbDictionary
281
     1
  3
Standard
350
7FDD
  0
DICTIONARY
  5
E
102
{ACAD_REACTORS
330
C
102
}
330
0
100
AcDbDictionary
281
     1
  3
STANDARD
350
1C
  0
DICTIONARY
  5
7EE2
102
{ACAD_REACTORS
330
C
102
}
330
C
100
AcDbDictionary
281
     1
  0
ACDBDICTIONARYWDFLT
  5
7EDF
102
{ACAD_REACTORS
330
C
102
}
330
C
100
AcDbDictionary
281
     1
  3
Normal
350
7EE0
100
AcDbDictionaryWithDefault
340
7EE0
1001
ACAD
1000
TREAT_AS_HARD
1070
     0
  0
DICTIONARY
  5
7FCA
102
{ACAD_REACTORS
330
C
102
}
330
C
100
AcDbDictionary
281
     1
  3
A0
350
7FCB
  3
A1
350
7FCC
  3
A2
350
7FCD
  3
A3
350
7FCE
  3
A4
350
7FCF
  3
A5
350
7FD0
  3
A6
350
7FD1
  3
A7
350
7FD2
  3
A8
350
7FD3
  3
A9
350
7FD4
  3
B0
350
7FD5
  3
B1
350
7FD6
  3
B2
350
7FD7
  3
B3
350
7FD8
  3
B4
350
7FD9
  3
B5
350
7FDA
  3
B6
350
7FDB
  0
DICTIONARY
  5
7FDE
102
{ACAD_REACTORS
330
C
102
}
330
C
100
AcDbDictionary
281
     1
  3
Imperial24
350
7FDF
  0
DICTIONARY
  5
7FC8
102
{ACAD_REACTORS
330
C
102
}
330
C
100
AcDbDictionary
281
     1
  3
Standard
350
7FC9
  0
DICTIONARY
  5
7FAE
102
{ACAD_REACTORS
330
C
102
}
330
C
100
AcDbDictionary
281
     1
  3
2dWireframe
350
7FB4
  3
Basic
350
7FB3
  3
Brighten
350
7FBA
  3
ColorChange
350
7FBE
  3
Conceptual
350
7FB7
  3
Dim
350
7FB9
  3
EdgeColorOff
350
7FC6
  3
Facepattern
350
7FBD
  3
Flat
350
7FAF
  3
FlatWithEdges
350
7FB0
  3
Gouraud
350
7FB1
  3
GouraudWithEdges
350
7FB2
  3
Hidden
350
7FB6
  3
JitterOff
350
7FC4
  3
Linepattern
350
7FBC
  3
OverhangOff
350
7FC5
  3
Realistic
350
7FB8
  3
Shaded
350
7FC3
  3
Shaded with edges
350
7FC2
  3
Shades of Gray
350
7FBF
  3
Sketchy
350
7FC0
  3
Thicken
350
7FBB
  3
Wireframe
350
7FB5
  3
X-Ray
350
7FC1
  0
XRECORD
  5
8195
102
{ACAD_REACTORS
330
C
102
}
330
C
100
AcDbXrecord
280
     1
 90
        1
330
7FC9
330
7FDF
330
7FE1
  0
DICTIONARY
  5
7F8D
102
{ACAD_REACTORS
330
C
102
}
330
C
100
AcDbDictionary
281
     1
  3
CANNOSCALE
350
80A0
  3
CMLEADERSTYLE
350
809C
  3
CTABLESTYLE
350
809B
  3
CVIEWDETAILSTYLE
350
809D
  3
CVIEWSECTIONSTYLE
350
809E
  3
DIMASSOC
350
7F8E
  3
LAYEREVAL
350
80A2
  3
LAYERNOTIFY
350
80A3
  3
LIGHTINGUNITS
350
80A1
  3
MSLTSCALE
350
809F
  0
DICTIONARY
  5
803E
102
{ACAD_REACTORS
330
803D
102
}
330
803D
100
AcDbDictionary
281
     1
  0
XRECORD
  5
8031
102
{ACAD_REACTORS
330
8030
102
}
330
8030
100
AcDbXrecord
280
     1
290
     1
  0
XRECORD
  5
8033
102
{ACAD_REACTORS
330
8032
102
}
330
8032
100
AcDbXrecord
280
     1
290
     1
  0
XRECORD
  5
8035
102
{ACAD_REACTORS
330
8034
102
}
330
8034
100
AcDbXrecord
280
     1
290
     1
  0
XRECORD
  5
8037
102
{ACAD_REACTORS
330
8036
102
}
330
8036
100
AcDbXrecord
280
     1
290
     1
  0
XRECORD
  5
8039
102
{ACAD_REACTORS
330
8038
102
}
330
8038
100
AcDbXrecord
280
     1
290
     1
  0
XRECORD
  5
7F0F
102
{ACAD_REACTORS
330
7F0E
102
}
330
7F0E
100
AcDbXrecord
280
     1
340
19
  0
XRECORD
  5
7F0D
102
{ACAD_REACTORS
330
7F0C
102
}
330
7F0C
100
AcDbXrecord
280
     1
340
16
  0
ACDBDETAILVIEWSTYLE
  5
7FE1
102
{ACAD_XDICTIONARY
360
8098
102
}
102
{ACAD_REACTORS
330
7FE0
102
}
330
7FE0
100
AcDbModelDocViewStyle
 70
     0
  3
Imperial24
290
     0
100
AcDbDetailViewStyle
 70
     0
 71
     0
 90
        3
 71
     1
340
10
 62
   256
 40
0.24
340
0
 62
   256
 40
0.24
300

 40
0.36
280
     3
 71
     2
340
15
 90
       25
 62
   256
 71
     3
340
10
 62
   256
 40
0.24
 90
        1
 40
0.75
 90
        1
300
%<\AcVar ViewType \f "%tc1">% %<\AcVar ViewDetailId>%\PSCALE %<\AcVar ViewScale \f "%sn">%
 71
     4
340
15
 90
       25
 62
   256
340
15
 90
       25
 62
   256
280
     0
  0
LAYOUT
  5
7EE3
102
{ACAD_REACTORS
330
7EE1
102
}
330
7EE1
100
AcDbPlotSettings
  1

  2
\\Txbo34x8944cqyd\EPSON LP-6100
  4

  6

 40
0.0
 41
0.0
 42
0.0
 43
0.0
 44
0.0
 45
0.0
 46
0.0
 47
0.0
 48
0.0
 49
0.0
140
0.0
141
0.0
142
1.0
143
1.0
 70
  1712
 72
     0
 73
     0
 74
     0
  7
GOD2000TABLE.ctb
 75
     0
147
1.0
 76
     0
 77
     2
 78
   300
148
0.0
149
0.0
100
AcDbLayout
  1
Model
 70
     1
 71
     0
 10
0.0
 20
0.0
 11
12.0
 21
9.0
 12
0.0
 22
0.0
 32
0.0
 14
0.0
 24
0.0
 34
0.0
 15
0.0
 25
0.0
 35
0.0
146
0.0
 13
0.0
 23
0.0
 33
0.0
 16
1.0
 26
0.0
 36
0.0
 17
0.0
 27
1.0
 37
0.0
 76
     0
330
19
331
7F93
  0
LAYOUT
  5
7EE4
102
{ACAD_REACTORS
330
7EE1
102
}
330
7EE1
100
AcDbPlotSettings
  1

  2
\\Txbo34x8944cqyd\EPSON LP-6100
  4

  6

 40
0.0
 41
0.0
 42
0.0
 43
0.0
 44
0.0
 45
0.0
 46
0.0
 47
0.0
 48
0.0
 49
0.0
140
0.0
141
0.0
142
1.0
143
1.0
 70
   688
 72
     0
 73
     0
 74
     5
  7
GOD2000TABLE.ctb
 75
    16
147
1.0
 76
     0
 77
     2
 78
   300
148
0.0
149
0.0
100
AcDbLayout
  1
ﾚｲｱｳﾄ1
 70
     1
 71
     1
 10
0.0
 20
0.0
 11
12.0
 21
9.0
 12
0.0
 22
0.0
 32
0.0
 14
1.000000000000000E+20
 24
1.000000000000000E+20
 34
1.000000000000000E+20
 15
-1.000000000000000E+20
 25
-1.000000000000000E+20
 35
-1.000000000000000E+20
146
0.0
 13
0.0
 23
0.0
 33
0.0
 16
1.0
 26
0.0
 36
0.0
 17
0.0
 27
1.0
 37
0.0
 76
     0
330
16
  0
MATERIAL
  5
7F9E
102
{ACAD_XDICTIONARY
360
7F9F
102
}
102
{ACAD_REACTORS
330
7F95
102
}
330
7F95
100
AcDbMaterial
  1
ByBlock
 72
     0
 43
0.0208333333333333
 43
0.0
 43
0.0
 43
0.0
 43
0.0
 43
0.0208333333333333
 43
0.0
 43
0.0
 43
0.0
 43
0.0
 43
1.0
 43
0.0
 43
0.0
 43
0.0
 43
0.0
 43
1.0
 77
     0
 47
0.0208333333333333
 47
0.0
 47
0.0
 47
0.0
 47
0.0
 47
0.0208333333333333
 47
0.0
 47
0.0
 47
0.0
 47
0.0
 47
1.0
 47
0.0
 47
0.0
 47
0.0
 47
0.0
 47
1.0
171
     0
 49
0.0208333333333333
 49
0.0
 49
0.0
 49
0.0
 49
0.0
 49
0.0208333333333333
 49
0.0
 49
0.0
 49
0.0
 49
0.0
 49
1.0
 49
0.0
 49
0.0
 49
0.0
 49
0.0
 49
1.0
175
     0
142
0.0208333333333333
142
0.0
142
0.0
142
0.0
142
0.0
142
0.0208333333333333
142
0.0
142
0.0
142
0.0
142
0.0
142
1.0
142
0.0
142
0.0
142
0.0
142
0.0
142
1.0
179
     0
144
0.0208333333333333
144
0.0
144
0.0
144
0.0
144
0.0
144
0.0208333333333333
144
0.0
144
0.0
144
0.0
144
0.0
144
1.0
144
0.0
144
0.0
144
0.0
144
0.0
144
1.0
147
0.0208333333333333
147
0.0
147
0.0
147
0.0
147
0.0
147
0.0208333333333333
147
0.0
147
0.0
147
0.0
147
0.0
147
1.0
147
0.0
147
0.0
147
0.0
147
0.0
147
1.0
  0
MATERIAL
  5
7F96
102
{ACAD_XDICTIONARY
360
7F97
102
}
102
{ACAD_REACTORS
330
7F95
102
}
330
7F95
100
AcDbMaterial
  1
ByLayer
 72
     0
 43
0.0208333333333333
 43
0.0
 43
0.0
 43
0.0
 43
0.0
 43
0.0208333333333333
 43
0.0
 43
0.0
 43
0.0
 43
0.0
 43
1.0
 43
0.0
 43
0.0
 43
0.0
 43
0.0
 43
1.0
 77
     0
 47
0.0208333333333333
 47
0.0
 47
0.0
 47
0.0
 47
0.0
 47
0.0208333333333333
 47
0.0
 47
0.0
 47
0.0
 47
0.0
 47
1.0
 47
0.0
 47
0.0
 47
0.0
 47
0.0
 47
1.0
171
     0
 49
0.0208333333333333
 49
0.0
 49
0.0
 49
0.0
 49
0.0
 49
0.0208333333333333
 49
0.0
 49
0.0
 49
0.0
 49
0.0
 49
1.0
 49
0.0
 49
0.0
 49
0.0
 49
0.0
 49
1.0
175
     0
142
0.0208333333333333
142
0.0
142
0.0
142
0.0
142
0.0
142
0.0208333333333333
142
0.0
142
0.0
142
0.0
142
0.0
142
1.0
142
0.0
142
0.0
142
0.0
142
0.0
142
1.0
179
     0
144
0.0208333333333333
144
0.0
144
0.0
144
0.0
144
0.0
144
0.0208333333333333
144
0.0
144
0.0
144
0.0
144
0.0
144
1.0
144
0.0
144
0.0
144
0.0
144
0.0
144
1.0
147
0.0208333333333333
147
0.0
147
0.0
147
0.0
147
0.0
147
0.0208333333333333
147
0.0
147
0.0
147
0.0
147
0.0
147
1.0
147
0.0
147
0.0
147
0.0
147
0.0
147
1.0
  0
MATERIAL
  5
7FA6
102
{ACAD_XDICTIONARY
360
7FA7
102
}
102
{ACAD_REACTORS
330
7F95
102
}
330
7F95
100
AcDbMaterial
  1
Global
 72
     0
 43
0.0208333333333333
 43
0.0
 43
0.0
 43
0.0
 43
0.0
 43
0.0208333333333333
 43
0.0
 43
0.0
 43
0.0
 43
0.0
 43
1.0
 43
0.0
 43
0.0
 43
0.0
 43
0.0
 43
1.0
 77
     0
 47
0.0208333333333333
 47
0.0
 47
0.0
 47
0.0
 47
0.0
 47
0.0208333333333333
 47
0.0
 47
0.0
 47
0.0
 47
0.0
 47
1.0
 47
0.0
 47
0.0
 47
0.0
 47
0.0
 47
1.0
171
     0
 49
0.0208333333333333
 49
0.0
 49
0.0
 49
0.0
 49
0.0
 49
0.0208333333333333
 49
0.0
 49
0.0
 49
0.0
 49
0.0
 49
1.0
 49
0.0
 49
0.0
 49
0.0
 49
0.0
 49
1.0
175
     0
142
0.0208333333333333
142
0.0
142
0.0
142
0.0
142
0.0
142
0.0208333333333333
142
0.0
142
0.0
142
0.0
142
0.0
142
1.0
142
0.0
142
0.0
142
0.0
142
0.0
142
1.0
179
     0
144
0.0208333333333333
144
0.0
144
0.0
144
0.0
144
0.0
144
0.0208333333333333
144
0.0
144
0.0
144
0.0
144
0.0
144
1.0
144
0.0
144
0.0
144
0.0
144
0.0
144
1.0
147
0.0208333333333333
147
0.0
147
0.0
147
0.0
147
0.0
147
0.0208333333333333
147
0.0
147
0.0
147
0.0
147
0.0
147
1.0
147
0.0
147
0.0
147
0.0
147
0.0
147
1.0
  0
MLEADERSTYLE
  5
7FDD
102
{ACAD_REACTORS
330
7FDC
102
}
330
7FDC
100
AcDbMLeaderStyle
179
     2
170
     2
171
     1
172
     0
 90
        2
 40
0.0
 41
0.0
173
     1
 91
-1056964608
340
13
 92
       -2
290
     1
 42
0.09
291
     1
 43
0.36
  3
Standard
 44
0.18
300

342
10
174
     1
178
     6
175
     1
176
     0
 93
-1056964608
 45
0.18
292
     0
297
     0
 46
0.18
 94
-1056964608
 47
1.0
 49
1.0
140
1.0
293
     1
141
0.0
294
     1
177
     0
142
1.0
295
     1
296
     0
143
0.125
271
     0
272
     9
273
     9
298
     1
  0
MLINESTYLE
  5
1C
102
{ACAD_REACTORS
330
E
102
}
330
0
100
AcDbMlineStyle
  2
STANDARD
 70
     0
  3

 62
     0
 51
90.0
 52
90.0
 71
     2
 49
0.5
 62
   256
  6
BYLAYER
 49
-0.5
 62
   256
  6
BYLAYER
  0
ACDBPLACEHOLDER
  5
7EE0
102
{ACAD_REACTORS
330
7EDF
102
}
330
7EDF
  0
SCALE
  5
7FCB
102
{ACAD_REACTORS
330
7FCA
102
}
330
7FCA
100
AcDbScale
 70
     0
300
1:1
140
1.0
141
1.0
290
     1
  0
SCALE
  5
7FCC
102
{ACAD_REACTORS
330
7FCA
102
}
330
7FCA
100
AcDbScale
 70
     0
300
1/128" = 1'-0"
140
0.0078125
141
12.0
290
     0
  0
SCALE
  5
7FCD
102
{ACAD_REACTORS
330
7FCA
102
}
330
7FCA
100
AcDbScale
 70
     0
300
1/64" = 1'-0"
140
0.015625
141
12.0
290
     0
  0
SCALE
  5
7FCE
102
{ACAD_REACTORS
330
7FCA
102
}
330
7FCA
100
AcDbScale
 70
     0
300
1/32" = 1'-0"
140
0.03125
141
12.0
290
     0
  0
SCALE
  5
7FCF
102
{ACAD_REACTORS
330
7FCA
102
}
330
7FCA
100
AcDbScale
 70
     0
300
1/16" = 1'-0"
140
0.0625
141
12.0
290
     0
  0
SCALE
  5
7FD0
102
{ACAD_REACTORS
330
7FCA
102
}
330
7FCA
100
AcDbScale
 70
     0
300
3/32" = 1'-0"
140
0.09375
141
12.0
290
     0
  0
SCALE
  5
7FD1
102
{ACAD_REACTORS
330
7FCA
102
}
330
7FCA
100
AcDbScale
 70
     0
300
1/8" = 1'-0"
140
0.125
141
12.0
290
     0
  0
SCALE
  5
7FD2
102
{ACAD_REACTORS
330
7FCA
102
}
330
7FCA
100
AcDbScale
 70
     0
300
3/16" = 1'-0"
140
0.1875
141
12.0
290
     0
  0
SCALE
  5
7FD3
102
{ACAD_REACTORS
330
7FCA
102
}
330
7FCA
100
AcDbScale
 70
     0
300
1/4" = 1'-0"
140
0.25
141
12.0
290
     0
  0
SCALE
  5
7FD4
102
{ACAD_REACTORS
330
7FCA
102
}
330
7FCA
100
AcDbScale
 70
     0
300
3/8" = 1'-0"
140
0.375
141
12.0
290
     0
  0
SCALE
  5
7FD5
102
{ACAD_REACTORS
330
7FCA
102
}
330
7FCA
100
AcDbScale
 70
     0
300
1/2" = 1'-0"
140
0.5
141
12.0
290
     0
  0
SCALE
  5
7FD6
102
{ACAD_REACTORS
330
7FCA
102
}
330
7FCA
100
AcDbScale
 70
     0
300
3/4" = 1'-0"
140
0.75
141
12.0
290
     0
  0
SCALE
  5
7FD7
102
{ACAD_REACTORS
330
7FCA
102
}
330
7FCA
100
AcDbScale
 70
     0
300
1" = 1'-0"
140
1.0
141
12.0
290
     0
  0
SCALE
  5
7FD8
102
{ACAD_REACTORS
330
7FCA
102
}
330
7FCA
100
AcDbScale
 70
     0
300
1-1/2" = 1'-0"
140
1.5
141
12.0
290
     0
  0
SCALE
  5
7FD9
102
{ACAD_REACTORS
330
7FCA
102
}
330
7FCA
100
AcDbScale
 70
     0
300
3" = 1'-0"
140
3.0
141
12.0
290
     0
  0
SCALE
  5
7FDA
102
{ACAD_REACTORS
330
7FCA
102
}
330
7FCA
100
AcDbScale
 70
     0
300
6" = 1'-0"
140
6.0
141
12.0
290
     0
  0
SCALE
  5
7FDB
102
{ACAD_REACTORS
330
7FCA
102
}
330
7FCA
100
AcDbScale
 70
     0
300
1'-0" = 1'-0"
140
12.0
141
12.0
290
     0
  0
ACDBSECTIONVIEWSTYLE
  5
7FDF
102
{ACAD_XDICTIONARY
360
8096
102
}
102
{ACAD_REACTORS
330
7FDE
102
}
330
7FDE
100
AcDbModelDocViewStyle
 70
     0
  3
Imperial24
290
     0
100
AcDbSectionViewStyle
 70
     0
 71
     0
 90
       78
 71
     1
340
10
 62
   256
 40
0.24
340
0
340
0
 62
   256
 40
0.24
300
I, O, Q, S, X, Z
 40
0.48
 90
        3
 40
0.18
 90
        1
 71
     2
340
15
 90
       25
 62
   256
340
15
 90
       50
 62
   256
 40
0.24
 40
0.0
 40
0.24
 71
     3
340
10
 62
   256
 40
0.24
 90
        1
 40
0.75
 90
        1
300
%<\AcVar ViewType \f "%tc1">% %<\AcVar ViewSectionStartId>%-%<\AcVar ViewSectionEndId>%\PSCALE %<\AcVar ViewScale \f "%sn">%
 71
     4
 62
   256
 62
   257
300
ANSI31
 40
1.0
 90
        0
290
     0
290
     0
 90
        6
 40
0.0
 40
1.570796326794896
 40
0.2617993877991494
 40
1.308996938995747
 40
-0.2617993877991494
 40
1.832595714594046
  0
TABLESTYLE
  5
7FC9
102
{ACAD_XDICTIONARY
360
8191
102
}
102
{ACAD_REACTORS
330
7FC8
102
}
330
7FC8
100
AcDbTableStyle
280
     0
  3
Standard
 70
     0
 71
     0
 40
0.06
 41
0.06
280
     0
281
     0
  7
STANDARD
140
0.18
170
     2
 62
     0
 63
     7
283
     0
 90
      512
 91
        0
  1

274
    -2
284
     1
 64
     0
275
    -2
285
     1
 65
     0
276
    -2
286
     1
 66
     0
277
    -2
287
     1
 67
     0
278
    -2
288
     1
 68
     0
279
    -2
289
     1
 69
     0
  7
STANDARD
140
0.25
170
     5
 62
     0
 63
     7
283
     0
 90
      512
 91
        0
  1

274
    -2
284
     1
 64
     0
275
    -2
285
     1
 65
     0
276
    -2
286
     1
 66
     0
277
    -2
287
     1
 67
     0
278
    -2
288
     1
 68
     0
279
    -2
289
     1
 69
     0
  7
STANDARD
140
0.18
170
     5
 62
     0
 63
     7
283
     0
 90
      512
 91
        0
  1

274
    -2
284
     1
 64
     0
275
    -2
285
     1
 65
     0
276
    -2
286
     1
 66
     0
277
    -2
287
     1
 67
     0
278
    -2
288
     1
 68
     0
279
    -2
289
     1
 69
     0
  0
VISUALSTYLE
  5
7FB4
102
{ACAD_REACTORS
330
7FAE
102
}
330
7FAE
100
AcDbVisualStyle
  2
2dWireframe
 70
     4
177
     3
291
     0
 70
    58
 90
        0
176
     1
 90
        2
176
     1
 90
        0
176
     1
 90
        0
176
     1
 40
0.6
176
     1
 40
30.0
176
     1
 62
     7
420
 16777215
176
     1
 90
        1
176
     1
 90
        4
176
     1
 62
     7
176
     1
 62
   257
176
     1
 90
        1
176
     1
 90
        1
176
     1
 40
1.0
176
     1
 90
        0
176
     1
 62
   257
176
     1
 40
1.0
176
     1
 90
        1
176
     1
 90
        6
176
     1
 90
        2
176
     1
 62
     7
176
     1
 90
        5
176
     1
 90
        0
176
     1
 90
        0
176
     1
290
     0
176
     1
 90
        1
176
     1
 40
0.0
176
     1
 90
        0
176
     1
290
     1
176
     1
290
     1
176
     1
290
     0
176
     1
290
     0
176
     1
290
     0
176
     1
290
     0
176
     1
290
     0
176
     1
290
     0
176
     1
290
     0
176
     1
 90
       50
176
     1
 40
0.0
176
     1
 40
1.0
176
     1
 90
        0
176
     1
 62
    18
420
        0
176
     1
 90
       50
176
     1
 90
        3
176
     1
 62
     5
420
      255
176
     1
290
     0
176
     1
 90
       50
176
     1
 90
       50
176
     1
 90
       50
176
     1
290
     0
176
     1
 90
       50
176
     1
 62
   256
176
     0
 40
1.0
176
     0
 90
        2
176
     1
  1
strokes_ogs.tif
176
     1
290
     0
176
     1
 40
1.0
176
     1
 40
1.0
176
     1
  0
VISUALSTYLE
  5
7FB3
102
{ACAD_REACTORS
330
7FAE
102
}
330
7FAE
100
AcDbVisualStyle
  2
Basic
 70
     7
177
     3
291
     1
 70
    58
 90
        1
176
     1
 90
        0
176
     1
 90
        1
176
     1
 90
        0
176
     1
 40
0.6
176
     1
 40
30.0
176
     1
 62
     7
420
 16777215
176
     1
 90
        0
176
     1
 90
        4
176
     1
 62
     7
176
     1
 62
   257
176
     1
 90
        1
176
     1
 90
        1
176
     1
 40
1.0
176
     1
 90
        8
176
     1
 62
     7
176
     1
 40
1.0
176
     1
 90
        1
176
     1
 90
        6
176
     1
 90
        2
176
     1
 62
     7
176
     1
 90
        5
176
     1
 90
        0
176
     1
 90
        0
176
     1
290
     0
176
     1
 90
        1
176
     1
 40
0.0
176
     1
 90
        0
176
     1
290
     0
176
     1
290
     1
176
     1
290
     1
176
     1
290
     0
176
     1
290
     0
176
     1
290
     0
176
     1
290
     0
176
     1
290
     0
176
     1
290
     0
176
     1
 90
       50
176
     1
 40
0.0
176
     1
 40
1.0
176
     1
 90
        0
176
     1
 62
    18
420
        0
176
     1
 90
       50
176
     1
 90
        3
176
     1
 62
     5
420
      255
176
     1
290
     0
176
     1
 90
       50
176
     1
 90
       50
176
     1
 90
       50
176
     1
290
     0
176
     1
 90
       50
176
     1
 62
   256
176
     0
 40
1.0
176
     0
 90
        2
176
     1
  1
strokes_ogs.tif
176
     1
290
     0
176
     1
 40
1.0
176
     1
 40
1.0
176
     1
  0
VISUALSTYLE
  5
7FBA
102
{ACAD_REACTORS
330
7FAE
102
}
330
7FAE
100
AcDbVisualStyle
  2
Brighten
 70
    12
177
     3
291
     1
 70
    58
 90
        2
176
     1
 90
        2
176
     1
 90
        0
176
     1
 90
        0
176
     1
 40
0.6
176
     1
 40
30.0
176
     1
 62
     7
420
 16777215
176
     1
 90
        1
176
     1
 90
        4
176
     1
 62
     7
176
     1
 62
   257
176
     1
 90
        1
176
     1
 90
        1
176
     1
 40
1.0
176
     1
 90
        8
176
     1
 62
     7
176
     1
 40
1.0
176
     1
 90
        1
176
     1
 90
        6
176
     1
 90
        2
176
     1
 62
     7
176
     1
 90
        5
176
     1
 90
        0
176
     1
 90
        0
176
     1
290
     0
176
     1
 90
        1
176
     1
 40
50.0
176
     1
 90
        0
176
     1
290
     0
176
     1
290
     1
176
     1
290
     1
176
     1
290
     0
176
     1
290
     0
176
     1
290
     0
176
     1
290
     0
176
     1
290
     0
176
     1
290
     0
176
     1
 90
       50
176
     1
 40
0.0
176
     1
 40
1.0
176
     1
 90
        0
176
     1
 62
    18
420
        0
176
     1
 90
       50
176
     1
 90
        3
176
     1
 62
     5
420
      255
176
     1
290
     0
176
     1
 90
       50
176
     1
 90
       50
176
     1
 90
       50
176
     1
290
     0
176
     1
 90
       50
176
     1
 62
   256
176
     0
 40
1.0
176
     0
 90
        2
176
     1
  1
strokes_ogs.tif
176
     1
290
     0
176
     1
 40
1.0
176
     1
 40
1.0
176
     1
  0
VISUALSTYLE
  5
7FBE
102
{ACAD_REACTORS
330
7FAE
102
}
330
7FAE
100
AcDbVisualStyle
  2
ColorChange
 70
    16
177
     3
291
     1
 70
    58
 90
        2
176
     1
 90
        2
176
     1
 90
        3
176
     1
 90
        0
176
     1
 40
0.6
176
     1
 40
30.0
176
     1
 62
     8
420
  8421504
176
     1
 90
        1
176
     1
 90
        4
176
     1
 62
     7
176
     1
 62
   257
176
     1
 90
        1
176
     1
 90
        1
176
     1
 40
1.0
176
     1
 90
        8
176
     1
 62
     8
420
  8421504
176
     1
 40
1.0
176
     1
 90
        1
176
     1
 90
        6
176
     1
 90
        2
176
     1
 62
     7
176
     1
 90
        5
176
     1
 90
        0
176
     1
 90
        0
176
     1
290
     0
176
     1
 90
        1
176
     1
 40
0.0
176
     1
 90
        0
176
     1
290
     0
176
     1
290
     1
176
     1
290
     1
176
     1
290
     0
176
     1
290
     0
176
     1
290
     0
176
     1
290
     0
176
     1
290
     0
176
     1
290
     0
176
     1
 90
       50
176
     1
 40
0.0
176
     1
 40
1.0
176
     1
 90
        0
176
     1
 62
    18
420
        0
176
     1
 90
       50
176
     1
 90
        3
176
     1
 62
     5
420
      255
176
     1
290
     0
176
     1
 90
       50
176
     1
 90
       50
176
     1
 90
       50
176
     1
290
     0
176
     1
 90
       50
176
     1
 62
   256
176
     0
 40
1.0
176
     0
 90
        2
176
     1
  1
strokes_ogs.tif
176
     1
290
     0
176
     1
 40
1.0
176
     1
 40
1.0
176
     1
  0
VISUALSTYLE
  5
7FB7
102
{ACAD_REACTORS
330
7FAE
102
}
330
7FAE
100
AcDbVisualStyle
  2
Conceptual
 70
     9
177
     3
291
     0
 70
    58
 90
        3
176
     1
 90
        2
176
     1
 90
        0
176
     1
 90
        0
176
     1
 40
0.6
176
     1
 40
30.0
176
     1
 62
     7
420
 16777215
176
     1
 90
        2
176
     1
 90
        2
176
     1
 62
     7
176
     1
 62
   257
176
     1
 90
        1
176
     1
 90
        1
176
     1
 40
179.0
176
     1
 90
        8
176
     1
 62
     7
176
     1
 40
1.0
176
     1
 90
        1
176
     1
 90
        6
176
     1
 90
        2
176
     1
 62
     7
176
     1
 90
        3
176
     1
 90
        0
176
     1
 90
        0
176
     1
290
     0
176
     1
 90
        1
176
     1
 40
0.0
176
     1
 90
        0
176
     1
290
     0
176
     1
290
     1
176
     1
290
     1
176
     1
290
     0
176
     1
290
     0
176
     1
290
     0
176
     1
290
     0
176
     1
290
     0
176
     1
290
     0
176
     1
 90
       50
176
     1
 40
0.0
176
     1
 40
1.0
176
     1
 90
        0
176
     1
 62
    18
420
        0
176
     1
 90
       50
176
     1
 90
        3
176
     1
 62
     5
420
      255
176
     1
290
     0
176
     1
 90
       50
176
     1
 90
       50
176
     1
 90
       50
176
     1
290
     0
176
     1
 90
       50
176
     1
 62
   256
176
     0
 40
1.0
176
     0
 90
        2
176
     1
  1
strokes_ogs.tif
176
     1
290
     0
176
     1
 40
1.0
176
     1
 40
1.0
176
     1
  0
VISUALSTYLE
  5
7FB9
102
{ACAD_REACTORS
330
7FAE
102
}
330
7FAE
100
AcDbVisualStyle
  2
Dim
 70
    11
177
     3
291
     1
 70
    58
 90
        2
176
     1
 90
        2
176
     1
 90
        0
176
     1
 90
        0
176
     1
 40
0.6
176
     1
 40
30.0
176
     1
 62
     7
420
 16777215
176
     1
 90
        1
176
     1
 90
        4
176
     1
 62
     7
176
     1
 62
   257
176
     1
 90
        1
176
     1
 90
        1
176
     1
 40
1.0
176
     1
 90
        8
176
     1
 62
     7
176
     1
 40
1.0
176
     1
 90
        1
176
     1
 90
        6
176
     1
 90
        2
176
     1
 62
     7
176
     1
 90
        5
176
     1
 90
        0
176
     1
 90
        0
176
     1
290
     0
176
     1
 90
        1
176
     1
 40
-50.0
176
     1
 90
        0
176
     1
290
     0
176
     1
290
     1
176
     1
290
     1
176
     1
290
     0
176
     1
290
     0
176
     1
290
     0
176
     1
290
     0
176
     1
290
     0
176
     1
290
     0
176
     1
 90
       50
176
     1
 40
0.0
176
     1
 40
1.0
176
     1
 90
        0
176
     1
 62
    18
420
        0
176
     1
 90
       50
176
     1
 90
        3
176
     1
 62
     5
420
      255
176
     1
290
     0
176
     1
 90
       50
176
     1
 90
       50
176
     1
 90
       50
176
     1
290
     0
176
     1
 90
       50
176
     1
 62
   256
176
     0
 40
1.0
176
     0
 90
        2
176
     1
  1
strokes_ogs.tif
176
     1
290
     0
176
     1
 40
1.0
176
     1
 40
1.0
176
     1
  0
VISUALSTYLE
  5
7FC6
102
{ACAD_REACTORS
330
7FAE
102
}
330
7FAE
100
AcDbVisualStyle
  2
EdgeColorOff
 70
    22
177
     3
291
     1
 70
    58
 90
        2
176
     0
 90
        2
176
     0
 90
        0
176
     0
 90
        0
176
     0
 40
0.6
176
     0
 40
30.0
176
     0
 62
     7
420
 16777215
176
     0
 90
        1
176
     0
 90
        4
176
     0
 62
     7
176
     0
 62
   257
176
     0
 90
        1
176
     0
 90
        1
176
     0
 40
1.0
176
     0
 90
        8
176
     2
 62
     7
176
     0
 40
1.0
176
     0
 90
        1
176
     0
 90
        6
176
     0
 90
        2
176
     0
 62
     7
176
     0
 90
        5
176
     0
 90
        0
176
     0
 90
        0
176
     0
290
     0
176
     0
 90
        1
176
     0
 40
0.0
176
     0
 90
        0
176
     0
290
     0
176
     0
290
     1
176
     0
290
     1
176
     0
290
     0
176
     0
290
     0
176
     0
290
     0
176
     0
290
     0
176
     0
290
     0
176
     0
290
     0
176
     0
 90
       50
176
     0
 40
0.0
176
     0
 40
1.0
176
     0
 90
        0
176
     0
 62
    18
420
        0
176
     0
 90
       50
176
     0
 90
        3
176
     0
 62
     5
420
      255
176
     0
290
     0
176
     0
 90
       50
176
     0
 90
       50
176
     0
 90
       50
176
     0
290
     0
176
     0
 90
       50
176
     0
 62
   256
176
     0
 40
1.0
176
     0
 90
        2
176
     0
  1
strokes_ogs.tif
176
     0
290
     0
176
     0
 40
1.0
176
     0
 40
1.0
176
     0
  0
VISUALSTYLE
  5
7FBD
102
{ACAD_REACTORS
330
7FAE
102
}
330
7FAE
100
AcDbVisualStyle
  2
Facepattern
 70
    15
177
     3
291
     1
 70
    58
 90
        2
176
     1
 90
        2
176
     1
 90
        0
176
     1
 90
        0
176
     1
 40
0.6
176
     1
 40
30.0
176
     1
 62
     7
420
 16777215
176
     1
 90
        1
176
     1
 90
        4
176
     1
 62
     7
176
     1
 62
   257
176
     1
 90
        1
176
     1
 90
        1
176
     1
 40
1.0
176
     1
 90
        8
176
     1
 62
     7
176
     1
 40
1.0
176
     1
 90
        1
176
     1
 90
        6
176
     1
 90
        2
176
     1
 62
     7
176
     1
 90
        5
176
     1
 90
        0
176
     1
 90
        0
176
     1
290
     0
176
     1
 90
        1
176
     1
 40
0.0
176
     1
 90
        0
176
     1
290
     0
176
     1
290
     1
176
     1
290
     1
176
     1
290
     0
176
     1
290
     0
176
     1
290
     0
176
     1
290
     0
176
     1
290
     0
176
     1
290
     0
176
     1
 90
       50
176
     1
 40
0.0
176
     1
 40
1.0
176
     1
 90
        0
176
     1
 62
    18
420
        0
176
     1
 90
       50
176
     1
 90
        3
176
     1
 62
     5
420
      255
176
     1
290
     0
176
     1
 90
       50
176
     1
 90
       50
176
     1
 90
       50
176
     1
290
     0
176
     1
 90
       50
176
     1
 62
   256
176
     0
 40
1.0
176
     0
 90
        2
176
     1
  1
strokes_ogs.tif
176
     1
290
     0
176
     1
 40
1.0
176
     1
 40
1.0
176
     1
  0
VISUALSTYLE
  5
7FAF
102
{ACAD_REACTORS
330
7FAE
102
}
330
7FAE
100
AcDbVisualStyle
  2
Flat
 70
     0
177
     3
291
     1
 70
    58
 90
        2
176
     1
 90
        1
176
     1
 90
        1
176
     1
 90
        2
176
     1
 40
0.6
176
     1
 40
30.0
176
     1
 62
     7
420
 16777215
176
     1
 90
        0
176
     1
 90
        0
176
     1
 62
     7
176
     1
 62
   257
176
     1
 90
        1
176
     1
 90
        1
176
     1
 40
1.0
176
     1
 90
        8
176
     1
 62
     7
176
     1
 40
1.0
176
     1
 90
        1
176
     1
 90
        6
176
     1
 90
        2
176
     1
 62
     7
176
     1
 90
        5
176
     1
 90
        0
176
     1
 90
        0
176
     1
290
     0
176
     1
 90
       13
176
     1
 40
0.0
176
     1
 90
        0
176
     1
290
     0
176
     1
290
     1
176
     1
290
     1
176
     1
290
     0
176
     1
290
     0
176
     1
290
     0
176
     1
290
     0
176
     1
290
     0
176
     1
290
     0
176
     1
 90
       50
176
     1
 40
0.0
176
     1
 40
1.0
176
     1
 90
        0
176
     1
 62
    18
420
        0
176
     1
 90
       50
176
     1
 90
        3
176
     1
 62
     5
420
      255
176
     1
290
     0
176
     1
 90
       50
176
     1
 90
       50
176
     1
 90
       50
176
     1
290
     0
176
     1
 90
       50
176
     1
 62
   256
176
     0
 40
1.0
176
     0
 90
        2
176
     1
  1
strokes_ogs.tif
176
     1
290
     0
176
     1
 40
1.0
176
     1
 40
1.0
176
     1
  0
VISUALSTYLE
  5
7FB0
102
{ACAD_REACTORS
330
7FAE
102
}
330
7FAE
100
AcDbVisualStyle
  2
FlatWithEdges
 70
     1
177
     3
291
     1
 70
    58
 90
        2
176
     1
 90
        1
176
     1
 90
        1
176
     1
 90
        2
176
     1
 40
0.6
176
     1
 40
30.0
176
     1
 62
     7
420
 16777215
176
     1
 90
        1
176
     1
 90
        0
176
     1
 62
     7
176
     1
 62
   257
176
     1
 90
        1
176
     1
 90
        1
176
     1
 40
1.0
176
     1
 90
        0
176
     1
 62
   257
176
     1
 40
1.0
176
     1
 90
        1
176
     1
 90
        6
176
     1
 90
        2
176
     1
 62
     7
176
     1
 90
        5
176
     1
 90
        0
176
     1
 90
        0
176
     1
290
     0
176
     1
 90
       13
176
     1
 40
0.0
176
     1
 90
        0
176
     1
290
     0
176
     1
290
     1
176
     1
290
     1
176
     1
290
     0
176
     1
290
     0
176
     1
290
     0
176
     1
290
     0
176
     1
290
     0
176
     1
290
     0
176
     1
 90
       50
176
     1
 40
0.0
176
     1
 40
1.0
176
     1
 90
        0
176
     1
 62
    18
420
        0
176
     1
 90
       50
176
     1
 90
        3
176
     1
 62
     5
420
      255
176
     1
290
     0
176
     1
 90
       50
176
     1
 90
       50
176
     1
 90
       50
176
     1
290
     0
176
     1
 90
       50
176
     1
 62
   256
176
     0
 40
1.0
176
     0
 90
        2
176
     1
  1
strokes_ogs.tif
176
     1
290
     0
176
     1
 40
1.0
176
     1
 40
1.0
176
     1
  0
VISUALSTYLE
  5
7FB1
102
{ACAD_REACTORS
330
7FAE
102
}
330
7FAE
100
AcDbVisualStyle
  2
Gouraud
 70
     2
177
     3
291
     1
 70
    58
 90
        2
176
     1
 90
        2
176
     1
 90
        1
176
     1
 90
        2
176
     1
 40
0.6
176
     1
 40
30.0
176
     1
 62
     7
420
 16777215
176
     1
 90
        0
176
     1
 90
        0
176
     1
 62
     7
176
     1
 62
   257
176
     1
 90
        1
176
     1
 90
        1
176
     1
 40
1.0
176
     1
 90
        0
176
     1
 62
     7
176
     1
 40
1.0
176
     1
 90
        1
176
     1
 90
        6
176
     1
 90
        2
176
     1
 62
     7
176
     1
 90
        5
176
     1
 90
        0
176
     1
 90
        0
176
     1
290
     0
176
     1
 90
       13
176
     1
 40
0.0
176
     1
 90
        0
176
     1
290
     0
176
     1
290
     1
176
     1
290
     1
176
     1
290
     0
176
     1
290
     0
176
     1
290
     0
176
     1
290
     0
176
     1
290
     0
176
     1
290
     0
176
     1
 90
       50
176
     1
 40
0.0
176
     1
 40
1.0
176
     1
 90
        0
176
     1
 62
    18
420
        0
176
     1
 90
       50
176
     1
 90
        3
176
     1
 62
     5
420
      255
176
     1
290
     0
176
     1
 90
       50
176
     1
 90
       50
176
     1
 90
       50
176
     1
290
     0
176
     1
 90
       50
176
     1
 62
   256
176
     0
 40
1.0
176
     0
 90
        2
176
     1
  1
strokes_ogs.tif
176
     1
290
     0
176
     1
 40
1.0
176
     1
 40
1.0
176
     1
  0
VISUALSTYLE
  5
7FB2
102
{ACAD_REACTORS
330
7FAE
102
}
330
7FAE
100
AcDbVisualStyle
  2
GouraudWithEdges
 70
     3
177
     3
291
     1
 70
    58
 90
        2
176
     1
 90
        2
176
     1
 90
        1
176
     1
 90
        2
176
     1
 40
0.6
176
     1
 40
30.0
176
     1
 62
     7
420
 16777215
176
     1
 90
        1
176
     1
 90
        0
176
     1
 62
     7
176
     1
 62
   257
176
     1
 90
        1
176
     1
 90
        1
176
     1
 40
1.0
176
     1
 90
        0
176
     1
 62
   257
176
     1
 40
1.0
176
     1
 90
        1
176
     1
 90
        6
176
     1
 90
        2
176
     1
 62
     7
176
     1
 90
        5
176
     1
 90
        0
176
     1
 90
        0
176
     1
290
     0
176
     1
 90
       13
176
     1
 40
0.0
176
     1
 90
        0
176
     1
290
     0
176
     1
290
     1
176
     1
290
     1
176
     1
290
     0
176
     1
290
     0
176
     1
290
     0
176
     1
290
     0
176
     1
290
     0
176
     1
290
     0
176
     1
 90
       50
176
     1
 40
0.0
176
     1
 40
1.0
176
     1
 90
        0
176
     1
 62
    18
420
        0
176
     1
 90
       50
176
     1
 90
        3
176
     1
 62
     5
420
      255
176
     1
290
     0
176
     1
 90
       50
176
     1
 90
       50
176
     1
 90
       50
176
     1
290
     0
176
     1
 90
       50
176
     1
 62
   256
176
     0
 40
1.0
176
     0
 90
        2
176
     1
  1
strokes_ogs.tif
176
     1
290
     0
176
     1
 40
1.0
176
     1
 40
1.0
176
     1
  0
VISUALSTYLE
  5
7FB6
102
{ACAD_REACTORS
330
7FAE
102
}
330
7FAE
100
AcDbVisualStyle
  2
Hidden
 70
     6
177
     3
291
     0
 70
    58
 90
        1
176
     1
 90
        2
176
     1
 90
        2
176
     1
 90
        0
176
     1
 40
0.6
176
     1
 40
30.0
176
     1
 62
     7
420
 16777215
176
     1
 90
        2
176
     1
 90
        2
176
     1
 62
     7
176
     1
 62
   257
176
     1
 90
        2
176
     1
 90
        1
176
     1
 40
40.0
176
     1
 90
        0
176
     1
 62
   257
176
     1
 40
1.0
176
     1
 90
        1
176
     1
 90
        6
176
     1
 90
        2
176
     1
 62
     7
176
     1
 90
        3
176
     1
 90
        0
176
     1
 90
        0
176
     1
290
     0
176
     1
 90
        1
176
     1
 40
0.0
176
     1
 90
        0
176
     1
290
     0
176
     1
290
     1
176
     1
290
     1
176
     1
290
     0
176
     1
290
     0
176
     1
290
     0
176
     1
290
     0
176
     1
290
     0
176
     1
290
     0
176
     1
 90
       50
176
     1
 40
0.0
176
     1
 40
1.0
176
     1
 90
        0
176
     1
 62
    18
420
        0
176
     1
 90
       50
176
     1
 90
        3
176
     1
 62
     5
420
      255
176
     1
290
     0
176
     1
 90
       50
176
     1
 90
       50
176
     1
 90
       50
176
     1
290
     0
176
     1
 90
       50
176
     1
 62
   256
176
     0
 40
1.0
176
     0
 90
        2
176
     1
  1
strokes_ogs.tif
176
     1
290
     0
176
     1
 40
1.0
176
     1
 40
1.0
176
     1
  0
VISUALSTYLE
  5
7FC4
102
{ACAD_REACTORS
330
7FAE
102
}
330
7FAE
100
AcDbVisualStyle
  2
JitterOff
 70
    20
177
     3
291
     1
 70
    58
 90
        2
176
     0
 90
        2
176
     0
 90
        0
176
     0
 90
        0
176
     0
 40
0.6
176
     0
 40
30.0
176
     0
 62
     7
420
 16777215
176
     0
 90
        1
176
     0
 90
        4
176
     0
 62
     7
176
     0
 62
   257
176
     0
 90
        1
176
     0
 90
        1
176
     0
 40
1.0
176
     0
 90
       10
176
     2
 62
     7
176
     0
 40
1.0
176
     0
 90
        1
176
     0
 90
        6
176
     0
 90
        2
176
     0
 62
     7
176
     0
 90
        5
176
     0
 90
        0
176
     0
 90
        0
176
     0
290
     0
176
     0
 90
        1
176
     0
 40
0.0
176
     0
 90
        0
176
     0
290
     0
176
     0
290
     1
176
     0
290
     1
176
     0
290
     0
176
     0
290
     0
176
     0
290
     0
176
     0
290
     0
176
     0
290
     0
176
     0
290
     0
176
     0
 90
       50
176
     0
 40
0.0
176
     0
 40
1.0
176
     0
 90
        0
176
     0
 62
    18
420
        0
176
     0
 90
       50
176
     0
 90
        3
176
     0
 62
     5
420
      255
176
     0
290
     0
176
     0
 90
       50
176
     0
 90
       50
176
     0
 90
       50
176
     0
290
     0
176
     0
 90
       50
176
     0
 62
   256
176
     0
 40
1.0
176
     0
 90
        2
176
     0
  1
strokes_ogs.tif
176
     0
290
     0
176
     0
 40
1.0
176
     0
 40
1.0
176
     0
  0
VISUALSTYLE
  5
7FBC
102
{ACAD_REACTORS
330
7FAE
102
}
330
7FAE
100
AcDbVisualStyle
  2
Linepattern
 70
    14
177
     3
291
     1
 70
    58
 90
        2
176
     1
 90
        2
176
     1
 90
        0
176
     1
 90
        0
176
     1
 40
0.6
176
     1
 40
30.0
176
     1
 62
     7
420
 16777215
176
     1
 90
        1
176
     1
 90
        4
176
     1
 62
     7
176
     1
 62
   257
176
     1
 90
        7
176
     1
 90
        7
176
     1
 40
1.0
176
     1
 90
        8
176
     1
 62
     7
176
     1
 40
1.0
176
     1
 90
        1
176
     1
 90
        6
176
     1
 90
        2
176
     1
 62
     7
176
     1
 90
        5
176
     1
 90
        0
176
     1
 90
        0
176
     1
290
     0
176
     1
 90
        1
176
     1
 40
0.0
176
     1
 90
        0
176
     1
290
     0
176
     1
290
     1
176
     1
290
     1
176
     1
290
     0
176
     1
290
     0
176
     1
290
     0
176
     1
290
     0
176
     1
290
     0
176
     1
290
     0
176
     1
 90
       50
176
     1
 40
0.0
176
     1
 40
1.0
176
     1
 90
        0
176
     1
 62
    18
420
        0
176
     1
 90
       50
176
     1
 90
        3
176
     1
 62
     5
420
      255
176
     1
290
     0
176
     1
 90
       50
176
     1
 90
       50
176
     1
 90
       50
176
     1
290
     0
176
     1
 90
       50
176
     1
 62
   256
176
     0
 40
1.0
176
     0
 90
        2
176
     1
  1
strokes_ogs.tif
176
     1
290
     0
176
     1
 40
1.0
176
     1
 40
1.0
176
     1
  0
VISUALSTYLE
  5
7FC5
102
{ACAD_REACTORS
330
7FAE
102
}
330
7FAE
100
AcDbVisualStyle
  2
OverhangOff
 70
    21
177
     3
291
     1
 70
    58
 90
        2
176
     0
 90
        2
176
     0
 90
        0
176
     0
 90
        0
176
     0
 40
0.6
176
     0
 40
30.0
176
     0
 62
     7
420
 16777215
176
     0
 90
        1
176
     0
 90
        4
176
     0
 62
     7
176
     0
 62
   257
176
     0
 90
        1
176
     0
 90
        1
176
     0
 40
1.0
176
     0
 90
        9
176
     2
 62
     7
176
     0
 40
1.0
176
     0
 90
        1
176
     0
 90
        6
176
     0
 90
        2
176
     0
 62
     7
176
     0
 90
        5
176
     0
 90
        0
176
     0
 90
        0
176
     0
290
     0
176
     0
 90
        1
176
     0
 40
0.0
176
     0
 90
        0
176
     0
290
     0
176
     0
290
     1
176
     0
290
     1
176
     0
290
     0
176
     0
290
     0
176
     0
290
     0
176
     0
290
     0
176
     0
290
     0
176
     0
290
     0
176
     0
 90
       50
176
     0
 40
0.0
176
     0
 40
1.0
176
     0
 90
        0
176
     0
 62
    18
420
        0
176
     0
 90
       50
176
     0
 90
        3
176
     0
 62
     5
420
      255
176
     0
290
     0
176
     0
 90
       50
176
     0
 90
       50
176
     0
 90
       50
176
     0
290
     0
176
     0
 90
       50
176
     0
 62
   256
176
     0
 40
1.0
176
     0
 90
        2
176
     0
  1
strokes_ogs.tif
176
     0
290
     0
176
     0
 40
1.0
176
     0
 40
1.0
176
     0
  0
VISUALSTYLE
  5
7FB8
102
{ACAD_REACTORS
330
7FAE
102
}
330
7FAE
100
AcDbVisualStyle
  2
Realistic
 70
     8
177
     3
291
     0
 70
    58
 90
        2
176
     1
 90
        3
176
     1
 90
        0
176
     1
 90
        2
176
     1
 40
0.6
176
     1
 40
30.0
176
     1
 62
     7
420
 16777215
176
     1
 90
        0
176
     1
 90
        0
176
     1
 62
     7
176
     1
 62
   257
176
     1
 90
        1
176
     1
 90
        1
176
     1
 40
1.0
176
     1
 90
        8
176
     1
 62
   257
176
     1
 40
1.0
176
     1
 90
        1
176
     1
 90
        6
176
     1
 90
        2
176
     1
 62
     7
176
     1
 90
        3
176
     1
 90
        0
176
     1
 90
        0
176
     1
290
     0
176
     1
 90
       13
176
     1
 40
0.0
176
     1
 90
        0
176
     1
290
     0
176
     1
290
     1
176
     1
290
     1
176
     1
290
     0
176
     1
290
     0
176
     1
290
     0
176
     1
290
     0
176
     1
290
     0
176
     1
290
     0
176
     1
 90
       50
176
     1
 40
0.0
176
     1
 40
1.0
176
     1
 90
        0
176
     1
 62
    18
420
        0
176
     1
 90
       50
176
     1
 90
        3
176
     1
 62
     5
420
      255
176
     1
290
     0
176
     1
 90
       50
176
     1
 90
       50
176
     1
 90
       50
176
     1
290
     0
176
     1
 90
       50
176
     1
 62
   256
176
     0
 40
1.0
176
     0
 90
        2
176
     1
  1
strokes_ogs.tif
176
     1
290
     0
176
     1
 40
1.0
176
     1
 40
1.0
176
     1
  0
VISUALSTYLE
  5
7FC3
102
{ACAD_REACTORS
330
7FAE
102
}
330
7FAE
100
AcDbVisualStyle
  2
Shaded
 70
    27
177
     3
291
     0
 70
    58
 90
        2
176
     1
 90
        2
176
     1
 90
        1
176
     1
 90
        2
176
     1
 40
0.6
176
     1
 40
30.0
176
     1
 62
     7
420
 16777215
176
     1
 90
        0
176
     1
 90
        4
176
     1
 62
     7
176
     1
 62
   257
176
     1
 90
        1
176
     1
 90
        1
176
     1
 40
1.0
176
     1
 90
        8
176
     1
 62
   257
176
     1
 40
1.0
176
     1
 90
        1
176
     1
 90
        6
176
     1
 90
        2
176
     1
 62
     8
420
  7895160
176
     1
 90
        3
176
     1
 90
        0
176
     1
 90
        0
176
     1
290
     0
176
     1
 90
        5
176
     1
 40
0.0
176
     1
 90
        0
176
     1
290
     0
176
     1
290
     1
176
     1
290
     1
176
     1
290
     0
176
     1
290
     0
176
     1
290
     0
176
     1
290
     0
176
     1
290
     0
176
     1
290
     0
176
     1
 90
       50
176
     1
 40
0.0
176
     1
 40
1.0
176
     1
 90
        0
176
     1
 62
    18
420
        0
176
     1
 90
       50
176
     1
 90
        3
176
     1
 62
     5
420
      255
176
     1
290
     0
176
     1
 90
       50
176
     1
 90
       50
176
     1
 90
       50
176
     1
290
     0
176
     1
 90
       50
176
     1
 62
   256
176
     0
 40
1.0
176
     0
 90
        2
176
     1
  1
strokes_ogs.tif
176
     1
290
     0
176
     1
 40
1.0
176
     1
 40
1.0
176
     1
  0
VISUALSTYLE
  5
7FC2
102
{ACAD_REACTORS
330
7FAE
102
}
330
7FAE
100
AcDbVisualStyle
  2
Shaded with edges
 70
    26
177
     3
291
     0
 70
    58
 90
        2
176
     1
 90
        2
176
     1
 90
        1
176
     1
 90
        2
176
     1
 40
0.6
176
     1
 40
30.0
176
     1
 62
     7
420
 16777215
176
     1
 90
        1
176
     1
 90
       10
176
     1
 62
     7
176
     1
 62
   257
176
     1
 90
        2
176
     1
 90
        1
176
     1
 40
1.0
176
     1
 90
        8
176
     1
 62
   257
176
     1
 40
1.0
176
     1
 90
        1
176
     1
 90
        6
176
     1
 90
        2
176
     1
 62
     7
176
     1
 90
        3
176
     1
 90
        0
176
     1
 90
        0
176
     1
290
     0
176
     1
 90
        5
176
     1
 40
0.0
176
     1
 90
        0
176
     1
290
     0
176
     1
290
     1
176
     1
290
     1
176
     1
290
     0
176
     1
290
     0
176
     1
290
     0
176
     1
290
     0
176
     1
290
     0
176
     1
290
     0
176
     1
 90
       50
176
     1
 40
0.0
176
     1
 40
1.0
176
     1
 90
        0
176
     1
 62
    18
420
        0
176
     1
 90
       50
176
     1
 90
        3
176
     1
 62
     5
420
      255
176
     1
290
     0
176
     1
 90
       50
176
     1
 90
       50
176
     1
 90
       50
176
     1
290
     0
176
     1
 90
       50
176
     1
 62
   256
176
     0
 40
1.0
176
     0
 90
        2
176
     1
  1
strokes_ogs.tif
176
     1
290
     0
176
     1
 40
1.0
176
     1
 40
1.0
176
     1
  0
VISUALSTYLE
  5
7FBF
102
{ACAD_REACTORS
330
7FAE
102
}
330
7FAE
100
AcDbVisualStyle
  2
Shades of Gray
 70
    23
177
     3
291
     0
 70
    58
 90
        2
176
     1
 90
        2
176
     1
 90
        3
176
     1
 90
        0
176
     1
 40
0.6
176
     1
 40
30.0
176
     1
 62
     7
420
 16777215
176
     1
 90
        2
176
     1
 90
        2
176
     1
 62
     7
176
     1
 62
     7
176
     1
 90
        1
176
     1
 90
        1
176
     1
 40
40.0
176
     1
 90
        8
176
     1
 62
     7
176
     1
 40
1.0
176
     1
 90
        1
176
     1
 90
        6
176
     1
 90
        2
176
     1
 62
     7
176
     1
 90
        3
176
     1
 90
        0
176
     1
 90
        0
176
     1
290
     0
176
     1
 90
        1
176
     1
 40
0.0
176
     1
 90
        0
176
     1
290
     0
176
     1
290
     1
176
     1
290
     1
176
     1
290
     0
176
     1
290
     0
176
     1
290
     0
176
     1
290
     0
176
     1
290
     0
176
     1
290
     0
176
     1
 90
       50
176
     1
 40
0.0
176
     1
 40
1.0
176
     1
 90
        0
176
     1
 62
    18
420
        0
176
     1
 90
       50
176
     1
 90
        3
176
     1
 62
     5
420
      255
176
     1
290
     0
176
     1
 90
       50
176
     1
 90
       50
176
     1
 90
       50
176
     1
290
     0
176
     1
 90
       50
176
     1
 62
   256
176
     0
 40
1.0
176
     0
 90
        2
176
     1
  1
strokes_ogs.tif
176
     1
290
     0
176
     1
 40
1.0
176
     1
 40
1.0
176
     1
  0
VISUALSTYLE
  5
7FC0
102
{ACAD_REACTORS
330
7FAE
102
}
330
7FAE
100
AcDbVisualStyle
  2
Sketchy
 70
    24
177
     3
291
     0
 70
    58
 90
        1
176
     1
 90
        2
176
     1
 90
        2
176
     1
 90
        0
176
     1
 40
0.6
176
     1
 40
30.0
176
     1
 62
     7
420
 16777215
176
     1
 90
        2
176
     1
 90
        2
176
     1
 62
     7
176
     1
 62
     7
176
     1
 90
        1
176
     1
 90
        1
176
     1
 40
40.0
176
     1
 90
       11
176
     1
 62
     7
176
     1
 40
1.0
176
     1
 90
        1
176
     1
 90
        6
176
     1
 90
        2
176
     1
 62
     7
176
     1
 90
        6
176
     1
 90
        0
176
     1
 90
        0
176
     1
290
     0
176
     1
 90
        1
176
     1
 40
0.0
176
     1
 90
        0
176
     1
290
     0
176
     1
290
     1
176
     1
290
     1
176
     1
290
     0
176
     1
290
     0
176
     1
290
     0
176
     1
290
     0
176
     1
290
     0
176
     1
290
     0
176
     1
 90
       50
176
     1
 40
0.0
176
     1
 40
1.0
176
     1
 90
        0
176
     1
 62
    18
420
        0
176
     1
 90
       50
176
     1
 90
        3
176
     1
 62
     5
420
      255
176
     1
290
     0
176
     1
 90
       50
176
     1
 90
       50
176
     1
 90
       50
176
     1
290
     0
176
     1
 90
       50
176
     1
 62
   256
176
     0
 40
1.0
176
     0
 90
        2
176
     1
  1
strokes_ogs.tif
176
     1
290
     0
176
     1
 40
1.0
176
     1
 40
1.0
176
     1
  0
VISUALSTYLE
  5
7FBB
102
{ACAD_REACTORS
330
7FAE
102
}
330
7FAE
100
AcDbVisualStyle
  2
Thicken
 70
    13
177
     3
291
     1
 70
    58
 90
        2
176
     1
 90
        2
176
     1
 90
        0
176
     1
 90
        0
176
     1
 40
0.6
176
     1
 40
30.0
176
     1
 62
     7
420
 16777215
176
     1
 90
        1
176
     1
 90
        4
176
     1
 62
     7
176
     1
 62
   257
176
     1
 90
        1
176
     1
 90
        1
176
     1
 40
1.0
176
     1
 90
       12
176
     1
 62
     7
176
     1
 40
1.0
176
     1
 90
        1
176
     1
 90
        6
176
     1
 90
        2
176
     1
 62
     7
176
     1
 90
        5
176
     1
 90
        0
176
     1
 90
        0
176
     1
290
     0
176
     1
 90
        1
176
     1
 40
0.0
176
     1
 90
        0
176
     1
290
     0
176
     1
290
     1
176
     1
290
     1
176
     1
290
     0
176
     1
290
     0
176
     1
290
     0
176
     1
290
     0
176
     1
290
     0
176
     1
290
     0
176
     1
 90
       50
176
     1
 40
0.0
176
     1
 40
1.0
176
     1
 90
        0
176
     1
 62
    18
420
        0
176
     1
 90
       50
176
     1
 90
        3
176
     1
 62
     5
420
      255
176
     1
290
     0
176
     1
 90
       50
176
     1
 90
       50
176
     1
 90
       50
176
     1
290
     0
176
     1
 90
       50
176
     1
 62
   256
176
     0
 40
1.0
176
     0
 90
        2
176
     1
  1
strokes_ogs.tif
176
     1
290
     0
176
     1
 40
1.0
176
     1
 40
1.0
176
     1
  0
VISUALSTYLE
  5
7FB5
102
{ACAD_REACTORS
330
7FAE
102
}
330
7FAE
100
AcDbVisualStyle
  2
Wireframe
 70
     5
177
     3
291
     0
 70
    58
 90
        0
176
     1
 90
        2
176
     1
 90
        0
176
     1
 90
        0
176
     1
 40
0.6
176
     1
 40
30.0
176
     1
 62
     7
420
 16777215
176
     1
 90
        1
176
     1
 90
        4
176
     1
 62
     7
176
     1
 62
   257
176
     1
 90
        1
176
     1
 90
        1
176
     1
 40
1.0
176
     1
 90
        0
176
     1
 62
   257
176
     1
 40
1.0
176
     1
 90
        1
176
     1
 90
        6
176
     1
 90
        2
176
     1
 62
     7
176
     1
 90
        3
176
     1
 90
        0
176
     1
 90
        0
176
     1
290
     0
176
     1
 90
        1
176
     1
 40
0.0
176
     1
 90
        0
176
     1
290
     0
176
     1
290
     1
176
     1
290
     1
176
     1
290
     0
176
     1
290
     0
176
     1
290
     0
176
     1
290
     0
176
     1
290
     0
176
     1
290
     0
176
     1
 90
       50
176
     1
 40
0.0
176
     1
 40
1.0
176
     1
 90
        0
176
     1
 62
    18
420
        0
176
     1
 90
       50
176
     1
 90
        3
176
     1
 62
     5
420
      255
176
     1
290
     0
176
     1
 90
       50
176
     1
 90
       50
176
     1
 90
       50
176
     1
290
     0
176
     1
 90
       50
176
     1
 62
   256
176
     0
 40
1.0
176
     0
 90
        2
176
     1
  1
strokes_ogs.tif
176
     1
290
     0
176
     1
 40
1.0
176
     1
 40
1.0
176
     1
  0
VISUALSTYLE
  5
7FC1
102
{ACAD_REACTORS
330
7FAE
102
}
330
7FAE
100
AcDbVisualStyle
  2
X-Ray
 70
    25
177
     3
291
     0
 70
    58
 90
        2
176
     1
 90
        2
176
     1
 90
        1
176
     1
 90
        1
176
     1
 40
0.5
176
     1
 40
30.0
176
     1
 62
     7
420
 16777215
176
     1
 90
        1
176
     1
 90
        0
176
     1
 62
     7
176
     1
 62
   257
176
     1
 90
        1
176
     1
 90
        1
176
     1
 40
1.0
176
     1
 90
        8
176
     1
 62
     7
176
     1
 40
1.0
176
     1
 90
        1
176
     1
 90
        6
176
     1
 90
        2
176
     1
 62
     7
176
     1
 90
        3
176
     1
 90
        0
176
     1
 90
        0
176
     1
290
     0
176
     1
 90
       13
176
     1
 40
0.0
176
     1
 90
        0
176
     1
290
     0
176
     1
290
     1
176
     1
290
     1
176
     1
290
     0
176
     1
290
     0
176
     1
290
     0
176
     1
290
     0
176
     1
290
     0
176
     1
290
     0
176
     1
 90
       50
176
     1
 40
0.0
176
     1
 40
1.0
176
     1
 90
        0
176
     1
 62
    18
420
        0
176
     1
 90
       50
176
     1
 90
        3
176
     1
 62
     5
420
      255
176
     1
290
     0
176
     1
 90
       50
176
     1
 90
       50
176
     1
 90
       50
176
     1
290
     0
176
     1
 90
       50
176
     1
 62
   256
176
     0
 40
1.0
176
     0
 90
        2
176
     1
  1
strokes_ogs.tif
176
     1
290
     0
176
     1
 40
1.0
176
     1
 40
1.0
176
     1
  0
DICTIONARYVAR
  5
80A0
102
{ACAD_REACTORS
330
7F8D
102
}
330
7F8D
100
DictionaryVariables
280
     0
  1
1:1
  0
DICTIONARYVAR
  5
809C
102
{ACAD_REACTORS
330
7F8D
102
}
330
7F8D
100
DictionaryVariables
280
     0
  1
STANDARD
  0
DICTIONARYVAR
  5
809B
102
{ACAD_REACTORS
330
7F8D
102
}
330
7F8D
100
DictionaryVariables
280
     0
  1
STANDARD
  0
DICTIONARYVAR
  5
809D
102
{ACAD_REACTORS
330
7F8D
102
}
330
7F8D
100
DictionaryVariables
280
     0
  1
Imperial24
  0
DICTIONARYVAR
  5
809E
102
{ACAD_REACTORS
330
7F8D
102
}
330
7F8D
100
DictionaryVariables
280
     0
  1
Imperial24
  0
DICTIONARYVAR
  5
7F8E
102
{ACAD_REACTORS
330
7F8D
102
}
330
7F8D
100
DictionaryVariables
280
     0
  1
1
  0
DICTIONARYVAR
  5
80A2
102
{ACAD_REACTORS
330
7F8D
102
}
330
7F8D
100
DictionaryVariables
280
     0
  1
1
  0
DICTIONARYVAR
  5
80A3
102
{ACAD_REACTORS
330
7F8D
102
}
330
7F8D
100
DictionaryVariables
280
     0
  1
15
  0
DICTIONARYVAR
  5
80A1
102
{ACAD_REACTORS
330
7F8D
102
}
330
7F8D
100
DictionaryVariables
280
     0
  1
0
  0
DICTIONARYVAR
  5
809F
102
{ACAD_REACTORS
330
7F8D
102
}
330
7F8D
100
DictionaryVariables
280
     0
  1
0
  0
DICTIONARY
  5
8098
330
7FE1
100
AcDbDictionary
280
     1
281
     1
  3
ACAD_XREC_ROUNDTRIP
360
8194
  0
DICTIONARY
  5
7F9F
330
7F9E
100
AcDbDictionary
280
     1
281
     1
  3
BUMPTILE
360
7FA1
  3
DIFFUSETILE
360
7FA0
  3
OPACITYTILE
360
7FA4
  3
REFLECTIONTILE
360
7FA3
  3
REFRACTIONTILE
360
7FA5
  3
SPECULARTILE
360
7FA2
  0
DICTIONARY
  5
7F97
330
7F96
100
AcDbDictionary
280
     1
281
     1
  3
BUMPTILE
360
7F99
  3
DIFFUSETILE
360
7F98
  3
OPACITYTILE
360
7F9C
  3
REFLECTIONTILE
360
7F9B
  3
REFRACTIONTILE
360
7F9D
  3
SPECULARTILE
360
7F9A
  0
DICTIONARY
  5
7FA7
330
7FA6
100
AcDbDictionary
280
     1
281
     1
  3
BUMPTILE
360
7FA9
  3
DIFFUSETILE
360
7FA8
  3
OPACITYTILE
360
7FAC
  3
REFLECTIONTILE
360
7FAB
  3
REFRACTIONTILE
360
7FAD
  3
SPECULARTILE
360
7FAA
  0
DICTIONARY
  5
8096
330
7FDF
100
AcDbDictionary
280
     1
281
     1
  3
ACAD_XREC_ROUNDTRIP
360
8193
  0
DICTIONARY
  5
8191
330
7FC9
100
AcDbDictionary
280
     1
281
     1
  3
ACAD_ROUNDTRIP_2008_TABLESTYLE_CELLSTYLEMAP
360
8192
  0
XRECORD
  5
8194
102
{ACAD_REACTORS
330
8098
102
}
330
8098
100
AcDbXrecord
280
     1
102
DISPLAYNAME
  1
Imperial24
102
FLAGS
 90
        0
  0
XRECORD
  5
7FA1
102
{ACAD_REACTORS
330
7F9F
102
}
330
7F9F
100
AcDbXrecord
280
     1
270
     1
271
     1
  0
XRECORD
  5
7FA0
102
{ACAD_REACTORS
330
7F9F
102
}
330
7F9F
100
AcDbXrecord
280
     1
270
     1
271
     1
  0
XRECORD
  5
7FA4
102
{ACAD_REACTORS
330
7F9F
102
}
330
7F9F
100
AcDbXrecord
280
     1
270
     1
271
     1
  0
XRECORD
  5
7FA3
102
{ACAD_REACTORS
330
7F9F
102
}
330
7F9F
100
AcDbXrecord
280
     1
270
     1
271
     1
  0
XRECORD
  5
7FA5
102
{ACAD_REACTORS
330
7F9F
102
}
330
7F9F
100
AcDbXrecord
280
     1
270
     1
271
     1
  0
XRECORD
  5
7FA2
102
{ACAD_REACTORS
330
7F9F
102
}
330
7F9F
100
AcDbXrecord
280
     1
270
     1
271
     1
  0
XRECORD
  5
7F99
102
{ACAD_REACTORS
330
7F97
102
}
330
7F97
100
AcDbXrecord
280
     1
270
     1
271
     1
  0
XRECORD
  5
7F98
102
{ACAD_REACTORS
330
7F97
102
}
330
7F97
100
AcDbXrecord
280
     1
270
     1
271
     1
  0
XRECORD
  5
7F9C
102
{ACAD_REACTORS
330
7F97
102
}
330
7F97
100
AcDbXrecord
280
     1
270
     1
271
     1
  0
XRECORD
  5
7F9B
102
{ACAD_REACTORS
330
7F97
102
}
330
7F97
100
AcDbXrecord
280
     1
270
     1
271
     1
  0
XRECORD
  5
7F9D
102
{ACAD_REACTORS
330
7F97
102
}
330
7F97
100
AcDbXrecord
280
     1
270
     1
271
     1
  0
XRECORD
  5
7F9A
102
{ACAD_REACTORS
330
7F97
102
}
330
7F97
100
AcDbXrecord
280
     1
270
     1
271
     1
  0
XRECORD
  5
7FA9
102
{ACAD_REACTORS
330
7FA7
102
}
330
7FA7
100
AcDbXrecord
280
     1
270
     1
271
     1
  0
XRECORD
  5
7FA8
102
{ACAD_REACTORS
330
7FA7
102
}
330
7FA7
100
AcDbXrecord
280
     1
270
     1
271
     1
  0
XRECORD
  5
7FAC
102
{ACAD_REACTORS
330
7FA7
102
}
330
7FA7
100
AcDbXrecord
280
     1
270
     1
271
     1
  0
XRECORD
  5
7FAB
102
{ACAD_REACTORS
330
7FA7
102
}
330
7FA7
100
AcDbXrecord
280
     1
270
     1
271
     1
  0
XRECORD
  5
7FAD
102
{ACAD_REACTORS
330
7FA7
102
}
330
7FA7
100
AcDbXrecord
280
     1
270
     1
271
     1
  0
XRECORD
  5
7FAA
102
{ACAD_REACTORS
330
7FA7
102
}
330
7FA7
100
AcDbXrecord
280
     1
270
     1
271
     1
  0
XRECORD
  5
8193
102
{ACAD_REACTORS
330
8096
102
}
330
8096
100
AcDbXrecord
280
     1
102
DISPLAYNAME
  1
Imperial24
102
FLAGS
 90
        0
  0
CELLSTYLEMAP
  5
8192
102
{ACAD_REACTORS
330
8191
102
}
330
8191
100
AcDbCellStyleMap
 90
        3
300
CELLSTYLE
  1
TABLEFORMAT_BEGIN
 90
        5
170
     1
 91
        0
 92
    32768
 62
   257
 93
        1
300
CONTENTFORMAT
  1
CONTENTFORMAT_BEGIN
 90
        0
 91
        0
 92
      512
 93
        0
300

 40
0.0
140
1.0
 94
        5
 62
     0
340
10
144
0.25
309
CONTENTFORMAT_END
171
     0
 94
        0
309
TABLEFORMAT_END
  1
CELLSTYLE_BEGIN
 90
        1
 91
        1
300
_TITLE
309
CELLSTYLE_END
300
CELLSTYLE
  1
TABLEFORMAT_BEGIN
 90
        5
170
     1
 91
        0
 92
        0
 62
   257
 93
        1
300
CONTENTFORMAT
  1
CONTENTFORMAT_BEGIN
 90
        0
 91
        0
 92
      512
 93
        0
300

 40
0.0
140
1.0
 94
        5
 62
     0
340
10
144
0.18
309
CONTENTFORMAT_END
171
     0
 94
        0
309
TABLEFORMAT_END
  1
CELLSTYLE_BEGIN
 90
        2
 91
        1
300
_HEADER
309
CELLSTYLE_END
300
CELLSTYLE
  1
TABLEFORMAT_BEGIN
 90
        5
170
     1
 91
        0
 92
        0
 62
   257
 93
        1
300
CONTENTFORMAT
  1
CONTENTFORMAT_BEGIN
 90
        0
 91
        0
 92
      512
 93
        0
300

 40
0.0
140
1.0
 94
        2
 62
     0
340
10
144
0.18
309
CONTENTFORMAT_END
171
     0
 94
        0
309
TABLEFORMAT_END
  1
CELLSTYLE_BEGIN
 90
        3
 91
        2
300
_DATA
309
CELLSTYLE_END
  0
ENDSEC
  0
SECTION
  2
ACDSDATA
 70
     2
 71
     8
  0
ACDSSCHEMA
 90
        0
  1
AcDb_Thumbnail_Schema
  2
AcDbDs::ID
280
    10
 91
        8
  2
Thumbnail_Data
280
    15
 91
        0
101
ACDSRECORD
 95
        0
 90
        1
  2
AcDbDs::TreatedAsObjectData
280
     1
291
     1
101
ACDSRECORD
 95
        0
 90
        2
  2
AcDbDs::Legacy
280
     1
291
     1
101
ACDSRECORD
  1
AcDbDs::ID
 90
        3
  2
AcDs:Indexable
280
     1
291
     1
101
ACDSRECORD
  1
AcDbDs::ID
 90
        4
  2
AcDbDs::HandleAttribute
280
     7
282
     1
  0
ACDSSCHEMA
 90
        1
  1
AcDbDs::TreatedAsObjectDataSchema
  2
AcDbDs::TreatedAsObjectData
280
     1
 91
        0
  0
ACDSSCHEMA
 90
        2
  1
AcDbDs::LegacySchema
  2
AcDbDs::Legacy
280
     1
 91
        0
  0
ACDSSCHEMA
 90
        3
  1
AcDbDs::IndexedPropertySchema
  2
AcDs:Indexable
280
     1
 91
        0
  0
ACDSSCHEMA
 90
        4
  1
AcDbDs::HandleAttributeSchema
  2
AcDbDs::HandleAttribute
280
     7
 91
        1
284
     1
  0
ACDSRECORD
 90
        0
  2
AcDbDs::ID
280
    10
320
7EE3
  2
Thumbnail_Data
280
    15
 94
     2365
310
89504E470D0A1A0A0000000D49484452000001000000007C0803000000B13B9E5A00000300504C5445000000000000C8C8C80000000000000000000000000000000000000000000000000000330000660000990000CC0000FF0033000033330033660033990033CC0033FF0066000066330066660066990066CC0066FF0099
310
000099330099660099990099CC0099FF00CC0000CC3300CC6600CC9900CCCC00CCFF00FF0000FF3300FF6600FF9900FFCC00FFFF3300003300333300663300993300CC3300FF3333003333333333663333993333CC3333FF3366003366333366663366993366CC3366FF3399003399333399663399993399CC3399FF33CC00
310
33CC3333CC6633CC9933CCCC33CCFF33FF0033FF3333FF6633FF9933FFCC33FFFF6600006600336600666600996600CC6600FF6633006633336633666633996633CC6633FF6666006666336666666666996666CC6666FF6699006699336699666699996699CC6699FF66CC0066CC3366CC6666CC9966CCCC66CCFF66FF0066
310
FF3366FF6666FF9966FFCC66FFFF9900009900339900669900999900CC9900FF9933009933339933669933999933CC9933FF9966009966339966669966999966CC9966FF9999009999339999669999999999CC9999FF99CC0099CC3399CC6699CC9999CCCC99CCFF99FF0099FF3399FF6699FF9999FFCC99FFFFCC0000CC00
310
33CC0066CC0099CC00CCCC00FFCC3300CC3333CC3366CC3399CC33CCCC33FFCC6600CC6633CC6666CC6699CC66CCCC66FFCC9900CC9933CC9966CC9999CC99CCCC99FFCCCC00CCCC33CCCC66CCCC99CCCCCCCCCCFFCCFF00CCFF33CCFF66CCFF99CCFFCCCCFFFFFF0000FF0033FF0066FF0099FF00CCFF00FFFF3300FF3333
310
FF3366FF3399FF33CCFF33FFFF6600FF6633FF6666FF6699FF66CCFF66FFFF9900FF9933FF9966FF9999FF99CCFF99FFFFCC00FFCC33FFCC66FFCC99FFCCCCFFCCFFFFFF00FFFF33FFFF66FFFF99FFFFCCFFFFFF0000000D0D0D1A1A1A2828283535354343435050505D5D5D6B6B6B787878868686939393A1A1A1AEAEAEBB
310
BBBBC9C9C9D6D6D6E4E4E4F1F1F1FFFFFF00000000000000000000000000000000000000000000000000000000000008F1915C0000035C4944415478DAED9D498EE3300C45791C6D74FFCBE81ADA775B03450D769C42035D24FF2F202E3B4E103E91D46888E8F7299F448E945F5EB30B20EFF63A03B03BBD3B0F5809200768
310
F5E37F2613C5F87BBE0E00FE1380EACAB9E4B972524FFB85163976001413D96419D0E248C737DA7764ED005AA1AF66CA0BFD0E99EE9A4B50560E80D8BCDD03681438D5737687066E325B6F0E9842A0B572FB2BE39076736698AC462D00006809BA93729BCFA5782AD7BC7E88463ED45CF25CD5D33D80D1545A0090A82DF47A
310
007DF000E24682B49F240097B1EF700404822008822008821C28B8B53CBA075015DAD1A3FDD203E2AC54E40A8060D0E2C31F00911CCAFF00E01B80831C3069F700CB00C2AE712DD683790FA8251E03378ABC8500007C0060BE16D801F86A08A5A52FE0AE299C8A13140073D5581380FDCE506A5110284E3D6467009C7BC05D
310
0EF002409CAC190F001C007896330FF8F25D088220088220088220274ACE7B48A38F6CAAA75C6DBA5E924700A902E0C327EBCD0D96BCB64ABC670B403D84E9ECE1460E1AC70092770F48D7EDAA019CC67FEB74F03B00D73C8A6E00A21E4BD332A134CF0C4D1FE24B063C60071062992495562D0078C1449B4BD59C07360075
310
76F8EFDF3700143BC1042016CB4399237E04C021303CC008808B4028063E8640A4911CF4031835C1B43A30C56DE160A924AF7583D7147A3D94D314B403A8FD80C81E4035187879D4D9030C8440FBE1350EE645522DD35D6BC6E23107440349B097DC680095A0164BE34AA548F1E801120069F680DA9F692DC0E601D496065D
310
311E3F03501B030C6034816B9973A2A7371EA0F7F1221E00BA82B8F5014A67A89B771702730E503D04D40150EF04B51216D57F3CB6042D00983C80D360E8755FBCEB0E0900F3B242AD6300497AF6CD5AE13D04F876F583203D833F3D391A6FCFB5035846425E79C0E404EA3D60ABC3BF7C7658F9A3C6A5220000CF00B61470
310
9303A2D51CF016C0D2D61F43A641FFAC404B82699BE791F9311DDA0FF2D3EA1B030700E919C0981D56CEA0FFFEAF96CB27B65CFFE4D88F7EBEA5E971170F43401004411004411FE47E8385756F9D71FDC5476D01C82B80B1F3CEF0141A3BF2980730B61EE26D2732EF3E6409C00FFC3B5B0A0124C1B34563B32DCA37C56DD1
310
035630D4EB86EC1480DC7BCC4335B885C0B0DD8907FC8E24F807D046DF629388DC8C0000000049454E44AE426082454E44AE42608282042E8F7020830000000049454E44AE42608203C047017C3D050EE6425F8880AF0350DF897F57043FAF011FAD02BC13FC701924286D839BB4C2675BD73B5684AC08C07E1180ED8E6EB6
310
1E503EEE9F0470730A9C7C88E93005A84B04503FE5A276475323578D22404DBCFF1300283C3D57309A3CF645007676856768A86034A2831F23BF114078809E0ABAE6F05D3BED1E7711808F2E115EC41D24EA0600A008C0B6BAD003807F9A8F28F92EBB64CC3A00673480BA69C04E04005DFEC118E56602E66F30A9E2C7A9FC
310
149701642340ED3F05C09E0C5247AB00603DD84BE1365EFCD56C06C073FA0062BF89E3DEC6275C4FAF6C264900CFB53E719596EEE702E8DB073490B5779BAE2B5F25001FB7CF0318366CD8B061C3860D1B366CD8B061C3860D1B366CD8B061C3860D1B366CD8CFDC0BAD2D80479EEAC6710680B09923CB2D19013EC85C3CC4
310
7D0880FFE3C561D9C207006C377E93991804CB3BEE0B11B04258016C571DFE5BCE52B979DEDD23DA9D222046BC937E4455286419E2C607509014FB1C7C6060C725F5CE2588BB0008911F4BAE3B098073DB911051D19DB8EFE2453CCCF505E06590B51A2EA280531AA0FD75EAC2531210493971C56091E92B8231071C0BE40B
310
1A90F5D7D9292FC6353FEFFA8A20387D034272425900280D702E4D322BB7414A85D6029E52DFEC04DD68850780BE00C67478A4C0003000849580A4F17565D393BF0420347F5B077C7236E8D2B6DD6C26DDA30088A98F9C17E7E771B953D900D4399C7B6204F0EB0E5E9F283D128053336335B77D1A0031076093D930513C91
310
024E0170E0E0E929602E88F005B11311B031F014F84A839A6C3F4B03D27510C775F10A00076F8980B00A28D603620D74EE5C15700C00E3D813C03FB078E52D450B23340000000049454E44AE426082
  0
ENDSEC
  0
EOF
