  0
SECTION
  2
HEADER
  9
$ACADVER
  1
AC1027
  9
$ACADMAINTVER
 70
    81
  9
$DWGCODEPAGE
  3
ANSI_932
  9
$LASTSAVEDBY
  1
reiko.miyawaki
  9
$REQUIREDVERSIONS
160
                 0
  9
$INSBASE
 10
0.0
 20
0.0
 30
0.0
  9
$EXTMIN
 10
250.0
 20
300.0
 30
0.0
  9
$EXTMAX
 10
1850.0
 20
2786.652262
 30
0.0
  9
$LIMMIN
 10
0.0
 20
0.0
  9
$LIMMAX
 10
297.0
 20
210.0
  9
$ORTHOMODE
 70
     0
  9
$REGENMODE
 70
     1
  9
$FILLMODE
 70
     0
  9
$QTEXTMODE
 70
     0
  9
$MIRRTEXT
 70
     1
  9
$LTSCALE
 40
100.0
  9
$ATTMODE
 70
     1
  9
$TEXTSIZE
 40
180.0
  9
$TRACEWID
 40
0.05
  9
$TEXTSTYLE
  7
STANDARD
  9
$CLAYER
  8
3
  9
$CELTYPE
  6
BYLAYER
  9
$CECOLOR
 62
   256
  9
$CELTSCALE
 40
1.0
  9
$DISPSILH
 70
     0
  9
$DIMSCALE
 40
10.0
  9
$DIMASZ
 40
2.0
  9
$DIMEXO
 40
0.5
  9
$DIMDLI
 40
10.0
  9
$DIMRND
 40
0.0
  9
$DIMDLE
 40
0.0
  9
$DIMEXE
 40
1.0
  9
$DIMTP
 40
1.0
  9
$DIMTM
 40
1.0
  9
$DIMTXT
 40
3.0
  9
$DIMCEN
 40
0.0
  9
$DIMTSZ
 40
0.0
  9
$DIMTOL
 70
     0
  9
$DIMLIM
 70
     0
  9
$DIMTIH
 70
     0
  9
$DIMTOH
 70
     0
  9
$DIMSE1
 70
     0
  9
$DIMSE2
 70
     0
  9
$DIMTAD
 70
     1
  9
$DIMZIN
 70
     8
  9
$DIMBLK
  1

  9
$DIMASO
 70
     1
  9
$DIMSHO
 70
     1
  9
$DIMPOST
  1
(<>)
  9
$DIMAPOST
  1

  9
$DIMALT
 70
     0
  9
$DIMALTD
 70
     2
  9
$DIMALTF
 40
0.039
  9
$DIMLFAC
 40
1.0
  9
$DIMTOFL
 70
     1
  9
$DIMTVP
 40
0.0
  9
$DIMTIX
 70
     0
  9
$DIMSOXD
 70
     0
  9
$DIMSAH
 70
     1
  9
$DIMBLK1
  1
DOT
  9
$DIMBLK2
  1
OPEN
  9
$DIMSTYLE
  2
IGA
  9
$DIMCLRD
 70
     0
  9
$DIMCLRE
 70
     0
  9
$DIMCLRT
 70
     0
  9
$DIMTFAC
 40
10.0
  9
$DIMGAP
 40
1.0
  9
$DIMJUST
 70
     0
  9
$DIMSD1
 70
     0
  9
$DIMSD2
 70
     0
  9
$DIMTOLJ
 70
     1
  9
$DIMTZIN
 70
     8
  9
$DIMALTZ
 70
     0
  9
$DIMALTTZ
 70
     0
  9
$DIMUPT
 70
     0
  9
$DIMDEC
 70
     0
  9
$DIMTDEC
 70
     0
  9
$DIMALTU
 70
     2
  9
$DIMALTTD
 70
     2
  9
$DIMTXSTY
  7
STANDARD
  9
$DIMAUNIT
 70
     0
  9
$DIMADEC
 70
     0
  9
$DIMALTRND
 40
0.0
  9
$DIMAZIN
 70
     0
  9
$DIMDSEP
 70
    46
  9
$DIMATFIT
 70
     3
  9
$DIMFRAC
 70
     0
  9
$DIMLDRBLK
  1
DOT
  9
$DIMLUNIT
 70
     2
  9
$DIMLWD
 70
    -2
  9
$DIMLWE
 70
    -2
  9
$DIMTMOVE
 70
     2
  9
$DIMFXL
 40
1.0
  9
$DIMFXLON
 70
     0
  9
$DIMJOGANG
 40
0.7853981633974483
  9
$DIMTFILL
 70
     0
  9
$DIMTFILLCLR
 70
     0
  9
$DIMARCSYM
 70
     0
  9
$DIMLTYPE
  6

  9
$DIMLTEX1
  6

  9
$DIMLTEX2
  6

  9
$DIMTXTDIRECTION
 70
     0
  9
$LUNITS
 70
     2
  9
$LUPREC
 70
     3
  9
$SKETCHINC
 40
0.1
  9
$FILLETRAD
 40
50.0
  9
$AUNITS
 70
     0
  9
$AUPREC
 70
     0
  9
$MENU
  1
acad
  9
$ELEVATION
 40
0.0
  9
$PELEVATION
 40
0.0
  9
$THICKNESS
 40
0.0
  9
$LIMCHECK
 70
     0
  9
$CHAMFERA
 40
0.5
  9
$CHAMFERB
 40
0.5
  9
$CHAMFERC
 40
20.0
  9
$CHAMFERD
 40
0.0
  9
$SKPOLY
 70
     0
  9
$TDCREATE
 40
2450731.689130555
  9
$TDUCREATE
 40
2450731.314130556
  9
$TDUPDATE
 40
2459024.536568600
  9
$TDUUPDATE
 40
2459024.161568600
  9
$TDINDWG
 40
0.0058845370
  9
$TDUSRTIMER
 40
0.0058845370
  9
$USRTIMER
 70
     1
  9
$ANGBASE
 50
0.0
  9
$ANGDIR
 70
     0
  9
$PDMODE
 70
     0
  9
$PDSIZE
 40
0.0
  9
$PLINEWID
 40
0.0
  9
$SPLFRAME
 70
     0
  9
$SPLINETYPE
 70
     6
  9
$SPLINESEGS
 70
     8
  9
$HANDSEED
  5
82A8
  9
$SURFTAB1
 70
     6
  9
$SURFTAB2
 70
     6
  9
$SURFTYPE
 70
     6
  9
$SURFU
 70
     6
  9
$SURFV
 70
     6
  9
$UCSBASE
  2

  9
$UCSNAME
  2

  9
$UCSORG
 10
0.0
 20
0.0
 30
0.0
  9
$UCSXDIR
 10
1.0
 20
0.0
 30
0.0
  9
$UCSYDIR
 10
0.0
 20
1.0
 30
0.0
  9
$UCSORTHOREF
  2

  9
$UCSORTHOVIEW
 70
     0
  9
$UCSORGTOP
 10
0.0
 20
0.0
 30
0.0
  9
$UCSORGBOTTOM
 10
0.0
 20
0.0
 30
0.0
  9
$UCSORGLEFT
 10
0.0
 20
0.0
 30
0.0
  9
$UCSORGRIGHT
 10
0.0
 20
0.0
 30
0.0
  9
$UCSORGFRONT
 10
0.0
 20
0.0
 30
0.0
  9
$UCSORGBACK
 10
0.0
 20
0.0
 30
0.0
  9
$PUCSBASE
  2

  9
$PUCSNAME
  2

  9
$PUCSORG
 10
0.0
 20
0.0
 30
0.0
  9
$PUCSXDIR
 10
1.0
 20
0.0
 30
0.0
  9
$PUCSYDIR
 10
0.0
 20
1.0
 30
0.0
  9
$PUCSORTHOREF
  2

  9
$PUCSORTHOVIEW
 70
     0
  9
$PUCSORGTOP
 10
0.0
 20
0.0
 30
0.0
  9
$PUCSORGBOTTOM
 10
0.0
 20
0.0
 30
0.0
  9
$PUCSORGLEFT
 10
0.0
 20
0.0
 30
0.0
  9
$PUCSORGRIGHT
 10
0.0
 20
0.0
 30
0.0
  9
$PUCSORGFRONT
 10
0.0
 20
0.0
 30
0.0
  9
$PUCSORGBACK
 10
0.0
 20
0.0
 30
0.0
  9
$USERI1
 70
     0
  9
$USERI2
 70
     0
  9
$USERI3
 70
     0
  9
$USERI4
 70
     0
  9
$USERI5
 70
     0
  9
$USERR1
 40
0.0
  9
$USERR2
 40
0.0
  9
$USERR3
 40
0.0
  9
$USERR4
 40
0.0
  9
$USERR5
 40
0.0
  9
$WORLDVIEW
 70
     1
  9
$SHADEDGE
 70
     3
  9
$SHADEDIF
 70
    70
  9
$TILEMODE
 70
     1
  9
$MAXACTVP
 70
    16
  9
$PINSBASE
 10
0.0
 20
0.0
 30
0.0
  9
$PLIMCHECK
 70
     0
  9
$PEXTMIN
 10
1.000000000000000E+20
 20
1.000000000000000E+20
 30
1.000000000000000E+20
  9
$PEXTMAX
 10
-1.000000000000000E+20
 20
-1.000000000000000E+20
 30
-1.000000000000000E+20
  9
$PLIMMIN
 10
0.0
 20
0.0
  9
$PLIMMAX
 10
12.0
 20
9.0
  9
$UNITMODE
 70
     0
  9
$VISRETAIN
 70
     0
  9
$PLINEGEN
 70
     0
  9
$PSLTSCALE
 70
     1
  9
$TREEDEPTH
 70
  3020
  9
$CMLSTYLE
  2
STANDARD
  9
$CMLJUST
 70
     0
  9
$CMLSCALE
 40
20.0
  9
$PROXYGRAPHICS
 70
     1
  9
$MEASUREMENT
 70
     0
  9
$CELWEIGHT
370
    -1
  9
$ENDCAPS
280
     0
  9
$JOINSTYLE
280
     0
  9
$LWDISPLAY
290
     0
  9
$INSUNITS
 70
     0
  9
$HYPERLINKBASE
  1

  9
$STYLESHEET
  1

  9
$XEDIT
290
     1
  9
$CEPSNTYPE
380
     0
  9
$PSTYLEMODE
290
     1
  9
$FINGERPRINTGUID
  2
{3F317B48-0974-410E-B445-6A487691425F}
  9
$VERSIONGUID
  2
{016A19D8-2CA1-4A0F-8214-6B2BC8F2FED8}
  9
$EXTNAMES
290
     1
  9
$PSVPSCALE
 40
0.0
  9
$OLESTARTUP
290
     0
  9
$SORTENTS
280
   127
  9
$INDEXCTL
280
     0
  9
$HIDETEXT
280
     0
  9
$XCLIPFRAME
280
     2
  9
$HALOGAP
280
     0
  9
$OBSCOLOR
 70
   257
  9
$OBSLTYPE
280
     0
  9
$INTERSECTIONDISPLAY
280
     0
  9
$INTERSECTIONCOLOR
 70
   257
  9
$DIMASSOC
280
     1
  9
$PROJECTNAME
  1

  9
$CAMERADISPLAY
290
     0
  9
$LENSLENGTH
 40
50.0
  9
$CAMERAHEIGHT
 40
0.0
  9
$STEPSPERSEC
 40
2.0
  9
$STEPSIZE
 40
6.0
  9
$3DDWFPREC
 40
2.0
  9
$PSOLWIDTH
 40
0.25
  9
$PSOLHEIGHT
 40
4.0
  9
$LOFTANG1
 40
1.570796326794896
  9
$LOFTANG2
 40
1.570796326794896
  9
$LOFTMAG1
 40
0.0
  9
$LOFTMAG2
 40
0.0
  9
$LOFTPARAM
 70
     7
  9
$LOFTNORMALS
280
     1
  9
$LATITUDE
 40
37.795
  9
$LONGITUDE
 40
-122.394
  9
$NORTHDIRECTION
 40
0.0
  9
$TIMEZONE
 70
 -8000
  9
$LIGHTGLYPHDISPLAY
280
     1
  9
$TILEMODELIGHTSYNCH
280
     1
  9
$CMATERIAL
347
8142
  9
$SOLIDHIST
280
     0
  9
$SHOWHIST
280
     1
  9
$DWFFRAME
280
     2
  9
$DGNFRAME
280
     0
  9
$REALWORLDSCALE
290
     1
  9
$INTERFERECOLOR
 62
     1
  9
$INTERFEREOBJVS
345
8164
  9
$INTERFEREVPVS
346
8161
  9
$CSHADOW
280
     0
  9
$SHADOWPLANELOCATION
 40
0.0
  0
ENDSEC
  0
SECTION
  2
CLASSES
  0
CLASS
  1
ACDBDICTIONARYWDFLT
  2
AcDbDictionaryWithDefault
  3
ObjectDBX Classes
 90
        0
 91
        1
280
     0
281
     0
  0
CLASS
  1
DICTIONARYVAR
  2
AcDbDictionaryVar
  3
ObjectDBX Classes
 90
        0
 91
       10
280
     0
281
     0
  0
CLASS
  1
MATERIAL
  2
AcDbMaterial
  3
ObjectDBX Classes
 90
     1153
 91
        3
280
     0
281
     0
  0
CLASS
  1
VISUALSTYLE
  2
AcDbVisualStyle
  3
ObjectDBX Classes
 90
     4095
 91
       24
280
     0
281
     0
  0
CLASS
  1
TABLESTYLE
  2
AcDbTableStyle
  3
ObjectDBX Classes
 90
     4095
 91
        1
280
     0
281
     0
  0
CLASS
  1
SCALE
  2
AcDbScale
  3
ObjectDBX Classes
 90
     1153
 91
       17
280
     0
281
     0
  0
CLASS
  1
MLEADERSTYLE
  2
AcDbMLeaderStyle
  3
ACDB_MLEADERSTYLE_CLASS
 90
     4095
 91
        1
280
     0
281
     0
  0
CLASS
  1
ACDBSECTIONVIEWSTYLE
  2
AcDbSectionViewStyle
  3
ObjectDBX Classes
 90
     1025
 91
        1
280
     0
281
     0
  0
CLASS
  1
ACDBDETAILVIEWSTYLE
  2
AcDbDetailViewStyle
  3
ObjectDBX Classes
 90
     1025
 91
        1
280
     0
281
     0
  0
CLASS
  1
CELLSTYLEMAP
  2
AcDbCellStyleMap
  3
ObjectDBX Classes
 90
     1152
 91
        1
280
     0
281
     0
  0
ENDSEC
  0
SECTION
  2
TABLES
  0
TABLE
  2
VPORT
  5
8
330
0
100
AcDbSymbolTable
 70
     1
  0
VPORT
  5
813F
330
8
100
AcDbSymbolTableRecord
100
AcDbViewportTableRecord
  2
*Active
 70
     0
 10
0.0
 20
0.0
 11
1.0
 21
1.0
 12
1049.982838315171
 22
1602.850901348136
 13
0.0
 23
0.0
 14
10.0
 24
10.0
 15
10.0
 25
10.0
 16
0.0
 26
0.0
 36
1.0
 17
0.0
 27
0.0
 37
0.0
 40
2621.825673196056
 41
1.957107843137254
 42
50.0
 43
0.0
 44
0.0
 50
0.0
 51
0.0
 71
     0
 72
   100
 73
     1
 74
     0
 75
     0
 76
     0
 77
     0
 78
     0
281
     0
 65
     1
110
0.0
120
0.0
130
0.0
111
1.0
121
0.0
131
0.0
112
0.0
122
1.0
132
0.0
 79
     0
146
0.0
348
8160
 60
     3
 61
     5
292
     1
282
     1
141
0.0
142
0.0
 63
   250
421
  3355443
1001
ACAD_NAV_VCDISPLAY
1070
     3
  0
ENDTAB
  0
TABLE
  2
LTYPE
  5
5
330
0
100
AcDbSymbolTable
 70
     2
  0
LTYPE
  5
13
330
5
100
AcDbSymbolTableRecord
100
AcDbLinetypeTableRecord
  2
BYBLOCK
 70
     0
  3

 72
    65
 73
     0
 40
0.0
  0
LTYPE
  5
14
330
5
100
AcDbSymbolTableRecord
100
AcDbLinetypeTableRecord
  2
BYLAYER
 70
     0
  3

 72
    65
 73
     0
 40
0.0
  0
LTYPE
  5
15
330
5
100
AcDbSymbolTableRecord
100
AcDbLinetypeTableRecord
  2
CONTINUOUS
 70
     0
  3
Solid line
 72
    65
 73
     0
 40
0.0
  0
LTYPE
  5
1F
330
5
100
AcDbSymbolTableRecord
100
AcDbLinetypeTableRecord
  2
CENTER
 70
     0
  3
____ _ ____ _ ____ _ ____ _ ____ _ ____ _ ____ 
 72
    65
 73
     4
 40
2.0
 49
1.25
 74
     0
 49
-0.25
 74
     0
 49
0.25
 74
     0
 49
-0.25
 74
     0
  0
ENDTAB
  0
TABLE
  2
LAYER
  5
2
102
{ACAD_XDICTIONARY
360
820A
102
}
330
0
100
AcDbSymbolTable
 70
     6
  0
LAYER
  5
F
102
{ACAD_XDICTIONARY
360
81FD
102
}
330
2
100
AcDbSymbolTableRecord
100
AcDbLayerTableRecord
  2
0
 70
     0
 62
     7
  6
CONTINUOUS
370
    -3
390
7FE5
347
8152
348
0
  0
LAYER
  5
31
102
{ACAD_XDICTIONARY
360
81FF
102
}
330
2
100
AcDbSymbolTableRecord
100
AcDbLayerTableRecord
  2
3
 70
     0
 62
     2
  6
CONTINUOUS
370
    -3
390
7FE5
347
8152
348
0
  0
LAYER
  5
76D0
102
{ACAD_XDICTIONARY
360
8201
102
}
330
2
100
AcDbSymbolTableRecord
100
AcDbLayerTableRecord
  2
2
 70
     0
 62
     3
  6
CENTER
370
    -3
390
7FE5
347
8152
348
0
  0
LAYER
  5
76D1
102
{ACAD_XDICTIONARY
360
8203
102
}
330
2
100
AcDbSymbolTableRecord
100
AcDbLayerTableRecord
  2
1
 70
     0
 62
     4
  6
CONTINUOUS
370
    -3
390
7FE5
347
8152
348
0
  0
LAYER
  5
76D2
102
{ACAD_XDICTIONARY
360
8205
102
}
330
2
100
AcDbSymbolTableRecord
100
AcDbLayerTableRecord
  2
4
 70
     0
 62
     7
  6
CONTINUOUS
370
    -3
390
7FE5
347
8152
348
0
  0
LAYER
  5
7B44
330
2
100
AcDbSymbolTableRecord
100
AcDbLayerTableRecord
  2
DEFPOINTS
 70
     0
 62
     7
  6
CONTINUOUS
290
     0
370
    -3
390
7FE5
347
8152
348
0
  0
ENDTAB
  0
TABLE
  2
STYLE
  5
3
330
0
100
AcDbSymbolTable
 70
     1
  0
STYLE
  5
10
330
3
100
AcDbSymbolTableRecord
100
AcDbTextStyleTableRecord
  2
STANDARD
 70
     0
 40
0.0
 41
1.0
 50
0.0
 71
     0
 42
180.0
  3
simplex.shx
  4
extfont.shx
  0
ENDTAB
  0
TABLE
  2
VIEW
  5
6
330
0
100
AcDbSymbolTable
 70
     0
  0
ENDTAB
  0
TABLE
  2
UCS
  5
7
330
0
100
AcDbSymbolTable
 70
     0
  0
ENDTAB
  0
TABLE
  2
APPID
  5
9
330
0
100
AcDbSymbolTable
 70
     4
  0
APPID
  5
11
330
9
100
AcDbSymbolTableRecord
100
AcDbRegAppTableRecord
  2
ACAD
 70
     0
  0
APPID
  5
8191
330
9
100
AcDbSymbolTableRecord
100
AcDbRegAppTableRecord
  2
ACAD_NAV_VCDISPLAY
 70
     0
  0
APPID
  5
8222
330
9
100
AcDbSymbolTableRecord
100
AcDbRegAppTableRecord
  2
AcadAnnoMonitorAlertIconDisabled
 70
     0
  0
APPID
  5
8223
330
9
100
AcDbSymbolTableRecord
100
AcDbRegAppTableRecord
  2
ACAD_EXEMPT_FROM_CAD_STANDARDS
 70
     0
  0
ENDTAB
  0
TABLE
  2
DIMSTYLE
  5
A
330
0
100
AcDbSymbolTable
 70
     1
100
AcDbDimStyleTable
 71
     1
340
1D
  0
DIMSTYLE
105
1D
102
{ACAD_REACTORS
330
7B63
330
7B6F
330
7B96
330
7C14
330
7C24
330
7C33
330
7C86
330
7CFA
330
7D06
330
7D2E
330
7D3C
330
7DE8
330
7E0E
330
7E92
330
7EA4
330
7EB2
330
7FCF
330
7FDC
330
8245
102
}
330
A
100
AcDbSymbolTableRecord
100
AcDbDimStyleTableRecord
  2
IGA
 70
     0
 40
2.0
 41
2.0
 42
0.5
 43
10.0
 44
1.0
 47
1.0
 48
1.0
 73
     0
 74
     0
 77
     1
 78
     8
140
3.0
141
0.0
143
0.03937
146
10.0
147
1.0
173
     1
271
     1
272
     0
279
     2
284
     8
340
10
341
7B36
343
7B36
344
7B36
  0
ENDTAB
  0
TABLE
  2
BLOCK_RECORD
  5
1
330
0
100
AcDbSymbolTable
 70
    21
  0
BLOCK_RECORD
  5
19
102
{ACAD_XDICTIONARY
360
80BA
102
}
330
1
100
AcDbSymbolTableRecord
100
AcDbBlockTableRecord
  2
*MODEL_SPACE
340
7FE8
 70
     0
280
     1
281
     0
  0
BLOCK_RECORD
  5
16
102
{ACAD_XDICTIONARY
360
80B8
102
}
330
1
100
AcDbSymbolTableRecord
100
AcDbBlockTableRecord
  2
*PAPER_SPACE
340
7FE9
 70
     0
280
     1
281
     0
  0
BLOCK_RECORD
  5
7B36
330
1
100
AcDbSymbolTableRecord
100
AcDbBlockTableRecord
  2
_OPEN
340
0
102
{BLKREFS
331
7F65
331
7F66
331
7F70
331
7F71
331
7F7B
331
7F7C
331
7F86
331
7F87
331
80D4
331
80D5
331
80EF
331
80F0
331
80F8
331
80F9
331
8101
331
8102
331
8109
331
810A
331
8112
331
8113
331
8124
331
8125
331
81A1
331
81B2
331
81B3
331
81BA
331
81BB
331
81C3
331
81C4
331
81CE
331
81CF
331
81D8
331
8231
331
8232
331
828F
331
8290
102
}
 70
     0
280
     1
281
     0
  0
BLOCK_RECORD
  5
7B57
330
1
100
AcDbSymbolTableRecord
100
AcDbBlockTableRecord
  2
*D1
340
0
 70
     0
280
     1
281
     0
  0
BLOCK_RECORD
  5
7B64
330
1
100
AcDbSymbolTableRecord
100
AcDbBlockTableRecord
  2
*D2
340
0
 70
     0
280
     1
281
     0
  0
BLOCK_RECORD
  5
7B8A
330
1
100
AcDbSymbolTableRecord
100
AcDbBlockTableRecord
  2
*D3
340
0
 70
     0
280
     1
281
     0
  0
BLOCK_RECORD
  5
7C08
330
1
100
AcDbSymbolTableRecord
100
AcDbBlockTableRecord
  2
*D4
340
0
 70
     0
280
     1
281
     0
  0
BLOCK_RECORD
  5
7C15
330
1
100
AcDbSymbolTableRecord
100
AcDbBlockTableRecord
  2
*D5
340
0
 70
     0
280
     1
281
     0
  0
BLOCK_RECORD
  5
7C25
330
1
100
AcDbSymbolTableRecord
100
AcDbBlockTableRecord
  2
*D6
340
0
 70
     0
280
     1
281
     0
  0
BLOCK_RECORD
  5
7C7A
330
1
100
AcDbSymbolTableRecord
100
AcDbBlockTableRecord
  2
*D7
340
0
 70
     0
280
     1
281
     0
  0
BLOCK_RECORD
  5
7CEC
330
1
100
AcDbSymbolTableRecord
100
AcDbBlockTableRecord
  2
*D8
340
0
 70
     0
280
     1
281
     0
  0
BLOCK_RECORD
  5
7CFB
330
1
100
AcDbSymbolTableRecord
100
AcDbBlockTableRecord
  2
*D9
340
0
 70
     0
280
     1
281
     0
  0
BLOCK_RECORD
  5
7D22
330
1
100
AcDbSymbolTableRecord
100
AcDbBlockTableRecord
  2
*D10
340
0
 70
     0
280
     1
281
     0
  0
BLOCK_RECORD
  5
7D30
330
1
100
AcDbSymbolTableRecord
100
AcDbBlockTableRecord
  2
*D11
340
0
 70
     0
280
     1
281
     0
  0
BLOCK_RECORD
  5
7DDA
330
1
100
AcDbSymbolTableRecord
100
AcDbBlockTableRecord
  2
*D12
340
0
 70
     0
280
     1
281
     0
  0
BLOCK_RECORD
  5
7E03
330
1
100
AcDbSymbolTableRecord
100
AcDbBlockTableRecord
  2
*D13
340
0
 70
     0
280
     1
281
     0
  0
BLOCK_RECORD
  5
7E86
330
1
100
AcDbSymbolTableRecord
100
AcDbBlockTableRecord
  2
*D14
340
0
 70
     0
280
     1
281
     0
  0
BLOCK_RECORD
  5
7E98
330
1
100
AcDbSymbolTableRecord
100
AcDbBlockTableRecord
  2
*D15
340
0
 70
     0
280
     1
281
     0
  0
BLOCK_RECORD
  5
7EA5
330
1
100
AcDbSymbolTableRecord
100
AcDbBlockTableRecord
  2
*D16
340
0
 70
     0
280
     1
281
     0
  0
BLOCK_RECORD
  5
7FB9
330
1
100
AcDbSymbolTableRecord
100
AcDbBlockTableRecord
  2
_DOT
340
0
102
{BLKREFS
331
81A0
331
81D7
102
}
 70
     0
280
     1
281
     0
  0
BLOCK_RECORD
  5
7FC1
330
1
100
AcDbSymbolTableRecord
100
AcDbBlockTableRecord
  2
*D18
340
0
 70
     0
280
     1
281
     0
  0
BLOCK_RECORD
  5
7FD0
330
1
100
AcDbSymbolTableRecord
100
AcDbBlockTableRecord
  2
*D19
340
0
 70
     0
280
     1
281
     0
  0
BLOCK_RECORD
  5
8246
330
1
100
AcDbSymbolTableRecord
100
AcDbBlockTableRecord
  2
*D20
340
0
 70
     0
280
     1
281
     0
  0
ENDTAB
  0
ENDSEC
  0
SECTION
  2
BLOCKS
  0
BLOCK
  5
1A
330
19
100
AcDbEntity
  8
0
100
AcDbBlockBegin
  2
*MODEL_SPACE
 70
     0
 10
0.0
 20
0.0
 30
0.0
  3
*MODEL_SPACE
  1

  0
ENDBLK
  5
1B
330
19
100
AcDbEntity
  8
0
100
AcDbBlockEnd
  0
BLOCK
  5
17
330
16
100
AcDbEntity
 67
     1
  8
0
100
AcDbBlockBegin
  2
*PAPER_SPACE
 70
     0
 10
0.0
 20
0.0
 30
0.0
  3
*PAPER_SPACE
  1

  0
ENDBLK
  5
18
330
16
100
AcDbEntity
 67
     1
  8
0
100
AcDbBlockEnd
  0
BLOCK
  5
7B37
330
7B36
100
AcDbEntity
  8
0
100
AcDbBlockBegin
  2
_OPEN
 70
     0
 10
0.0
 20
0.0
 30
0.0
  3
_OPEN
  1

  0
LINE
  5
7B38
330
7B36
100
AcDbEntity
  8
0
  6
ByBlock
 62
     0
100
AcDbLine
 10
-1.0
 20
0.166667
 30
0.0
 11
0.0
 21
0.0
 31
0.0
  0
LINE
  5
7B39
330
7B36
100
AcDbEntity
  8
0
  6
ByBlock
 62
     0
100
AcDbLine
 10
0.0
 20
0.0
 30
0.0
 11
-1.0
 21
-0.166667
 31
0.0
  0
LINE
  5
7B3A
330
7B36
100
AcDbEntity
  8
0
  6
ByBlock
 62
     0
100
AcDbLine
 10
0.0
 20
0.0
 30
0.0
 11
-1.0
 21
0.0
 31
0.0
  0
ENDBLK
  5
7B3B
330
7B36
100
AcDbEntity
  8
0
100
AcDbBlockEnd
  0
BLOCK
  5
7B58
330
7B57
100
AcDbEntity
  8
0
100
AcDbBlockBegin
  2
*D1
 70
     1
 10
0.0
 20
0.0
 30
0.0
  3
*D1
  1

  0
LINE
  5
81AF
330
7B57
100
AcDbEntity
  8
3
  6
Continuous
 62
     0
440
 16777216
370
    -2
100
AcDbLine
 10
363.8791249999999
 20
812.557236723097
 30
0.0
 11
363.8791249999999
 21
741.3311967230971
 31
0.0
  0
LINE
  5
81B0
330
7B57
100
AcDbEntity
  8
3
  6
Continuous
 62
     0
440
 16777216
370
    -2
100
AcDbLine
 10
813.879125
 20
797.188746723097
 30
0.0
 11
813.879125
 21
741.3311967230971
 31
0.0
  0
LINE
  5
81B1
330
7B57
100
AcDbEntity
  8
3
  6
Continuous
 62
     0
440
 16777216
370
    -2
100
AcDbLine
 10
383.8791249999999
 20
751.3311967230971
 30
0.0
 11
793.879125
 21
751.3311967230971
 31
0.0
  0
INSERT
  5
81B2
330
7B57
100
AcDbEntity
  8
3
  6
Continuous
 62
     0
440
 16777216
370
    -2
100
AcDbBlockReference
  2
_OPEN
 10
363.8791249999999
 20
751.3311967230971
 30
0.0
 41
20.0
 42
20.0
 43
20.0
 50
180.0
  0
INSERT
  5
81B3
330
7B57
100
AcDbEntity
  8
3
  6
Continuous
 62
     0
440
 16777216
370
    -2
100
AcDbBlockReference
  2
_OPEN
 10
813.879125
 20
751.3311967230971
 30
0.0
 41
20.0
 42
20.0
 43
20.0
  0
MTEXT
  5
81B4
330
7B57
100
AcDbEntity
  8
3
  6
Continuous
 62
     0
440
 16777216
100
AcDbMText
 10
600.385353
 20
776.3311967230971
 30
0.0
 40
30.0
 41
0.0
 46
0.0
 71
     5
 72
     1
  1
\A1;450
 73
     1
 44
1.0
  0
POINT
  5
81B5
330
7B57
100
AcDbEntity
  8
DEFPOINTS
  6
Continuous
 62
     0
440
 16777216
100
AcDbPoint
 10
363.8791249999999
 20
817.5572367230969
 30
0.0
  0
POINT
  5
81B6
330
7B57
100
AcDbEntity
  8
DEFPOINTS
  6
Continuous
 62
     0
440
 16777216
100
AcDbPoint
 10
813.879125
 20
802.1887467230971
 30
0.0
  0
POINT
  5
81B7
330
7B57
100
AcDbEntity
  8
DEFPOINTS
  6
Continuous
 62
     0
440
 16777216
100
AcDbPoint
 10
813.879125
 20
751.3311967230971
 30
0.0
  0
ENDBLK
  5
7B62
330
7B57
100
AcDbEntity
  8
0
100
AcDbBlockEnd
  0
BLOCK
  5
7B65
330
7B64
100
AcDbEntity
  8
0
100
AcDbBlockBegin
  2
*D2
 70
     1
 10
0.0
 20
0.0
 30
0.0
  3
*D2
  1

  0
LINE
  5
81B8
330
7B64
100
AcDbEntity
  8
3
  6
Continuous
 62
     0
440
 16777216
370
    -2
100
AcDbLine
 10
973.879125
 20
812.557236723097
 30
0.0
 11
973.879125
 21
741.3311967230971
 31
0.0
  0
LINE
  5
81B9
330
7B64
100
AcDbEntity
  8
3
  6
Continuous
 62
     0
440
 16777216
370
    -2
100
AcDbLine
 10
833.8791249999999
 20
751.3311967230971
 30
0.0
 11
953.879125
 21
751.3311967230971
 31
0.0
  0
INSERT
  5
81BA
330
7B64
100
AcDbEntity
  8
3
  6
Continuous
 62
     0
440
 16777216
370
    -2
100
AcDbBlockReference
  2
_OPEN
 10
813.879125
 20
751.3311967230971
 30
0.0
 41
20.0
 42
20.0
 43
20.0
 50
180.0
  0
INSERT
  5
81BB
330
7B64
100
AcDbEntity
  8
3
  6
Continuous
 62
     0
440
 16777216
370
    -2
100
AcDbBlockReference
  2
_OPEN
 10
973.879125
 20
751.3311967230971
 30
0.0
 41
20.0
 42
20.0
 43
20.0
  0
MTEXT
  5
81BC
330
7B64
100
AcDbEntity
  8
3
  6
Continuous
 62
     0
440
 16777216
100
AcDbMText
 10
893.8791250000001
 20
776.3311967230971
 30
0.0
 40
30.0
 41
0.0
 46
0.0
 71
     5
 72
     1
  1
\A1;160
 73
     1
 44
1.0
  0
POINT
  5
81BD
330
7B64
100
AcDbEntity
  8
DEFPOINTS
  6
Continuous
 62
     0
440
 16777216
100
AcDbPoint
 10
813.879125
 20
802.1887467230971
 30
0.0
  0
POINT
  5
81BE
330
7B64
100
AcDbEntity
  8
DEFPOINTS
  6
Continuous
 62
     0
440
 16777216
100
AcDbPoint
 10
973.879125
 20
817.5572367230969
 30
0.0
  0
POINT
  5
81BF
330
7B64
100
AcDbEntity
  8
DEFPOINTS
  6
Continuous
 62
     0
440
 16777216
100
AcDbPoint
 10
973.879125
 20
751.3311967230971
 30
0.0
  0
ENDBLK
  5
7B6E
330
7B64
100
AcDbEntity
  8
0
100
AcDbBlockEnd
  0
BLOCK
  5
7B8B
330
7B8A
100
AcDbEntity
  8
0
100
AcDbBlockBegin
  2
*D3
 70
     1
 10
0.0
 20
0.0
 30
0.0
  3
*D3
  1

  0
LINE
  5
80D1
330
7B8A
100
AcDbEntity
  8
3
  6
Continuous
 62
     0
440
 16777216
100
AcDbLine
 10
947.879125
 20
987.557236723097
 30
0.0
 11
1014.566496
 21
987.557236723097
 31
0.0
  0
LINE
  5
80D2
330
7B8A
100
AcDbEntity
  8
3
  6
Continuous
 62
     0
440
 16777216
100
AcDbLine
 10
947.879125
 20
1147.557236723097
 30
0.0
 11
1014.566496
 21
1147.557236723097
 31
0.0
  0
LINE
  5
80D3
330
7B8A
100
AcDbEntity
  8
3
  6
Continuous
 62
     0
440
 16777216
100
AcDbLine
 10
1004.566496
 20
1007.557236723097
 30
0.0
 11
1004.566496
 21
1127.557236723097
 31
0.0
  0
INSERT
  5
80D4
330
7B8A
100
AcDbEntity
  8
3
  6
Continuous
 62
     0
440
 16777216
100
AcDbBlockReference
  2
_OPEN
 10
1004.566496
 20
987.557236723097
 30
0.0
 41
20.0
 42
20.0
 43
20.0
 50
270.0
  0
INSERT
  5
80D5
330
7B8A
100
AcDbEntity
  8
3
  6
Continuous
 62
     0
440
 16777216
100
AcDbBlockReference
  2
_OPEN
 10
1004.566496
 20
1147.557236723097
 30
0.0
 41
20.0
 42
20.0
 43
20.0
 50
90.0
  0
MTEXT
  5
80D6
330
7B8A
100
AcDbEntity
  8
3
  6
Continuous
 62
     0
440
 16777216
100
AcDbMText
 10
979.5664960000001
 20
1067.618513723097
 30
0.0
 40
30.0
 41
0.0
 46
0.0
 71
     5
 72
     5
  1
\A1;160
 11
0.0000000000000001
 21
1.0
 31
0.0
 73
     1
 44
1.0
  0
POINT
  5
80D7
330
7B8A
100
AcDbEntity
  8
DEFPOINTS
  6
Continuous
 62
     0
440
 16777216
100
AcDbPoint
 10
942.8791250000001
 20
987.557236723097
 30
0.0
  0
POINT
  5
80D8
330
7B8A
100
AcDbEntity
  8
DEFPOINTS
  6
Continuous
 62
     0
440
 16777216
100
AcDbPoint
 10
942.8791250000001
 20
1147.557236723097
 30
0.0
  0
POINT
  5
80D9
330
7B8A
100
AcDbEntity
  8
DEFPOINTS
  6
Continuous
 62
     0
440
 16777216
100
AcDbPoint
 10
1004.566496
 20
1147.557236723097
 30
0.0
  0
ENDBLK
  5
7B95
330
7B8A
100
AcDbEntity
  8
0
100
AcDbBlockEnd
  0
BLOCK
  5
7C09
330
7C08
100
AcDbEntity
  8
0
100
AcDbBlockBegin
  2
*D4
 70
     1
 10
0.0
 20
0.0
 30
0.0
  3
*D4
  1

  0
LINE
  5
81C0
330
7C08
100
AcDbEntity
  8
3
  6
Continuous
 62
     0
440
 16777216
370
    -2
100
AcDbLine
 10
1511.597551048932
 20
812.557236723097
 30
0.0
 11
1511.597551048932
 21
746.6589717230971
 31
0.0
  0
LINE
  5
81C1
330
7C08
100
AcDbEntity
  8
3
  6
Continuous
 62
     0
440
 16777216
370
    -2
100
AcDbLine
 10
1699.597551048932
 20
800.544291723097
 30
0.0
 11
1699.597551048932
 21
746.6589717230971
 31
0.0
  0
LINE
  5
81C2
330
7C08
100
AcDbEntity
  8
3
  6
Continuous
 62
     0
440
 16777216
370
    -2
100
AcDbLine
 10
1531.597551048932
 20
756.6589717230971
 30
0.0
 11
1679.597551048932
 21
756.6589717230971
 31
0.0
  0
INSERT
  5
81C3
330
7C08
100
AcDbEntity
  8
3
  6
Continuous
 62
     0
440
 16777216
370
    -2
100
AcDbBlockReference
  2
_OPEN
 10
1511.597551048932
 20
756.6589717230971
 30
0.0
 41
20.0
 42
20.0
 43
20.0
 50
180.0
  0
INSERT
  5
81C4
330
7C08
100
AcDbEntity
  8
3
  6
Continuous
 62
     0
440
 16777216
370
    -2
100
AcDbBlockReference
  2
_OPEN
 10
1699.597551048932
 20
756.6589717230971
 30
0.0
 41
20.0
 42
20.0
 43
20.0
  0
MTEXT
  5
81C5
330
7C08
100
AcDbEntity
  8
3
  6
Continuous
 62
     0
440
 16777216
100
AcDbMText
 10
1609.518774048932
 20
781.6589717230971
 30
0.0
 40
30.0
 41
0.0
 46
0.0
 71
     5
 72
     1
  1
\A1;188
 73
     1
 44
1.0
  0
POINT
  5
81C6
330
7C08
100
AcDbEntity
  8
DEFPOINTS
  6
Continuous
 62
     0
440
 16777216
100
AcDbPoint
 10
1511.597551048932
 20
817.5572367230969
 30
0.0
  0
POINT
  5
81C7
330
7C08
100
AcDbEntity
  8
DEFPOINTS
  6
Continuous
 62
     0
440
 16777216
100
AcDbPoint
 10
1699.597551048932
 20
805.5442917230971
 30
0.0
  0
POINT
  5
81C8
330
7C08
100
AcDbEntity
  8
DEFPOINTS
  6
Continuous
 62
     0
440
 16777216
100
AcDbPoint
 10
1699.597551048932
 20
756.6589717230971
 30
0.0
  0
ENDBLK
  5
7C13
330
7C08
100
AcDbEntity
  8
0
100
AcDbBlockEnd
  0
BLOCK
  5
7C96
330
7C15
100
AcDbEntity
  8
0
100
AcDbBlockBegin
  2
*D5
 70
     1
 10
0.0
 20
0.0
 30
0.0
  3
*D5
  1

  0
LINE
  5
81C9
330
7C15
100
AcDbEntity
  8
3
  6
Continuous
 62
     0
440
 16777216
370
    -2
100
AcDbLine
 10
1735.597551048932
 20
812.557236723097
 30
0.0
 11
1735.597551048932
 21
746.6589717230971
 31
0.0
  0
LINE
  5
81CA
330
7C15
100
AcDbEntity
  8
3
  6
Continuous
 62
     0
440
 16777216
370
    -2
100
AcDbLine
 10
1679.597551048932
 20
756.6589717230971
 30
0.0
 11
1659.597551048932
 21
756.6589717230971
 31
0.0
  0
LINE
  5
81CB
330
7C15
100
AcDbEntity
  8
3
  6
Continuous
 62
     0
440
 16777216
370
    -2
100
AcDbLine
 10
1755.597551048932
 20
756.6589717230971
 30
0.0
 11
1775.597551048932
 21
756.6589717230971
 31
0.0
  0
MTEXT
  5
81CC
330
7C15
100
AcDbEntity
  8
3
  6
Continuous
 62
     0
440
 16777216
100
AcDbMText
 10
1774.456734048932
 20
782.5772497230971
 30
0.0
 40
30.0
 41
0.0
 46
0.0
 71
     5
 72
     1
  1
\A1;36
 73
     1
 44
1.0
  0
LINE
  5
81CD
330
7C15
100
AcDbEntity
  8
3
  6
Continuous
 62
     0
440
 16777216
370
    -2
100
AcDbLine
 10
1699.597551048932
 20
756.6589717230971
 30
0.0
 11
1735.597551048932
 21
756.6589717230971
 31
0.0
  0
INSERT
  5
81CE
330
7C15
100
AcDbEntity
  8
3
  6
Continuous
 62
     0
440
 16777216
370
    -2
100
AcDbBlockReference
  2
_OPEN
 10
1699.597551048932
 20
756.6589717230971
 30
0.0
 41
20.0
 42
20.0
 43
20.0
  0
INSERT
  5
81CF
330
7C15
100
AcDbEntity
  8
3
  6
Continuous
 62
     0
440
 16777216
370
    -2
100
AcDbBlockReference
  2
_OPEN
 10
1735.597551048932
 20
756.6589717230971
 30
0.0
 41
20.0
 42
20.0
 43
20.0
 50
180.0
  0
POINT
  5
81D0
330
7C15
100
AcDbEntity
  8
DEFPOINTS
  6
Continuous
 62
     0
440
 16777216
100
AcDbPoint
 10
1699.597551048932
 20
805.5442917230971
 30
0.0
  0
POINT
  5
81D1
330
7C15
100
AcDbEntity
  8
DEFPOINTS
  6
Continuous
 62
     0
440
 16777216
100
AcDbPoint
 10
1735.597551048932
 20
817.5572367230969
 30
0.0
  0
POINT
  5
81D2
330
7C15
100
AcDbEntity
  8
DEFPOINTS
  6
Continuous
 62
     0
440
 16777216
100
AcDbPoint
 10
1735.597551048932
 20
756.6589717230971
 30
0.0
  0
ENDBLK
  5
7CA1
330
7C15
100
AcDbEntity
  8
0
100
AcDbBlockEnd
  0
BLOCK
  5
7F76
330
7C25
100
AcDbEntity
  8
0
100
AcDbBlockBegin
  2
*D6
 70
     1
 10
0.0
 20
0.0
 30
0.0
  3
*D6
  1

  0
LINE
  5
7F77
330
7C25
100
AcDbEntity
  8
0
  6
ByBlock
 62
     0
440
 16777216
100
AcDbLine
 10
1643.597551048932
 20
1263.557236723097
 30
0.0
 11
1643.597551048932
 21
1317.479434723097
 31
0.0
  0
LINE
  5
7F78
330
7C25
100
AcDbEntity
  8
0
  6
ByBlock
 62
     0
440
 16777216
100
AcDbLine
 10
1755.597551048932
 20
1263.557236723097
 30
0.0
 11
1755.597551048932
 21
1317.479434723097
 31
0.0
  0
LINE
  5
7F79
330
7C25
100
AcDbEntity
  8
0
  6
ByBlock
 62
     0
440
 16777216
100
AcDbLine
 10
1663.597551048932
 20
1307.479434723097
 30
0.0
 11
1735.597551048932
 21
1307.479434723097
 31
0.0
  0
MTEXT
  5
7F7A
330
7C25
100
AcDbEntity
  8
0
  6
ByBlock
 62
     0
440
 16777216
100
AcDbMText
 10
1699.597551048932
 20
1330.303256641538
 30
0.0
 40
30.0
 41
0.0
 46
0.0
 71
     5
 72
     5
  1
\A1;112
 73
     1
 44
1.0
  0
INSERT
  5
7F7B
330
7C25
100
AcDbEntity
  8
0
  6
ByBlock
 62
     0
440
 16777216
100
AcDbBlockReference
  2
_OPEN
 10
1643.597551048932
 20
1307.479434723097
 30
0.0
 41
20.0
 42
20.0
 43
20.0
 50
180.0
  0
INSERT
  5
7F7C
330
7C25
100
AcDbEntity
  8
0
  6
ByBlock
 62
     0
440
 16777216
100
AcDbBlockReference
  2
_OPEN
 10
1755.597551048932
 20
1307.479434723097
 30
0.0
 41
20.0
 42
20.0
 43
20.0
  0
POINT
  5
7F7D
330
7C25
100
AcDbEntity
  8
DEFPOINTS
  6
ByBlock
 62
     0
440
 16777216
100
AcDbPoint
 10
1643.597551048932
 20
1258.557236723097
 30
0.0
  0
POINT
  5
7F7E
330
7C25
100
AcDbEntity
  8
DEFPOINTS
  6
ByBlock
 62
     0
440
 16777216
100
AcDbPoint
 10
1755.597551048932
 20
1258.557236723097
 30
0.0
  0
POINT
  5
7F7F
330
7C25
100
AcDbEntity
  8
DEFPOINTS
  6
ByBlock
 62
     0
440
 16777216
100
AcDbPoint
 10
1755.597551048932
 20
1307.479434723097
 30
0.0
  0
ENDBLK
  5
7F80
330
7C25
100
AcDbEntity
  8
0
100
AcDbBlockEnd
  0
BLOCK
  5
7F81
330
7C7A
100
AcDbEntity
  8
0
100
AcDbBlockBegin
  2
*D7
 70
     1
 10
0.0
 20
0.0
 30
0.0
  3
*D7
  1

  0
LINE
  5
7F82
330
7C7A
100
AcDbEntity
  8
0
  6
ByBlock
 62
     0
440
 16777216
100
AcDbLine
 10
1768.597551048932
 20
1227.557236723097
 30
0.0
 11
1846.436965048932
 21
1227.557236723097
 31
0.0
  0
LINE
  5
7F83
330
7C7A
100
AcDbEntity
  8
0
  6
ByBlock
 62
     0
440
 16777216
100
AcDbLine
 10
1768.597551048932
 20
1067.557236723097
 30
0.0
 11
1846.436965048932
 21
1067.557236723097
 31
0.0
  0
LINE
  5
7F84
330
7C7A
100
AcDbEntity
  8
0
  6
ByBlock
 62
     0
440
 16777216
100
AcDbLine
 10
1836.436965048932
 20
1207.557236723097
 30
0.0
 11
1836.436965048932
 21
1087.557236723097
 31
0.0
  0
MTEXT
  5
7F85
330
7C7A
100
AcDbEntity
  8
0
  6
ByBlock
 62
     0
440
 16777216
100
AcDbMText
 10
1814.580427103023
 20
1147.557236723097
 30
0.0
 40
30.0
 41
0.0
 46
0.0
 71
     5
 72
     5
  1
\A1;φ160
 11
0.0
 21
1.0
 31
0.0
 73
     1
 44
1.0
  0
INSERT
  5
7F86
330
7C7A
100
AcDbEntity
  8
0
  6
ByBlock
 62
     0
440
 16777216
100
AcDbBlockReference
  2
_OPEN
 10
1836.436965048932
 20
1227.557236723097
 30
0.0
 41
20.0
 42
20.0
 43
20.0
 50
90.0
  0
INSERT
  5
7F87
330
7C7A
100
AcDbEntity
  8
0
  6
ByBlock
 62
     0
440
 16777216
100
AcDbBlockReference
  2
_OPEN
 10
1836.436965048932
 20
1067.557236723097
 30
0.0
 41
20.0
 42
20.0
 43
20.0
 50
270.0
  0
POINT
  5
7F88
330
7C7A
100
AcDbEntity
  8
DEFPOINTS
  6
ByBlock
 62
     0
440
 16777216
100
AcDbPoint
 10
1763.597551048932
 20
1227.557236723097
 30
0.0
  0
POINT
  5
7F89
330
7C7A
100
AcDbEntity
  8
DEFPOINTS
  6
ByBlock
 62
     0
440
 16777216
100
AcDbPoint
 10
1763.597551048932
 20
1067.557236723097
 30
0.0
  0
POINT
  5
7F8A
330
7C7A
100
AcDbEntity
  8
DEFPOINTS
  6
ByBlock
 62
     0
440
 16777216
100
AcDbPoint
 10
1836.436965048932
 20
1067.557236723097
 30
0.0
  0
ENDBLK
  5
7F8B
330
7C7A
100
AcDbEntity
  8
0
100
AcDbBlockEnd
  0
BLOCK
  5
7F60
330
7CEC
100
AcDbEntity
  8
0
100
AcDbBlockBegin
  2
*D8
 70
     1
 10
0.0
 20
0.0
 30
0.0
  3
*D8
  1

  0
LINE
  5
7F61
330
7CEC
100
AcDbEntity
  8
0
  6
ByBlock
 62
     0
440
 16777216
100
AcDbLine
 10
943.8791250000001
 20
1174.557236723097
 30
0.0
 11
943.8791250000001
 21
1310.731782723097
 31
0.0
  0
LINE
  5
7F62
330
7CEC
100
AcDbEntity
  8
0
  6
ByBlock
 62
     0
440
 16777216
100
AcDbLine
 10
813.879125
 20
1275.201418723097
 30
0.0
 11
813.879125
 21
1310.731782723097
 31
0.0
  0
LINE
  5
7F63
330
7CEC
100
AcDbEntity
  8
0
  6
ByBlock
 62
     0
440
 16777216
100
AcDbLine
 10
923.879125
 20
1300.731782723097
 30
0.0
 11
833.8791249999999
 21
1300.731782723097
 31
0.0
  0
MTEXT
  5
7F64
330
7CEC
100
AcDbEntity
  8
0
  6
ByBlock
 62
     0
440
 16777216
100
AcDbMText
 10
878.879125
 20
1326.097574957121
 30
0.0
 40
30.0
 41
0.0
 46
0.0
 71
     5
 72
     5
  1
\A1;130
 73
     1
 44
1.0
  0
INSERT
  5
7F65
330
7CEC
100
AcDbEntity
  8
0
  6
ByBlock
 62
     0
440
 16777216
100
AcDbBlockReference
  2
_OPEN
 10
943.8791250000001
 20
1300.731782723097
 30
0.0
 41
20.0
 42
20.0
 43
20.0
  0
INSERT
  5
7F66
330
7CEC
100
AcDbEntity
  8
0
  6
ByBlock
 62
     0
440
 16777216
100
AcDbBlockReference
  2
_OPEN
 10
813.879125
 20
1300.731782723097
 30
0.0
 41
20.0
 42
20.0
 43
20.0
 50
180.0
  0
POINT
  5
7F67
330
7CEC
100
AcDbEntity
  8
DEFPOINTS
  6
ByBlock
 62
     0
440
 16777216
100
AcDbPoint
 10
943.8791250000001
 20
1169.557236723097
 30
0.0
  0
POINT
  5
7F68
330
7CEC
100
AcDbEntity
  8
DEFPOINTS
  6
ByBlock
 62
     0
440
 16777216
100
AcDbPoint
 10
813.879125
 20
1270.201418723097
 30
0.0
  0
POINT
  5
7F69
330
7CEC
100
AcDbEntity
  8
DEFPOINTS
  6
ByBlock
 62
     0
440
 16777216
100
AcDbPoint
 10
813.879125
 20
1300.731782723097
 30
0.0
  0
ENDBLK
  5
7F6A
330
7CEC
100
AcDbEntity
  8
0
100
AcDbBlockEnd
  0
BLOCK
  5
7CFC
330
7CFB
100
AcDbEntity
  8
0
100
AcDbBlockBegin
  2
*D9
 70
     1
 10
0.0
 20
0.0
 30
0.0
  3
*D9
  1

  0
LINE
  5
80ED
330
7CFB
100
AcDbEntity
  8
3
  6
Continuous
 62
     0
440
 16777216
100
AcDbLine
 10
669.3434019999999
 20
1151.660793723097
 30
0.0
 11
669.3434019999999
 21
1310.731782723097
 31
0.0
  0
LINE
  5
80EE
330
7CFB
100
AcDbEntity
  8
3
  6
Continuous
 62
     0
440
 16777216
100
AcDbLine
 10
793.879125
 20
1300.731782723097
 30
0.0
 11
689.3434019999999
 21
1300.731782723097
 31
0.0
  0
INSERT
  5
80EF
330
7CFB
100
AcDbEntity
  8
3
  6
Continuous
 62
     0
440
 16777216
100
AcDbBlockReference
  2
_OPEN
 10
813.879125
 20
1300.731782723097
 30
0.0
 41
20.0
 42
20.0
 43
20.0
  0
INSERT
  5
80F0
330
7CFB
100
AcDbEntity
  8
3
  6
Continuous
 62
     0
440
 16777216
100
AcDbBlockReference
  2
_OPEN
 10
669.3434019999999
 20
1300.731782723097
 30
0.0
 41
20.0
 42
20.0
 43
20.0
 50
180.0
  0
MTEXT
  5
80F1
330
7CFB
100
AcDbEntity
  8
3
  6
Continuous
 62
     0
440
 16777216
100
AcDbMText
 10
741.6112634999999
 20
1325.731782723097
 30
0.0
 40
30.0
 41
0.0
 46
0.0
 71
     5
 72
     5
  1
\A1;145
 73
     1
 44
1.0
  0
POINT
  5
80F2
330
7CFB
100
AcDbEntity
  8
DEFPOINTS
  6
Continuous
 62
     0
440
 16777216
100
AcDbPoint
 10
813.879125
 20
1270.201418723097
 30
0.0
  0
POINT
  5
80F3
330
7CFB
100
AcDbEntity
  8
DEFPOINTS
  6
Continuous
 62
     0
440
 16777216
100
AcDbPoint
 10
669.3434019999999
 20
1146.660793723097
 30
0.0
  0
POINT
  5
80F4
330
7CFB
100
AcDbEntity
  8
DEFPOINTS
  6
Continuous
 62
     0
440
 16777216
100
AcDbPoint
 10
669.3434019999999
 20
1300.731782723097
 30
0.0
  0
ENDBLK
  5
7D05
330
7CFB
100
AcDbEntity
  8
0
100
AcDbBlockEnd
  0
BLOCK
  5
7D23
330
7D22
100
AcDbEntity
  8
0
100
AcDbBlockBegin
  2
*D10
 70
     1
 10
0.0
 20
0.0
 30
0.0
  3
*D10
  1

  0
LINE
  5
80F5
330
7D22
100
AcDbEntity
  8
3
  6
Continuous
 62
     0
440
 16777216
100
AcDbLine
 10
363.8791249999999
 20
1881.025819163346
 30
0.0
 11
363.8791249999999
 21
1723.857221163346
 31
0.0
  0
LINE
  5
80F6
330
7D22
100
AcDbEntity
  8
3
  6
Continuous
 62
     0
440
 16777216
100
AcDbLine
 10
973.879125
 20
1881.025819163346
 30
0.0
 11
973.879125
 21
1723.857221163346
 31
0.0
  0
LINE
  5
80F7
330
7D22
100
AcDbEntity
  8
3
  6
Continuous
 62
     0
440
 16777216
100
AcDbLine
 10
383.8791249999999
 20
1733.857221163346
 30
0.0
 11
953.879125
 21
1733.857221163346
 31
0.0
  0
INSERT
  5
80F8
330
7D22
100
AcDbEntity
  8
3
  6
Continuous
 62
     0
440
 16777216
100
AcDbBlockReference
  2
_OPEN
 10
363.8791249999999
 20
1733.857221163346
 30
0.0
 41
20.0
 42
20.0
 43
20.0
 50
180.0
  0
INSERT
  5
80F9
330
7D22
100
AcDbEntity
  8
3
  6
Continuous
 62
     0
440
 16777216
100
AcDbBlockReference
  2
_OPEN
 10
973.879125
 20
1733.857221163346
 30
0.0
 41
20.0
 42
20.0
 43
20.0
  0
MTEXT
  5
80FA
330
7D22
100
AcDbEntity
  8
3
  6
Continuous
 62
     0
440
 16777216
100
AcDbMText
 10
648.820202
 20
1758.857221163346
 30
0.0
 40
30.0
 41
0.0
 46
0.0
 71
     5
 72
     5
  1
\A1;610
 73
     1
 44
1.0
  0
POINT
  5
80FB
330
7D22
100
AcDbEntity
  8
DEFPOINTS
  6
Continuous
 62
     0
440
 16777216
100
AcDbPoint
 10
363.8791249999999
 20
1886.025819163346
 30
0.0
  0
POINT
  5
80FC
330
7D22
100
AcDbEntity
  8
DEFPOINTS
  6
Continuous
 62
     0
440
 16777216
100
AcDbPoint
 10
973.879125
 20
1886.025819163346
 30
0.0
  0
POINT
  5
80FD
330
7D22
100
AcDbEntity
  8
DEFPOINTS
  6
Continuous
 62
     0
440
 16777216
100
AcDbPoint
 10
973.879125
 20
1733.857221163346
 30
0.0
  0
ENDBLK
  5
7D2D
330
7D22
100
AcDbEntity
  8
0
100
AcDbBlockEnd
  0
BLOCK
  5
7D31
330
7D30
100
AcDbEntity
  8
0
100
AcDbBlockBegin
  2
*D11
 70
     1
 10
0.0
 20
0.0
 30
0.0
  3
*D11
  1

  0
LINE
  5
80FE
330
7D30
100
AcDbEntity
  8
3
  6
Continuous
 62
     0
440
 16777216
100
AcDbLine
 10
978.879125
 20
2110.025819163346
 30
0.0
 11
1095.69232
 21
2110.025819163346
 31
0.0
  0
LINE
  5
80FF
330
7D30
100
AcDbEntity
  8
3
  6
Continuous
 62
     0
440
 16777216
100
AcDbLine
 10
978.879125
 20
1886.025819163346
 30
0.0
 11
1095.69232
 21
1886.025819163346
 31
0.0
  0
LINE
  5
8100
330
7D30
100
AcDbEntity
  8
3
  6
Continuous
 62
     0
440
 16777216
100
AcDbLine
 10
1085.69232
 20
2090.025819163346
 30
0.0
 11
1085.69232
 21
1906.025819163346
 31
0.0
  0
INSERT
  5
8101
330
7D30
100
AcDbEntity
  8
3
  6
Continuous
 62
     0
440
 16777216
100
AcDbBlockReference
  2
_OPEN
 10
1085.69232
 20
2110.025819163346
 30
0.0
 41
20.0
 42
20.0
 43
20.0
 50
90.0
  0
INSERT
  5
8102
330
7D30
100
AcDbEntity
  8
3
  6
Continuous
 62
     0
440
 16777216
100
AcDbBlockReference
  2
_OPEN
 10
1085.69232
 20
1886.025819163346
 30
0.0
 41
20.0
 42
20.0
 43
20.0
 50
270.0
  0
MTEXT
  5
8103
330
7D30
100
AcDbEntity
  8
3
  6
Continuous
 62
     0
440
 16777216
100
AcDbMText
 10
1060.69232
 20
1990.563320163346
 30
0.0
 40
30.0
 41
0.0
 46
0.0
 71
     5
 72
     5
  1
\A1;224
 11
0.0000000000000001
 21
1.0
 31
0.0
 73
     1
 44
1.0
  0
POINT
  5
8104
330
7D30
100
AcDbEntity
  8
DEFPOINTS
  6
Continuous
 62
     0
440
 16777216
100
AcDbPoint
 10
973.879125
 20
2110.025819163346
 30
0.0
  0
POINT
  5
8105
330
7D30
100
AcDbEntity
  8
DEFPOINTS
  6
Continuous
 62
     0
440
 16777216
100
AcDbPoint
 10
973.879125
 20
1886.025819163346
 30
0.0
  0
POINT
  5
8106
330
7D30
100
AcDbEntity
  8
DEFPOINTS
  6
Continuous
 62
     0
440
 16777216
100
AcDbPoint
 10
1085.69232
 20
1886.025819163346
 30
0.0
  0
ENDBLK
  5
7D3B
330
7D30
100
AcDbEntity
  8
0
100
AcDbBlockEnd
  0
BLOCK
  5
7F6B
330
7DDA
100
AcDbEntity
  8
0
100
AcDbBlockBegin
  2
*D12
 70
     1
 10
0.0
 20
0.0
 30
0.0
  3
*D12
  1

  0
LINE
  5
7F6C
330
7DDA
100
AcDbEntity
  8
0
  6
ByBlock
 62
     0
440
 16777216
100
AcDbLine
 10
808.9195139999999
 20
1270.553197723097
 30
0.0
 11
1141.96977427089
 21
1270.553197723097
 31
0.0
  0
LINE
  5
7F6D
330
7DDA
100
AcDbEntity
  8
0
  6
ByBlock
 62
     0
440
 16777216
100
AcDbLine
 10
998.7676460000001
 20
1147.557236723097
 30
0.0
 11
1141.96977427089
 21
1147.557236723097
 31
0.0
  0
LINE
  5
7F6E
330
7DDA
100
AcDbEntity
  8
0
  6
ByBlock
 62
     0
440
 16777216
100
AcDbLine
 10
1131.969774270889
 20
1250.553197723097
 30
0.0
 11
1131.969774270889
 21
1167.557236723097
 31
0.0
  0
MTEXT
  5
7F6F
330
7DDA
100
AcDbEntity
  8
0
  6
ByBlock
 62
     0
440
 16777216
100
AcDbMText
 10
1107.442386147724
 20
1209.055217223097
 30
0.0
 40
30.0
 41
0.0
 46
0.0
 71
     5
 72
     5
  1
\A1;123
 11
0.0
 21
1.0
 31
0.0
 73
     1
 44
1.0
  0
INSERT
  5
7F70
330
7DDA
100
AcDbEntity
  8
0
  6
ByBlock
 62
     0
440
 16777216
100
AcDbBlockReference
  2
_OPEN
 10
1131.969774270889
 20
1270.553197723097
 30
0.0
 41
20.0
 42
20.0
 43
20.0
 50
90.0
  0
INSERT
  5
7F71
330
7DDA
100
AcDbEntity
  8
0
  6
ByBlock
 62
     0
440
 16777216
100
AcDbBlockReference
  2
_OPEN
 10
1131.969774270889
 20
1147.557236723097
 30
0.0
 41
20.0
 42
20.0
 43
20.0
 50
270.0
  0
POINT
  5
7F72
330
7DDA
100
AcDbEntity
  8
DEFPOINTS
  6
ByBlock
 62
     0
440
 16777216
100
AcDbPoint
 10
803.919514
 20
1270.553197723097
 30
0.0
  0
POINT
  5
7F73
330
7DDA
100
AcDbEntity
  8
DEFPOINTS
  6
ByBlock
 62
     0
440
 16777216
100
AcDbPoint
 10
993.7676460000002
 20
1147.557236723097
 30
0.0
  0
POINT
  5
7F74
330
7DDA
100
AcDbEntity
  8
DEFPOINTS
  6
ByBlock
 62
     0
440
 16777216
100
AcDbPoint
 10
1131.969774270889
 20
1147.557236723097
 30
0.0
  0
ENDBLK
  5
7F75
330
7DDA
100
AcDbEntity
  8
0
100
AcDbBlockEnd
  0
BLOCK
  5
7F0C
330
7E03
100
AcDbEntity
  8
0
100
AcDbBlockBegin
  2
*D13
 70
     1
 10
0.0
 20
0.0
 30
0.0
  3
*D13
  1

  0
LINE
  5
8107
330
7E03
100
AcDbEntity
  8
3
  6
Continuous
 62
     0
440
 16777216
100
AcDbLine
 10
953.879125
 20
912.557236723097
 30
0.0
 11
1141.96977427089
 21
912.557236723097
 31
0.0
  0
LINE
  5
8108
330
7E03
100
AcDbEntity
  8
3
  6
Continuous
 62
     0
440
 16777216
100
AcDbLine
 10
1131.969774270889
 20
1127.557236723097
 30
0.0
 11
1131.969774270889
 21
932.557236723097
 31
0.0
  0
INSERT
  5
8109
330
7E03
100
AcDbEntity
  8
3
  6
Continuous
 62
     0
440
 16777216
100
AcDbBlockReference
  2
_OPEN
 10
1131.969774270889
 20
1147.557236723097
 30
0.0
 41
20.0
 42
20.0
 43
20.0
 50
90.0
  0
INSERT
  5
810A
330
7E03
100
AcDbEntity
  8
3
  6
Continuous
 62
     0
440
 16777216
100
AcDbBlockReference
  2
_OPEN
 10
1131.969774270889
 20
912.557236723097
 30
0.0
 41
20.0
 42
20.0
 43
20.0
 50
270.0
  0
MTEXT
  5
810B
330
7E03
100
AcDbEntity
  8
3
  6
Continuous
 62
     0
440
 16777216
100
AcDbMText
 10
1106.969774270889
 20
1030.057236723097
 30
0.0
 40
30.0
 41
0.0
 46
0.0
 71
     5
 72
     5
  1
\A1;235
 11
0.0000000000000001
 21
1.0
 31
0.0
 73
     1
 44
1.0
  0
POINT
  5
810C
330
7E03
100
AcDbEntity
  8
DEFPOINTS
  6
Continuous
 62
     0
440
 16777216
100
AcDbPoint
 10
993.7676460000002
 20
1147.557236723097
 30
0.0
  0
POINT
  5
810D
330
7E03
100
AcDbEntity
  8
DEFPOINTS
  6
Continuous
 62
     0
440
 16777216
100
AcDbPoint
 10
948.879125
 20
912.557236723097
 30
0.0
  0
POINT
  5
810E
330
7E03
100
AcDbEntity
  8
DEFPOINTS
  6
Continuous
 62
     0
440
 16777216
100
AcDbPoint
 10
1131.969774270889
 20
912.557236723097
 30
0.0
  0
ENDBLK
  5
7F15
330
7E03
100
AcDbEntity
  8
0
100
AcDbBlockEnd
  0
BLOCK
  5
7E87
330
7E86
100
AcDbEntity
  8
0
100
AcDbBlockBegin
  2
*D14
 70
     1
 10
0.0
 20
0.0
 30
0.0
  3
*D14
  1

  0
LINE
  5
810F
330
7E86
100
AcDbEntity
  8
3
  6
Continuous
 62
     0
440
 16777216
100
AcDbLine
 10
948.879125
 20
1147.557236723097
 30
0.0
 11
1087.185969
 21
1147.557236723097
 31
0.0
  0
LINE
  5
8110
330
7E86
100
AcDbEntity
  8
3
  6
Continuous
 62
     0
440
 16777216
100
AcDbLine
 10
928.879125
 20
976.5572367230971
 30
0.0
 11
1087.185969
 21
976.5572367230971
 31
0.0
  0
LINE
  5
8111
330
7E86
100
AcDbEntity
  8
3
  6
Continuous
 62
     0
440
 16777216
100
AcDbLine
 10
1077.185969
 20
1127.557236723097
 30
0.0
 11
1077.185969
 21
996.5572367230972
 31
0.0
  0
INSERT
  5
8112
330
7E86
100
AcDbEntity
  8
3
  6
Continuous
 62
     0
440
 16777216
100
AcDbBlockReference
  2
_OPEN
 10
1077.185969
 20
1147.557236723097
 30
0.0
 41
20.0
 42
20.0
 43
20.0
 50
90.0
  0
INSERT
  5
8113
330
7E86
100
AcDbEntity
  8
3
  6
Continuous
 62
     0
440
 16777216
100
AcDbBlockReference
  2
_OPEN
 10
1077.185969
 20
976.5572367230971
 30
0.0
 41
20.0
 42
20.0
 43
20.0
 50
270.0
  0
MTEXT
  5
8114
330
7E86
100
AcDbEntity
  8
3
  6
Continuous
 62
     0
440
 16777216
100
AcDbMText
 10
1052.185969
 20
1069.487543723097
 30
0.0
 40
30.0
 41
0.0
 46
0.0
 71
     5
 72
     5
  1
\A1;171
 11
0.0000000000000001
 21
1.0
 31
0.0
 73
     1
 44
1.0
  0
POINT
  5
8115
330
7E86
100
AcDbEntity
  8
DEFPOINTS
  6
Continuous
 62
     0
440
 16777216
100
AcDbPoint
 10
943.8791250000001
 20
1147.557236723097
 30
0.0
  0
POINT
  5
8116
330
7E86
100
AcDbEntity
  8
DEFPOINTS
  6
Continuous
 62
     0
440
 16777216
100
AcDbPoint
 10
923.879125
 20
976.5572367230971
 30
0.0
  0
POINT
  5
8117
330
7E86
100
AcDbEntity
  8
DEFPOINTS
  6
Continuous
 62
     0
440
 16777216
100
AcDbPoint
 10
1077.185969
 20
976.5572367230971
 30
0.0
  0
ENDBLK
  5
7E91
330
7E86
100
AcDbEntity
  8
0
100
AcDbBlockEnd
  0
BLOCK
  5
7FA6
330
7E98
100
AcDbEntity
  8
0
100
AcDbBlockBegin
  2
*D15
 70
     1
 10
0.0
 20
0.0
 30
0.0
  3
*D15
  1

  0
LINE
  5
822E
330
7E98
100
AcDbEntity
  8
3
  6
Continuous
 62
     0
440
 16777216
370
    -2
100
AcDbLine
 10
1439.597551048932
 20
1247.557236723097
 30
0.0
 11
1439.597551048932
 21
1370.587085723097
 31
0.0
  0
LINE
  5
822F
330
7E98
100
AcDbEntity
  8
3
  6
Continuous
 62
     0
440
 16777216
370
    -2
100
AcDbLine
 10
1699.597551048932
 20
1356.301204723097
 30
0.0
 11
1699.597551048932
 21
1370.587085723097
 31
0.0
  0
LINE
  5
8230
330
7E98
100
AcDbEntity
  8
3
  6
Continuous
 62
     0
440
 16777216
370
    -2
100
AcDbLine
 10
1459.597551048932
 20
1360.587085723097
 30
0.0
 11
1679.597551048932
 21
1360.587085723097
 31
0.0
  0
INSERT
  5
8231
330
7E98
100
AcDbEntity
  8
3
  6
Continuous
 62
     0
440
 16777216
370
    -2
100
AcDbBlockReference
  2
_OPEN
 10
1439.597551048932
 20
1360.587085723097
 30
0.0
 41
20.0
 42
20.0
 43
20.0
 50
180.0
  0
INSERT
  5
8232
330
7E98
100
AcDbEntity
  8
3
  6
Continuous
 62
     0
440
 16777216
370
    -2
100
AcDbBlockReference
  2
_OPEN
 10
1699.597551048932
 20
1360.587085723097
 30
0.0
 41
20.0
 42
20.0
 43
20.0
  0
MTEXT
  5
8233
330
7E98
100
AcDbEntity
  8
3
  6
Continuous
 62
     0
440
 16777216
100
AcDbMText
 10
1576.442007048932
 20
1393.44422858024
 30
0.0
 40
30.0
 41
0.0
 46
0.0
 71
     5
 72
     1
  1
\A1;(260)
 73
     1
 44
1.0
  0
POINT
  5
8234
330
7E98
100
AcDbEntity
  8
DEFPOINTS
  6
Continuous
 62
     0
440
 16777216
100
AcDbPoint
 10
1439.597551048932
 20
1242.557236723097
 30
0.0
  0
POINT
  5
8235
330
7E98
100
AcDbEntity
  8
DEFPOINTS
  6
Continuous
 62
     0
440
 16777216
100
AcDbPoint
 10
1699.597551048932
 20
1351.301204723097
 30
0.0
  0
POINT
  5
8236
330
7E98
100
AcDbEntity
  8
DEFPOINTS
  6
Continuous
 62
     0
440
 16777216
100
AcDbPoint
 10
1699.597551048932
 20
1360.587085723097
 30
0.0
  0
ENDBLK
  5
7FB0
330
7E98
100
AcDbEntity
  8
0
100
AcDbBlockEnd
  0
BLOCK
  5
7ED4
330
7EA5
100
AcDbEntity
  8
0
100
AcDbBlockBegin
  2
*D16
 70
     1
 10
0.0
 20
0.0
 30
0.0
  3
*D16
  1

  0
LINE
  5
8121
330
7EA5
100
AcDbEntity
  8
3
  6
Continuous
 62
     0
440
 16777216
100
AcDbLine
 10
1763.597551048932
 20
1252.557236723097
 30
0.0
 11
1763.597551048932
 21
1370.587085723097
 31
0.0
  0
LINE
  5
8122
330
7EA5
100
AcDbEntity
  8
3
  6
Continuous
 62
     0
440
 16777216
100
AcDbLine
 10
1719.597551048932
 20
1360.587085723097
 30
0.0
 11
1743.597551048932
 21
1360.587085723097
 31
0.0
  0
MTEXT
  5
8123
330
7EA5
100
AcDbEntity
  8
3
  6
Continuous
 62
     0
440
 16777216
100
AcDbMText
 10
1733.394459048932
 20
1387.132492723097
 30
0.0
 40
30.0
 41
0.0
 46
0.0
 71
     5
 72
     5
  1
\A1;64
 73
     1
 44
1.0
  0
INSERT
  5
8124
330
7EA5
100
AcDbEntity
  8
3
  6
Continuous
 62
     0
440
 16777216
100
AcDbBlockReference
  2
_OPEN
 10
1699.597551048932
 20
1360.587085723097
 30
0.0
 41
20.0
 42
20.0
 43
20.0
 50
180.0
  0
INSERT
  5
8125
330
7EA5
100
AcDbEntity
  8
3
  6
Continuous
 62
     0
440
 16777216
100
AcDbBlockReference
  2
_OPEN
 10
1763.597551048932
 20
1360.587085723097
 30
0.0
 41
20.0
 42
20.0
 43
20.0
  0
POINT
  5
8126
330
7EA5
100
AcDbEntity
  8
DEFPOINTS
  6
Continuous
 62
     0
440
 16777216
100
AcDbPoint
 10
1699.597551048932
 20
1351.301204723097
 30
0.0
  0
POINT
  5
8127
330
7EA5
100
AcDbEntity
  8
DEFPOINTS
  6
Continuous
 62
     0
440
 16777216
100
AcDbPoint
 10
1763.597551048932
 20
1247.557236723097
 30
0.0
  0
POINT
  5
8128
330
7EA5
100
AcDbEntity
  8
DEFPOINTS
  6
Continuous
 62
     0
440
 16777216
100
AcDbPoint
 10
1763.597551048932
 20
1360.587085723097
 30
0.0
  0
ENDBLK
  5
7EDD
330
7EA5
100
AcDbEntity
  8
0
100
AcDbBlockEnd
  0
BLOCK
  5
7FBA
330
7FB9
100
AcDbEntity
  8
0
100
AcDbBlockBegin
  2
_DOT
 70
     0
 10
0.0
 20
0.0
 30
0.0
  3
_DOT
  1

  0
LWPOLYLINE
  5
7FBB
330
7FB9
100
AcDbEntity
  8
0
  6
ByBlock
 62
     0
100
AcDbPolyline
 90
        2
 70
     1
 43
0.5
 10
-0.25
 20
0.0
 42
1.0
 10
0.25
 20
0.0
 42
1.0
  0
LINE
  5
7FBF
330
7FB9
100
AcDbEntity
  8
0
  6
ByBlock
 62
     0
100
AcDbLine
 10
-0.5
 20
0.0
 30
0.0
 11
-1.0
 21
0.0
 31
0.0
  0
ENDBLK
  5
7FC0
330
7FB9
100
AcDbEntity
  8
0
100
AcDbBlockEnd
  0
BLOCK
  5
7FC2
330
7FC1
100
AcDbEntity
  8
0
100
AcDbBlockBegin
  2
*D18
 70
     1
 10
0.0
 20
0.0
 30
0.0
  3
*D18
  1

  0
LINE
  5
819B
330
7FC1
100
AcDbEntity
  8
3
 62
     0
440
 16777216
370
    -2
100
AcDbLine
 10
978.879125
 20
842.5572367230969
 30
0.0
 11
1142.773311576698
 21
842.5572367230969
 31
0.0
  0
LINE
  5
819C
330
7FC1
100
AcDbEntity
  8
3
 62
     0
440
 16777216
370
    -2
100
AcDbLine
 10
978.879125
 20
817.5572367230969
 30
0.0
 11
1142.773311576698
 21
817.5572367230969
 31
0.0
  0
LINE
  5
819D
330
7FC1
100
AcDbEntity
  8
3
 62
     0
440
 16777216
370
    -2
100
AcDbLine
 10
1132.773311576698
 20
862.557236723097
 30
0.0
 11
1132.773311576698
 21
882.557236723097
 31
0.0
  0
LINE
  5
819E
330
7FC1
100
AcDbEntity
  8
3
 62
     0
440
 16777216
370
    -2
100
AcDbLine
 10
1132.773311576698
 20
797.557236723097
 30
0.0
 11
1132.773311576698
 21
708.9858081516685
 31
0.0
  0
LINE
  5
819F
330
7FC1
100
AcDbEntity
  8
3
 62
     0
440
 16777216
370
    -2
100
AcDbLine
 10
1132.773311576698
 20
842.5572367230969
 30
0.0
 11
1132.773311576698
 21
817.5572367230969
 31
0.0
  0
INSERT
  5
81A0
330
7FC1
100
AcDbEntity
  8
3
 62
     0
440
 16777216
370
    -2
100
AcDbBlockReference
  2
_DOT
 10
1132.773311576698
 20
842.5572367230969
 30
0.0
 41
20.0
 42
20.0
 43
20.0
 50
270.0
  0
INSERT
  5
81A1
330
7FC1
100
AcDbEntity
  8
3
 62
     0
440
 16777216
370
    -2
100
AcDbBlockReference
  2
_OPEN
 10
1132.773311576698
 20
817.5572367230969
 30
0.0
 41
20.0
 42
20.0
 43
20.0
 50
90.0
  0
MTEXT
  5
81A2
330
7FC1
100
AcDbEntity
  8
3
 62
     0
440
 16777216
100
AcDbMText
 10
1107.773311576698
 20
743.2715224373829
 30
0.0
 40
30.0
 41
0.0
 46
0.0
 71
     5
 72
     1
  1
\A1;25
 11
0.0000000000000001
 21
1.0
 31
0.0
 73
     1
 44
1.0
  0
POINT
  5
81A3
330
7FC1
100
AcDbEntity
  8
DEFPOINTS
 62
     0
440
 16777216
100
AcDbPoint
 10
973.879125
 20
842.5572367230969
 30
0.0
  0
POINT
  5
81A4
330
7FC1
100
AcDbEntity
  8
DEFPOINTS
 62
     0
440
 16777216
100
AcDbPoint
 10
973.879125
 20
817.5572367230969
 30
0.0
  0
POINT
  5
81A5
330
7FC1
100
AcDbEntity
  8
DEFPOINTS
 62
     0
440
 16777216
100
AcDbPoint
 10
1132.773311576698
 20
817.5572367230969
 30
0.0
  0
ENDBLK
  5
7FCE
330
7FC1
100
AcDbEntity
  8
0
100
AcDbBlockEnd
  0
BLOCK
  5
7FD1
330
7FD0
100
AcDbEntity
  8
0
100
AcDbBlockBegin
  2
*D19
 70
     1
 10
0.0
 20
0.0
 30
0.0
  3
*D19
  1

  0
LINE
  5
81D3
330
7FD0
100
AcDbEntity
  8
3
 62
     0
440
 16777216
370
    -2
100
AcDbLine
 10
978.879125
 20
842.5572367230969
 30
0.0
 11
1142.773311576698
 21
842.5572367230969
 31
0.0
  0
LINE
  5
81D4
330
7FD0
100
AcDbEntity
  8
3
 62
     0
440
 16777216
370
    -2
100
AcDbLine
 10
953.879125
 20
912.557236723097
 30
0.0
 11
1142.773311576698
 21
912.557236723097
 31
0.0
  0
LINE
  5
81D5
330
7FD0
100
AcDbEntity
  8
3
 62
     0
440
 16777216
370
    -2
100
AcDbLine
 10
1132.773311576698
 20
862.557236723097
 30
0.0
 11
1132.773311576698
 21
892.5572367230969
 31
0.0
  0
MTEXT
  5
81D6
330
7FD0
100
AcDbEntity
  8
3
 62
     0
440
 16777216
100
AcDbMText
 10
1180.1640326915
 20
875.1913760739581
 30
0.0
 40
30.0
 41
0.0
 46
0.0
 71
     5
 72
     1
  1
\A1;(70)
 11
0.0000000000000001
 21
1.0
 31
0.0
 73
     1
 44
1.0
  0
INSERT
  5
81D7
330
7FD0
100
AcDbEntity
  8
3
 62
     0
440
 16777216
370
    -2
100
AcDbBlockReference
  2
_DOT
 10
1132.773311576698
 20
842.5572367230969
 30
0.0
 41
20.0
 42
20.0
 43
20.0
 50
270.0
  0
INSERT
  5
81D8
330
7FD0
100
AcDbEntity
  8
3
 62
     0
440
 16777216
370
    -2
100
AcDbBlockReference
  2
_OPEN
 10
1132.773311576698
 20
912.557236723097
 30
0.0
 41
20.0
 42
20.0
 43
20.0
 50
90.0
  0
POINT
  5
81D9
330
7FD0
100
AcDbEntity
  8
DEFPOINTS
 62
     0
440
 16777216
100
AcDbPoint
 10
973.879125
 20
842.5572367230969
 30
0.0
  0
POINT
  5
81DA
330
7FD0
100
AcDbEntity
  8
DEFPOINTS
 62
     0
440
 16777216
100
AcDbPoint
 10
948.879125
 20
912.557236723097
 30
0.0
  0
POINT
  5
81DB
330
7FD0
100
AcDbEntity
  8
DEFPOINTS
 62
     0
440
 16777216
100
AcDbPoint
 10
1132.773311576698
 20
912.557236723097
 30
0.0
  0
ENDBLK
  5
7FDB
330
7FD0
100
AcDbEntity
  8
0
100
AcDbBlockEnd
  0
BLOCK
  5
8247
330
8246
100
AcDbEntity
  8
0
100
AcDbBlockBegin
  2
*D20
 70
     1
 10
0.0
 20
0.0
 30
0.0
  3
*D20
  1

  0
LINE
  5
828C
330
8246
100
AcDbEntity
  8
3
 62
     0
440
 16777216
370
    -2
100
AcDbLine
 10
978.879125
 20
817.5572367230969
 30
0.0
 11
1230.115444199189
 21
817.5572367230969
 31
0.0
  0
LINE
  5
828D
330
8246
100
AcDbEntity
  8
3
 62
     0
440
 16777216
370
    -2
100
AcDbLine
 10
807.879125
 20
1270.557236723097
 30
0.0
 11
1230.115444199189
 21
1270.557236723097
 31
0.0
  0
LINE
  5
828E
330
8246
100
AcDbEntity
  8
3
 62
     0
440
 16777216
370
    -2
100
AcDbLine
 10
1220.115444199189
 20
837.557236723097
 30
0.0
 11
1220.115444199189
 21
1250.557236723097
 31
0.0
  0
INSERT
  5
828F
330
8246
100
AcDbEntity
  8
3
 62
     0
440
 16777216
370
    -2
100
AcDbBlockReference
  2
_OPEN
 10
1220.115444199189
 20
817.5572367230969
 30
0.0
 41
20.0
 42
20.0
 43
20.0
 50
270.0
  0
INSERT
  5
8290
330
8246
100
AcDbEntity
  8
3
 62
     0
440
 16777216
370
    -2
100
AcDbBlockReference
  2
_OPEN
 10
1220.115444199189
 20
1270.557236723097
 30
0.0
 41
20.0
 42
20.0
 43
20.0
 50
90.0
  0
MTEXT
  5
8291
330
8246
100
AcDbEntity
  8
3
 62
     0
440
 16777216
100
AcDbMText
 10
1187.258301342046
 20
1044.057236723097
 30
0.0
 40
30.0
 41
0.0
 46
0.0
 71
     5
 72
     1
  1
\A1;(453)
 11
0.0000000000000001
 21
1.0
 31
0.0
 73
     1
 44
1.0
  0
POINT
  5
8292
330
8246
100
AcDbEntity
  8
DEFPOINTS
 62
     0
440
 16777216
100
AcDbPoint
 10
973.879125
 20
817.5572367230969
 30
0.0
  0
POINT
  5
8293
330
8246
100
AcDbEntity
  8
DEFPOINTS
 62
     0
440
 16777216
100
AcDbPoint
 10
802.8791250000001
 20
1270.557236723097
 30
0.0
  0
POINT
  5
8294
330
8246
100
AcDbEntity
  8
DEFPOINTS
 62
     0
440
 16777216
100
AcDbPoint
 10
1220.115444199189
 20
1270.557236723097
 30
0.0
  0
ENDBLK
  5
8248
330
8246
100
AcDbEntity
  8
0
100
AcDbBlockEnd
  0
ENDSEC
  0
SECTION
  2
ENTITIES
  0
CIRCLE
  5
7A89
330
19
100
AcDbEntity
  8
1
  6
Continuous
100
AcDbCircle
 10
813.879125
 20
1147.557236723097
 30
0.0
 40
80.0
  0
LINE
  5
7A8A
330
19
100
AcDbEntity
  8
1
  6
Continuous
100
AcDbLine
 10
363.8791249999999
 20
842.5572367230969
 30
0.0
 11
973.879125
 21
842.5572367230969
 31
0.0
  0
LINE
  5
7A8B
330
19
100
AcDbEntity
  8
1
  6
Continuous
100
AcDbLine
 10
363.8791249999999
 20
817.5572367230969
 30
0.0
 11
973.879125
 21
817.5572367230969
 31
0.0
  0
LINE
  5
7A8C
330
19
100
AcDbEntity
  8
1
  6
Continuous
100
AcDbLine
 10
388.8791249999999
 20
912.557236723097
 30
0.0
 11
948.879125
 21
912.557236723097
 31
0.0
  0
LINE
  5
7A8D
330
19
100
AcDbEntity
  8
1
  6
Continuous
100
AcDbLine
 10
388.8791249999999
 20
962.557236723097
 30
0.0
 11
948.879125
 21
962.557236723097
 31
0.0
  0
LINE
  5
7A8E
330
19
100
AcDbEntity
  8
1
  6
Continuous
100
AcDbLine
 10
911.1791249999999
 20
1242.557236723097
 30
0.0
 11
431.1791250000001
 21
1242.557236723097
 31
0.0
  0
LINE
  5
7A8F
330
19
100
AcDbEntity
  8
1
  6
Continuous
100
AcDbLine
 10
703.879125
 20
1114.257236723097
 30
0.0
 11
923.879125
 21
1114.257236723097
 31
0.0
  0
LINE
  5
7A90
330
19
100
AcDbEntity
  8
1
  6
Continuous
100
AcDbLine
 10
850.479125
 20
1252.557236723097
 30
0.0
 11
777.279125
 21
1252.557236723097
 31
0.0
  0
ARC
  5
7A91
330
19
100
AcDbEntity
  8
1
  6
Continuous
100
AcDbCircle
 10
804.879125
 20
1156.557236723097
 30
0.0
 40
114.0
100
AcDbArc
 50
0.5
 51
90.5
  0
ARC
  5
7A92
330
19
100
AcDbEntity
  8
1
  6
Continuous
100
AcDbCircle
 10
826.8791250000001
 20
1134.557236723097
 30
0.0
 40
158.0
100
AcDbArc
 50
170.9
 51
270.0
  0
LINE
  5
7A93
330
19
100
AcDbEntity
  8
1
  6
Continuous
100
AcDbLine
 10
537.279125
 20
1028.657236723097
 30
0.0
 11
825.2791249999999
 21
1104.057236723097
 31
0.0
  0
CIRCLE
  5
7A95
330
19
100
AcDbEntity
  8
1
  6
Continuous
100
AcDbCircle
 10
813.879125
 20
1147.557236723097
 30
0.0
 40
45.0
  0
CIRCLE
  5
7A96
330
19
100
AcDbEntity
  8
1
  6
Continuous
100
AcDbCircle
 10
813.879125
 20
1147.557236723097
 30
0.0
 40
100.0
  0
LINE
  5
7A97
330
19
100
AcDbEntity
  8
1
  6
Continuous
100
AcDbLine
 10
363.8791249999999
 20
842.5572367230969
 30
0.0
 11
363.8791249999999
 21
817.5572367230969
 31
0.0
  0
LINE
  5
7A98
330
19
100
AcDbEntity
  8
1
  6
Continuous
100
AcDbLine
 10
605.879125
 20
990.5572367230972
 30
0.0
 11
597.6791249999999
 21
1013.357236723097
 31
0.0
  0
LINE
  5
7A99
330
19
100
AcDbEntity
  8
1
  6
Continuous
100
AcDbLine
 10
450.8791249999999
 20
990.5572367230972
 30
0.0
 11
459.0791249999999
 21
1013.357236723097
 31
0.0
  0
ARC
  5
7A9A
330
19
100
AcDbEntity
  8
1
  6
Continuous
100
AcDbCircle
 10
528.379125
 20
1062.557236723097
 30
0.0
 40
85.0
100
AcDbArc
 50
324.7
 51
215.3
  0
LINE
  5
7A9B
330
19
100
AcDbEntity
  8
1
  6
Continuous
100
AcDbLine
 10
431.1791250000001
 20
1242.557236723097
 30
0.0
 11
431.1791250000001
 21
962.557236723097
 31
0.0
  0
LINE
  5
7A9C
330
19
100
AcDbEntity
  8
1
  6
Continuous
100
AcDbLine
 10
703.879125
 20
1189.657236723097
 30
0.0
 11
703.879125
 21
962.557236723097
 31
0.0
  0
LINE
  5
7A9D
330
19
100
AcDbEntity
  8
1
  6
Continuous
100
AcDbLine
 10
388.8791249999999
 20
982.5572367230972
 30
0.0
 11
639.879125
 21
982.5572367230972
 31
0.0
  0
LINE
  5
7A9E
330
19
100
AcDbEntity
  8
1
  6
Continuous
100
AcDbLine
 10
450.8791249999999
 20
982.5572367230972
 30
0.0
 11
450.8791249999999
 21
990.5572367230972
 31
0.0
  0
LINE
  5
7A9F
330
19
100
AcDbEntity
  8
1
  6
Continuous
100
AcDbLine
 10
388.8791249999999
 20
982.5572367230972
 30
0.0
 11
388.8791249999999
 21
912.557236723097
 31
0.0
  0
LINE
  5
7AA0
330
19
100
AcDbEntity
  8
1
  6
Continuous
100
AcDbLine
 10
639.879125
 20
982.5572367230972
 30
0.0
 11
639.879125
 21
962.557236723097
 31
0.0
  0
LINE
  5
7AA1
330
19
100
AcDbEntity
  8
1
  6
Continuous
100
AcDbLine
 10
605.879125
 20
982.5572367230972
 30
0.0
 11
605.879125
 21
990.5572367230972
 31
0.0
  0
LINE
  5
7AA2
330
19
100
AcDbEntity
  8
1
  6
Continuous
100
AcDbLine
 10
517.279125
 20
1095.757236723097
 30
0.0
 11
799.5791249999999
 21
1190.257236723097
 31
0.0
  0
LINE
  5
7AA3
330
19
100
AcDbEntity
  8
2
  6
CENTER
100
AcDbLine
 10
493.3791249999999
 20
1062.557236723097
 30
0.0
 11
563.379125
 21
1062.557236723097
 31
0.0
  0
CIRCLE
  5
7AA4
330
19
100
AcDbEntity
  8
1
  6
Continuous
100
AcDbCircle
 10
528.379125
 20
1062.557236723097
 30
0.0
 40
35.0
  0
LINE
  5
7AA5
330
19
100
AcDbEntity
  8
2
  6
CENTER
100
AcDbLine
 10
528.379125
 20
1027.557236723097
 30
0.0
 11
528.379125
 21
1097.557236723097
 31
0.0
  0
LINE
  5
7AA6
330
19
100
AcDbEntity
  8
1
  6
Continuous
100
AcDbLine
 10
703.879125
 20
1189.657236723097
 30
0.0
 11
777.279125
 21
1252.557236723097
 31
0.0
  0
ARC
  5
7AA7
330
19
100
AcDbEntity
  8
1
  6
Continuous
100
AcDbCircle
 10
802.8791250000001
 20
1136.557236723097
 30
0.0
 40
134.0
100
AcDbArc
 50
89.50000000000001
 51
170.1
  0
LINE
  5
7AA8
330
19
100
AcDbEntity
  8
2
  6
CENTER
100
AcDbLine
 10
813.8791249999998
 20
817.5572367230969
 30
0.0
 11
813.879125
 21
1274.635162723097
 31
0.0
  0
LINE
  5
7AA9
330
19
100
AcDbEntity
  8
1
  6
Continuous
100
AcDbLine
 10
911.1791249999999
 20
962.557236723097
 30
0.0
 11
911.1791249999999
 21
1242.557236723097
 31
0.0
  0
LINE
  5
7AAA
330
19
100
AcDbEntity
  8
1
  6
Continuous
100
AcDbLine
 10
923.879125
 20
962.557236723097
 30
0.0
 11
923.879125
 21
1189.657236723097
 31
0.0
  0
LINE
  5
7AAB
330
19
100
AcDbEntity
  8
1
  6
Continuous
100
AcDbLine
 10
928.879125
 20
1001.557236723097
 30
0.0
 11
928.879125
 21
1133.557236723097
 31
0.0
  0
LINE
  5
7AAD
330
19
100
AcDbEntity
  8
1
  6
Continuous
100
AcDbLine
 10
928.879125
 20
976.5572367230971
 30
0.0
 11
826.8791250000001
 21
976.5572367230971
 31
0.0
  0
LINE
  5
7AAE
330
19
100
AcDbEntity
  8
1
  6
Continuous
100
AcDbLine
 10
973.879125
 20
817.5572367230969
 30
0.0
 11
973.879125
 21
842.5572367230969
 31
0.0
  0
LINE
  5
7AAF
330
19
100
AcDbEntity
  8
1
  6
Continuous
100
AcDbLine
 10
948.879125
 20
912.557236723097
 30
0.0
 11
948.879125
 21
962.557236723097
 31
0.0
  0
LINE
  5
7AB0
330
19
100
AcDbEntity
  8
1
  6
Continuous
100
AcDbLine
 10
943.8791250000001
 20
986.5572367230971
 30
0.0
 11
928.879125
 21
1001.557236723097
 31
0.0
  0
LINE
  5
7AB1
330
19
100
AcDbEntity
  8
1
  6
Continuous
100
AcDbLine
 10
928.879125
 20
976.5572367230971
 30
0.0
 11
928.879125
 21
987.557236723097
 31
0.0
  0
LINE
  5
7AB2
330
19
100
AcDbEntity
  8
1
  6
Continuous
100
AcDbLine
 10
928.879125
 20
987.557236723097
 30
0.0
 11
943.8791250000001
 21
987.557236723097
 31
0.0
  0
LINE
  5
7AB4
330
19
100
AcDbEntity
  8
1
  6
Continuous
100
AcDbLine
 10
923.879125
 20
1189.657236723097
 30
0.0
 11
850.479125
 21
1252.557236723097
 31
0.0
  0
LINE
  5
7AB5
330
19
100
AcDbEntity
  8
1
  6
Continuous
100
AcDbLine
 10
928.879125
 20
1157.557236723097
 30
0.0
 11
918.8791250000001
 21
1157.557236723097
 31
0.0
  0
LINE
  5
7AB6
330
19
100
AcDbEntity
  8
1
  6
Continuous
100
AcDbLine
 10
943.8791250000001
 20
1148.557236723097
 30
0.0
 11
928.879125
 21
1133.557236723097
 31
0.0
  0
LINE
  5
7AB7
330
19
100
AcDbEntity
  8
1
  6
Continuous
100
AcDbLine
 10
928.879125
 20
1147.557236723097
 30
0.0
 11
928.879125
 21
1157.557236723097
 31
0.0
  0
LINE
  5
7AB8
330
19
100
AcDbEntity
  8
1
  6
Continuous
100
AcDbLine
 10
943.8791250000001
 20
1147.557236723097
 30
0.0
 11
928.879125
 21
1147.557236723097
 31
0.0
  0
LINE
  5
7AB9
330
19
100
AcDbEntity
  8
1
  6
Continuous
100
AcDbLine
 10
1514.597551048932
 20
962.557236723097
 30
0.0
 11
1514.597551048932
 21
1242.557236723097
 31
0.0
  0
LINE
  5
7ABA
330
19
100
AcDbEntity
  8
1
  6
Continuous
100
AcDbLine
 10
1439.597551048932
 20
962.557236723097
 30
0.0
 11
1439.597551048932
 21
1242.557236723097
 31
0.0
  0
LINE
  5
7ABB
330
19
100
AcDbEntity
  8
1
  6
Continuous
100
AcDbLine
 10
1635.997551048932
 20
1247.557236723097
 30
0.0
 11
1635.997551048932
 21
962.557236723097
 31
0.0
  0
LINE
  5
7ABC
330
19
100
AcDbEntity
  8
1
  6
Continuous
100
AcDbLine
 10
1755.597551048932
 20
1258.557236723097
 30
0.0
 11
1755.597551048932
 21
987.557236723097
 31
0.0
  0
LINE
  5
7ABD
330
19
100
AcDbEntity
  8
1
  6
Continuous
100
AcDbLine
 10
1643.597551048932
 20
987.557236723097
 30
0.0
 11
1643.597551048932
 21
1258.557236723097
 31
0.0
  0
LINE
  5
7ABE
330
19
100
AcDbEntity
  8
1
  6
Continuous
100
AcDbLine
 10
1755.597551048932
 20
1147.557236723097
 30
0.0
 11
1643.597551048932
 21
987.557236723097
 31
0.0
  0
LINE
  5
7ABF
330
19
100
AcDbEntity
  8
1
  6
Continuous
100
AcDbLine
 10
1755.597551048932
 20
987.557236723097
 30
0.0
 11
1643.597551048932
 21
1147.557236723097
 31
0.0
  0
LINE
  5
7AC0
330
19
100
AcDbEntity
  8
1
  6
Continuous
100
AcDbLine
 10
1536.597551048932
 20
1114.257236723097
 30
0.0
 11
1536.597551048932
 21
962.557236723097
 31
0.0
  0
LINE
  5
7AC1
330
19
100
AcDbEntity
  8
1
  6
Continuous
100
AcDbLine
 10
1511.597551048932
 20
817.5572367230969
 30
0.0
 11
1735.597551048932
 21
817.5572367230969
 31
0.0
  0
LINE
  5
7AC2
330
19
100
AcDbEntity
  8
1
  6
Continuous
100
AcDbLine
 10
1511.597551048932
 20
842.5572367230969
 30
0.0
 11
1735.597551048932
 21
842.5572367230969
 31
0.0
  0
LINE
  5
7AC3
330
19
100
AcDbEntity
  8
1
  6
Continuous
100
AcDbLine
 10
1511.597551048932
 20
912.557236723097
 30
0.0
 11
1735.597551048932
 21
912.557236723097
 31
0.0
  0
LINE
  5
7AC4
330
19
100
AcDbEntity
  8
1
  6
Continuous
100
AcDbLine
 10
1439.597551048932
 20
962.557236723097
 30
0.0
 11
1735.597551048932
 21
962.557236723097
 31
0.0
  0
LINE
  5
7AC9
330
19
100
AcDbEntity
  8
1
  6
Continuous
100
AcDbLine
 10
1511.597551048932
 20
842.5572367230969
 30
0.0
 11
1511.597551048932
 21
817.5572367230969
 31
0.0
  0
LINE
  5
7ACA
330
19
100
AcDbEntity
  8
1
  6
Continuous
100
AcDbLine
 10
1511.597551048932
 20
962.557236723097
 30
0.0
 11
1511.597551048932
 21
912.557236723097
 31
0.0
  0
LINE
  5
7ACB
330
19
100
AcDbEntity
  8
1
  6
Continuous
100
AcDbLine
 10
1755.597551048932
 20
987.557236723097
 30
0.0
 11
1643.597551048932
 21
987.557236723097
 31
0.0
  0
LINE
  5
7ACC
330
19
100
AcDbEntity
  8
1
  6
Continuous
100
AcDbLine
 10
1735.597551048932
 20
842.5572367230969
 30
0.0
 11
1735.597551048932
 21
817.5572367230969
 31
0.0
  0
LINE
  5
7ACD
330
19
100
AcDbEntity
  8
1
  6
Continuous
100
AcDbLine
 10
1735.597551048932
 20
962.557236723097
 30
0.0
 11
1735.597551048932
 21
912.557236723097
 31
0.0
  0
LINE
  5
7ACE
330
19
100
AcDbEntity
  8
1
  6
Continuous
100
AcDbLine
 10
1564.697551048932
 20
1135.557236723097
 30
0.0
 11
1494.597551048932
 21
1135.557236723097
 31
0.0
  0
LINE
  5
7ACF
330
19
100
AcDbEntity
  8
1
  6
Continuous
100
AcDbLine
 10
1596.297551048932
 20
1159.557236723097
 30
0.0
 11
1494.597551048932
 21
1159.557236723097
 31
0.0
  0
LINE
  5
7AD0
330
19
100
AcDbEntity
  8
1
  6
Continuous
100
AcDbLine
 10
1635.997551048932
 20
1189.657236723097
 30
0.0
 11
1536.597551048932
 21
1114.257236723097
 31
0.0
  0
LINE
  5
7AD1
330
19
100
AcDbEntity
  8
1
  6
Continuous
100
AcDbLine
 10
1514.597551048932
 20
1242.557236723097
 30
0.0
 11
1439.597551048932
 21
1242.557236723097
 31
0.0
  0
LINE
  5
7AD2
330
19
100
AcDbEntity
  8
1
  6
Continuous
100
AcDbLine
 10
1494.597551048932
 20
1102.557236723097
 30
0.0
 11
1494.597551048932
 21
1192.557236723097
 31
0.0
  0
LINE
  5
7AD3
330
19
100
AcDbEntity
  8
1
  6
Continuous
100
AcDbLine
 10
1459.597551048932
 20
1102.557236723097
 30
0.0
 11
1459.597551048932
 21
1192.557236723097
 31
0.0
  0
LINE
  5
7AD4
330
19
100
AcDbEntity
  8
1
  6
Continuous
100
AcDbLine
 10
1494.597551048932
 20
1102.557236723097
 30
0.0
 11
1459.597551048932
 21
1102.557236723097
 31
0.0
  0
LINE
  5
7AD5
330
19
100
AcDbEntity
  8
1
  6
Continuous
100
AcDbLine
 10
1494.597551048932
 20
1192.557236723097
 30
0.0
 11
1459.597551048932
 21
1192.557236723097
 31
0.0
  0
LINE
  5
7AD6
330
19
100
AcDbEntity
  8
1
  6
Continuous
100
AcDbLine
 10
1494.597551048932
 20
1097.557236723097
 30
0.0
 11
1459.597551048932
 21
1097.557236723097
 31
0.0
  0
LINE
  5
7AD7
330
19
100
AcDbEntity
  8
1
  6
Continuous
100
AcDbLine
 10
1494.597551048932
 20
1027.557236723097
 30
0.0
 11
1459.597551048932
 21
1027.557236723097
 31
0.0
  0
LINE
  5
7AD8
330
19
100
AcDbEntity
  8
1
  6
Continuous
100
AcDbLine
 10
1494.597551048932
 20
1072.057236723097
 30
0.0
 11
1536.597551048932
 21
1072.057236723097
 31
0.0
  0
LINE
  5
7AD9
330
19
100
AcDbEntity
  8
1
  6
Continuous
100
AcDbLine
 10
1494.597551048932
 20
1053.057236723097
 30
0.0
 11
1536.597551048932
 21
1053.057236723097
 31
0.0
  0
LINE
  5
7ADA
330
19
100
AcDbEntity
  8
1
  6
Continuous
100
AcDbLine
 10
1459.597551048932
 20
1027.557236723097
 30
0.0
 11
1459.597551048932
 21
1097.557236723097
 31
0.0
  0
LINE
  5
7ADB
330
19
100
AcDbEntity
  8
1
  6
Continuous
100
AcDbLine
 10
1494.597551048932
 20
1027.557236723097
 30
0.0
 11
1494.597551048932
 21
1097.557236723097
 31
0.0
  0
LINE
  5
7ADC
330
19
100
AcDbEntity
  8
1
  6
Continuous
100
AcDbLine
 10
1655.597551048932
 20
1270.557236723097
 30
0.0
 11
1743.597551048932
 21
1270.557236723097
 31
0.0
  0
LINE
  5
7ADD
330
19
100
AcDbEntity
  8
1
  6
Continuous
100
AcDbLine
 10
1643.597551048932
 20
1147.557236723097
 30
0.0
 11
1755.597551048932
 21
1147.557236723097
 31
0.0
  0
LINE
  5
7ADE
330
19
100
AcDbEntity
  8
1
  6
Continuous
100
AcDbLine
 10
1635.997551048932
 20
1247.557236723097
 30
0.0
 11
1643.997551048932
 21
1247.557236723097
 31
0.0
  0
ARC
  5
7ADF
330
19
100
AcDbEntity
  8
1
  6
Continuous
100
AcDbCircle
 10
1655.597551048932
 20
1258.557236723097
 30
0.0
 40
12.0
100
AcDbArc
 50
90.0
 51
180.0
  0
LINE
  5
7AE0
330
19
100
AcDbEntity
  8
1
  6
Continuous
100
AcDbLine
 10
1635.997551048932
 20
1047.557236723097
 30
0.0
 11
1643.997551048932
 21
1047.557236723097
 31
0.0
  0
LINE
  5
7AE1
330
19
100
AcDbEntity
  8
1
  6
Continuous
100
AcDbLine
 10
1763.597551048932
 20
1247.557236723097
 30
0.0
 11
1755.197551048932
 21
1247.557236723097
 31
0.0
  0
ARC
  5
7AE2
330
19
100
AcDbEntity
  8
1
  6
Continuous
100
AcDbCircle
 10
1743.597551048932
 20
1258.557236723097
 30
0.0
 40
12.0
100
AcDbArc
 50
0.0
 51
90.0
  0
LINE
  5
7AE3
330
19
100
AcDbEntity
  8
1
  6
Continuous
100
AcDbLine
 10
1763.597551048932
 20
1047.557236723097
 30
0.0
 11
1755.197551048932
 21
1047.557236723097
 31
0.0
  0
LINE
  5
7AE5
330
19
100
AcDbEntity
  8
1
  6
Continuous
100
AcDbLine
 10
913.879125
 20
2138.025819163346
 30
0.0
 11
713.879125
 21
2138.025819163346
 31
0.0
  0
LINE
  5
7AE6
330
19
100
AcDbEntity
  8
1
  6
Continuous
100
AcDbLine
 10
676.879125
 20
2018.025819163346
 30
0.0
 11
943.8791250000001
 21
2018.025819163346
 31
0.0
  0
LINE
  5
7AE7
330
19
100
AcDbEntity
  8
1
  6
Continuous
100
AcDbLine
 10
676.879125
 20
2130.025819163346
 30
0.0
 11
943.8791250000001
 21
2130.025819163346
 31
0.0
  0
LINE
  5
7AE8
330
19
100
AcDbEntity
  8
1
  6
Continuous
100
AcDbLine
 10
923.879125
 20
2010.425819163346
 30
0.0
 11
703.879125
 21
2010.425819163346
 31
0.0
  0
LINE
  5
7AE9
330
19
100
AcDbEntity
  8
1
  6
Continuous
100
AcDbLine
 10
911.1791249999999
 20
1814.025819163346
 30
0.0
 11
431.1791250000001
 21
1814.025819163346
 31
0.0
  0
LINE
  5
7AEA
330
19
100
AcDbEntity
  8
1
  6
Continuous
100
AcDbLine
 10
911.1791249999999
 20
1889.025819163346
 30
0.0
 11
431.1791250000001
 21
1889.025819163346
 31
0.0
  0
LINE
  5
7AEB
330
19
100
AcDbEntity
  8
1
  6
Continuous
100
AcDbLine
 10
858.8791249999999
 20
1834.925819163346
 30
0.0
 11
768.879125
 21
1834.925819163346
 31
0.0
  0
LINE
  5
7AEC
330
19
100
AcDbEntity
  8
1
  6
Continuous
100
AcDbLine
 10
858.8791249999999
 20
1869.925819163346
 30
0.0
 11
768.879125
 21
1869.925819163346
 31
0.0
  0
LINE
  5
7AED
330
19
100
AcDbEntity
  8
1
  6
Continuous
100
AcDbLine
 10
363.8791249999999
 20
1886.025819163346
 30
0.0
 11
518.879125
 21
1886.025819163346
 31
0.0
  0
LINE
  5
7AEE
330
19
100
AcDbEntity
  8
1
  6
Continuous
100
AcDbLine
 10
668.879125
 20
2110.025819163346
 30
0.0
 11
363.8791249999999
 21
2110.025819163346
 31
0.0
  0
LINE
  5
7AEF
330
19
100
AcDbEntity
  8
1
  6
Continuous
100
AcDbLine
 10
363.8791249999999
 20
2110.025819163346
 30
0.0
 11
363.8791249999999
 21
1886.025819163346
 31
0.0
  0
LINE
  5
7AF0
330
19
100
AcDbEntity
  8
1
  6
Continuous
100
AcDbLine
 10
668.879125
 20
2122.025819163346
 30
0.0
 11
668.879125
 21
2026.025819163346
 31
0.0
  0
LINE
  5
7AF1
330
19
100
AcDbEntity
  8
1
  6
Continuous
100
AcDbLine
 10
613.379125
 20
1899.725819163346
 30
0.0
 11
443.3791249999999
 21
1899.725819163346
 31
0.0
  0
LINE
  5
7AF2
330
19
100
AcDbEntity
  8
1
  6
Continuous
100
AcDbLine
 10
613.379125
 20
2090.525819163346
 30
0.0
 11
443.3791249999999
 21
2090.525819163346
 31
0.0
  0
LINE
  5
7AF3
330
19
100
AcDbEntity
  8
1
  6
Continuous
100
AcDbLine
 10
537.879125
 20
1886.025819163346
 30
0.0
 11
801.8791250000001
 21
1886.025819163346
 31
0.0
  0
LINE
  5
7AF4
330
19
100
AcDbEntity
  8
1
  6
Continuous
100
AcDbLine
 10
443.3791249999999
 20
1899.725819163346
 30
0.0
 11
443.3791249999999
 21
2090.525819163346
 31
0.0
  0
LINE
  5
7AF5
330
19
100
AcDbEntity
  8
1
  6
Continuous
100
AcDbLine
 10
431.1791250000001
 20
1889.025819163346
 30
0.0
 11
431.1791250000001
 21
1814.025819163346
 31
0.0
  0
LINE
  5
7AF6
330
19
100
AcDbEntity
  8
1
  6
Continuous
100
AcDbLine
 10
563.379125
 20
1869.925819163346
 30
0.0
 11
493.3791249999999
 21
1869.925819163346
 31
0.0
  0
LINE
  5
7AF7
330
19
100
AcDbEntity
  8
1
  6
Continuous
100
AcDbLine
 10
563.379125
 20
1834.925819163346
 30
0.0
 11
493.3791249999999
 21
1834.925819163346
 31
0.0
  0
LINE
  5
7AF8
330
19
100
AcDbEntity
  8
1
  6
Continuous
100
AcDbLine
 10
563.379125
 20
1869.925819163346
 30
0.0
 11
563.379125
 21
1834.925819163346
 31
0.0
  0
LINE
  5
7AF9
330
19
100
AcDbEntity
  8
1
  6
Continuous
100
AcDbLine
 10
493.3791249999999
 20
1869.925819163346
 30
0.0
 11
493.3791249999999
 21
1834.925819163346
 31
0.0
  0
LINE
  5
7AFA
330
19
100
AcDbEntity
  8
1
  6
Continuous
100
AcDbLine
 10
537.879125
 20
1869.925819163346
 30
0.0
 11
537.879125
 21
1899.725819163346
 31
0.0
  0
LINE
  5
7AFB
330
19
100
AcDbEntity
  8
1
  6
Continuous
100
AcDbLine
 10
518.879125
 20
1869.925819163346
 30
0.0
 11
518.879125
 21
1899.725819163346
 31
0.0
  0
ARC
  5
7AFC
330
19
100
AcDbEntity
  8
1
  6
Continuous
100
AcDbCircle
 10
676.879125
 20
2026.025819163346
 30
0.0
 40
8.0
100
AcDbArc
 50
180.0
 51
270.0
  0
LINE
  5
7AFD
330
19
100
AcDbEntity
  8
1
  6
Continuous
100
AcDbLine
 10
703.879125
 20
2010.425819163346
 30
0.0
 11
703.879125
 21
1886.025819163346
 31
0.0
  0
LINE
  5
7AFE
330
19
100
AcDbEntity
  8
1
  6
Continuous
100
AcDbLine
 10
613.379125
 20
1899.725819163346
 30
0.0
 11
613.379125
 21
2090.525819163346
 31
0.0
  0
LINE
  5
7AFF
330
19
100
AcDbEntity
  8
1
  6
Continuous
100
AcDbLine
 10
713.879125
 20
2010.425819163346
 30
0.0
 11
713.879125
 21
2018.025819163346
 31
0.0
  0
LINE
  5
7B00
330
19
100
AcDbEntity
  8
1
  6
Continuous
100
AcDbLine
 10
768.879125
 20
1869.925819163346
 30
0.0
 11
768.879125
 21
1834.925819163346
 31
0.0
  0
LINE
  5
7B01
330
19
100
AcDbEntity
  8
1
  6
Continuous
100
AcDbLine
 10
801.8791250000001
 20
2010.425819163346
 30
0.0
 11
801.8791250000001
 21
1869.925819163346
 31
0.0
  0
ARC
  5
7B02
330
19
100
AcDbEntity
  8
1
  6
Continuous
100
AcDbCircle
 10
676.879125
 20
2122.025819163346
 30
0.0
 40
8.0
100
AcDbArc
 50
90.0
 51
180.0
  0
LINE
  5
7B03
330
19
100
AcDbEntity
  8
1
  6
Continuous
100
AcDbLine
 10
713.879125
 20
2138.025819163346
 30
0.0
 11
713.879125
 21
2130.025819163346
 31
0.0
  0
LINE
  5
7B04
330
19
100
AcDbEntity
  8
1
  6
Continuous
100
AcDbLine
 10
973.879125
 20
1886.025819163346
 30
0.0
 11
973.879125
 21
2110.025819163346
 31
0.0
  0
LINE
  5
7B05
330
19
100
AcDbEntity
  8
1
  6
Continuous
100
AcDbLine
 10
928.879125
 20
2116.025819163346
 30
0.0
 11
928.879125
 21
2032.025819163346
 31
0.0
  0
LINE
  5
7B06
330
19
100
AcDbEntity
  8
1
  6
Continuous
100
AcDbLine
 10
943.8791250000001
 20
2151.025819163346
 30
0.0
 11
943.8791250000001
 21
1997.025819163346
 31
0.0
  0
LINE
  5
7B07
330
19
100
AcDbEntity
  8
1
  6
Continuous
100
AcDbLine
 10
825.8791249999999
 20
1886.025819163346
 30
0.0
 11
973.879125
 21
1886.025819163346
 31
0.0
  0
LINE
  5
7B08
330
19
100
AcDbEntity
  8
1
  6
Continuous
100
AcDbLine
 10
913.879125
 20
2010.425819163346
 30
0.0
 11
913.879125
 21
2018.025819163346
 31
0.0
  0
LINE
  5
7B09
330
19
100
AcDbEntity
  8
1
  6
Continuous
100
AcDbLine
 10
858.8791249999999
 20
1869.925819163346
 30
0.0
 11
858.8791249999999
 21
1834.925819163346
 31
0.0
  0
LINE
  5
7B0A
330
19
100
AcDbEntity
  8
1
  6
Continuous
100
AcDbLine
 10
825.8791249999999
 20
2010.425819163346
 30
0.0
 11
825.8791249999999
 21
1869.925819163346
 31
0.0
  0
LINE
  5
7B0B
330
19
100
AcDbEntity
  8
1
  6
Continuous
100
AcDbLine
 10
911.1791249999999
 20
1814.025819163346
 30
0.0
 11
911.1791249999999
 21
1889.025819163346
 31
0.0
  0
LINE
  5
7B0C
330
19
100
AcDbEntity
  8
1
  6
Continuous
100
AcDbLine
 10
943.8791250000001
 20
2017.025819163346
 30
0.0
 11
928.879125
 21
2032.025819163346
 31
0.0
  0
LINE
  5
7B0D
330
19
100
AcDbEntity
  8
1
  6
Continuous
100
AcDbLine
 10
923.879125
 20
1886.025819163346
 30
0.0
 11
923.879125
 21
2010.425819163346
 31
0.0
  0
LINE
  5
7B0E
330
19
100
AcDbEntity
  8
1
  6
Continuous
100
AcDbLine
 10
913.879125
 20
2138.025819163346
 30
0.0
 11
913.879125
 21
2130.025819163346
 31
0.0
  0
LINE
  5
7B0F
330
19
100
AcDbEntity
  8
1
  6
Continuous
100
AcDbLine
 10
943.8791250000001
 20
2131.025819163346
 30
0.0
 11
928.879125
 21
2116.025819163346
 31
0.0
  0
LINE
  5
7B10
330
19
100
AcDbEntity
  8
1
  6
Continuous
100
AcDbLine
 10
973.879125
 20
2110.025819163346
 30
0.0
 11
943.8791250000001
 21
2110.025819163346
 31
0.0
  0
LINE
  5
7B11
330
19
100
AcDbEntity
  8
4
  6
Continuous
100
AcDbLine
 10
1850.0
 20
500.0
 30
0.0
 11
1850.0
 21
300.0
 31
0.0
  0
LINE
  5
7B12
330
19
100
AcDbEntity
  8
4
  6
Continuous
100
AcDbLine
 10
1150.0
 20
500.0
 30
0.0
 11
1150.0
 21
300.0
 31
0.0
  0
LINE
  5
7B13
330
19
100
AcDbEntity
  8
4
  6
Continuous
100
AcDbLine
 10
650.0
 20
500.0
 30
0.0
 11
650.0
 21
300.0
 31
0.0
  0
LINE
  5
7B16
330
19
100
AcDbEntity
  8
4
  6
Continuous
100
AcDbLine
 10
650.0
 20
300.0
 30
0.0
 11
1850.0
 21
300.0
 31
0.0
  0
LINE
  5
7B17
330
19
100
AcDbEntity
  8
4
  6
Continuous
100
AcDbLine
 10
650.0
 20
400.0
 30
0.0
 11
1850.0
 21
400.0
 31
0.0
  0
TEXT
  5
7B18
330
19
100
AcDbEntity
  8
4
  6
Continuous
100
AcDbText
 10
688.502081
 20
431.543026
 30
0.0
 40
50.0
  1
機器名称
100
AcDbText
  0
TEXT
  5
7B19
330
19
100
AcDbEntity
  8
4
  6
Continuous
100
AcDbText
 10
686.258106
 20
321.645157
 30
0.0
 40
50.0
  1
機器型番
100
AcDbText
  0
TEXT
  5
7B1A
330
19
100
AcDbEntity
  8
4
  6
Continuous
100
AcDbText
 10
1177.678745
 20
422.571769
 30
0.0
 40
45.0
  1
ミツヤニューマルチファン
100
AcDbText
  0
TEXT
  5
7B1B
330
19
100
AcDbEntity
  8
4
  6
Continuous
100
AcDbText
 10
1186.654496
 20
317.159584
 30
0.0
 40
50.0
  1
NM#1-1
100
AcDbText
  0
TEXT
  5
7B1D
330
19
100
AcDbEntity
  8
4
  6
Continuous
100
AcDbText
 10
752.0788259999999
 20
2383.428841
 30
0.0
 40
54.0
  1
床置防振ベット
100
AcDbText
  0
TEXT
  5
7B1E
330
19
100
AcDbEntity
  8
4
  6
Continuous
100
AcDbText
 10
316.167593
 20
2533.880976000001
 30
0.0
 40
72.0
  1
ベルト駆動式片吸込片持多翼ファン
100
AcDbText
  0
LINE
  5
7B1F
330
19
100
AcDbEntity
  8
4
  6
Continuous
100
AcDbLine
 10
250.0
 20
2469.408754
 30
0.0
 11
1850.0
 21
2469.408754
 31
0.0
  0
LINE
  5
7B20
330
19
100
AcDbEntity
  8
4
  6
Continuous
100
AcDbLine
 10
250.0
 20
2669.408754
 30
0.0
 11
1850.0
 21
2669.408754
 31
0.0
  0
LINE
  5
7B21
330
19
100
AcDbEntity
  8
4
  6
Continuous
100
AcDbLine
 10
650.0
 20
500.0
 30
0.0
 11
1850.0
 21
500.0
 31
0.0
  0
LINE
  5
7B22
330
19
100
AcDbEntity
  8
4
  6
Continuous
100
AcDbLine
 10
250.0
 20
2669.408754
 30
0.0
 11
250.0
 21
2469.408754
 31
0.0
  0
TEXT
  5
7B23
330
19
100
AcDbEntity
  8
4
  6
Continuous
100
AcDbText
 10
316.219993
 20
2382.319478000001
 30
0.0
 40
54.0
  1
左回転右横向
100
AcDbText
  0
TEXT
  5
7B24
330
19
100
AcDbEntity
  8
4
  6
Continuous
100
AcDbText
 10
1468.969559
 20
2706.061081
 30
0.0
 40
56.0
  1
No.
100
AcDbText
  0
TEXT
  5
7B25
330
19
100
AcDbEntity
  8
4
  6
Continuous
100
AcDbText
 10
1311.296063
 20
2383.428841
 30
0.0
 40
54.0
  1
縮尺：1/10
100
AcDbText
  0
LINE
  5
7B26
330
19
100
AcDbEntity
  8
4
  6
Continuous
100
AcDbLine
 10
1850.0
 20
2669.408754
 30
0.0
 11
1850.0
 21
2469.408754
 31
0.0
  0
LINE
  5
7B28
330
19
100
AcDbEntity
  8
4
  6
Continuous
100
AcDbLine
 10
1440.617422
 20
2681.263583
 30
0.0
 11
1440.617422
 21
2786.652262
 31
0.0
  0
LINE
  5
7B29
330
19
100
AcDbEntity
  8
4
  6
Continuous
100
AcDbLine
 10
1440.617422
 20
2786.652262
 30
0.0
 11
1850.0
 21
2786.652262
 31
0.0
  0
LINE
  5
7B2A
330
19
100
AcDbEntity
  8
4
  6
Continuous
100
AcDbLine
 10
1850.0
 20
2786.652262
 30
0.0
 11
1850.0
 21
2681.263583
 31
0.0
  0
LINE
  5
7B2B
330
19
100
AcDbEntity
  8
4
  6
Continuous
100
AcDbLine
 10
1850.0
 20
2681.263583
 30
0.0
 11
1440.617422
 21
2681.263583
 31
0.0
  0
DIMENSION
  5
7B63
330
19
100
AcDbEntity
  8
3
  6
Continuous
100
AcDbDimension
280
     0
  2
*D1
 10
813.879125
 20
751.3311967230971
 30
0.0
 11
600.385353
 21
751.3311967230971
 31
0.0
 70
   160
 71
     5
 42
450.0
 73
     0
 74
     0
 75
     0
  3
IGA
100
AcDbAlignedDimension
 13
363.8791249999999
 23
817.5572367230969
 33
0.0
 14
813.879125
 24
802.1887467230971
 34
0.0
100
AcDbRotatedDimension
1001
ACAD
1000
DSTYLE
1002
{
1070
   287
1070
     3
1070
    40
1040
10.0
1070
   143
1040
0.039
1070
   172
1070
     1
1070
   271
1070
     0
1070
   279
1070
     0
1070
   288
1070
     1
1002
}
  0
DIMENSION
  5
7B6F
330
19
100
AcDbEntity
  8
3
  6
Continuous
100
AcDbDimension
280
     0
  2
*D2
 10
973.879125
 20
751.3311967230971
 30
0.0
 11
893.8791250000001
 21
776.3311967230971
 31
0.0
 70
    32
 71
     5
 42
160.0
 73
     0
 74
     0
 75
     0
  3
IGA
100
AcDbAlignedDimension
 13
813.879125
 23
802.1887467230971
 33
0.0
 14
973.879125
 24
817.5572367230969
 34
0.0
100
AcDbRotatedDimension
1001
ACAD
1000
DSTYLE
1002
{
1070
   287
1070
     4
1070
    40
1040
10.0
1070
    75
1070
     1
1070
   143
1040
0.039
1070
   172
1070
     1
1070
   271
1070
     0
1070
   279
1070
     1
1070
   288
1070
     1
1002
}
  0
DIMENSION
  5
7B96
330
19
100
AcDbEntity
  8
3
  6
Continuous
100
AcDbDimension
280
     0
  2
*D3
 10
1004.566496
 20
1147.557236723097
 30
0.0
 11
1004.566496
 21
1067.618513723097
 31
0.0
 70
   160
 71
     5
 42
-1.0
 73
     0
 74
     0
 75
     0
  3
IGA
100
AcDbAlignedDimension
 13
942.8791250000001
 23
987.557236723097
 33
0.0
 14
942.8791250000001
 24
1147.557236723097
 34
0.0
 50
90.0
100
AcDbRotatedDimension
1001
ACAD
1000
DSTYLE
1002
{
1070
   287
1070
     3
1070
    40
1040
10.0
1070
   143
1040
0.039
1070
   172
1070
     1
1070
   271
1070
     0
1070
   279
1070
     0
1070
   288
1070
     1
1002
}
  0
LINE
  5
7C05
330
19
100
AcDbEntity
  8
2
  6
CENTER
100
AcDbLine
 10
1699.597551048932
 20
817.5572367230971
 30
0.0
 11
1699.597551048932
 21
1311.906954723097
 31
0.0
  0
DIMENSION
  5
7C14
330
19
100
AcDbEntity
  8
3
  6
Continuous
100
AcDbDimension
280
     0
  2
*D4
 10
1699.597551048932
 20
756.6589717230971
 30
0.0
 11
1609.518774048932
 21
756.6589717230971
 31
0.0
 70
   160
 71
     5
 42
187.9999999999997
 73
     0
 74
     0
 75
     0
  3
IGA
100
AcDbAlignedDimension
 13
1511.597551048932
 23
817.5572367230969
 33
0.0
 14
1699.597551048932
 24
805.5442917230971
 34
0.0
100
AcDbRotatedDimension
1001
ACAD
1000
DSTYLE
1002
{
1070
   287
1070
     3
1070
    40
1040
10.0
1070
   143
1040
0.039
1070
   172
1070
     1
1070
   271
1070
     0
1070
   279
1070
     0
1070
   288
1070
     1
1002
}
  0
DIMENSION
  5
7C24
330
19
100
AcDbEntity
  8
3
  6
Continuous
100
AcDbDimension
280
     0
  2
*D5
 10
1735.597551048932
 20
756.6589717230971
 30
0.0
 11
1774.456734048932
 21
757.5772497230971
 31
0.0
 70
   160
 71
     5
 42
36.0
 73
     0
 74
     0
 75
     0
  3
IGA
100
AcDbAlignedDimension
 13
1699.597551048932
 23
805.5442917230971
 33
0.0
 14
1735.597551048932
 24
817.5572367230969
 34
0.0
100
AcDbRotatedDimension
1001
ACAD
1000
DSTYLE
1002
{
1070
   287
1070
     4
1070
    40
1040
10.0
1070
    75
1070
     1
1070
   143
1040
0.039
1070
   172
1070
     1
1070
   271
1070
     0
1070
   279
1070
     1
1070
   288
1070
     1
1002
}
  0
DIMENSION
  5
7C33
330
19
100
AcDbEntity
  8
3
  6
Continuous
100
AcDbDimension
280
     0
  2
*D6
 10
1755.597551048932
 20
1307.479434723097
 30
0.0
 11
1699.597551048932
 21
1330.303256641538
 31
0.0
 70
   160
 71
     5
 42
-1.0
 73
     0
 74
     0
 75
     0
  3
IGA
100
AcDbAlignedDimension
 13
1643.597551048932
 23
1258.557236723097
 33
0.0
 14
1755.597551048932
 24
1258.557236723097
 34
0.0
100
AcDbRotatedDimension
1001
ACAD
1000
DSTYLE
1002
{
1070
   288
1070
     1
1070
   172
1070
     1
1070
    40
1040
10.0
1070
   271
1070
     0
1070
   143
1040
0.039
1002
}
  0
LINE
  5
7C77
330
19
100
AcDbEntity
  8
3
  6
Continuous
100
AcDbLine
 10
1763.597551048932
 20
1227.557236723097
 30
0.0
 11
1779.340028048932
 21
1227.557236723097
 31
0.0
  0
LINE
  5
7C79
330
19
100
AcDbEntity
  8
3
  6
Continuous
100
AcDbLine
 10
1763.597551048932
 20
1067.557236723097
 30
0.0
 11
1778.588750048932
 21
1067.557236723097
 31
0.0
  0
DIMENSION
  5
7C86
330
19
100
AcDbEntity
  8
3
  6
Continuous
100
AcDbDimension
280
     0
  2
*D7
 10
1836.436965048932
 20
1067.557236723097
 30
0.0
 11
1814.580427103023
 21
1147.557236723097
 31
0.0
 70
   160
 71
     5
 42
-1.0
 73
     0
 74
     0
 75
     0
  3
IGA
100
AcDbAlignedDimension
 13
1763.597551048932
 23
1227.557236723097
 33
0.0
 14
1763.597551048932
 24
1067.557236723097
 34
0.0
 50
90.0
100
AcDbRotatedDimension
1001
ACAD
1000
DSTYLE
1002
{
1070
   288
1070
     1
1070
   172
1070
     1
1070
    40
1040
10.0
1070
     3
1000
φ<>
1070
   271
1070
     0
1070
   143
1040
0.039
1002
}
  0
LINE
  5
7C87
330
19
100
AcDbEntity
  8
1
  6
Continuous
100
AcDbLine
 10
1763.597551048932
 20
1247.557236723097
 30
0.0
 11
1763.597551048932
 21
1047.557236723097
 31
0.0
  0
LINE
  5
7CB4
330
19
100
AcDbEntity
  8
1
  6
Continuous
100
AcDbLine
 10
943.8791250000001
 20
1169.557236723097
 30
0.0
 11
943.8791250000001
 21
965.5572367230972
 31
0.0
  0
LINE
  5
7CD5
330
19
100
AcDbEntity
  8
2
  6
CENTER
100
AcDbLine
 10
1791.032884048932
 20
1147.557236723097
 30
0.0
 11
1415.903513048932
 21
1147.557236723097
 31
0.0
  0
DIMENSION
  5
7CFA
330
19
100
AcDbEntity
  8
3
  6
Continuous
100
AcDbDimension
280
     0
  2
*D8
 10
813.879125
 20
1300.731782723097
 30
0.0
 11
878.879125
 21
1326.097574957121
 31
0.0
 70
   160
 71
     5
 42
-1.0
 73
     0
 74
     0
 75
     0
  3
IGA
100
AcDbAlignedDimension
 13
943.8791250000001
 23
1169.557236723097
 33
0.0
 14
813.879125
 24
1270.201418723097
 34
0.0
100
AcDbRotatedDimension
1001
ACAD
1000
DSTYLE
1002
{
1070
   288
1070
     1
1070
   172
1070
     1
1070
    40
1040
10.0
1070
   271
1070
     0
1070
   143
1040
0.039
1002
}
  0
DIMENSION
  5
7D06
330
19
100
AcDbEntity
  8
3
  6
Continuous
100
AcDbDimension
280
     0
  2
*D9
 10
669.3434019999999
 20
1300.731782723097
 30
0.0
 11
741.6112634999999
 21
1325.731782723097
 31
0.0
 70
    32
 71
     5
 42
-1.0
 73
     0
 74
     0
 75
     0
  3
IGA
100
AcDbAlignedDimension
 13
813.879125
 23
1270.201418723097
 33
0.0
 14
669.3434019999999
 24
1146.660793723097
 34
0.0
100
AcDbRotatedDimension
1001
ACAD
1000
DSTYLE
1002
{
1070
   287
1070
     4
1070
    40
1040
10.0
1070
    75
1070
     1
1070
   143
1040
0.039
1070
   172
1070
     1
1070
   271
1070
     0
1070
   279
1070
     1
1070
   288
1070
     1
1002
}
  0
LINE
  5
7D21
330
19
100
AcDbEntity
  8
2
  6
CENTER
100
AcDbLine
 10
1018.851255
 20
1998.025819163346
 30
0.0
 11
306.1753979999999
 21
1998.025819163346
 31
0.0
  0
DIMENSION
  5
7D2E
330
19
100
AcDbEntity
  8
3
  6
Continuous
100
AcDbDimension
280
     0
  2
*D10
 10
973.879125
 20
1733.857221163346
 30
0.0
 11
648.820202
 21
1733.857221163346
 31
0.0
 70
   160
 71
     5
 42
-1.0
 73
     0
 74
     0
 75
     0
  3
IGA
100
AcDbAlignedDimension
 13
363.8791249999999
 23
1886.025819163346
 33
0.0
 14
973.879125
 24
1886.025819163346
 34
0.0
100
AcDbRotatedDimension
1001
ACAD
1000
DSTYLE
1002
{
1070
   287
1070
     3
1070
    40
1040
10.0
1070
   143
1040
0.039
1070
   172
1070
     1
1070
   271
1070
     0
1070
   279
1070
     0
1070
   288
1070
     1
1002
}
  0
DIMENSION
  5
7D3C
330
19
100
AcDbEntity
  8
3
  6
Continuous
100
AcDbDimension
280
     0
  2
*D11
 10
1085.69232
 20
1886.025819163346
 30
0.0
 11
1085.69232
 21
1990.563320163346
 31
0.0
 70
   160
 71
     5
 42
-1.0
 73
     0
 74
     0
 75
     0
  3
IGA
100
AcDbAlignedDimension
 13
973.879125
 23
2110.025819163346
 33
0.0
 14
973.879125
 24
1886.025819163346
 34
0.0
 50
90.0
100
AcDbRotatedDimension
1001
ACAD
1000
DSTYLE
1002
{
1070
   287
1070
     3
1070
    40
1040
10.0
1070
   143
1040
0.039
1070
   172
1070
     1
1070
   271
1070
     0
1070
   279
1070
     0
1070
   288
1070
     1
1002
}
  0
LINE
  5
7D3D
330
19
100
AcDbEntity
  8
2
  6
CENTER
100
AcDbLine
 10
813.879125
 20
1783.394816163346
 30
0.0
 11
813.879125
 21
2179.976175163346
 31
0.0
  0
DIMENSION
  5
7DE8
330
19
100
AcDbEntity
  8
3
  6
Continuous
100
AcDbDimension
280
     0
  2
*D12
 10
1131.969774270889
 20
1147.557236723097
 30
0.0
 11
1107.442386147724
 21
1209.055217223097
 31
0.0
 70
   160
 71
     5
 42
-1.0
 73
     0
 74
     0
 75
     0
  3
IGA
100
AcDbAlignedDimension
 13
803.919514
 23
1270.553197723097
 33
0.0
 14
993.7676460000002
 24
1147.557236723097
 34
0.0
 50
90.0
100
AcDbRotatedDimension
1001
ACAD
1000
DSTYLE
1002
{
1070
   288
1070
     1
1070
   172
1070
     1
1070
    40
1040
10.0
1070
   271
1070
     0
1070
   143
1040
0.039
1002
}
  0
DIMENSION
  5
7E0E
330
19
100
AcDbEntity
  8
3
  6
Continuous
100
AcDbDimension
280
     0
  2
*D13
 10
1131.969774270889
 20
912.557236723097
 30
0.0
 11
1106.969774270889
 21
1030.057236723097
 31
0.0
 70
    32
 71
     5
 42
-1.0
 73
     0
 74
     0
 75
     0
  3
IGA
100
AcDbAlignedDimension
 13
993.7676460000002
 23
1147.557236723097
 33
0.0
 14
948.879125
 24
912.557236723097
 34
0.0
 50
90.0
100
AcDbRotatedDimension
1001
ACAD
1000
DSTYLE
1002
{
1070
   287
1070
     4
1070
    40
1040
10.0
1070
    75
1070
     1
1070
   143
1040
0.039
1070
   172
1070
     1
1070
   271
1070
     0
1070
   279
1070
     1
1070
   288
1070
     1
1002
}
  0
DIMENSION
  5
7E92
330
19
100
AcDbEntity
  8
3
  6
Continuous
100
AcDbDimension
280
     0
  2
*D14
 10
1077.185969
 20
976.5572367230971
 30
0.0
 11
1077.185969
 21
1069.487543723097
 31
0.0
 70
   160
 71
     5
 42
-1.0
 73
     0
 74
     0
 75
     0
  3
IGA
100
AcDbAlignedDimension
 13
943.8791250000001
 23
1147.557236723097
 33
0.0
 14
923.879125
 24
976.5572367230971
 34
0.0
 50
90.0
100
AcDbRotatedDimension
1001
ACAD
1000
DSTYLE
1002
{
1070
   287
1070
     3
1070
    40
1040
10.0
1070
   143
1040
0.039
1070
   172
1070
     1
1070
   271
1070
     0
1070
   279
1070
     0
1070
   288
1070
     1
1002
}
  0
DIMENSION
  5
7EA4
330
19
100
AcDbEntity
  8
3
  6
Continuous
100
AcDbDimension
280
     0
  2
*D15
 10
1699.597551048932
 20
1360.587085723097
 30
0.0
 11
1576.442007048932
 21
1360.587085723097
 31
0.0
 70
   160
  1
(260)
 71
     5
 42
259.9999999999998
 73
     0
 74
     0
 75
     0
  3
IGA
100
AcDbAlignedDimension
 13
1439.597551048932
 23
1242.557236723097
 33
0.0
 14
1699.597551048932
 24
1351.301204723097
 34
0.0
100
AcDbRotatedDimension
1001
ACAD
1000
DSTYLE
1002
{
1070
   287
1070
     3
1070
    40
1040
10.0
1070
   143
1040
0.039
1070
   172
1070
     1
1070
   271
1070
     0
1070
   279
1070
     0
1070
   288
1070
     1
1002
}
  0
DIMENSION
  5
7EB2
330
19
100
AcDbEntity
  8
3
  6
Continuous
100
AcDbDimension
280
     0
  2
*D16
 10
1763.597551048932
 20
1360.587085723097
 30
0.0
 11
1733.394459048932
 21
1362.132492723097
 31
0.0
 70
   160
 71
     5
 42
-1.0
 73
     0
 74
     0
 75
     0
  3
IGA
100
AcDbAlignedDimension
 13
1699.597551048932
 23
1351.301204723097
 33
0.0
 14
1763.597551048932
 24
1247.557236723097
 34
0.0
100
AcDbRotatedDimension
1001
ACAD
1000
DSTYLE
1002
{
1070
   287
1070
     4
1070
    40
1040
10.0
1070
    75
1070
     1
1070
   143
1040
0.039
1070
   172
1070
     1
1070
   271
1070
     0
1070
   279
1070
     1
1070
   288
1070
     1
1002
}
  0
LINE
  5
7EE3
330
19
100
AcDbEntity
  8
2
  6
CENTER
100
AcDbLine
 10
969.6086429999999
 20
1147.557236723097
 30
0.0
 11
394.1231339999999
 21
1147.557236723097
 31
0.0
  0
DIMENSION
  5
7FCF
330
19
100
AcDbEntity
  8
3
100
AcDbDimension
280
     0
  2
*D18
 10
1132.773311576698
 20
817.5572367230969
 30
0.0
 11
1107.773311576698
 21
743.2715224373829
 31
0.0
 70
    32
 71
     5
 42
25.0
 73
     0
 74
     0
 75
     0
  3
IGA
100
AcDbAlignedDimension
 13
973.879125
 23
842.5572367230969
 33
0.0
 14
973.879125
 24
817.5572367230969
 34
0.0
 50
90.0
100
AcDbRotatedDimension
1001
ACAD
1000
DSTYLE
1002
{
1070
   287
1070
     3
1070
    40
1040
10.0
1070
   143
1040
0.039
1070
   172
1070
     1
1070
   271
1070
     0
1070
   279
1070
     0
1070
     6
1000
DOT
1002
}
  0
DIMENSION
  5
7FDC
330
19
100
AcDbEntity
  8
3
100
AcDbDimension
280
     0
  2
*D19
 10
1132.773311576698
 20
912.557236723097
 30
0.0
 11
1180.1640326915
 21
875.1913760739581
 31
0.0
 70
   160
 71
     5
 42
70.0
 73
     0
 74
     0
 75
     0
  3
IGA
100
AcDbAlignedDimension
 13
973.879125
 23
842.5572367230969
 33
0.0
 14
948.879125
 24
912.557236723097
 34
0.0
 50
90.0
100
AcDbRotatedDimension
1001
ACAD
1000
DSTYLE
1002
{
1070
     3
1000
(<>)
1070
    40
1040
10.0
1070
   143
1040
0.039
1070
   172
1070
     1
1070
   271
1070
     0
1070
   343
1005
7FB9
1002
}
  0
DIMENSION
  5
8245
330
19
100
AcDbEntity
  8
3
100
AcDbDimension
280
     0
  2
*D20
 10
1220.115444199189
 20
1270.557236723097
 30
0.0
 11
1187.258301342046
 21
1044.057236723097
 31
0.0
 70
    32
 71
     5
 42
453.0
 73
     0
 74
     0
 75
     0
  3
IGA
100
AcDbAlignedDimension
 13
973.879125
 23
817.5572367230969
 33
0.0
 14
802.8791250000001
 24
1270.557236723097
 34
0.0
 50
90.0
100
AcDbRotatedDimension
1001
ACAD
1000
DSTYLE
1002
{
1070
     3
1000
(<>)
1070
    40
1040
10.0
1070
   143
1040
0.039
1070
   172
1070
     1
1070
   271
1070
     0
1070
   341
1005
7FB9
1070
   343
1005
7B36
1002
}
  0
ENDSEC
  0
SECTION
  2
OBJECTS
  0
DICTIONARY
  5
C
330
0
100
AcDbDictionary
281
     1
  3
ACAD_CIP_PREVIOUS_PRODUCT_INFO
350
8190
  3
ACAD_COLOR
350
8173
  3
ACAD_DETAILVIEWSTYLE
350
818C
  3
ACAD_GROUP
350
D
  3
ACAD_LAYOUT
350
7FE6
  3
ACAD_MATERIAL
350
8141
  3
ACAD_MLEADERSTYLE
350
8188
  3
ACAD_MLINESTYLE
350
E
  3
ACAD_PLOTSETTINGS
350
7FE7
  3
ACAD_PLOTSTYLENAME
350
7FE4
  3
ACAD_SCALELIST
350
8176
  3
ACAD_SECTIONVIEWSTYLE
350
818A
  3
ACAD_TABLESTYLE
350
8174
  3
ACAD_VISUALSTYLE
350
815A
  3
ACDB_RECOMPOSE_DATA
350
82A7
  3
AcDbVariableDictionary
350
8139
  0
DICTIONARY
  5
820A
330
2
100
AcDbDictionary
280
     1
281
     1
  3
ACAD_LAYERSTATES
360
820B
  0
DICTIONARY
  5
81FD
330
F
100
AcDbDictionary
280
     1
281
     1
  3
ADSK_XREC_LAYER_RECONCILED
360
81FE
  0
DICTIONARY
  5
81FF
330
31
100
AcDbDictionary
280
     1
281
     1
  3
ADSK_XREC_LAYER_RECONCILED
360
8200
  0
DICTIONARY
  5
8201
330
76D0
100
AcDbDictionary
280
     1
281
     1
  3
ADSK_XREC_LAYER_RECONCILED
360
8202
  0
DICTIONARY
  5
8203
330
76D1
100
AcDbDictionary
280
     1
281
     1
  3
ADSK_XREC_LAYER_RECONCILED
360
8204
  0
DICTIONARY
  5
8205
330
76D2
100
AcDbDictionary
280
     1
281
     1
  3
ADSK_XREC_LAYER_RECONCILED
360
8206
  0
DICTIONARY
  5
80BA
330
19
100
AcDbDictionary
280
     1
281
     1
  3
ACAD_LAYOUTSELFREF
360
80BB
  0
DICTIONARY
  5
80B8
330
16
100
AcDbDictionary
280
     1
281
     1
  3
ACAD_LAYOUTSELFREF
360
80B9
  0
XRECORD
  5
8190
102
{ACAD_REACTORS
330
C
102
}
330
C
100
AcDbXrecord
280
     1
300
ACDLT
300
2015
300
INVLTS_F_S
  0
DICTIONARY
  5
8173
102
{ACAD_REACTORS
330
C
102
}
330
C
100
AcDbDictionary
281
     1
  0
DICTIONARY
  5
818C
102
{ACAD_REACTORS
330
C
102
}
330
C
100
AcDbDictionary
281
     1
  3
Imperial24
350
818D
  0
DICTIONARY
  5
D
102
{ACAD_REACTORS
330
C
102
}
330
0
100
AcDbDictionary
281
     1
  0
DICTIONARY
  5
7FE6
102
{ACAD_REACTORS
330
C
102
}
330
C
100
AcDbDictionary
281
     1
  3
Model
350
7FE8
  3
ﾚｲｱｳﾄ1
350
7FE9
  0
DICTIONARY
  5
8141
102
{ACAD_REACTORS
330
C
102
}
330
C
100
AcDbDictionary
281
     1
  3
ByBlock
350
814A
  3
ByLayer
350
8142
  3
Global
350
8152
  0
DICTIONARY
  5
8188
102
{ACAD_REACTORS
330
C
102
}
330
C
100
AcDbDictionary
281
     1
  3
Standard
350
8189
  0
DICTIONARY
  5
E
102
{ACAD_REACTORS
330
C
102
}
330
0
100
AcDbDictionary
281
     1
  3
STANDARD
350
1C
  0
DICTIONARY
  5
7FE7
102
{ACAD_REACTORS
330
C
102
}
330
C
100
AcDbDictionary
281
     1
  0
ACDBDICTIONARYWDFLT
  5
7FE4
102
{ACAD_REACTORS
330
C
102
}
330
C
100
AcDbDictionary
281
     1
  3
Normal
350
7FE5
100
AcDbDictionaryWithDefault
340
7FE5
1001
ACAD
1000
TREAT_AS_HARD
1070
     0
  0
DICTIONARY
  5
8176
102
{ACAD_REACTORS
330
C
102
}
330
C
100
AcDbDictionary
281
     1
  3
A0
350
8177
  3
A1
350
8178
  3
A2
350
8179
  3
A3
350
817A
  3
A4
350
817B
  3
A5
350
817C
  3
A6
350
817D
  3
A7
350
817E
  3
A8
350
817F
  3
A9
350
8180
  3
B0
350
8181
  3
B1
350
8182
  3
B2
350
8183
  3
B3
350
8184
  3
B4
350
8185
  3
B5
350
8186
  3
B6
350
8187
  0
DICTIONARY
  5
818A
102
{ACAD_REACTORS
330
C
102
}
330
C
100
AcDbDictionary
281
     1
  3
Imperial24
350
818B
  0
DICTIONARY
  5
8174
102
{ACAD_REACTORS
330
C
102
}
330
C
100
AcDbDictionary
281
     1
  3
Standard
350
8175
  0
DICTIONARY
  5
815A
102
{ACAD_REACTORS
330
C
102
}
330
C
100
AcDbDictionary
281
     1
  3
2dWireframe
350
8160
  3
Basic
350
815F
  3
Brighten
350
8166
  3
ColorChange
350
816A
  3
Conceptual
350
8163
  3
Dim
350
8165
  3
EdgeColorOff
350
8172
  3
Facepattern
350
8169
  3
Flat
350
815B
  3
FlatWithEdges
350
815C
  3
Gouraud
350
815D
  3
GouraudWithEdges
350
815E
  3
Hidden
350
8162
  3
JitterOff
350
8170
  3
Linepattern
350
8168
  3
OverhangOff
350
8171
  3
Realistic
350
8164
  3
Shaded
350
816F
  3
Shaded with edges
350
816E
  3
Shades of Gray
350
816B
  3
Sketchy
350
816C
  3
Thicken
350
8167
  3
Wireframe
350
8161
  3
X-Ray
350
816D
  0
XRECORD
  5
82A7
102
{ACAD_REACTORS
330
C
102
}
330
C
100
AcDbXrecord
280
     1
 90
        1
330
8175
330
818B
330
818D
  0
DICTIONARY
  5
8139
102
{ACAD_REACTORS
330
C
102
}
330
C
100
AcDbDictionary
281
     1
  3
CANNOSCALE
350
821A
  3
CMLEADERSTYLE
350
8216
  3
CTABLESTYLE
350
8215
  3
CVIEWDETAILSTYLE
350
8217
  3
CVIEWSECTIONSTYLE
350
8218
  3
DIMASSOC
350
813A
  3
LAYEREVAL
350
821C
  3
LAYERNOTIFY
350
821D
  3
LIGHTINGUNITS
350
821B
  3
MSLTSCALE
350
8219
  0
DICTIONARY
  5
820B
102
{ACAD_REACTORS
330
820A
102
}
330
820A
100
AcDbDictionary
281
     1
  0
XRECORD
  5
81FE
102
{ACAD_REACTORS
330
81FD
102
}
330
81FD
100
AcDbXrecord
280
     1
290
     1
  0
XRECORD
  5
8200
102
{ACAD_REACTORS
330
81FF
102
}
330
81FF
100
AcDbXrecord
280
     1
290
     1
  0
XRECORD
  5
8202
102
{ACAD_REACTORS
330
8201
102
}
330
8201
100
AcDbXrecord
280
     1
290
     1
  0
XRECORD
  5
8204
102
{ACAD_REACTORS
330
8203
102
}
330
8203
100
AcDbXrecord
280
     1
290
     1
  0
XRECORD
  5
8206
102
{ACAD_REACTORS
330
8205
102
}
330
8205
100
AcDbXrecord
280
     1
290
     1
  0
XRECORD
  5
80BB
102
{ACAD_REACTORS
330
80BA
102
}
330
80BA
100
AcDbXrecord
280
     1
340
19
  0
XRECORD
  5
80B9
102
{ACAD_REACTORS
330
80B8
102
}
330
80B8
100
AcDbXrecord
280
     1
340
16
  0
ACDBDETAILVIEWSTYLE
  5
818D
102
{ACAD_XDICTIONARY
360
8212
102
}
102
{ACAD_REACTORS
330
818C
102
}
330
818C
100
AcDbModelDocViewStyle
 70
     0
  3
Imperial24
290
     0
100
AcDbDetailViewStyle
 70
     0
 71
     0
 90
        3
 71
     1
340
10
 62
   256
 40
0.24
340
0
 62
   256
 40
0.24
300

 40
0.36
280
     3
 71
     2
340
15
 90
       25
 62
   256
 71
     3
340
10
 62
   256
 40
0.24
 90
        1
 40
0.75
 90
        1
300
%<\AcVar ViewType \f "%tc1">% %<\AcVar ViewDetailId>%\PSCALE %<\AcVar ViewScale \f "%sn">%
 71
     4
340
15
 90
       25
 62
   256
340
15
 90
       25
 62
   256
280
     0
  0
LAYOUT
  5
7FE8
102
{ACAD_REACTORS
330
7FE6
102
}
330
7FE6
100
AcDbPlotSettings
  1

  2
\\Txbo34x8944cqyd\EPSON LP-6100
  4

  6

 40
0.0
 41
0.0
 42
0.0
 43
0.0
 44
0.0
 45
0.0
 46
0.0
 47
0.0
 48
0.0
 49
0.0
140
0.0
141
0.0
142
1.0
143
1.0
 70
  1712
 72
     0
 73
     0
 74
     0
  7
GOD2000TABLE.ctb
 75
     0
147
1.0
 76
     0
 77
     2
 78
   300
148
0.0
149
0.0
100
AcDbLayout
  1
Model
 70
     1
 71
     0
 10
0.0
 20
0.0
 11
12.0
 21
9.0
 12
0.0
 22
0.0
 32
0.0
 14
0.0
 24
0.0
 34
0.0
 15
0.0
 25
0.0
 35
0.0
146
0.0
 13
0.0
 23
0.0
 33
0.0
 16
1.0
 26
0.0
 36
0.0
 17
0.0
 27
1.0
 37
0.0
 76
     0
330
19
331
813F
  0
LAYOUT
  5
7FE9
102
{ACAD_REACTORS
330
7FE6
102
}
330
7FE6
100
AcDbPlotSettings
  1

  2
\\Txbo34x8944cqyd\EPSON LP-6100
  4

  6

 40
0.0
 41
0.0
 42
0.0
 43
0.0
 44
0.0
 45
0.0
 46
0.0
 47
0.0
 48
0.0
 49
0.0
140
0.0
141
0.0
142
1.0
143
1.0
 70
   688
 72
     0
 73
     0
 74
     5
  7
GOD2000TABLE.ctb
 75
    16
147
1.0
 76
     0
 77
     2
 78
   300
148
0.0
149
0.0
100
AcDbLayout
  1
ﾚｲｱｳﾄ1
 70
     1
 71
     1
 10
0.0
 20
0.0
 11
12.0
 21
9.0
 12
0.0
 22
0.0
 32
0.0
 14
1.000000000000000E+20
 24
1.000000000000000E+20
 34
1.000000000000000E+20
 15
-1.000000000000000E+20
 25
-1.000000000000000E+20
 35
-1.000000000000000E+20
146
0.0
 13
0.0
 23
0.0
 33
0.0
 16
1.0
 26
0.0
 36
0.0
 17
0.0
 27
1.0
 37
0.0
 76
     0
330
16
  0
MATERIAL
  5
814A
102
{ACAD_XDICTIONARY
360
814B
102
}
102
{ACAD_REACTORS
330
8141
102
}
330
8141
100
AcDbMaterial
  1
ByBlock
 72
     0
 43
0.0208333333333333
 43
0.0
 43
0.0
 43
0.0
 43
0.0
 43
0.0208333333333333
 43
0.0
 43
0.0
 43
0.0
 43
0.0
 43
1.0
 43
0.0
 43
0.0
 43
0.0
 43
0.0
 43
1.0
 77
     0
 47
0.0208333333333333
 47
0.0
 47
0.0
 47
0.0
 47
0.0
 47
0.0208333333333333
 47
0.0
 47
0.0
 47
0.0
 47
0.0
 47
1.0
 47
0.0
 47
0.0
 47
0.0
 47
0.0
 47
1.0
171
     0
 49
0.0208333333333333
 49
0.0
 49
0.0
 49
0.0
 49
0.0
 49
0.0208333333333333
 49
0.0
 49
0.0
 49
0.0
 49
0.0
 49
1.0
 49
0.0
 49
0.0
 49
0.0
 49
0.0
 49
1.0
175
     0
142
0.0208333333333333
142
0.0
142
0.0
142
0.0
142
0.0
142
0.0208333333333333
142
0.0
142
0.0
142
0.0
142
0.0
142
1.0
142
0.0
142
0.0
142
0.0
142
0.0
142
1.0
179
     0
144
0.0208333333333333
144
0.0
144
0.0
144
0.0
144
0.0
144
0.0208333333333333
144
0.0
144
0.0
144
0.0
144
0.0
144
1.0
144
0.0
144
0.0
144
0.0
144
0.0
144
1.0
147
0.0208333333333333
147
0.0
147
0.0
147
0.0
147
0.0
147
0.0208333333333333
147
0.0
147
0.0
147
0.0
147
0.0
147
1.0
147
0.0
147
0.0
147
0.0
147
0.0
147
1.0
  0
MATERIAL
  5
8142
102
{ACAD_XDICTIONARY
360
8143
102
}
102
{ACAD_REACTORS
330
8141
102
}
330
8141
100
AcDbMaterial
  1
ByLayer
 72
     0
 43
0.0208333333333333
 43
0.0
 43
0.0
 43
0.0
 43
0.0
 43
0.0208333333333333
 43
0.0
 43
0.0
 43
0.0
 43
0.0
 43
1.0
 43
0.0
 43
0.0
 43
0.0
 43
0.0
 43
1.0
 77
     0
 47
0.0208333333333333
 47
0.0
 47
0.0
 47
0.0
 47
0.0
 47
0.0208333333333333
 47
0.0
 47
0.0
 47
0.0
 47
0.0
 47
1.0
 47
0.0
 47
0.0
 47
0.0
 47
0.0
 47
1.0
171
     0
 49
0.0208333333333333
 49
0.0
 49
0.0
 49
0.0
 49
0.0
 49
0.0208333333333333
 49
0.0
 49
0.0
 49
0.0
 49
0.0
 49
1.0
 49
0.0
 49
0.0
 49
0.0
 49
0.0
 49
1.0
175
     0
142
0.0208333333333333
142
0.0
142
0.0
142
0.0
142
0.0
142
0.0208333333333333
142
0.0
142
0.0
142
0.0
142
0.0
142
1.0
142
0.0
142
0.0
142
0.0
142
0.0
142
1.0
179
     0
144
0.0208333333333333
144
0.0
144
0.0
144
0.0
144
0.0
144
0.0208333333333333
144
0.0
144
0.0
144
0.0
144
0.0
144
1.0
144
0.0
144
0.0
144
0.0
144
0.0
144
1.0
147
0.0208333333333333
147
0.0
147
0.0
147
0.0
147
0.0
147
0.0208333333333333
147
0.0
147
0.0
147
0.0
147
0.0
147
1.0
147
0.0
147
0.0
147
0.0
147
0.0
147
1.0
  0
MATERIAL
  5
8152
102
{ACAD_XDICTIONARY
360
8153
102
}
102
{ACAD_REACTORS
330
8141
102
}
330
8141
100
AcDbMaterial
  1
Global
 72
     0
 43
0.0208333333333333
 43
0.0
 43
0.0
 43
0.0
 43
0.0
 43
0.0208333333333333
 43
0.0
 43
0.0
 43
0.0
 43
0.0
 43
1.0
 43
0.0
 43
0.0
 43
0.0
 43
0.0
 43
1.0
 77
     0
 47
0.0208333333333333
 47
0.0
 47
0.0
 47
0.0
 47
0.0
 47
0.0208333333333333
 47
0.0
 47
0.0
 47
0.0
 47
0.0
 47
1.0
 47
0.0
 47
0.0
 47
0.0
 47
0.0
 47
1.0
171
     0
 49
0.0208333333333333
 49
0.0
 49
0.0
 49
0.0
 49
0.0
 49
0.0208333333333333
 49
0.0
 49
0.0
 49
0.0
 49
0.0
 49
1.0
 49
0.0
 49
0.0
 49
0.0
 49
0.0
 49
1.0
175
     0
142
0.0208333333333333
142
0.0
142
0.0
142
0.0
142
0.0
142
0.0208333333333333
142
0.0
142
0.0
142
0.0
142
0.0
142
1.0
142
0.0
142
0.0
142
0.0
142
0.0
142
1.0
179
     0
144
0.0208333333333333
144
0.0
144
0.0
144
0.0
144
0.0
144
0.0208333333333333
144
0.0
144
0.0
144
0.0
144
0.0
144
1.0
144
0.0
144
0.0
144
0.0
144
0.0
144
1.0
147
0.0208333333333333
147
0.0
147
0.0
147
0.0
147
0.0
147
0.0208333333333333
147
0.0
147
0.0
147
0.0
147
0.0
147
1.0
147
0.0
147
0.0
147
0.0
147
0.0
147
1.0
  0
MLEADERSTYLE
  5
8189
102
{ACAD_REACTORS
330
8188
102
}
330
8188
100
AcDbMLeaderStyle
179
     2
170
     2
171
     1
172
     0
 90
        2
 40
0.0
 41
0.0
173
     1
 91
-1056964608
340
13
 92
       -2
290
     1
 42
0.09
291
     1
 43
0.36
  3
Standard
 44
0.18
300

342
10
174
     1
178
     6
175
     1
176
     0
 93
-1056964608
 45
0.18
292
     0
297
     0
 46
0.18
 94
-1056964608
 47
1.0
 49
1.0
140
1.0
293
     1
141
0.0
294
     1
177
     0
142
1.0
295
     1
296
     0
143
0.125
271
     0
272
     9
273
     9
298
     1
  0
MLINESTYLE
  5
1C
102
{ACAD_REACTORS
330
E
102
}
330
0
100
AcDbMlineStyle
  2
STANDARD
 70
     0
  3

 62
     0
 51
90.0
 52
90.0
 71
     2
 49
0.5
 62
   256
  6
BYLAYER
 49
-0.5
 62
   256
  6
BYLAYER
  0
ACDBPLACEHOLDER
  5
7FE5
102
{ACAD_REACTORS
330
7FE4
102
}
330
7FE4
  0
SCALE
  5
8177
102
{ACAD_REACTORS
330
8176
102
}
330
8176
100
AcDbScale
 70
     0
300
1:1
140
1.0
141
1.0
290
     1
  0
SCALE
  5
8178
102
{ACAD_REACTORS
330
8176
102
}
330
8176
100
AcDbScale
 70
     0
300
1/128" = 1'-0"
140
0.0078125
141
12.0
290
     0
  0
SCALE
  5
8179
102
{ACAD_REACTORS
330
8176
102
}
330
8176
100
AcDbScale
 70
     0
300
1/64" = 1'-0"
140
0.015625
141
12.0
290
     0
  0
SCALE
  5
817A
102
{ACAD_REACTORS
330
8176
102
}
330
8176
100
AcDbScale
 70
     0
300
1/32" = 1'-0"
140
0.03125
141
12.0
290
     0
  0
SCALE
  5
817B
102
{ACAD_REACTORS
330
8176
102
}
330
8176
100
AcDbScale
 70
     0
300
1/16" = 1'-0"
140
0.0625
141
12.0
290
     0
  0
SCALE
  5
817C
102
{ACAD_REACTORS
330
8176
102
}
330
8176
100
AcDbScale
 70
     0
300
3/32" = 1'-0"
140
0.09375
141
12.0
290
     0
  0
SCALE
  5
817D
102
{ACAD_REACTORS
330
8176
102
}
330
8176
100
AcDbScale
 70
     0
300
1/8" = 1'-0"
140
0.125
141
12.0
290
     0
  0
SCALE
  5
817E
102
{ACAD_REACTORS
330
8176
102
}
330
8176
100
AcDbScale
 70
     0
300
3/16" = 1'-0"
140
0.1875
141
12.0
290
     0
  0
SCALE
  5
817F
102
{ACAD_REACTORS
330
8176
102
}
330
8176
100
AcDbScale
 70
     0
300
1/4" = 1'-0"
140
0.25
141
12.0
290
     0
  0
SCALE
  5
8180
102
{ACAD_REACTORS
330
8176
102
}
330
8176
100
AcDbScale
 70
     0
300
3/8" = 1'-0"
140
0.375
141
12.0
290
     0
  0
SCALE
  5
8181
102
{ACAD_REACTORS
330
8176
102
}
330
8176
100
AcDbScale
 70
     0
300
1/2" = 1'-0"
140
0.5
141
12.0
290
     0
  0
SCALE
  5
8182
102
{ACAD_REACTORS
330
8176
102
}
330
8176
100
AcDbScale
 70
     0
300
3/4" = 1'-0"
140
0.75
141
12.0
290
     0
  0
SCALE
  5
8183
102
{ACAD_REACTORS
330
8176
102
}
330
8176
100
AcDbScale
 70
     0
300
1" = 1'-0"
140
1.0
141
12.0
290
     0
  0
SCALE
  5
8184
102
{ACAD_REACTORS
330
8176
102
}
330
8176
100
AcDbScale
 70
     0
300
1-1/2" = 1'-0"
140
1.5
141
12.0
290
     0
  0
SCALE
  5
8185
102
{ACAD_REACTORS
330
8176
102
}
330
8176
100
AcDbScale
 70
     0
300
3" = 1'-0"
140
3.0
141
12.0
290
     0
  0
SCALE
  5
8186
102
{ACAD_REACTORS
330
8176
102
}
330
8176
100
AcDbScale
 70
     0
300
6" = 1'-0"
140
6.0
141
12.0
290
     0
  0
SCALE
  5
8187
102
{ACAD_REACTORS
330
8176
102
}
330
8176
100
AcDbScale
 70
     0
300
1'-0" = 1'-0"
140
12.0
141
12.0
290
     0
  0
ACDBSECTIONVIEWSTYLE
  5
818B
102
{ACAD_XDICTIONARY
360
8210
102
}
102
{ACAD_REACTORS
330
818A
102
}
330
818A
100
AcDbModelDocViewStyle
 70
     0
  3
Imperial24
290
     0
100
AcDbSectionViewStyle
 70
     0
 71
     0
 90
       78
 71
     1
340
10
 62
   256
 40
0.24
340
0
340
0
 62
   256
 40
0.24
300
I, O, Q, S, X, Z
 40
0.48
 90
        3
 40
0.18
 90
        1
 71
     2
340
15
 90
       25
 62
   256
340
15
 90
       50
 62
   256
 40
0.24
 40
0.0
 40
0.24
 71
     3
340
10
 62
   256
 40
0.24
 90
        1
 40
0.75
 90
        1
300
%<\AcVar ViewType \f "%tc1">% %<\AcVar ViewSectionStartId>%-%<\AcVar ViewSectionEndId>%\PSCALE %<\AcVar ViewScale \f "%sn">%
 71
     4
 62
   256
 62
   257
300
ANSI31
 40
1.0
 90
        0
290
     0
290
     0
 90
        6
 40
0.0
 40
1.570796326794896
 40
0.2617993877991494
 40
1.308996938995747
 40
-0.2617993877991494
 40
1.832595714594046
  0
TABLESTYLE
  5
8175
102
{ACAD_XDICTIONARY
360
82A3
102
}
102
{ACAD_REACTORS
330
8174
102
}
330
8174
100
AcDbTableStyle
280
     0
  3
Standard
 70
     0
 71
     0
 40
0.06
 41
0.06
280
     0
281
     0
  7
STANDARD
140
0.18
170
     2
 62
     0
 63
     7
283
     0
 90
      512
 91
        0
  1

274
    -2
284
     1
 64
     0
275
    -2
285
     1
 65
     0
276
    -2
286
     1
 66
     0
277
    -2
287
     1
 67
     0
278
    -2
288
     1
 68
     0
279
    -2
289
     1
 69
     0
  7
STANDARD
140
0.25
170
     5
 62
     0
 63
     7
283
     0
 90
      512
 91
        0
  1

274
    -2
284
     1
 64
     0
275
    -2
285
     1
 65
     0
276
    -2
286
     1
 66
     0
277
    -2
287
     1
 67
     0
278
    -2
288
     1
 68
     0
279
    -2
289
     1
 69
     0
  7
STANDARD
140
0.18
170
     5
 62
     0
 63
     7
283
     0
 90
      512
 91
        0
  1

274
    -2
284
     1
 64
     0
275
    -2
285
     1
 65
     0
276
    -2
286
     1
 66
     0
277
    -2
287
     1
 67
     0
278
    -2
288
     1
 68
     0
279
    -2
289
     1
 69
     0
  0
VISUALSTYLE
  5
8160
102
{ACAD_REACTORS
330
815A
102
}
330
815A
100
AcDbVisualStyle
  2
2dWireframe
 70
     4
177
     3
291
     0
 70
    58
 90
        0
176
     1
 90
        2
176
     1
 90
        0
176
     1
 90
        0
176
     1
 40
0.6
176
     1
 40
30.0
176
     1
 62
     7
420
 16777215
176
     1
 90
        1
176
     1
 90
        4
176
     1
 62
     7
176
     1
 62
   257
176
     1
 90
        1
176
     1
 90
        1
176
     1
 40
1.0
176
     1
 90
        0
176
     1
 62
   257
176
     1
 40
1.0
176
     1
 90
        1
176
     1
 90
        6
176
     1
 90
        2
176
     1
 62
     7
176
     1
 90
        5
176
     1
 90
        0
176
     1
 90
        0
176
     1
290
     0
176
     1
 90
        1
176
     1
 40
0.0
176
     1
 90
        0
176
     1
290
     1
176
     1
290
     1
176
     1
290
     0
176
     1
290
     0
176
     1
290
     0
176
     1
290
     0
176
     1
290
     0
176
     1
290
     0
176
     1
290
     0
176
     1
 90
       50
176
     1
 40
0.0
176
     1
 40
1.0
176
     1
 90
        0
176
     1
 62
    18
420
        0
176
     1
 90
       50
176
     1
 90
        3
176
     1
 62
     5
420
      255
176
     1
290
     0
176
     1
 90
       50
176
     1
 90
       50
176
     1
 90
       50
176
     1
290
     0
176
     1
 90
       50
176
     1
 62
   256
176
     0
 40
1.0
176
     0
 90
        2
176
     1
  1
strokes_ogs.tif
176
     1
290
     0
176
     1
 40
1.0
176
     1
 40
1.0
176
     1
  0
VISUALSTYLE
  5
815F
102
{ACAD_REACTORS
330
815A
102
}
330
815A
100
AcDbVisualStyle
  2
Basic
 70
     7
177
     3
291
     1
 70
    58
 90
        1
176
     1
 90
        0
176
     1
 90
        1
176
     1
 90
        0
176
     1
 40
0.6
176
     1
 40
30.0
176
     1
 62
     7
420
 16777215
176
     1
 90
        0
176
     1
 90
        4
176
     1
 62
     7
176
     1
 62
   257
176
     1
 90
        1
176
     1
 90
        1
176
     1
 40
1.0
176
     1
 90
        8
176
     1
 62
     7
176
     1
 40
1.0
176
     1
 90
        1
176
     1
 90
        6
176
     1
 90
        2
176
     1
 62
     7
176
     1
 90
        5
176
     1
 90
        0
176
     1
 90
        0
176
     1
290
     0
176
     1
 90
        1
176
     1
 40
0.0
176
     1
 90
        0
176
     1
290
     0
176
     1
290
     1
176
     1
290
     1
176
     1
290
     0
176
     1
290
     0
176
     1
290
     0
176
     1
290
     0
176
     1
290
     0
176
     1
290
     0
176
     1
 90
       50
176
     1
 40
0.0
176
     1
 40
1.0
176
     1
 90
        0
176
     1
 62
    18
420
        0
176
     1
 90
       50
176
     1
 90
        3
176
     1
 62
     5
420
      255
176
     1
290
     0
176
     1
 90
       50
176
     1
 90
       50
176
     1
 90
       50
176
     1
290
     0
176
     1
 90
       50
176
     1
 62
   256
176
     0
 40
1.0
176
     0
 90
        2
176
     1
  1
strokes_ogs.tif
176
     1
290
     0
176
     1
 40
1.0
176
     1
 40
1.0
176
     1
  0
VISUALSTYLE
  5
8166
102
{ACAD_REACTORS
330
815A
102
}
330
815A
100
AcDbVisualStyle
  2
Brighten
 70
    12
177
     3
291
     1
 70
    58
 90
        2
176
     1
 90
        2
176
     1
 90
        0
176
     1
 90
        0
176
     1
 40
0.6
176
     1
 40
30.0
176
     1
 62
     7
420
 16777215
176
     1
 90
        1
176
     1
 90
        4
176
     1
 62
     7
176
     1
 62
   257
176
     1
 90
        1
176
     1
 90
        1
176
     1
 40
1.0
176
     1
 90
        8
176
     1
 62
     7
176
     1
 40
1.0
176
     1
 90
        1
176
     1
 90
        6
176
     1
 90
        2
176
     1
 62
     7
176
     1
 90
        5
176
     1
 90
        0
176
     1
 90
        0
176
     1
290
     0
176
     1
 90
        1
176
     1
 40
50.0
176
     1
 90
        0
176
     1
290
     0
176
     1
290
     1
176
     1
290
     1
176
     1
290
     0
176
     1
290
     0
176
     1
290
     0
176
     1
290
     0
176
     1
290
     0
176
     1
290
     0
176
     1
 90
       50
176
     1
 40
0.0
176
     1
 40
1.0
176
     1
 90
        0
176
     1
 62
    18
420
        0
176
     1
 90
       50
176
     1
 90
        3
176
     1
 62
     5
420
      255
176
     1
290
     0
176
     1
 90
       50
176
     1
 90
       50
176
     1
 90
       50
176
     1
290
     0
176
     1
 90
       50
176
     1
 62
   256
176
     0
 40
1.0
176
     0
 90
        2
176
     1
  1
strokes_ogs.tif
176
     1
290
     0
176
     1
 40
1.0
176
     1
 40
1.0
176
     1
  0
VISUALSTYLE
  5
816A
102
{ACAD_REACTORS
330
815A
102
}
330
815A
100
AcDbVisualStyle
  2
ColorChange
 70
    16
177
     3
291
     1
 70
    58
 90
        2
176
     1
 90
        2
176
     1
 90
        3
176
     1
 90
        0
176
     1
 40
0.6
176
     1
 40
30.0
176
     1
 62
     8
420
  8421504
176
     1
 90
        1
176
     1
 90
        4
176
     1
 62
     7
176
     1
 62
   257
176
     1
 90
        1
176
     1
 90
        1
176
     1
 40
1.0
176
     1
 90
        8
176
     1
 62
     8
420
  8421504
176
     1
 40
1.0
176
     1
 90
        1
176
     1
 90
        6
176
     1
 90
        2
176
     1
 62
     7
176
     1
 90
        5
176
     1
 90
        0
176
     1
 90
        0
176
     1
290
     0
176
     1
 90
        1
176
     1
 40
0.0
176
     1
 90
        0
176
     1
290
     0
176
     1
290
     1
176
     1
290
     1
176
     1
290
     0
176
     1
290
     0
176
     1
290
     0
176
     1
290
     0
176
     1
290
     0
176
     1
290
     0
176
     1
 90
       50
176
     1
 40
0.0
176
     1
 40
1.0
176
     1
 90
        0
176
     1
 62
    18
420
        0
176
     1
 90
       50
176
     1
 90
        3
176
     1
 62
     5
420
      255
176
     1
290
     0
176
     1
 90
       50
176
     1
 90
       50
176
     1
 90
       50
176
     1
290
     0
176
     1
 90
       50
176
     1
 62
   256
176
     0
 40
1.0
176
     0
 90
        2
176
     1
  1
strokes_ogs.tif
176
     1
290
     0
176
     1
 40
1.0
176
     1
 40
1.0
176
     1
  0
VISUALSTYLE
  5
8163
102
{ACAD_REACTORS
330
815A
102
}
330
815A
100
AcDbVisualStyle
  2
Conceptual
 70
     9
177
     3
291
     0
 70
    58
 90
        3
176
     1
 90
        2
176
     1
 90
        0
176
     1
 90
        0
176
     1
 40
0.6
176
     1
 40
30.0
176
     1
 62
     7
420
 16777215
176
     1
 90
        2
176
     1
 90
        2
176
     1
 62
     7
176
     1
 62
   257
176
     1
 90
        1
176
     1
 90
        1
176
     1
 40
179.0
176
     1
 90
        8
176
     1
 62
     7
176
     1
 40
1.0
176
     1
 90
        1
176
     1
 90
        6
176
     1
 90
        2
176
     1
 62
     7
176
     1
 90
        3
176
     1
 90
        0
176
     1
 90
        0
176
     1
290
     0
176
     1
 90
        1
176
     1
 40
0.0
176
     1
 90
        0
176
     1
290
     0
176
     1
290
     1
176
     1
290
     1
176
     1
290
     0
176
     1
290
     0
176
     1
290
     0
176
     1
290
     0
176
     1
290
     0
176
     1
290
     0
176
     1
 90
       50
176
     1
 40
0.0
176
     1
 40
1.0
176
     1
 90
        0
176
     1
 62
    18
420
        0
176
     1
 90
       50
176
     1
 90
        3
176
     1
 62
     5
420
      255
176
     1
290
     0
176
     1
 90
       50
176
     1
 90
       50
176
     1
 90
       50
176
     1
290
     0
176
     1
 90
       50
176
     1
 62
   256
176
     0
 40
1.0
176
     0
 90
        2
176
     1
  1
strokes_ogs.tif
176
     1
290
     0
176
     1
 40
1.0
176
     1
 40
1.0
176
     1
  0
VISUALSTYLE
  5
8165
102
{ACAD_REACTORS
330
815A
102
}
330
815A
100
AcDbVisualStyle
  2
Dim
 70
    11
177
     3
291
     1
 70
    58
 90
        2
176
     1
 90
        2
176
     1
 90
        0
176
     1
 90
        0
176
     1
 40
0.6
176
     1
 40
30.0
176
     1
 62
     7
420
 16777215
176
     1
 90
        1
176
     1
 90
        4
176
     1
 62
     7
176
     1
 62
   257
176
     1
 90
        1
176
     1
 90
        1
176
     1
 40
1.0
176
     1
 90
        8
176
     1
 62
     7
176
     1
 40
1.0
176
     1
 90
        1
176
     1
 90
        6
176
     1
 90
        2
176
     1
 62
     7
176
     1
 90
        5
176
     1
 90
        0
176
     1
 90
        0
176
     1
290
     0
176
     1
 90
        1
176
     1
 40
-50.0
176
     1
 90
        0
176
     1
290
     0
176
     1
290
     1
176
     1
290
     1
176
     1
290
     0
176
     1
290
     0
176
     1
290
     0
176
     1
290
     0
176
     1
290
     0
176
     1
290
     0
176
     1
 90
       50
176
     1
 40
0.0
176
     1
 40
1.0
176
     1
 90
        0
176
     1
 62
    18
420
        0
176
     1
 90
       50
176
     1
 90
        3
176
     1
 62
     5
420
      255
176
     1
290
     0
176
     1
 90
       50
176
     1
 90
       50
176
     1
 90
       50
176
     1
290
     0
176
     1
 90
       50
176
     1
 62
   256
176
     0
 40
1.0
176
     0
 90
        2
176
     1
  1
strokes_ogs.tif
176
     1
290
     0
176
     1
 40
1.0
176
     1
 40
1.0
176
     1
  0
VISUALSTYLE
  5
8172
102
{ACAD_REACTORS
330
815A
102
}
330
815A
100
AcDbVisualStyle
  2
EdgeColorOff
 70
    22
177
     3
291
     1
 70
    58
 90
        2
176
     0
 90
        2
176
     0
 90
        0
176
     0
 90
        0
176
     0
 40
0.6
176
     0
 40
30.0
176
     0
 62
     7
420
 16777215
176
     0
 90
        1
176
     0
 90
        4
176
     0
 62
     7
176
     0
 62
   257
176
     0
 90
        1
176
     0
 90
        1
176
     0
 40
1.0
176
     0
 90
        8
176
     2
 62
     7
176
     0
 40
1.0
176
     0
 90
        1
176
     0
 90
        6
176
     0
 90
        2
176
     0
 62
     7
176
     0
 90
        5
176
     0
 90
        0
176
     0
 90
        0
176
     0
290
     0
176
     0
 90
        1
176
     0
 40
0.0
176
     0
 90
        0
176
     0
290
     0
176
     0
290
     1
176
     0
290
     1
176
     0
290
     0
176
     0
290
     0
176
     0
290
     0
176
     0
290
     0
176
     0
290
     0
176
     0
290
     0
176
     0
 90
       50
176
     0
 40
0.0
176
     0
 40
1.0
176
     0
 90
        0
176
     0
 62
    18
420
        0
176
     0
 90
       50
176
     0
 90
        3
176
     0
 62
     5
420
      255
176
     0
290
     0
176
     0
 90
       50
176
     0
 90
       50
176
     0
 90
       50
176
     0
290
     0
176
     0
 90
       50
176
     0
 62
   256
176
     0
 40
1.0
176
     0
 90
        2
176
     0
  1
strokes_ogs.tif
176
     0
290
     0
176
     0
 40
1.0
176
     0
 40
1.0
176
     0
  0
VISUALSTYLE
  5
8169
102
{ACAD_REACTORS
330
815A
102
}
330
815A
100
AcDbVisualStyle
  2
Facepattern
 70
    15
177
     3
291
     1
 70
    58
 90
        2
176
     1
 90
        2
176
     1
 90
        0
176
     1
 90
        0
176
     1
 40
0.6
176
     1
 40
30.0
176
     1
 62
     7
420
 16777215
176
     1
 90
        1
176
     1
 90
        4
176
     1
 62
     7
176
     1
 62
   257
176
     1
 90
        1
176
     1
 90
        1
176
     1
 40
1.0
176
     1
 90
        8
176
     1
 62
     7
176
     1
 40
1.0
176
     1
 90
        1
176
     1
 90
        6
176
     1
 90
        2
176
     1
 62
     7
176
     1
 90
        5
176
     1
 90
        0
176
     1
 90
        0
176
     1
290
     0
176
     1
 90
        1
176
     1
 40
0.0
176
     1
 90
        0
176
     1
290
     0
176
     1
290
     1
176
     1
290
     1
176
     1
290
     0
176
     1
290
     0
176
     1
290
     0
176
     1
290
     0
176
     1
290
     0
176
     1
290
     0
176
     1
 90
       50
176
     1
 40
0.0
176
     1
 40
1.0
176
     1
 90
        0
176
     1
 62
    18
420
        0
176
     1
 90
       50
176
     1
 90
        3
176
     1
 62
     5
420
      255
176
     1
290
     0
176
     1
 90
       50
176
     1
 90
       50
176
     1
 90
       50
176
     1
290
     0
176
     1
 90
       50
176
     1
 62
   256
176
     0
 40
1.0
176
     0
 90
        2
176
     1
  1
strokes_ogs.tif
176
     1
290
     0
176
     1
 40
1.0
176
     1
 40
1.0
176
     1
  0
VISUALSTYLE
  5
815B
102
{ACAD_REACTORS
330
815A
102
}
330
815A
100
AcDbVisualStyle
  2
Flat
 70
     0
177
     3
291
     1
 70
    58
 90
        2
176
     1
 90
        1
176
     1
 90
        1
176
     1
 90
        2
176
     1
 40
0.6
176
     1
 40
30.0
176
     1
 62
     7
420
 16777215
176
     1
 90
        0
176
     1
 90
        0
176
     1
 62
     7
176
     1
 62
   257
176
     1
 90
        1
176
     1
 90
        1
176
     1
 40
1.0
176
     1
 90
        8
176
     1
 62
     7
176
     1
 40
1.0
176
     1
 90
        1
176
     1
 90
        6
176
     1
 90
        2
176
     1
 62
     7
176
     1
 90
        5
176
     1
 90
        0
176
     1
 90
        0
176
     1
290
     0
176
     1
 90
       13
176
     1
 40
0.0
176
     1
 90
        0
176
     1
290
     0
176
     1
290
     1
176
     1
290
     1
176
     1
290
     0
176
     1
290
     0
176
     1
290
     0
176
     1
290
     0
176
     1
290
     0
176
     1
290
     0
176
     1
 90
       50
176
     1
 40
0.0
176
     1
 40
1.0
176
     1
 90
        0
176
     1
 62
    18
420
        0
176
     1
 90
       50
176
     1
 90
        3
176
     1
 62
     5
420
      255
176
     1
290
     0
176
     1
 90
       50
176
     1
 90
       50
176
     1
 90
       50
176
     1
290
     0
176
     1
 90
       50
176
     1
 62
   256
176
     0
 40
1.0
176
     0
 90
        2
176
     1
  1
strokes_ogs.tif
176
     1
290
     0
176
     1
 40
1.0
176
     1
 40
1.0
176
     1
  0
VISUALSTYLE
  5
815C
102
{ACAD_REACTORS
330
815A
102
}
330
815A
100
AcDbVisualStyle
  2
FlatWithEdges
 70
     1
177
     3
291
     1
 70
    58
 90
        2
176
     1
 90
        1
176
     1
 90
        1
176
     1
 90
        2
176
     1
 40
0.6
176
     1
 40
30.0
176
     1
 62
     7
420
 16777215
176
     1
 90
        1
176
     1
 90
        0
176
     1
 62
     7
176
     1
 62
   257
176
     1
 90
        1
176
     1
 90
        1
176
     1
 40
1.0
176
     1
 90
        0
176
     1
 62
   257
176
     1
 40
1.0
176
     1
 90
        1
176
     1
 90
        6
176
     1
 90
        2
176
     1
 62
     7
176
     1
 90
        5
176
     1
 90
        0
176
     1
 90
        0
176
     1
290
     0
176
     1
 90
       13
176
     1
 40
0.0
176
     1
 90
        0
176
     1
290
     0
176
     1
290
     1
176
     1
290
     1
176
     1
290
     0
176
     1
290
     0
176
     1
290
     0
176
     1
290
     0
176
     1
290
     0
176
     1
290
     0
176
     1
 90
       50
176
     1
 40
0.0
176
     1
 40
1.0
176
     1
 90
        0
176
     1
 62
    18
420
        0
176
     1
 90
       50
176
     1
 90
        3
176
     1
 62
     5
420
      255
176
     1
290
     0
176
     1
 90
       50
176
     1
 90
       50
176
     1
 90
       50
176
     1
290
     0
176
     1
 90
       50
176
     1
 62
   256
176
     0
 40
1.0
176
     0
 90
        2
176
     1
  1
strokes_ogs.tif
176
     1
290
     0
176
     1
 40
1.0
176
     1
 40
1.0
176
     1
  0
VISUALSTYLE
  5
815D
102
{ACAD_REACTORS
330
815A
102
}
330
815A
100
AcDbVisualStyle
  2
Gouraud
 70
     2
177
     3
291
     1
 70
    58
 90
        2
176
     1
 90
        2
176
     1
 90
        1
176
     1
 90
        2
176
     1
 40
0.6
176
     1
 40
30.0
176
     1
 62
     7
420
 16777215
176
     1
 90
        0
176
     1
 90
        0
176
     1
 62
     7
176
     1
 62
   257
176
     1
 90
        1
176
     1
 90
        1
176
     1
 40
1.0
176
     1
 90
        0
176
     1
 62
     7
176
     1
 40
1.0
176
     1
 90
        1
176
     1
 90
        6
176
     1
 90
        2
176
     1
 62
     7
176
     1
 90
        5
176
     1
 90
        0
176
     1
 90
        0
176
     1
290
     0
176
     1
 90
       13
176
     1
 40
0.0
176
     1
 90
        0
176
     1
290
     0
176
     1
290
     1
176
     1
290
     1
176
     1
290
     0
176
     1
290
     0
176
     1
290
     0
176
     1
290
     0
176
     1
290
     0
176
     1
290
     0
176
     1
 90
       50
176
     1
 40
0.0
176
     1
 40
1.0
176
     1
 90
        0
176
     1
 62
    18
420
        0
176
     1
 90
       50
176
     1
 90
        3
176
     1
 62
     5
420
      255
176
     1
290
     0
176
     1
 90
       50
176
     1
 90
       50
176
     1
 90
       50
176
     1
290
     0
176
     1
 90
       50
176
     1
 62
   256
176
     0
 40
1.0
176
     0
 90
        2
176
     1
  1
strokes_ogs.tif
176
     1
290
     0
176
     1
 40
1.0
176
     1
 40
1.0
176
     1
  0
VISUALSTYLE
  5
815E
102
{ACAD_REACTORS
330
815A
102
}
330
815A
100
AcDbVisualStyle
  2
GouraudWithEdges
 70
     3
177
     3
291
     1
 70
    58
 90
        2
176
     1
 90
        2
176
     1
 90
        1
176
     1
 90
        2
176
     1
 40
0.6
176
     1
 40
30.0
176
     1
 62
     7
420
 16777215
176
     1
 90
        1
176
     1
 90
        0
176
     1
 62
     7
176
     1
 62
   257
176
     1
 90
        1
176
     1
 90
        1
176
     1
 40
1.0
176
     1
 90
        0
176
     1
 62
   257
176
     1
 40
1.0
176
     1
 90
        1
176
     1
 90
        6
176
     1
 90
        2
176
     1
 62
     7
176
     1
 90
        5
176
     1
 90
        0
176
     1
 90
        0
176
     1
290
     0
176
     1
 90
       13
176
     1
 40
0.0
176
     1
 90
        0
176
     1
290
     0
176
     1
290
     1
176
     1
290
     1
176
     1
290
     0
176
     1
290
     0
176
     1
290
     0
176
     1
290
     0
176
     1
290
     0
176
     1
290
     0
176
     1
 90
       50
176
     1
 40
0.0
176
     1
 40
1.0
176
     1
 90
        0
176
     1
 62
    18
420
        0
176
     1
 90
       50
176
     1
 90
        3
176
     1
 62
     5
420
      255
176
     1
290
     0
176
     1
 90
       50
176
     1
 90
       50
176
     1
 90
       50
176
     1
290
     0
176
     1
 90
       50
176
     1
 62
   256
176
     0
 40
1.0
176
     0
 90
        2
176
     1
  1
strokes_ogs.tif
176
     1
290
     0
176
     1
 40
1.0
176
     1
 40
1.0
176
     1
  0
VISUALSTYLE
  5
8162
102
{ACAD_REACTORS
330
815A
102
}
330
815A
100
AcDbVisualStyle
  2
Hidden
 70
     6
177
     3
291
     0
 70
    58
 90
        1
176
     1
 90
        2
176
     1
 90
        2
176
     1
 90
        0
176
     1
 40
0.6
176
     1
 40
30.0
176
     1
 62
     7
420
 16777215
176
     1
 90
        2
176
     1
 90
        2
176
     1
 62
     7
176
     1
 62
   257
176
     1
 90
        2
176
     1
 90
        1
176
     1
 40
40.0
176
     1
 90
        0
176
     1
 62
   257
176
     1
 40
1.0
176
     1
 90
        1
176
     1
 90
        6
176
     1
 90
        2
176
     1
 62
     7
176
     1
 90
        3
176
     1
 90
        0
176
     1
 90
        0
176
     1
290
     0
176
     1
 90
        1
176
     1
 40
0.0
176
     1
 90
        0
176
     1
290
     0
176
     1
290
     1
176
     1
290
     1
176
     1
290
     0
176
     1
290
     0
176
     1
290
     0
176
     1
290
     0
176
     1
290
     0
176
     1
290
     0
176
     1
 90
       50
176
     1
 40
0.0
176
     1
 40
1.0
176
     1
 90
        0
176
     1
 62
    18
420
        0
176
     1
 90
       50
176
     1
 90
        3
176
     1
 62
     5
420
      255
176
     1
290
     0
176
     1
 90
       50
176
     1
 90
       50
176
     1
 90
       50
176
     1
290
     0
176
     1
 90
       50
176
     1
 62
   256
176
     0
 40
1.0
176
     0
 90
        2
176
     1
  1
strokes_ogs.tif
176
     1
290
     0
176
     1
 40
1.0
176
     1
 40
1.0
176
     1
  0
VISUALSTYLE
  5
8170
102
{ACAD_REACTORS
330
815A
102
}
330
815A
100
AcDbVisualStyle
  2
JitterOff
 70
    20
177
     3
291
     1
 70
    58
 90
        2
176
     0
 90
        2
176
     0
 90
        0
176
     0
 90
        0
176
     0
 40
0.6
176
     0
 40
30.0
176
     0
 62
     7
420
 16777215
176
     0
 90
        1
176
     0
 90
        4
176
     0
 62
     7
176
     0
 62
   257
176
     0
 90
        1
176
     0
 90
        1
176
     0
 40
1.0
176
     0
 90
       10
176
     2
 62
     7
176
     0
 40
1.0
176
     0
 90
        1
176
     0
 90
        6
176
     0
 90
        2
176
     0
 62
     7
176
     0
 90
        5
176
     0
 90
        0
176
     0
 90
        0
176
     0
290
     0
176
     0
 90
        1
176
     0
 40
0.0
176
     0
 90
        0
176
     0
290
     0
176
     0
290
     1
176
     0
290
     1
176
     0
290
     0
176
     0
290
     0
176
     0
290
     0
176
     0
290
     0
176
     0
290
     0
176
     0
290
     0
176
     0
 90
       50
176
     0
 40
0.0
176
     0
 40
1.0
176
     0
 90
        0
176
     0
 62
    18
420
        0
176
     0
 90
       50
176
     0
 90
        3
176
     0
 62
     5
420
      255
176
     0
290
     0
176
     0
 90
       50
176
     0
 90
       50
176
     0
 90
       50
176
     0
290
     0
176
     0
 90
       50
176
     0
 62
   256
176
     0
 40
1.0
176
     0
 90
        2
176
     0
  1
strokes_ogs.tif
176
     0
290
     0
176
     0
 40
1.0
176
     0
 40
1.0
176
     0
  0
VISUALSTYLE
  5
8168
102
{ACAD_REACTORS
330
815A
102
}
330
815A
100
AcDbVisualStyle
  2
Linepattern
 70
    14
177
     3
291
     1
 70
    58
 90
        2
176
     1
 90
        2
176
     1
 90
        0
176
     1
 90
        0
176
     1
 40
0.6
176
     1
 40
30.0
176
     1
 62
     7
420
 16777215
176
     1
 90
        1
176
     1
 90
        4
176
     1
 62
     7
176
     1
 62
   257
176
     1
 90
        7
176
     1
 90
        7
176
     1
 40
1.0
176
     1
 90
        8
176
     1
 62
     7
176
     1
 40
1.0
176
     1
 90
        1
176
     1
 90
        6
176
     1
 90
        2
176
     1
 62
     7
176
     1
 90
        5
176
     1
 90
        0
176
     1
 90
        0
176
     1
290
     0
176
     1
 90
        1
176
     1
 40
0.0
176
     1
 90
        0
176
     1
290
     0
176
     1
290
     1
176
     1
290
     1
176
     1
290
     0
176
     1
290
     0
176
     1
290
     0
176
     1
290
     0
176
     1
290
     0
176
     1
290
     0
176
     1
 90
       50
176
     1
 40
0.0
176
     1
 40
1.0
176
     1
 90
        0
176
     1
 62
    18
420
        0
176
     1
 90
       50
176
     1
 90
        3
176
     1
 62
     5
420
      255
176
     1
290
     0
176
     1
 90
       50
176
     1
 90
       50
176
     1
 90
       50
176
     1
290
     0
176
     1
 90
       50
176
     1
 62
   256
176
     0
 40
1.0
176
     0
 90
        2
176
     1
  1
strokes_ogs.tif
176
     1
290
     0
176
     1
 40
1.0
176
     1
 40
1.0
176
     1
  0
VISUALSTYLE
  5
8171
102
{ACAD_REACTORS
330
815A
102
}
330
815A
100
AcDbVisualStyle
  2
OverhangOff
 70
    21
177
     3
291
     1
 70
    58
 90
        2
176
     0
 90
        2
176
     0
 90
        0
176
     0
 90
        0
176
     0
 40
0.6
176
     0
 40
30.0
176
     0
 62
     7
420
 16777215
176
     0
 90
        1
176
     0
 90
        4
176
     0
 62
     7
176
     0
 62
   257
176
     0
 90
        1
176
     0
 90
        1
176
     0
 40
1.0
176
     0
 90
        9
176
     2
 62
     7
176
     0
 40
1.0
176
     0
 90
        1
176
     0
 90
        6
176
     0
 90
        2
176
     0
 62
     7
176
     0
 90
        5
176
     0
 90
        0
176
     0
 90
        0
176
     0
290
     0
176
     0
 90
        1
176
     0
 40
0.0
176
     0
 90
        0
176
     0
290
     0
176
     0
290
     1
176
     0
290
     1
176
     0
290
     0
176
     0
290
     0
176
     0
290
     0
176
     0
290
     0
176
     0
290
     0
176
     0
290
     0
176
     0
 90
       50
176
     0
 40
0.0
176
     0
 40
1.0
176
     0
 90
        0
176
     0
 62
    18
420
        0
176
     0
 90
       50
176
     0
 90
        3
176
     0
 62
     5
420
      255
176
     0
290
     0
176
     0
 90
       50
176
     0
 90
       50
176
     0
 90
       50
176
     0
290
     0
176
     0
 90
       50
176
     0
 62
   256
176
     0
 40
1.0
176
     0
 90
        2
176
     0
  1
strokes_ogs.tif
176
     0
290
     0
176
     0
 40
1.0
176
     0
 40
1.0
176
     0
  0
VISUALSTYLE
  5
8164
102
{ACAD_REACTORS
330
815A
102
}
330
815A
100
AcDbVisualStyle
  2
Realistic
 70
     8
177
     3
291
     0
 70
    58
 90
        2
176
     1
 90
        3
176
     1
 90
        0
176
     1
 90
        2
176
     1
 40
0.6
176
     1
 40
30.0
176
     1
 62
     7
420
 16777215
176
     1
 90
        0
176
     1
 90
        0
176
     1
 62
     7
176
     1
 62
   257
176
     1
 90
        1
176
     1
 90
        1
176
     1
 40
1.0
176
     1
 90
        8
176
     1
 62
   257
176
     1
 40
1.0
176
     1
 90
        1
176
     1
 90
        6
176
     1
 90
        2
176
     1
 62
     7
176
     1
 90
        3
176
     1
 90
        0
176
     1
 90
        0
176
     1
290
     0
176
     1
 90
       13
176
     1
 40
0.0
176
     1
 90
        0
176
     1
290
     0
176
     1
290
     1
176
     1
290
     1
176
     1
290
     0
176
     1
290
     0
176
     1
290
     0
176
     1
290
     0
176
     1
290
     0
176
     1
290
     0
176
     1
 90
       50
176
     1
 40
0.0
176
     1
 40
1.0
176
     1
 90
        0
176
     1
 62
    18
420
        0
176
     1
 90
       50
176
     1
 90
        3
176
     1
 62
     5
420
      255
176
     1
290
     0
176
     1
 90
       50
176
     1
 90
       50
176
     1
 90
       50
176
     1
290
     0
176
     1
 90
       50
176
     1
 62
   256
176
     0
 40
1.0
176
     0
 90
        2
176
     1
  1
strokes_ogs.tif
176
     1
290
     0
176
     1
 40
1.0
176
     1
 40
1.0
176
     1
  0
VISUALSTYLE
  5
816F
102
{ACAD_REACTORS
330
815A
102
}
330
815A
100
AcDbVisualStyle
  2
Shaded
 70
    27
177
     3
291
     0
 70
    58
 90
        2
176
     1
 90
        2
176
     1
 90
        1
176
     1
 90
        2
176
     1
 40
0.6
176
     1
 40
30.0
176
     1
 62
     7
420
 16777215
176
     1
 90
        0
176
     1
 90
        4
176
     1
 62
     7
176
     1
 62
   257
176
     1
 90
        1
176
     1
 90
        1
176
     1
 40
1.0
176
     1
 90
        8
176
     1
 62
   257
176
     1
 40
1.0
176
     1
 90
        1
176
     1
 90
        6
176
     1
 90
        2
176
     1
 62
     8
420
  7895160
176
     1
 90
        3
176
     1
 90
        0
176
     1
 90
        0
176
     1
290
     0
176
     1
 90
        5
176
     1
 40
0.0
176
     1
 90
        0
176
     1
290
     0
176
     1
290
     1
176
     1
290
     1
176
     1
290
     0
176
     1
290
     0
176
     1
290
     0
176
     1
290
     0
176
     1
290
     0
176
     1
290
     0
176
     1
 90
       50
176
     1
 40
0.0
176
     1
 40
1.0
176
     1
 90
        0
176
     1
 62
    18
420
        0
176
     1
 90
       50
176
     1
 90
        3
176
     1
 62
     5
420
      255
176
     1
290
     0
176
     1
 90
       50
176
     1
 90
       50
176
     1
 90
       50
176
     1
290
     0
176
     1
 90
       50
176
     1
 62
   256
176
     0
 40
1.0
176
     0
 90
        2
176
     1
  1
strokes_ogs.tif
176
     1
290
     0
176
     1
 40
1.0
176
     1
 40
1.0
176
     1
  0
VISUALSTYLE
  5
816E
102
{ACAD_REACTORS
330
815A
102
}
330
815A
100
AcDbVisualStyle
  2
Shaded with edges
 70
    26
177
     3
291
     0
 70
    58
 90
        2
176
     1
 90
        2
176
     1
 90
        1
176
     1
 90
        2
176
     1
 40
0.6
176
     1
 40
30.0
176
     1
 62
     7
420
 16777215
176
     1
 90
        1
176
     1
 90
       10
176
     1
 62
     7
176
     1
 62
   257
176
     1
 90
        2
176
     1
 90
        1
176
     1
 40
1.0
176
     1
 90
        8
176
     1
 62
   257
176
     1
 40
1.0
176
     1
 90
        1
176
     1
 90
        6
176
     1
 90
        2
176
     1
 62
     7
176
     1
 90
        3
176
     1
 90
        0
176
     1
 90
        0
176
     1
290
     0
176
     1
 90
        5
176
     1
 40
0.0
176
     1
 90
        0
176
     1
290
     0
176
     1
290
     1
176
     1
290
     1
176
     1
290
     0
176
     1
290
     0
176
     1
290
     0
176
     1
290
     0
176
     1
290
     0
176
     1
290
     0
176
     1
 90
       50
176
     1
 40
0.0
176
     1
 40
1.0
176
     1
 90
        0
176
     1
 62
    18
420
        0
176
     1
 90
       50
176
     1
 90
        3
176
     1
 62
     5
420
      255
176
     1
290
     0
176
     1
 90
       50
176
     1
 90
       50
176
     1
 90
       50
176
     1
290
     0
176
     1
 90
       50
176
     1
 62
   256
176
     0
 40
1.0
176
     0
 90
        2
176
     1
  1
strokes_ogs.tif
176
     1
290
     0
176
     1
 40
1.0
176
     1
 40
1.0
176
     1
  0
VISUALSTYLE
  5
816B
102
{ACAD_REACTORS
330
815A
102
}
330
815A
100
AcDbVisualStyle
  2
Shades of Gray
 70
    23
177
     3
291
     0
 70
    58
 90
        2
176
     1
 90
        2
176
     1
 90
        3
176
     1
 90
        0
176
     1
 40
0.6
176
     1
 40
30.0
176
     1
 62
     7
420
 16777215
176
     1
 90
        2
176
     1
 90
        2
176
     1
 62
     7
176
     1
 62
     7
176
     1
 90
        1
176
     1
 90
        1
176
     1
 40
40.0
176
     1
 90
        8
176
     1
 62
     7
176
     1
 40
1.0
176
     1
 90
        1
176
     1
 90
        6
176
     1
 90
        2
176
     1
 62
     7
176
     1
 90
        3
176
     1
 90
        0
176
     1
 90
        0
176
     1
290
     0
176
     1
 90
        1
176
     1
 40
0.0
176
     1
 90
        0
176
     1
290
     0
176
     1
290
     1
176
     1
290
     1
176
     1
290
     0
176
     1
290
     0
176
     1
290
     0
176
     1
290
     0
176
     1
290
     0
176
     1
290
     0
176
     1
 90
       50
176
     1
 40
0.0
176
     1
 40
1.0
176
     1
 90
        0
176
     1
 62
    18
420
        0
176
     1
 90
       50
176
     1
 90
        3
176
     1
 62
     5
420
      255
176
     1
290
     0
176
     1
 90
       50
176
     1
 90
       50
176
     1
 90
       50
176
     1
290
     0
176
     1
 90
       50
176
     1
 62
   256
176
     0
 40
1.0
176
     0
 90
        2
176
     1
  1
strokes_ogs.tif
176
     1
290
     0
176
     1
 40
1.0
176
     1
 40
1.0
176
     1
  0
VISUALSTYLE
  5
816C
102
{ACAD_REACTORS
330
815A
102
}
330
815A
100
AcDbVisualStyle
  2
Sketchy
 70
    24
177
     3
291
     0
 70
    58
 90
        1
176
     1
 90
        2
176
     1
 90
        2
176
     1
 90
        0
176
     1
 40
0.6
176
     1
 40
30.0
176
     1
 62
     7
420
 16777215
176
     1
 90
        2
176
     1
 90
        2
176
     1
 62
     7
176
     1
 62
     7
176
     1
 90
        1
176
     1
 90
        1
176
     1
 40
40.0
176
     1
 90
       11
176
     1
 62
     7
176
     1
 40
1.0
176
     1
 90
        1
176
     1
 90
        6
176
     1
 90
        2
176
     1
 62
     7
176
     1
 90
        6
176
     1
 90
        0
176
     1
 90
        0
176
     1
290
     0
176
     1
 90
        1
176
     1
 40
0.0
176
     1
 90
        0
176
     1
290
     0
176
     1
290
     1
176
     1
290
     1
176
     1
290
     0
176
     1
290
     0
176
     1
290
     0
176
     1
290
     0
176
     1
290
     0
176
     1
290
     0
176
     1
 90
       50
176
     1
 40
0.0
176
     1
 40
1.0
176
     1
 90
        0
176
     1
 62
    18
420
        0
176
     1
 90
       50
176
     1
 90
        3
176
     1
 62
     5
420
      255
176
     1
290
     0
176
     1
 90
       50
176
     1
 90
       50
176
     1
 90
       50
176
     1
290
     0
176
     1
 90
       50
176
     1
 62
   256
176
     0
 40
1.0
176
     0
 90
        2
176
     1
  1
strokes_ogs.tif
176
     1
290
     0
176
     1
 40
1.0
176
     1
 40
1.0
176
     1
  0
VISUALSTYLE
  5
8167
102
{ACAD_REACTORS
330
815A
102
}
330
815A
100
AcDbVisualStyle
  2
Thicken
 70
    13
177
     3
291
     1
 70
    58
 90
        2
176
     1
 90
        2
176
     1
 90
        0
176
     1
 90
        0
176
     1
 40
0.6
176
     1
 40
30.0
176
     1
 62
     7
420
 16777215
176
     1
 90
        1
176
     1
 90
        4
176
     1
 62
     7
176
     1
 62
   257
176
     1
 90
        1
176
     1
 90
        1
176
     1
 40
1.0
176
     1
 90
       12
176
     1
 62
     7
176
     1
 40
1.0
176
     1
 90
        1
176
     1
 90
        6
176
     1
 90
        2
176
     1
 62
     7
176
     1
 90
        5
176
     1
 90
        0
176
     1
 90
        0
176
     1
290
     0
176
     1
 90
        1
176
     1
 40
0.0
176
     1
 90
        0
176
     1
290
     0
176
     1
290
     1
176
     1
290
     1
176
     1
290
     0
176
     1
290
     0
176
     1
290
     0
176
     1
290
     0
176
     1
290
     0
176
     1
290
     0
176
     1
 90
       50
176
     1
 40
0.0
176
     1
 40
1.0
176
     1
 90
        0
176
     1
 62
    18
420
        0
176
     1
 90
       50
176
     1
 90
        3
176
     1
 62
     5
420
      255
176
     1
290
     0
176
     1
 90
       50
176
     1
 90
       50
176
     1
 90
       50
176
     1
290
     0
176
     1
 90
       50
176
     1
 62
   256
176
     0
 40
1.0
176
     0
 90
        2
176
     1
  1
strokes_ogs.tif
176
     1
290
     0
176
     1
 40
1.0
176
     1
 40
1.0
176
     1
  0
VISUALSTYLE
  5
8161
102
{ACAD_REACTORS
330
815A
102
}
330
815A
100
AcDbVisualStyle
  2
Wireframe
 70
     5
177
     3
291
     0
 70
    58
 90
        0
176
     1
 90
        2
176
     1
 90
        0
176
     1
 90
        0
176
     1
 40
0.6
176
     1
 40
30.0
176
     1
 62
     7
420
 16777215
176
     1
 90
        1
176
     1
 90
        4
176
     1
 62
     7
176
     1
 62
   257
176
     1
 90
        1
176
     1
 90
        1
176
     1
 40
1.0
176
     1
 90
        0
176
     1
 62
   257
176
     1
 40
1.0
176
     1
 90
        1
176
     1
 90
        6
176
     1
 90
        2
176
     1
 62
     7
176
     1
 90
        3
176
     1
 90
        0
176
     1
 90
        0
176
     1
290
     0
176
     1
 90
        1
176
     1
 40
0.0
176
     1
 90
        0
176
     1
290
     0
176
     1
290
     1
176
     1
290
     1
176
     1
290
     0
176
     1
290
     0
176
     1
290
     0
176
     1
290
     0
176
     1
290
     0
176
     1
290
     0
176
     1
 90
       50
176
     1
 40
0.0
176
     1
 40
1.0
176
     1
 90
        0
176
     1
 62
    18
420
        0
176
     1
 90
       50
176
     1
 90
        3
176
     1
 62
     5
420
      255
176
     1
290
     0
176
     1
 90
       50
176
     1
 90
       50
176
     1
 90
       50
176
     1
290
     0
176
     1
 90
       50
176
     1
 62
   256
176
     0
 40
1.0
176
     0
 90
        2
176
     1
  1
strokes_ogs.tif
176
     1
290
     0
176
     1
 40
1.0
176
     1
 40
1.0
176
     1
  0
VISUALSTYLE
  5
816D
102
{ACAD_REACTORS
330
815A
102
}
330
815A
100
AcDbVisualStyle
  2
X-Ray
 70
    25
177
     3
291
     0
 70
    58
 90
        2
176
     1
 90
        2
176
     1
 90
        1
176
     1
 90
        1
176
     1
 40
0.5
176
     1
 40
30.0
176
     1
 62
     7
420
 16777215
176
     1
 90
        1
176
     1
 90
        0
176
     1
 62
     7
176
     1
 62
   257
176
     1
 90
        1
176
     1
 90
        1
176
     1
 40
1.0
176
     1
 90
        8
176
     1
 62
     7
176
     1
 40
1.0
176
     1
 90
        1
176
     1
 90
        6
176
     1
 90
        2
176
     1
 62
     7
176
     1
 90
        3
176
     1
 90
        0
176
     1
 90
        0
176
     1
290
     0
176
     1
 90
       13
176
     1
 40
0.0
176
     1
 90
        0
176
     1
290
     0
176
     1
290
     1
176
     1
290
     1
176
     1
290
     0
176
     1
290
     0
176
     1
290
     0
176
     1
290
     0
176
     1
290
     0
176
     1
290
     0
176
     1
 90
       50
176
     1
 40
0.0
176
     1
 40
1.0
176
     1
 90
        0
176
     1
 62
    18
420
        0
176
     1
 90
       50
176
     1
 90
        3
176
     1
 62
     5
420
      255
176
     1
290
     0
176
     1
 90
       50
176
     1
 90
       50
176
     1
 90
       50
176
     1
290
     0
176
     1
 90
       50
176
     1
 62
   256
176
     0
 40
1.0
176
     0
 90
        2
176
     1
  1
strokes_ogs.tif
176
     1
290
     0
176
     1
 40
1.0
176
     1
 40
1.0
176
     1
  0
DICTIONARYVAR
  5
821A
102
{ACAD_REACTORS
330
8139
102
}
330
8139
100
DictionaryVariables
280
     0
  1
1:1
  0
DICTIONARYVAR
  5
8216
102
{ACAD_REACTORS
330
8139
102
}
330
8139
100
DictionaryVariables
280
     0
  1
STANDARD
  0
DICTIONARYVAR
  5
8215
102
{ACAD_REACTORS
330
8139
102
}
330
8139
100
DictionaryVariables
280
     0
  1
STANDARD
  0
DICTIONARYVAR
  5
8217
102
{ACAD_REACTORS
330
8139
102
}
330
8139
100
DictionaryVariables
280
     0
  1
Imperial24
  0
DICTIONARYVAR
  5
8218
102
{ACAD_REACTORS
330
8139
102
}
330
8139
100
DictionaryVariables
280
     0
  1
Imperial24
  0
DICTIONARYVAR
  5
813A
102
{ACAD_REACTORS
330
8139
102
}
330
8139
100
DictionaryVariables
280
     0
  1
1
  0
DICTIONARYVAR
  5
821C
102
{ACAD_REACTORS
330
8139
102
}
330
8139
100
DictionaryVariables
280
     0
  1
1
  0
DICTIONARYVAR
  5
821D
102
{ACAD_REACTORS
330
8139
102
}
330
8139
100
DictionaryVariables
280
     0
  1
15
  0
DICTIONARYVAR
  5
821B
102
{ACAD_REACTORS
330
8139
102
}
330
8139
100
DictionaryVariables
280
     0
  1
0
  0
DICTIONARYVAR
  5
8219
102
{ACAD_REACTORS
330
8139
102
}
330
8139
100
DictionaryVariables
280
     0
  1
0
  0
DICTIONARY
  5
8212
330
818D
100
AcDbDictionary
280
     1
281
     1
  3
ACAD_XREC_ROUNDTRIP
360
82A6
  0
DICTIONARY
  5
814B
330
814A
100
AcDbDictionary
280
     1
281
     1
  3
BUMPTILE
360
814D
  3
DIFFUSETILE
360
814C
  3
OPACITYTILE
360
8150
  3
REFLECTIONTILE
360
814F
  3
REFRACTIONTILE
360
8151
  3
SPECULARTILE
360
814E
  0
DICTIONARY
  5
8143
330
8142
100
AcDbDictionary
280
     1
281
     1
  3
BUMPTILE
360
8145
  3
DIFFUSETILE
360
8144
  3
OPACITYTILE
360
8148
  3
REFLECTIONTILE
360
8147
  3
REFRACTIONTILE
360
8149
  3
SPECULARTILE
360
8146
  0
DICTIONARY
  5
8153
330
8152
100
AcDbDictionary
280
     1
281
     1
  3
BUMPTILE
360
8155
  3
DIFFUSETILE
360
8154
  3
OPACITYTILE
360
8158
  3
REFLECTIONTILE
360
8157
  3
REFRACTIONTILE
360
8159
  3
SPECULARTILE
360
8156
  0
DICTIONARY
  5
8210
330
818B
100
AcDbDictionary
280
     1
281
     1
  3
ACAD_XREC_ROUNDTRIP
360
82A5
  0
DICTIONARY
  5
82A3
330
8175
100
AcDbDictionary
280
     1
281
     1
  3
ACAD_ROUNDTRIP_2008_TABLESTYLE_CELLSTYLEMAP
360
82A4
  0
XRECORD
  5
82A6
102
{ACAD_REACTORS
330
8212
102
}
330
8212
100
AcDbXrecord
280
     1
102
DISPLAYNAME
  1
Imperial24
102
FLAGS
 90
        0
  0
XRECORD
  5
814D
102
{ACAD_REACTORS
330
814B
102
}
330
814B
100
AcDbXrecord
280
     1
270
     1
271
     1
  0
XRECORD
  5
814C
102
{ACAD_REACTORS
330
814B
102
}
330
814B
100
AcDbXrecord
280
     1
270
     1
271
     1
  0
XRECORD
  5
8150
102
{ACAD_REACTORS
330
814B
102
}
330
814B
100
AcDbXrecord
280
     1
270
     1
271
     1
  0
XRECORD
  5
814F
102
{ACAD_REACTORS
330
814B
102
}
330
814B
100
AcDbXrecord
280
     1
270
     1
271
     1
  0
XRECORD
  5
8151
102
{ACAD_REACTORS
330
814B
102
}
330
814B
100
AcDbXrecord
280
     1
270
     1
271
     1
  0
XRECORD
  5
814E
102
{ACAD_REACTORS
330
814B
102
}
330
814B
100
AcDbXrecord
280
     1
270
     1
271
     1
  0
XRECORD
  5
8145
102
{ACAD_REACTORS
330
8143
102
}
330
8143
100
AcDbXrecord
280
     1
270
     1
271
     1
  0
XRECORD
  5
8144
102
{ACAD_REACTORS
330
8143
102
}
330
8143
100
AcDbXrecord
280
     1
270
     1
271
     1
  0
XRECORD
  5
8148
102
{ACAD_REACTORS
330
8143
102
}
330
8143
100
AcDbXrecord
280
     1
270
     1
271
     1
  0
XRECORD
  5
8147
102
{ACAD_REACTORS
330
8143
102
}
330
8143
100
AcDbXrecord
280
     1
270
     1
271
     1
  0
XRECORD
  5
8149
102
{ACAD_REACTORS
330
8143
102
}
330
8143
100
AcDbXrecord
280
     1
270
     1
271
     1
  0
XRECORD
  5
8146
102
{ACAD_REACTORS
330
8143
102
}
330
8143
100
AcDbXrecord
280
     1
270
     1
271
     1
  0
XRECORD
  5
8155
102
{ACAD_REACTORS
330
8153
102
}
330
8153
100
AcDbXrecord
280
     1
270
     1
271
     1
  0
XRECORD
  5
8154
102
{ACAD_REACTORS
330
8153
102
}
330
8153
100
AcDbXrecord
280
     1
270
     1
271
     1
  0
XRECORD
  5
8158
102
{ACAD_REACTORS
330
8153
102
}
330
8153
100
AcDbXrecord
280
     1
270
     1
271
     1
  0
XRECORD
  5
8157
102
{ACAD_REACTORS
330
8153
102
}
330
8153
100
AcDbXrecord
280
     1
270
     1
271
     1
  0
XRECORD
  5
8159
102
{ACAD_REACTORS
330
8153
102
}
330
8153
100
AcDbXrecord
280
     1
270
     1
271
     1
  0
XRECORD
  5
8156
102
{ACAD_REACTORS
330
8153
102
}
330
8153
100
AcDbXrecord
280
     1
270
     1
271
     1
  0
XRECORD
  5
82A5
102
{ACAD_REACTORS
330
8210
102
}
330
8210
100
AcDbXrecord
280
     1
102
DISPLAYNAME
  1
Imperial24
102
FLAGS
 90
        0
  0
CELLSTYLEMAP
  5
82A4
102
{ACAD_REACTORS
330
82A3
102
}
330
82A3
100
AcDbCellStyleMap
 90
        3
300
CELLSTYLE
  1
TABLEFORMAT_BEGIN
 90
        5
170
     1
 91
        0
 92
    32768
 62
   257
 93
        1
300
CONTENTFORMAT
  1
CONTENTFORMAT_BEGIN
 90
        0
 91
        0
 92
      512
 93
        0
300

 40
0.0
140
1.0
 94
        5
 62
     0
340
10
144
0.25
309
CONTENTFORMAT_END
171
     0
 94
        0
309
TABLEFORMAT_END
  1
CELLSTYLE_BEGIN
 90
        1
 91
        1
300
_TITLE
309
CELLSTYLE_END
300
CELLSTYLE
  1
TABLEFORMAT_BEGIN
 90
        5
170
     1
 91
        0
 92
        0
 62
   257
 93
        1
300
CONTENTFORMAT
  1
CONTENTFORMAT_BEGIN
 90
        0
 91
        0
 92
      512
 93
        0
300

 40
0.0
140
1.0
 94
        5
 62
     0
340
10
144
0.18
309
CONTENTFORMAT_END
171
     0
 94
        0
309
TABLEFORMAT_END
  1
CELLSTYLE_BEGIN
 90
        2
 91
        1
300
_HEADER
309
CELLSTYLE_END
300
CELLSTYLE
  1
TABLEFORMAT_BEGIN
 90
        5
170
     1
 91
        0
 92
        0
 62
   257
 93
        1
300
CONTENTFORMAT
  1
CONTENTFORMAT_BEGIN
 90
        0
 91
        0
 92
      512
 93
        0
300

 40
0.0
140
1.0
 94
        2
 62
     0
340
10
144
0.18
309
CONTENTFORMAT_END
171
     0
 94
        0
309
TABLEFORMAT_END
  1
CELLSTYLE_BEGIN
 90
        3
 91
        2
300
_DATA
309
CELLSTYLE_END
  0
ENDSEC
  0
SECTION
  2
ACDSDATA
 70
     2
 71
     8
  0
ACDSSCHEMA
 90
        0
  1
AcDb_Thumbnail_Schema
  2
AcDbDs::ID
280
    10
 91
        8
  2
Thumbnail_Data
280
    15
 91
        0
101
ACDSRECORD
 95
        0
 90
        1
  2
AcDbDs::TreatedAsObjectData
280
     1
291
     1
101
ACDSRECORD
 95
        0
 90
        2
  2
AcDbDs::Legacy
280
     1
291
     1
101
ACDSRECORD
  1
AcDbDs::ID
 90
        3
  2
AcDs:Indexable
280
     1
291
     1
101
ACDSRECORD
  1
AcDbDs::ID
 90
        4
  2
AcDbDs::HandleAttribute
280
     7
282
     1
  0
ACDSSCHEMA
 90
        1
  1
AcDbDs::TreatedAsObjectDataSchema
  2
AcDbDs::TreatedAsObjectData
280
     1
 91
        0
  0
ACDSSCHEMA
 90
        2
  1
AcDbDs::LegacySchema
  2
AcDbDs::Legacy
280
     1
 91
        0
  0
ACDSSCHEMA
 90
        3
  1
AcDbDs::IndexedPropertySchema
  2
AcDs:Indexable
280
     1
 91
        0
  0
ACDSSCHEMA
 90
        4
  1
AcDbDs::HandleAttributeSchema
  2
AcDbDs::HandleAttribute
280
     7
 91
        1
284
     1
  0
ACDSRECORD
 90
        0
  2
AcDbDs::ID
280
    10
320
7FE8
  2
Thumbnail_Data
280
    15
 94
     1697
310
89504E470D0A1A0A0000000D49484452000001000000007C0803000000B13B9E5A00000300504C5445000000000000C8C8C80000000000000000000000000000000000000000000000000000330000660000990000CC0000FF0033000033330033660033990033CC0033FF0066000066330066660066990066CC0066FF0099
310
000099330099660099990099CC0099FF00CC0000CC3300CC6600CC9900CCCC00CCFF00FF0000FF3300FF6600FF9900FFCC00FFFF3300003300333300663300993300CC3300FF3333003333333333663333993333CC3333FF3366003366333366663366993366CC3366FF3399003399333399663399993399CC3399FF33CC00
310
33CC3333CC6633CC9933CCCC33CCFF33FF0033FF3333FF6633FF9933FFCC33FFFF6600006600336600666600996600CC6600FF6633006633336633666633996633CC6633FF6666006666336666666666996666CC6666FF6699006699336699666699996699CC6699FF66CC0066CC3366CC6666CC9966CCCC66CCFF66FF0066
310
FF3366FF6666FF9966FFCC66FFFF9900009900339900669900999900CC9900FF9933009933339933669933999933CC9933FF9966009966339966669966999966CC9966FF9999009999339999669999999999CC9999FF99CC0099CC3399CC6699CC9999CCCC99CCFF99FF0099FF3399FF6699FF9999FFCC99FFFFCC0000CC00
310
33CC0066CC0099CC00CCCC00FFCC3300CC3333CC3366CC3399CC33CCCC33FFCC6600CC6633CC6666CC6699CC66CCCC66FFCC9900CC9933CC9966CC9999CC99CCCC99FFCCCC00CCCC33CCCC66CCCC99CCCCCCCCCCFFCCFF00CCFF33CCFF66CCFF99CCFFCCCCFFFFFF0000FF0033FF0066FF0099FF00CCFF00FFFF3300FF3333
310
FF3366FF3399FF33CCFF33FFFF6600FF6633FF6666FF6699FF66CCFF66FFFF9900FF9933FF9966FF9999FF99CCFF99FFFFCC00FFCC33FFCC66FFCC99FFCCCCFFCCFFFFFF00FFFF33FFFF66FFFF99FFFFCCFFFFFF0000000D0D0D1A1A1A2828283535354343435050505D5D5D6B6B6B787878868686939393A1A1A1AEAEAEBB
310
BBBBC9C9C9D6D6D6E4E4E4F1F1F1FFFFFF00000000000000000000000000000000000000000000000000000000000008F1915C000003514944415478DAED9D4992E4200C45751C36DCFF32BA06FB4E3349603C5445457422FDBFC84AB09D517A08811902A2EF535A891C29BDCCB30B209DED7506E0ECF4EE3C60268018B0AB
310
1FFF994C14E3F7FC1C00FC2700C595538E733951922DA3D61C3B00B289DD645DA1D55F5A5EA8BF917607500B7D365367B43B74B8AB2E41697300D4CD3B7B00498153497777A8E006B3F78D014315A8BDDCF6D97168BB7B6418AC462B0000E809BAD3FE36AFCB7155B4697882241E6E5EF2F700A461E8ED7D0740AAB530ED01
310
D4FB09FD01D2005CD67D8723201004411004F9510000BF8A8742FE8C5ECDF70420CE5255E093E222CB000608252D004A92C93A00950000F700C620F8C9311D0242560C4DD4BF499EED1878F2809288416A04007807E02C08FA04A0BB81DE00705CAA36830EBAC2DC4B3A6AB7082D029A7F1962E9FFE837A4105D01B8AA025E
310
00ACBA88F797AD029078E71E00F901F020AF31C08F0740100441100441100441D08F5EA4FB7801B36300BC1A477263BCCD81A36ACFAD55EA9A3900CAAFAFCDE289175B75EE6700E6AA408BEB7C1BDD597F0BA6C64ECB54D9D310B90290A7D13607A0270559CF0DB2F8F954F1FB646AB4E0017A4930472A00E80E80AC2B2900
310
E2DE71600490CBF6581FF01300640900BDF080A90AD80270D8F6E401916459D1EE00CE6B4365BD685E27DA5A003E3D32DEB7B307B4B562F5B379405D22C274E101E55B383EF60610CBC238B5642EF44562B4EA19CBDE8A783C6900400E7BB25ABC7940E9E7AF0090025017956F1D043F012003A8BB46B20750F780534F5003
310
B0D00FC8B55EED9929FEF01240F580BDBBC244AD0A54C3DA8E913634F01803B607D0FB03B1B975C9BF00D09F6AAD809157A1383405D76F831A4089175600C48B8D93ABAEB0BAD7CCBBA0F4F5A64B1380E15AD83C06C66BDD0DFDDAF100BAF600355076D3D09BDC693E1B7537F40B001623405845019331807F0B80D5BD3B8F
310
89CE733C3DBB0C0270BBB47CB04E226D3D3D3ACDF12800C39C9761006FF60BACECB3323DBCFED7C5F26B00A4AB8B7131BBDF38819D23100441100441D6E5FE8085F96C1DC97FF1A82D0069062027EF88A7909CC8631E801C3DD4CF9C48FDF4214B007EE1DFC9521540105C5B24876D51BA286E8B1E3083A1D63624A700F4D9
310
631E9AC1531510DB9D78C07704C17F7EC7E449ABB524AB0000000049454E44AE4260824E44AE42608244AE426082
  0
ENDSEC
  0
EOF
