  0
SECTION
  2
HEADER
  9
$ACADVER
  1
AC1009
  9
$INSBASE
 10
0.0
 20
0.0
 30
0.0
  9
$EXTMIN
 10
250.0
 20
300.0
 30
0.0
  9
$EXTMAX
 10
1850.0
 20
2786.6522620000001
 30
0.0
  9
$LIMMIN
 10
0.0
 20
0.0
  9
$LIMMAX
 10
297.0
 20
210.0
  9
$ORTHOMODE
 70
     0
  9
$REGENMODE
 70
     1
  9
$FILLMODE
 70
     0
  9
$QTEXTMODE
 70
     0
  9
$MIRRTEXT
 70
     1
  9
$DRAGMODE
 70
     2
  9
$LTSCALE
 40
100.0
  9
$OSMODE
 70
    37
  9
$ATTMODE
 70
     1
  9
$TEXTSIZE
 40
180.0
  9
$TRACEWID
 40
0.05
  9
$TEXTSTYLE
  7
STANDARD
  9
$CLAYER
  8
3
  9
$CELTYPE
  6
CONTINUOUS
  9
$CECOLOR
 62
   256
  9
$DIMSCALE
 40
10.0
  9
$DIMASZ
 40
2.0
  9
$DIMEXO
 40
0.5
  9
$DIMDLI
 40
10.0
  9
$DIMRND
 40
0.0
  9
$DIMDLE
 40
0.0
  9
$DIMEXE
 40
1.0
  9
$DIMTP
 40
1.0
  9
$DIMTM
 40
1.0
  9
$DIMTXT
 40
3.0
  9
$DIMCEN
 40
0.0
  9
$DIMTSZ
 40
0.0
  9
$DIMTOL
 70
     0
  9
$DIMLIM
 70
     0
  9
$DIMTIH
 70
     0
  9
$DIMTOH
 70
     0
  9
$DIMSE1
 70
     0
  9
$DIMSE2
 70
     0
  9
$DIMTAD
 70
     1
  9
$DIMZIN
 70
     8
  9
$DIMBLK
  1

  9
$DIMASO
 70
     1
  9
$DIMSHO
 70
     1
  9
$DIMPOST
  1

  9
$DIMAPOST
  1

  9
$DIMALT
 70
     0
  9
$DIMALTD
 70
     2
  9
$DIMALTF
 40
0.039
  9
$DIMLFAC
 40
1.0
  9
$DIMTOFL
 70
     1
  9
$DIMTVP
 40
0.0
  9
$DIMTIX
 70
     0
  9
$DIMSOXD
 70
     0
  9
$DIMSAH
 70
     1
  9
$DIMBLK1
  1
OPEN
  9
$DIMBLK2
  1
OPEN
  9
$DIMSTYLE
  2
IGA
  9
$DIMCLRD
 70
     0
  9
$DIMCLRE
 70
     0
  9
$DIMCLRT
 70
     0
  9
$DIMTFAC
 40
10.0
  9
$DIMGAP
 40
1.0
  9
$LUNITS
 70
     2
  9
$LUPREC
 70
     3
  9
$SKETCHINC
 40
0.1
  9
$FILLETRAD
 40
50.0
  9
$AUNITS
 70
     0
  9
$AUPREC
 70
     0
  9
$MENU
  1
acad
  9
$ELEVATION
 40
0.0
  9
$PELEVATION
 40
0.0
  9
$THICKNESS
 40
0.0
  9
$LIMCHECK
 70
     0
  9
$BLIPMODE
 70
     0
  9
$CHAMFERA
 40
0.5
  9
$CHAMFERB
 40
0.5
  9
$SKPOLY
 70
     0
  9
$TDCREATE
 40
2450731.6245517358
  9
$TDUPDATE
 40
2454953.859950393
  9
$TDINDWG
 40
0.0036466435
  9
$TDUSRTIMER
 40
0.0036466435
  9
$USRTIMER
 70
     1
  9
$ANGBASE
 50
0.0
  9
$ANGDIR
 70
     0
  9
$PDMODE
 70
     0
  9
$PDSIZE
 40
0.0
  9
$PLINEWID
 40
0.0
  9
$COORDS
 70
     1
  9
$SPLFRAME
 70
     0
  9
$SPLINETYPE
 70
     6
  9
$SPLINESEGS
 70
     8
  9
$ATTDIA
 70
     0
  9
$ATTREQ
 70
     1
  9
$HANDLING
 70
 10241
  9
$HANDSEED
  5
80CE
  9
$SURFTAB1
 70
     6
  9
$SURFTAB2
 70
     6
  9
$SURFTYPE
 70
     6
  9
$SURFU
 70
     6
  9
$SURFV
 70
     6
  9
$UCSNAME
  2

  9
$UCSORG
 10
0.0
 20
0.0
 30
0.0
  9
$UCSXDIR
 10
1.0
 20
0.0
 30
0.0
  9
$UCSYDIR
 10
0.0
 20
1.0
 30
0.0
  9
$PUCSNAME
  2

  9
$PUCSORG
 10
0.0
 20
0.0
 30
0.0
  9
$PUCSXDIR
 10
1.0
 20
0.0
 30
0.0
  9
$PUCSYDIR
 10
0.0
 20
1.0
 30
0.0
  9
$USERI1
 70
     0
  9
$USERI2
 70
     0
  9
$USERI3
 70
     0
  9
$USERI4
 70
     0
  9
$USERI5
 70
     0
  9
$USERR1
 40
0.0
  9
$USERR2
 40
0.0
  9
$USERR3
 40
0.0
  9
$USERR4
 40
0.0
  9
$USERR5
 40
0.0
  9
$WORLDVIEW
 70
     1
  9
$SHADEDGE
 70
     3
  9
$SHADEDIF
 70
    70
  9
$TILEMODE
 70
     1
  9
$MAXACTVP
 70
    16
  9
$PLIMCHECK
 70
     0
  9
$PEXTMIN
 10
1.0000000000000000E+020
 20
1.0000000000000000E+020
 30
1.0000000000000000E+020
  9
$PEXTMAX
 10
-1.0000000000000000E+020
 20
-1.0000000000000000E+020
 30
-1.0000000000000000E+020
  9
$PLIMMIN
 10
0.0
 20
0.0
  9
$PLIMMAX
 10
12.0
 20
9.0
  9
$UNITMODE
 70
     0
  9
$VISRETAIN
 70
     0
  9
$PLINEGEN
 70
     0
  9
$PSLTSCALE
 70
     1
  0
ENDSEC
  0
SECTION
  2
TABLES
  0
TABLE
  2
VPORT
 70
     2
  0
VPORT
  2
*ACTIVE
 70
     0
 10
0.0
 20
0.0
 11
1.0
 21
1.0
 12
2741.0741954701971
 22
1933.741226938499
 13
0.0
 23
0.0
 14
10.0
 24
10.0
 15
10.0
 25
10.0
 16
0.0
 26
0.0
 36
1.0
 17
0.0
 27
0.0
 37
0.0
 40
3552.2128564519339
 41
1.5051150895140659
 42
50.0
 43
0.0
 44
0.0
 50
0.0
 51
0.0
 71
     0
 72
   100
 73
     1
 74
     0
 75
     0
 76
     0
 77
     0
 78
     0
  0
ENDTAB
  0
TABLE
  2
LTYPE
 70
     2
  0
LTYPE
  2
CONTINUOUS
 70
     0
  3
Solid line
 72
    65
 73
     0
 40
0.0
  0
LTYPE
  2
CENTER
 70
     0
  3
____ _ ____ _ ____ _ ____ _ ____ _ ____ _ ____ 
 72
    65
 73
     4
 40
2.0
 49
1.25
 49
-0.25
 49
0.25
 49
-0.25
  0
ENDTAB
  0
TABLE
  2
LAYER
 70
     6
  0
LAYER
  2
0
 70
     0
 62
     7
  6
CONTINUOUS
  0
LAYER
  2
3
 70
     0
 62
     2
  6
CONTINUOUS
  0
LAYER
  2
2
 70
     0
 62
     3
  6
CENTER
  0
LAYER
  2
1
 70
     0
 62
     4
  6
CONTINUOUS
  0
LAYER
  2
4
 70
     0
 62
     7
  6
CONTINUOUS
  0
LAYER
  2
DEFPOINTS
 70
     0
 62
     7
  6
CONTINUOUS
  0
ENDTAB
  0
TABLE
  2
STYLE
 70
     1
  0
STYLE
  2
STANDARD
 70
     0
 40
0.0
 41
1.0
 50
0.0
 71
     0
 42
180.0
  3
simplex.shx
  4
extfont.shx
  0
ENDTAB
  0
TABLE
  2
VIEW
 70
     0
  0
ENDTAB
  0
TABLE
  2
UCS
 70
     0
  0
ENDTAB
  0
TABLE
  2
APPID
 70
     1
  0
APPID
  2
ACAD
 70
     0
  0
ENDTAB
  0
TABLE
  2
DIMSTYLE
 70
     1
  0
DIMSTYLE
  2
IGA
 70
     0
  3

  4

  5

  6
OPEN
  7
OPEN
 40
2.0
 41
2.0
 42
0.5
 43
10.0
 44
1.0
 45
0.0
 46
0.0
 47
1.0
 48
1.0
140
3.0
141
0.0
142
0.0
143
0.03937
144
1.0
145
0.0
146
10.0
147
1.0
 71
     0
 72
     0
 73
     0
 74
     0
 75
     0
 76
     0
 77
     1
 78
     8
170
     0
171
     2
172
     0
173
     1
174
     0
175
     0
176
     0
177
     0
178
     0
  0
ENDTAB
  0
ENDSEC
  0
SECTION
  2
BLOCKS
  0
BLOCK
  8
0
  2
$MODEL_SPACE
 70
     0
 10
0.0
 20
0.0
 30
0.0
  3
$MODEL_SPACE
  1

  0
ENDBLK
  5
1B
  8
0
  0
BLOCK
 67
     1
  8
0
  2
$PAPER_SPACE
 70
     0
 10
0.0
 20
0.0
 30
0.0
  3
$PAPER_SPACE
  1

  0
ENDBLK
  5
18
 67
     1
  8
0
  0
BLOCK
  8
0
  2
_OPEN
 70
     0
 10
0.0
 20
0.0
 30
0.0
  3
_OPEN
  1

  0
LINE
  5
7B1B
  8
0
  6
BYBLOCK
 62
     0
 10
-1.0
 20
0.166667
 30
0.0
 11
0.0
 21
0.0
 31
0.0
  0
LINE
  5
7B1C
  8
0
  6
BYBLOCK
 62
     0
 10
0.0
 20
0.0
 30
0.0
 11
-1.0
 21
-0.166667
 31
0.0
  0
LINE
  5
7B1D
  8
0
  6
BYBLOCK
 62
     0
 10
0.0
 20
0.0
 30
0.0
 11
-1.0
 21
0.0
 31
0.0
  0
ENDBLK
  5
7B1E
  8
0
  0
BLOCK
  8
0
  2
*D1
 70
     1
 10
0.0
 20
0.0
 30
0.0
  3
*D1
  1

  0
LINE
  5
7E5A
  8
0
  6
BYBLOCK
 62
     0
 10
1746.688744930849
 20
1230.1186987991989
 30
0.0
 11
1820.5530829308491
 21
1230.1186987991989
 31
0.0
  0
LINE
  5
7E5B
  8
0
  6
BYBLOCK
 62
     0
 10
1746.688744930849
 20
1070.1186987991989
 30
0.0
 11
1820.5530829308491
 21
1070.1186987991989
 31
0.0
  0
LINE
  5
7E5C
  8
0
  6
BYBLOCK
 62
     0
 10
1810.5530829308491
 20
1210.1186987991989
 30
0.0
 11
1810.5530829308491
 21
1090.1186987991989
 31
0.0
  0
TEXT
  5
7E5D
  8
3
  6
CONTINUOUS
 62
     0
 10
1803.242925988925
 20
1099.4044130849129
 30
0.0
 40
30.0
  1
φ160
 50
90.0
  0
INSERT
  5
7E5E
  8
0
  6
BYBLOCK
 62
     0
  2
_OPEN
 10
1810.5530829308491
 20
1230.1186987991989
 30
0.0
 41
20.0
 42
20.0
 43
20.0
 50
90.0
  0
INSERT
  5
7E5F
  8
0
  6
BYBLOCK
 62
     0
  2
_OPEN
 10
1810.5530829308491
 20
1070.1186987991989
 30
0.0
 41
20.0
 42
20.0
 43
20.0
 50
270.0
  0
POINT
  5
7E60
  8
DEFPOINTS
  6
BYBLOCK
 62
     0
 10
1741.688744930849
 20
1230.1186987991989
 30
0.0
  0
POINT
  5
7E61
  8
DEFPOINTS
  6
BYBLOCK
 62
     0
 10
1741.688744930849
 20
1070.1186987991989
 30
0.0
  0
POINT
  5
7E62
  8
DEFPOINTS
  6
BYBLOCK
 62
     0
 10
1810.5530829308491
 20
1070.1186987991989
 30
0.0
  0
ENDBLK
  5
7E63
  8
0
  0
BLOCK
  8
0
  2
*D2
 70
     1
 10
0.0
 20
0.0
 30
0.0
  3
*D2
  1

  0
LINE
  5
8036
  8
3
  6
CONTINUOUS
 62
     0
 10
1489.688744930849
 20
863.11869879919948
 30
0.0
 11
1489.688744930849
 21
786.34404779919953
 31
0.0
  0
LINE
  5
8037
  8
3
  6
CONTINUOUS
 62
     0
 10
1677.688744930849
 20
855.83039079919956
 30
0.0
 11
1677.688744930849
 21
786.34404779919953
 31
0.0
  0
LINE
  5
8038
  8
3
  6
CONTINUOUS
 62
     0
 10
1509.688744930849
 20
796.34404779919953
 30
0.0
 11
1657.688744930849
 21
796.34404779919953
 31
0.0
  0
INSERT
  5
8039
  8
3
  6
CONTINUOUS
 62
     0
  2
_OPEN
 10
1489.688744930849
 20
796.34404779919953
 30
0.0
 41
20.0
 42
20.0
 43
20.0
 50
180.0
  0
INSERT
  5
803A
  8
3
  6
CONTINUOUS
 62
     0
  2
_OPEN
 10
1677.688744930849
 20
796.34404779919953
 30
0.0
 41
20.0
 42
20.0
 43
20.0
  0
TEXT
  8
3
  40
30
  5
80BE
  62
0
  72
0
  71
0
 10
1518.81
 20
768.244
 30
0.000000
  1
188
  0
POINT
  5
803C
  8
DEFPOINTS
  6
CONTINUOUS
 62
     0
 10
1489.688744930849
 20
868.11869879919959
 30
0.0
  0
POINT
  5
803D
  8
DEFPOINTS
  6
CONTINUOUS
 62
     0
 10
1677.688744930849
 20
860.83039079919945
 30
0.0
  0
POINT
  5
803E
  8
DEFPOINTS
  6
CONTINUOUS
 62
     0
 10
1677.688744930849
 20
796.34404779919953
 30
0.0
  0
ENDBLK
  5
7B39
  8
0
  0
BLOCK
  8
0
  2
*D3
 70
     1
 10
0.0
 20
0.0
 30
0.0
  3
*D3
  1

  0
LINE
  5
803F
  8
3
  6
CONTINUOUS
 62
     0
 10
1713.688744930849
 20
863.11869879919948
 30
0.0
 11
1713.688744930849
 21
786.34404779919953
 31
0.0
  0
LINE
  5
8040
  8
3
  6
CONTINUOUS
 62
     0
 10
1657.688744930849
 20
796.34404779919953
 30
0.0
 11
1637.688744930849
 21
796.34404779919953
 31
0.0
  0
LINE
  5
8041
  8
3
  6
CONTINUOUS
 62
     0
 10
1733.688744930849
 20
796.34404779919953
 30
0.0
 11
1753.688744930849
 21
796.34404779919953
 31
0.0
  0
TEXT
  8
3
  40
30
  5
80BF
  62
0
  72
0
  71
0
 10
1690.96
 20
768.080
 30
0.000000
  1
36
  0
LINE
  5
8043
  8
3
  6
CONTINUOUS
 62
     0
 10
1677.688744930849
 20
796.34404779919953
 30
0.0
 11
1713.688744930849
 21
796.34404779919953
 31
0.0
  0
INSERT
  5
8044
  8
3
  6
CONTINUOUS
 62
     0
  2
_OPEN
 10
1677.688744930849
 20
796.34404779919953
 30
0.0
 41
20.0
 42
20.0
 43
20.0
  0
INSERT
  5
8045
  8
3
  6
CONTINUOUS
 62
     0
  2
_OPEN
 10
1713.688744930849
 20
796.34404779919953
 30
0.0
 41
20.0
 42
20.0
 43
20.0
 50
180.0
  0
POINT
  5
8046
  8
DEFPOINTS
  6
CONTINUOUS
 62
     0
 10
1677.688744930849
 20
860.83039079919945
 30
0.0
  0
POINT
  5
8047
  8
DEFPOINTS
  6
CONTINUOUS
 62
     0
 10
1713.688744930849
 20
868.11869879919959
 30
0.0
  0
POINT
  5
8048
  8
DEFPOINTS
  6
CONTINUOUS
 62
     0
 10
1713.688744930849
 20
796.34404779919953
 30
0.0
  0
ENDBLK
  5
7B64
  8
0
  0
BLOCK
  8
0
  2
*D4
 70
     1
 10
0.0
 20
0.0
 30
0.0
  3
*D4
  1

  0
LINE
  5
7E88
  8
0
  6
BYBLOCK
 62
     0
 10
1621.688744930849
 20
1255.1186987991989
 30
0.0
 11
1621.688744930849
 21
1315.6208397991991
 31
0.0
  0
LINE
  5
7E89
  8
0
  6
BYBLOCK
 62
     0
 10
1733.688744930849
 20
1255.1186987991989
 30
0.0
 11
1733.688744930849
 21
1315.6208397991991
 31
0.0
  0
LINE
  5
7E8A
  8
0
  6
BYBLOCK
 62
     0
 10
1641.688744930849
 20
1305.6208397991991
 30
0.0
 11
1713.688744930849
 21
1305.6208397991991
 31
0.0
  0
TEXT
  5
7E8B
  8
3
  6
CONTINUOUS
 62
     0
 10
1644.8316020737061
 20
1312.97946161799
 30
0.0
 40
30.0
  1
112
  0
INSERT
  5
7E8C
  8
0
  6
BYBLOCK
 62
     0
  2
_OPEN
 10
1621.688744930849
 20
1305.6208397991991
 30
0.0
 41
20.0
 42
20.0
 43
20.0
 50
180.0
  0
INSERT
  5
7E8D
  8
0
  6
BYBLOCK
 62
     0
  2
_OPEN
 10
1733.688744930849
 20
1305.6208397991991
 30
0.0
 41
20.0
 42
20.0
 43
20.0
  0
POINT
  5
7E8E
  8
DEFPOINTS
  6
BYBLOCK
 62
     0
 10
1621.688744930849
 20
1250.1186987991989
 30
0.0
  0
POINT
  5
7E8F
  8
DEFPOINTS
  6
BYBLOCK
 62
     0
 10
1733.688744930849
 20
1250.1186987991989
 30
0.0
  0
POINT
  5
7E90
  8
DEFPOINTS
  6
BYBLOCK
 62
     0
 10
1733.688744930849
 20
1305.6208397991991
 30
0.0
  0
ENDBLK
  5
7E91
  8
0
  0
BLOCK
  8
0
  2
*D5
 70
     1
 10
0.0
 20
0.0
 30
0.0
  3
*D5
  1

  0
LINE
  5
8049
  8
3
  6
CONTINUOUS
 62
     0
 10
1417.688744930849
 20
1250.1186987991989
 30
0.0
 11
1417.688744930849
 21
1375.1466937991991
 31
0.0
  0
LINE
  5
804A
  8
3
  6
CONTINUOUS
 62
     0
 10
1677.688744930849
 20
1339.2672967991989
 30
0.0
 11
1677.688744930849
 21
1375.1466937991991
 31
0.0
  0
LINE
  5
804B
  8
3
  6
CONTINUOUS
 62
     0
 10
1437.688744930849
 20
1365.1466937991991
 30
0.0
 11
1657.688744930849
 21
1365.1466937991991
 31
0.0
  0
INSERT
  5
804C
  8
3
  6
CONTINUOUS
 62
     0
  2
_OPEN
 10
1417.688744930849
 20
1365.1466937991991
 30
0.0
 41
20.0
 42
20.0
 43
20.0
 50
180.0
  0
INSERT
  5
804D
  8
3
  6
CONTINUOUS
 62
     0
  2
_OPEN
 10
1677.688744930849
 20
1365.1466937991991
 30
0.0
 41
20.0
 42
20.0
 43
20.0
  0
TEXT
  8
3
  40
30
  5
80C0
  62
0
  72
0
  71
0
 10
1489.68
 20
1362.05
 30
0.000000
  1
MAX
  0
TEXT
  8
3
  40
30
  5
80C1
  62
0
  72
0
  71
0
 10
1489.68
 20
1323.05
 30
0.000000
  1
260
  0
POINT
  5
804F
  8
DEFPOINTS
  6
CONTINUOUS
 62
     0
 10
1417.688744930849
 20
1245.1186987991989
 30
0.0
  0
POINT
  5
8050
  8
DEFPOINTS
  6
CONTINUOUS
 62
     0
 10
1677.688744930849
 20
1334.2672967991989
 30
0.0
  0
POINT
  5
8051
  8
DEFPOINTS
  6
CONTINUOUS
 62
     0
 10
1677.688744930849
 20
1365.1466937991991
 30
0.0
  0
ENDBLK
  5
7EA9
  8
0
  0
BLOCK
  8
0
  2
*D6
 70
     1
 10
0.0
 20
0.0
 30
0.0
  3
*D6
  1

  0
LINE
  5
8052
  8
3
  6
CONTINUOUS
 62
     0
 10
1741.688744930849
 20
1255.1186987991989
 30
0.0
 11
1741.688744930849
 21
1375.1466937991991
 31
0.0
  0
LINE
  5
8053
  8
3
  6
CONTINUOUS
 62
     0
 10
1697.688744930849
 20
1365.1466937991991
 30
0.0
 11
1721.688744930849
 21
1365.1466937991991
 31
0.0
  0
TEXT
  8
3
  40
30
  5
80C2
  62
0
  72
0
  71
0
 10
1646.10
 20
1337.21
 30
0.000000
  1
64
  0
INSERT
  5
8055
  8
3
  6
CONTINUOUS
 62
     0
  2
_OPEN
 10
1677.688744930849
 20
1365.1466937991991
 30
0.0
 41
20.0
 42
20.0
 43
20.0
 50
180.0
  0
INSERT
  5
8056
  8
3
  6
CONTINUOUS
 62
     0
  2
_OPEN
 10
1741.688744930849
 20
1365.1466937991991
 30
0.0
 41
20.0
 42
20.0
 43
20.0
  0
POINT
  5
8057
  8
DEFPOINTS
  6
CONTINUOUS
 62
     0
 10
1677.688744930849
 20
1334.2672967991989
 30
0.0
  0
POINT
  5
8058
  8
DEFPOINTS
  6
CONTINUOUS
 62
     0
 10
1741.688744930849
 20
1250.1186987991989
 30
0.0
  0
POINT
  5
8059
  8
DEFPOINTS
  6
CONTINUOUS
 62
     0
 10
1741.688744930849
 20
1365.1466937991991
 30
0.0
  0
ENDBLK
  5
7BA5
  8
0
  0
BLOCK
  8
0
  2
*D7
 70
     1
 10
0.0
 20
0.0
 30
0.0
  3
*D7
  1

  0
LINE
  5
805A
  8
3
  6
CONTINUOUS
 62
     0
 10
597.45583106828178
 20
967.69091089044832
 30
0.0
 11
558.43856006828184
 21
967.69091089044832
 31
0.0
  0
LINE
  5
805B
  8
3
  6
CONTINUOUS
 62
     0
 10
597.45583106828178
 20
1127.6909108904481
 30
0.0
 11
558.43856006828184
 21
1127.6909108904481
 31
0.0
  0
LINE
  5
805C
  8
3
  6
CONTINUOUS
 62
     0
 10
568.43856006828184
 20
987.69091089044832
 30
0.0
 11
568.43856006828184
 21
1107.6909108904481
 31
0.0
  0
INSERT
  5
805D
  8
3
  6
CONTINUOUS
 62
     0
  2
_OPEN
 10
568.43856006828184
 20
967.69091089044832
 30
0.0
 41
20.0
 42
20.0
 43
20.0
 50
270.0
  0
INSERT
  5
805E
  8
3
  6
CONTINUOUS
 62
     0
  2
_OPEN
 10
568.43856006828184
 20
1127.6909108904481
 30
0.0
 41
20.0
 42
20.0
 43
20.0
 50
90.0
  0
TEXT
  8
3
  40
30
  5
80C3
  62
0
  72
0
  71
0
 10
483.439
 20
993.314
 30
0.000000
  1
160
  0
POINT
  5
8060
  8
DEFPOINTS
  6
CONTINUOUS
 62
     0
 10
602.45583106828167
 20
967.69091089044832
 30
0.0
  0
POINT
  5
8061
  8
DEFPOINTS
  6
CONTINUOUS
 62
     0
 10
602.45583106828167
 20
1127.6909108904481
 30
0.0
  0
POINT
  5
8062
  8
DEFPOINTS
  6
CONTINUOUS
 62
     0
 10
568.43856006828184
 20
1127.6909108904481
 30
0.0
  0
ENDBLK
  5
7BB2
  8
0
  0
BLOCK
  8
0
  2
*D8
 70
     1
 10
0.0
 20
0.0
 30
0.0
  3
*D8
  1

  0
LINE
  5
8063
  8
3
  6
CONTINUOUS
 62
     0
 10
572.45583106828178
 20
840.69091089044821
 30
0.0
 11
572.45583106828178
 21
778.36008789044831
 31
0.0
  0
LINE
  5
8064
  8
3
  6
CONTINUOUS
 62
     0
 10
732.45583106828167
 20
830.61725189044819
 30
0.0
 11
732.45583106828167
 21
778.36008789044831
 31
0.0
  0
LINE
  5
8065
  8
3
  6
CONTINUOUS
 62
     0
 10
552.45583106828167
 20
788.3600878904482
 30
0.0
 11
532.45583106828167
 21
788.3600878904482
 31
0.0
  0
LINE
  5
8066
  8
3
  6
CONTINUOUS
 62
     0
 10
752.45583106828167
 20
788.3600878904482
 30
0.0
 11
772.45583106828178
 21
788.3600878904482
 31
0.0
  0
LINE
  5
8067
  8
3
  6
CONTINUOUS
 62
     0
 10
572.45583106828178
 20
788.3600878904482
 30
0.0
 11
732.45583106828167
 21
788.3600878904482
 31
0.0
  0
INSERT
  5
8068
  8
3
  6
CONTINUOUS
 62
     0
  2
_OPEN
 10
572.45583106828178
 20
788.3600878904482
 30
0.0
 41
20.0
 42
20.0
 43
20.0
  0
INSERT
  5
8069
  8
3
  6
CONTINUOUS
 62
     0
  2
_OPEN
 10
732.45583106828167
 20
788.3600878904482
 30
0.0
 41
20.0
 42
20.0
 43
20.0
 50
180.0
  0
TEXT
  8
3
  40
30
  5
80C4
  62
0
  72
0
  71
0
 10
606.742
 20
760.260
 30
0.000000
  1
160
  0
POINT
  5
806B
  8
DEFPOINTS
  6
CONTINUOUS
 62
     0
 10
572.45583106828178
 20
845.69091089044832
 30
0.0
  0
POINT
  5
806C
  8
DEFPOINTS
  6
CONTINUOUS
 62
     0
 10
732.45583106828167
 20
835.61725189044819
 30
0.0
  0
POINT
  5
806D
  8
DEFPOINTS
  6
CONTINUOUS
 62
     0
 10
732.45583106828167
 20
788.3600878904482
 30
0.0
  0
ENDBLK
  5
7BFE
  8
0
  0
BLOCK
  8
0
  2
*D9
 70
     1
 10
0.0
 20
0.0
 30
0.0
  3
*D9
  1

  0
LINE
  5
806E
  8
3
  6
CONTINUOUS
 62
     0
 10
1182.455831068281
 20
840.69091089044821
 30
0.0
 11
1182.455831068281
 21
778.36008789044831
 31
0.0
  0
LINE
  5
806F
  8
3
  6
CONTINUOUS
 62
     0
 10
752.45583106828167
 20
788.3600878904482
 30
0.0
 11
1162.455831068281
 21
788.3600878904482
 31
0.0
  0
INSERT
  5
8070
  8
3
  6
CONTINUOUS
 62
     0
  2
_OPEN
 10
732.45583106828167
 20
788.3600878904482
 30
0.0
 41
20.0
 42
20.0
 43
20.0
 50
180.0
  0
INSERT
  5
8071
  8
3
  6
CONTINUOUS
 62
     0
  2
_OPEN
 10
1182.455831068281
 20
788.3600878904482
 30
0.0
 41
20.0
 42
20.0
 43
20.0
  0
TEXT
  8
3
  40
30
  5
80C5
  62
0
  72
0
  71
0
 10
897.456
 20
760.260
 30
0.000000
  1
450
  0
POINT
  5
8073
  8
DEFPOINTS
  6
CONTINUOUS
 62
     0
 10
732.45583106828167
 20
835.61725189044819
 30
0.0
  0
POINT
  5
8074
  8
DEFPOINTS
  6
CONTINUOUS
 62
     0
 10
1182.455831068281
 20
845.69091089044832
 30
0.0
  0
POINT
  5
8075
  8
DEFPOINTS
  6
CONTINUOUS
 62
     0
 10
1182.455831068281
 20
788.3600878904482
 30
0.0
  0
ENDBLK
  5
7C0A
  8
0
  0
BLOCK
  8
0
  2
*D10
 70
     1
 10
0.0
 20
0.0
 30
0.0
  3
*D10
  1

  0
LINE
  5
7E70
  8
0
  6
BYBLOCK
 62
     0
 10
602.45583106828167
 20
1154.6909108904481
 30
0.0
 11
602.45583106828167
 21
1344.442916890448
 31
0.0
  0
LINE
  5
7E71
  8
0
  6
BYBLOCK
 62
     0
 10
732.45583106828167
 20
1325.1713098904479
 30
0.0
 11
732.45583106828167
 21
1344.442916890448
 31
0.0
  0
LINE
  5
7E72
  8
0
  6
BYBLOCK
 62
     0
 10
622.45583106828178
 20
1334.442916890448
 30
0.0
 11
712.45583106828167
 21
1334.442916890448
 31
0.0
  0
TEXT
  5
7E73
  8
3
  6
CONTINUOUS
 62
     0
 10
631.74154535399612
 20
1346.788053091148
 30
0.0
 40
30.0
  1
130
  0
INSERT
  5
7E74
  8
0
  6
BYBLOCK
 62
     0
  2
_OPEN
 10
602.45583106828167
 20
1334.442916890448
 30
0.0
 41
20.0
 42
20.0
 43
20.0
 50
180.0
  0
INSERT
  5
7E75
  8
0
  6
BYBLOCK
 62
     0
  2
_OPEN
 10
732.45583106828167
 20
1334.442916890448
 30
0.0
 41
20.0
 42
20.0
 43
20.0
  0
POINT
  5
7E76
  8
DEFPOINTS
  6
BYBLOCK
 62
     0
 10
602.45583106828167
 20
1149.6909108904481
 30
0.0
  0
POINT
  5
7E77
  8
DEFPOINTS
  6
BYBLOCK
 62
     0
 10
732.45583106828167
 20
1320.1713098904479
 30
0.0
  0
POINT
  5
7E78
  8
DEFPOINTS
  6
BYBLOCK
 62
     0
 10
732.45583106828167
 20
1334.442916890448
 30
0.0
  0
ENDBLK
  5
7E79
  8
0
  0
BLOCK
  8
0
  2
*D11
 70
     1
 10
0.0
 20
0.0
 30
0.0
  3
*D11
  1

  0
LINE
  5
8076
  8
3
  6
CONTINUOUS
 62
     0
 10
876.92011306828181
 20
1132.6909108904481
 30
0.0
 11
876.92011306828181
 21
1344.442916890448
 31
0.0
  0
LINE
  5
8077
  8
3
  6
CONTINUOUS
 62
     0
 10
752.45583106828167
 20
1334.442916890448
 30
0.0
 11
856.92011306828181
 21
1334.442916890448
 31
0.0
  0
INSERT
  5
8078
  8
3
  6
CONTINUOUS
 62
     0
  2
_OPEN
 10
732.45583106828167
 20
1334.442916890448
 30
0.0
 41
20.0
 42
20.0
 43
20.0
 50
180.0
  0
INSERT
  5
8079
  8
3
  6
CONTINUOUS
 62
     0
  2
_OPEN
 10
876.92011306828181
 20
1334.442916890448
 30
0.0
 41
20.0
 42
20.0
 43
20.0
  0
TEXT
  8
3
  40
30
  5
80C6
  62
0
  72
0
  71
0
 10
744.688
 20
1306.34
 30
0.000000
  1
144
  0
POINT
  5
807B
  8
DEFPOINTS
  6
CONTINUOUS
 62
     0
 10
732.45583106828167
 20
1320.1713098904479
 30
0.0
  0
POINT
  5
807C
  8
DEFPOINTS
  6
CONTINUOUS
 62
     0
 10
876.92011306828181
 20
1127.6909108904481
 30
0.0
  0
POINT
  5
807D
  8
DEFPOINTS
  6
CONTINUOUS
 62
     0
 10
876.92011306828181
 20
1334.442916890448
 30
0.0
  0
ENDBLK
  5
7C25
  8
0
  0
BLOCK
  8
0
  2
*D12
 70
     1
 10
0.0
 20
0.0
 30
0.0
  3
*D12
  1

  0
LINE
  5
807E
  8
3
  6
CONTINUOUS
 62
     0
 10
572.45583106828178
 20
1829.932298091248
 30
0.0
 11
572.45583106828178
 21
1680.138215091248
 31
0.0
  0
LINE
  5
807F
  8
3
  6
CONTINUOUS
 62
     0
 10
1182.455831068281
 20
1829.932298091248
 30
0.0
 11
1182.455831068281
 21
1680.138215091248
 31
0.0
  0
LINE
  5
8080
  8
3
  6
CONTINUOUS
 62
     0
 10
592.45583106828178
 20
1690.138215091248
 30
0.0
 11
1162.455831068281
 21
1690.138215091248
 31
0.0
  0
INSERT
  5
8081
  8
3
  6
CONTINUOUS
 62
     0
  2
_OPEN
 10
572.45583106828178
 20
1690.138215091248
 30
0.0
 41
20.0
 42
20.0
 43
20.0
 50
180.0
  0
INSERT
  5
8082
  8
3
  6
CONTINUOUS
 62
     0
  2
_OPEN
 10
1182.455831068281
 20
1690.138215091248
 30
0.0
 41
20.0
 42
20.0
 43
20.0
  0
TEXT
  8
3
  40
30
  5
80C7
  62
0
  72
0
  71
0
 10
811.306
 20
1662.04
 30
0.000000
  1
610
  0
POINT
  5
8084
  8
DEFPOINTS
  6
CONTINUOUS
 62
     0
 10
572.45583106828178
 20
1834.932298091248
 30
0.0
  0
POINT
  5
8085
  8
DEFPOINTS
  6
CONTINUOUS
 62
     0
 10
1182.455831068281
 20
1834.932298091248
 30
0.0
  0
POINT
  5
8086
  8
DEFPOINTS
  6
CONTINUOUS
 62
     0
 10
1182.455831068281
 20
1690.138215091248
 30
0.0
  0
ENDBLK
  5
7C83
  8
0
  0
BLOCK
  8
0
  2
*D13
 70
     1
 10
0.0
 20
0.0
 30
0.0
  3
*D13
  1

  0
LINE
  5
8087
  8
3
  6
CONTINUOUS
 62
     0
 10
1187.455831068281
 20
2058.9322980912489
 30
0.0
 11
1284.3021680682821
 21
2058.9322980912489
 31
0.0
  0
LINE
  5
8088
  8
3
  6
CONTINUOUS
 62
     0
 10
1187.455831068281
 20
1834.932298091248
 30
0.0
 11
1284.3021680682821
 21
1834.932298091248
 31
0.0
  0
LINE
  5
8089
  8
3
  6
CONTINUOUS
 62
     0
 10
1274.3021680682821
 20
2038.9322980912491
 30
0.0
 11
1274.3021680682821
 21
1854.932298091248
 31
0.0
  0
INSERT
  5
808A
  8
3
  6
CONTINUOUS
 62
     0
  2
_OPEN
 10
1274.3021680682821
 20
2058.9322980912489
 30
0.0
 41
20.0
 42
20.0
 43
20.0
 50
90.0
  0
INSERT
  5
808B
  8
3
  6
CONTINUOUS
 62
     0
  2
_OPEN
 10
1274.3021680682821
 20
1834.932298091248
 30
0.0
 41
20.0
 42
20.0
 43
20.0
 50
270.0
  0
TEXT
  8
3
  40
30
  5
80C8
  62
0
  72
0
  71
0
 10
1189.30
 20
1885.58
 30
0.000000
  1
224
  0
POINT
  5
808D
  8
DEFPOINTS
  6
CONTINUOUS
 62
     0
 10
1182.455831068281
 20
2058.9322980912489
 30
0.0
  0
POINT
  5
808E
  8
DEFPOINTS
  6
CONTINUOUS
 62
     0
 10
1182.455831068281
 20
1834.932298091248
 30
0.0
  0
POINT
  5
808F
  8
DEFPOINTS
  6
CONTINUOUS
 62
     0
 10
1274.3021680682821
 20
1834.932298091248
 30
0.0
  0
ENDBLK
  5
7C4C
  8
0
  0
BLOCK
  8
0
  2
*D14
 70
     1
 10
0.0
 20
0.0
 30
0.0
  3
*D14
  1

  0
LINE
  5
8090
  8
3
  6
CONTINUOUS
 62
     0
 10
727.45583106828167
 20
1250.3350928904481
 30
0.0
 11
366.54501206828189
 21
1250.3350928904481
 31
0.0
  0
LINE
  5
8091
  8
3
  6
CONTINUOUS
 62
     0
 10
567.45583106828178
 20
845.69091089044832
 30
0.0
 11
366.54501206828178
 21
845.69091089044832
 31
0.0
  0
LINE
  5
8092
  8
3
  6
CONTINUOUS
 62
     0
 10
376.54501206828189
 20
1230.3350928904481
 30
0.0
 11
376.54501206828178
 21
865.69091089044844
 31
0.0
  0
INSERT
  5
8093
  8
3
  6
CONTINUOUS
 62
     0
  2
_OPEN
 10
376.54501206828189
 20
1250.3350928904481
 30
0.0
 41
20.0
 42
20.0
 43
20.0
 50
90.0
  0
INSERT
  5
8094
  8
3
  6
CONTINUOUS
 62
     0
  2
_OPEN
 10
376.54501206828178
 20
845.69091089044832
 30
0.0
 41
20.0
 42
20.0
 43
20.0
 50
270.0
  0
TEXT
  8
3
  40
30
  5
80C9
  62
0
  72
0
  71
0
 10
291.545
 20
997.944
 30
0.000000
  1
405
  0
POINT
  5
8096
  8
DEFPOINTS
  6
CONTINUOUS
 62
     0
 10
732.45583106828167
 20
1250.3350928904481
 30
0.0
  0
POINT
  5
8097
  8
DEFPOINTS
  6
CONTINUOUS
 62
     0
 10
572.45583106828178
 20
845.69091089044832
 30
0.0
  0
POINT
  5
8098
  8
DEFPOINTS
  6
CONTINUOUS
 62
     0
 10
376.54501206828178
 20
845.69091089044832
 30
0.0
  0
ENDBLK
  5
7E03
  8
0
  0
BLOCK
  8
0
  2
*D15
 70
     1
 10
0.0
 20
0.0
 30
0.0
  3
*D15
  1

  0
LINE
  5
7E65
  8
0
  6
BYBLOCK
 62
     0
 10
727.45583106828167
 20
1250.3350928904481
 30
0.0
 11
438.40740206828173
 21
1250.3350928904481
 31
0.0
  0
LINE
  5
7E66
  8
0
  6
BYBLOCK
 62
     0
 10
525.63689306828178
 20
1127.6909108904481
 30
0.0
 11
438.40740206828173
 21
1127.6909108904481
 31
0.0
  0
LINE
  5
7E67
  8
0
  6
BYBLOCK
 62
     0
 10
448.40740206828173
 20
1230.3350928904481
 30
0.0
 11
448.40740206828173
 21
1147.6909108904481
 31
0.0
  0
TEXT
  5
7E68
  8
3
  6
CONTINUOUS
 62
     0
 10
438.57056544209257
 20
1153.2987161761621
 30
0.0
 40
30.0
  1
123
 50
90.0
  0
INSERT
  5
7E69
  8
0
  6
BYBLOCK
 62
     0
  2
_OPEN
 10
448.40740206828173
 20
1250.3350928904481
 30
0.0
 41
20.0
 42
20.0
 43
20.0
 50
90.0
  0
INSERT
  5
7E6A
  8
0
  6
BYBLOCK
 62
     0
  2
_OPEN
 10
448.40740206828173
 20
1127.6909108904481
 30
0.0
 41
20.0
 42
20.0
 43
20.0
 50
270.0
  0
POINT
  5
7E6B
  8
DEFPOINTS
  6
BYBLOCK
 62
     0
 10
732.45583106828167
 20
1250.3350928904481
 30
0.0
  0
POINT
  5
7E6C
  8
DEFPOINTS
  6
BYBLOCK
 62
     0
 10
530.63689306828167
 20
1127.6909108904481
 30
0.0
  0
POINT
  5
7E6D
  8
DEFPOINTS
  6
BYBLOCK
 62
     0
 10
448.40740206828173
 20
1127.6909108904481
 30
0.0
  0
ENDBLK
  5
7E6E
  8
0
  0
BLOCK
  8
0
  2
*D16
 70
     1
 10
0.0
 20
0.0
 30
0.0
  3
*D16
  1

  0
LINE
  5
8099
  8
3
  6
CONTINUOUS
 62
     0
 10
592.45583106828178
 20
892.69091089044832
 30
0.0
 11
438.40740206828173
 21
892.69091089044832
 31
0.0
  0
LINE
  5
809A
  8
3
  6
CONTINUOUS
 62
     0
 10
448.40740206828173
 20
1107.6909108904481
 30
0.0
 11
448.40740206828173
 21
912.69091089044832
 31
0.0
  0
INSERT
  5
809B
  8
3
  6
CONTINUOUS
 62
     0
  2
_OPEN
 10
448.40740206828173
 20
1127.6909108904481
 30
0.0
 41
20.0
 42
20.0
 43
20.0
 50
90.0
  0
INSERT
  5
809C
  8
3
  6
CONTINUOUS
 62
     0
  2
_OPEN
 10
448.40740206828173
 20
892.69091089044832
 30
0.0
 41
20.0
 42
20.0
 43
20.0
 50
270.0
  0
TEXT
  8
3
  40
30
  5
80CA
  62
0
  72
0
  71
0
 10
363.407
 20
957.091
 30
0.000000
  1
235
  0
POINT
  5
809E
  8
DEFPOINTS
  6
CONTINUOUS
 62
     0
 10
530.63689306828167
 20
1127.6909108904481
 30
0.0
  0
POINT
  5
809F
  8
DEFPOINTS
  6
CONTINUOUS
 62
     0
 10
597.45583106828178
 20
892.69091089044832
 30
0.0
  0
POINT
  5
80A0
  8
DEFPOINTS
  6
CONTINUOUS
 62
     0
 10
448.40740206828173
 20
892.69091089044832
 30
0.0
  0
ENDBLK
  5
7DEB
  8
0
  0
BLOCK
  8
0
  2
*D17
 70
     1
 10
0.0
 20
0.0
 30
0.0
  3
*D17
  1

  0
LINE
  5
80A1
  8
3
  6
CONTINUOUS
 62
     0
 10
592.45583106828178
 20
892.69091089044832
 30
0.0
 11
438.58653106828189
 21
892.69091089044832
 31
0.0
  0
LINE
  5
80A2
  8
3
  6
CONTINUOUS
 62
     0
 10
567.45583106828178
 20
845.69091089044832
 30
0.0
 11
438.58653106828189
 21
845.69091089044832
 31
0.0
  0
LINE
  5
80A3
  8
3
  6
CONTINUOUS
 62
     0
 10
448.586531068282
 20
912.69091089044832
 30
0.0
 11
448.586531068282
 21
932.69091089044844
 31
0.0
  0
LINE
  5
80A4
  8
3
  6
CONTINUOUS
 62
     0
 10
448.58653106828189
 20
825.69091089044832
 30
0.0
 11
448.58653106828189
 21
737.11948231901965
 31
0.0
  0
LINE
  5
80A5
  8
3
  6
CONTINUOUS
 62
     0
 10
448.58653106828189
 20
892.69091089044832
 30
0.0
 11
448.58653106828189
 21
845.69091089044832
 31
0.0
  0
INSERT
  5
80A6
  8
3
  6
CONTINUOUS
 62
     0
  2
_OPEN
 10
448.58653106828189
 20
892.69091089044832
 30
0.0
 41
20.0
 42
20.0
 43
20.0
 50
270.0
  0
INSERT
  5
80A7
  8
3
  6
CONTINUOUS
 62
     0
  2
_OPEN
 10
448.58653106828189
 20
845.69091089044832
 30
0.0
 41
20.0
 42
20.0
 43
20.0
 50
90.0
  0
TEXT
  8
3
  40
30
  5
80CB
  62
0
  72
0
  71
0
 10
363.587
 20
718.305
 30
0.000000
  1
47
  0
POINT
  5
80A9
  8
DEFPOINTS
  6
CONTINUOUS
 62
     0
 10
597.45583106828178
 20
892.69091089044832
 30
0.0
  0
POINT
  5
80AA
  8
DEFPOINTS
  6
CONTINUOUS
 62
     0
 10
572.45583106828178
 20
845.69091089044832
 30
0.0
  0
POINT
  5
80AB
  8
DEFPOINTS
  6
CONTINUOUS
 62
     0
 10
448.58653106828189
 20
845.69091089044832
 30
0.0
  0
ENDBLK
  5
7E86
  8
0
  0
BLOCK
  8
0
  2
*D18
 70
     1
 10
0.0
 20
0.0
 30
0.0
  3
*D18
  1

  0
LINE
  5
80AC
  8
3
  6
CONTINUOUS
 62
     0
 10
598.45583106828167
 20
1127.6909108904481
 30
0.0
 11
510.18855306828181
 21
1127.6909108904481
 31
0.0
  0
LINE
  5
80AD
  8
3
  6
CONTINUOUS
 62
     0
 10
612.45583106828167
 20
956.69091089044821
 30
0.0
 11
510.18855306828181
 21
956.69091089044821
 31
0.0
  0
LINE
  5
80AE
  8
3
  6
CONTINUOUS
 62
     0
 10
520.18855306828175
 20
1107.6909108904481
 30
0.0
 11
520.18855306828175
 21
976.69091089044832
 31
0.0
  0
INSERT
  5
80AF
  8
3
  6
CONTINUOUS
 62
     0
  2
_OPEN
 10
520.18855306828175
 20
1127.6909108904481
 30
0.0
 41
20.0
 42
20.0
 43
20.0
 50
90.0
  0
INSERT
  5
80B0
  8
3
  6
CONTINUOUS
 62
     0
  2
_OPEN
 10
520.18855306828175
 20
956.69091089044821
 30
0.0
 41
20.0
 42
20.0
 43
20.0
 50
270.0
  0
TEXT
  8
3
  40
30
  5
80CC
  62
0
  72
0
  71
0
 10
435.189
 20
990.786
 30
0.000000
  1
171
  0
POINT
  5
80B2
  8
DEFPOINTS
  6
CONTINUOUS
 62
     0
 10
603.45583106828167
 20
1127.6909108904481
 30
0.0
  0
POINT
  5
80B3
  8
DEFPOINTS
  6
CONTINUOUS
 62
     0
 10
617.45583106828178
 20
956.69091089044821
 30
0.0
  0
POINT
  5
80B4
  8
DEFPOINTS
  6
CONTINUOUS
 62
     0
 10
520.18855306828175
 20
956.69091089044821
 30
0.0
  0
ENDBLK
  5
7E0F
  8
0
  0
BLOCK
  8
0
  2
*D19
 70
     1
 10
0.0
 20
0.0
 30
0.0
  3
*D19
  1

  0
LINE
  5
80B5
  8
3
  6
CONTINUOUS
 62
     0
 10
602.45583106828167
 20
1154.6909108904481
 30
0.0
 11
602.45583106828167
 21
1402.128817831943
 31
0.0
  0
LINE
  5
80B6
  8
3
  6
CONTINUOUS
 62
     0
 10
1182.455831068281
 20
875.69091089044832
 30
0.0
 11
1182.455831068281
 21
1402.128817831943
 31
0.0
  0
LINE
  5
80B7
  8
3
  6
CONTINUOUS
 62
     0
 10
622.45583106828178
 20
1392.128817831943
 30
0.0
 11
1162.455831068281
 21
1392.128817831943
 31
0.0
  0
INSERT
  5
80B8
  8
3
  6
CONTINUOUS
 62
     0
  2
_OPEN
 10
602.45583106828167
 20
1392.128817831943
 30
0.0
 41
20.0
 42
20.0
 43
20.0
 50
180.0
  0
INSERT
  5
80B9
  8
3
  6
CONTINUOUS
 62
     0
  2
_OPEN
 10
1182.455831068281
 20
1392.128817831943
 30
0.0
 41
20.0
 42
20.0
 43
20.0
  0
TEXT
  8
3
  40
30
  5
80CD
  62
0
  72
0
  71
0
 10
843.368
 20
1364.03
 30
0.000000
  1
580
  0
POINT
  5
80BB
  8
DEFPOINTS
  6
CONTINUOUS
 62
     0
 10
602.45583106828167
 20
1149.6909108904481
 30
0.0
  0
POINT
  5
80BC
  8
DEFPOINTS
  6
CONTINUOUS
 62
     0
 10
1182.455831068281
 20
870.69091089044832
 30
0.0
  0
POINT
  5
80BD
  8
DEFPOINTS
  6
CONTINUOUS
 62
     0
 10
1182.455831068281
 20
1392.128817831943
 30
0.0
  0
ENDBLK
  5
7E9D
  8
0
  0
ENDSEC
  0
SECTION
  2
ENTITIES
  0
LINE
  5
7A88
  8
1
  6
CONTINUOUS
 10
877.45583106828178
 20
2058.9322980912489
 30
0.0
 11
1182.455831068281
 21
2058.9322980912489
 31
0.0
  0
LINE
  5
7A89
  8
1
  6
CONTINUOUS
 10
635.15583106828183
 20
1837.932298091248
 30
0.0
 11
1115.155831068281
 21
1837.932298091248
 31
0.0
  0
LINE
  5
7A8A
  8
1
  6
CONTINUOUS
 10
635.15583106828183
 20
1762.932298091248
 30
0.0
 11
1115.155831068281
 21
1762.932298091248
 31
0.0
  0
LINE
  5
7A8B
  8
1
  6
CONTINUOUS
 10
1182.455831068281
 20
1834.932298091248
 30
0.0
 11
1027.455831068281
 21
1834.932298091248
 31
0.0
  0
LINE
  5
7A8C
  8
1
  6
CONTINUOUS
 10
635.15583106828183
 20
1222.6909108904481
 30
0.0
 11
1115.155831068281
 21
1222.6909108904481
 31
0.0
  0
LINE
  5
7A8D
  8
1
  6
CONTINUOUS
 10
1157.455831068281
 20
942.69091089044832
 30
0.0
 11
597.45583106828178
 21
942.69091089044832
 31
0.0
  0
LINE
  5
7A8E
  8
1
  6
CONTINUOUS
 10
1157.455831068281
 20
892.69091089044832
 30
0.0
 11
597.45583106828178
 21
892.69091089044832
 31
0.0
  0
LINE
  5
7A8F
  8
1
  6
CONTINUOUS
 10
1157.455831068281
 20
962.69091089044832
 30
0.0
 11
906.45583106828178
 21
962.69091089044832
 31
0.0
  0
LINE
  5
7A90
  8
1
  6
CONTINUOUS
 10
1182.455831068281
 20
845.69091089044832
 30
0.0
 11
572.45583106828178
 21
845.69091089044832
 31
0.0
  0
LINE
  5
7A91
  8
1
  6
CONTINUOUS
 10
1182.455831068281
 20
870.69091089044832
 30
0.0
 11
572.45583106828178
 21
870.69091089044832
 31
0.0
  0
CIRCLE
  5
7A92
  8
1
  6
CONTINUOUS
 10
732.45583106828167
 20
1127.6909108904481
 30
0.0
 40
80.0
  0
CIRCLE
  5
7A93
  8
1
  6
CONTINUOUS
 10
732.45583106828167
 20
1127.6909108904481
 30
0.0
 40
100.0
  0
LINE
  5
7A94
  8
1
  6
CONTINUOUS
 10
617.45583106828178
 20
956.69091089044821
 30
0.0
 11
719.45583106828167
 21
956.69091089044821
 31
0.0
  0
ARC
  5
7A95
  8
1
  6
CONTINUOUS
 10
741.45583106828167
 20
1136.6909108904481
 30
0.0
 40
114.0
 50
89.500000000000014
 51
179.49999999999989
  0
LINE
  5
7A96
  8
1
  6
CONTINUOUS
 10
842.45583106828167
 20
1094.3909108904479
 30
0.0
 11
622.45583106828178
 21
1094.3909108904479
 31
0.0
  0
LINE
  5
7A97
  8
1
  6
CONTINUOUS
 10
622.45583106828178
 20
1169.790910890448
 30
0.0
 11
695.85583106828176
 21
1232.6909108904481
 31
0.0
  0
LINE
  5
7A98
  8
1
  6
CONTINUOUS
 10
602.45583106828167
 20
945.69091089044832
 30
0.0
 11
602.45583106828167
 21
1149.6909108904481
 31
0.0
  0
LINE
  5
7A99
  8
1
  6
CONTINUOUS
 10
617.45583106828178
 20
981.69091089044821
 30
0.0
 11
617.45583106828178
 21
1113.6909108904481
 31
0.0
  0
LINE
  5
7A9A
  8
1
  6
CONTINUOUS
 10
622.45583106828178
 20
942.69091089044832
 30
0.0
 11
622.45583106828178
 21
1169.790910890448
 31
0.0
  0
LINE
  5
7A9B
  8
1
  6
CONTINUOUS
 10
635.15583106828183
 20
942.69091089044832
 30
0.0
 11
635.15583106828183
 21
1222.6909108904481
 31
0.0
  0
LINE
  5
7A9C
  8
1
  6
CONTINUOUS
 10
617.45583106828178
 20
967.69091089044832
 30
0.0
 11
602.45583106828167
 21
967.69091089044832
 31
0.0
  0
LINE
  5
7A9D
  8
1
  6
CONTINUOUS
 10
617.45583106828178
 20
956.69091089044821
 30
0.0
 11
617.45583106828178
 21
967.69091089044832
 31
0.0
  0
LINE
  5
7A9E
  8
1
  6
CONTINUOUS
 10
602.45583106828167
 20
966.69091089044844
 30
0.0
 11
617.45583106828178
 21
981.69091089044821
 31
0.0
  0
LINE
  5
7A9F
  8
1
  6
CONTINUOUS
 10
597.45583106828178
 20
892.69091089044832
 30
0.0
 11
597.45583106828178
 21
942.69091089044832
 31
0.0
  0
LINE
  5
7AA0
  8
1
  6
CONTINUOUS
 10
572.45583106828178
 20
845.69091089044832
 30
0.0
 11
572.45583106828178
 21
870.69091089044832
 31
0.0
  0
LINE
  5
7AA1
  8
1
  6
CONTINUOUS
 10
602.45583106828167
 20
1127.6909108904481
 30
0.0
 11
617.45583106828178
 21
1127.6909108904481
 31
0.0
  0
LINE
  5
7AA2
  8
1
  6
CONTINUOUS
 10
617.45583106828178
 20
1127.6909108904481
 30
0.0
 11
617.45583106828178
 21
1137.6909108904481
 31
0.0
  0
LINE
  5
7AA3
  8
1
  6
CONTINUOUS
 10
617.45583106828178
 20
1137.6909108904481
 30
0.0
 11
627.45583106828167
 21
1137.6909108904481
 31
0.0
  0
LINE
  5
7AA4
  8
1
  6
CONTINUOUS
 10
602.45583106828167
 20
1128.6909108904481
 30
0.0
 11
617.45583106828178
 21
1113.6909108904481
 31
0.0
  0
LINE
  5
7AA5
  8
1
  6
CONTINUOUS
 10
1095.455831068281
 20
970.69091089044832
 30
0.0
 11
1087.2558310682809
 21
993.49091089044816
 31
0.0
  0
LINE
  5
7AA6
  8
1
  6
CONTINUOUS
 10
940.45583106828167
 20
970.69091089044832
 30
0.0
 11
948.6558310682816
 21
993.49091089044816
 31
0.0
  0
ARC
  5
7AA7
  8
1
  6
CONTINUOUS
 10
719.45583106828167
 20
1114.6909108904481
 30
0.0
 40
158.0
 50
270.0
 51
9.0999999999999996
  0
LINE
  5
7AA8
  8
1
  6
CONTINUOUS
 10
842.45583106828167
 20
1169.790910890448
 30
0.0
 11
842.45583106828167
 21
942.69091089044832
 31
0.0
  0
ARC
  5
7AA9
  8
1
  6
CONTINUOUS
 10
1017.955831068281
 20
1042.6909108904481
 30
0.0
 40
85.0
 50
324.69999999999987
 51
215.30000000000001
  0
LINE
  5
7AAA
  8
1
  6
CONTINUOUS
 10
940.45583106828167
 20
962.69091089044832
 30
0.0
 11
940.45583106828167
 21
970.69091089044832
 31
0.0
  0
LINE
  5
7AAB
  8
1
  6
CONTINUOUS
 10
906.45583106828178
 20
962.69091089044832
 30
0.0
 11
906.45583106828178
 21
942.69091089044832
 31
0.0
  0
LINE
  5
7AAC
  8
1
  6
CONTINUOUS
 10
1095.455831068281
 20
962.69091089044832
 30
0.0
 11
1095.455831068281
 21
970.69091089044832
 31
0.0
  0
LINE
  5
7AAD
  8
1
  6
CONTINUOUS
 10
1029.055831068282
 20
1075.8909108904479
 30
0.0
 11
746.75583106828185
 21
1170.3909108904479
 31
0.0
  0
ARC
  5
7AAE
  8
1
  6
CONTINUOUS
 10
743.45583106828178
 20
1116.6909108904481
 30
0.0
 40
134.0
 50
9.9000000000000004
 51
90.5
  0
LINE
  5
7AAF
  8
1
  6
CONTINUOUS
 10
1009.055831068281
 20
1008.790910890448
 30
0.0
 11
721.05583106828169
 21
1084.1909108904481
 31
0.0
  0
LINE
  5
7AB0
  8
1
  6
CONTINUOUS
 10
842.45583106828167
 20
1169.790910890448
 30
0.0
 11
769.0558310682818
 21
1232.6909108904481
 31
0.0
  0
CIRCLE
  5
7AB1
  8
1
  6
CONTINUOUS
 10
732.45583106828167
 20
1127.6909108904481
 30
0.0
 40
45.0
  0
LINE
  5
7AB2
  8
2
  6
CENTER
 10
732.45583106828167
 20
777.41569289044821
 30
0.0
 11
732.45583106828167
 21
1320.1713098904479
 31
0.0
  0
LINE
  5
7AB3
  8
2
  6
CENTER
 10
1764.6589139308489
 20
1150.1186987991989
 30
0.0
 11
1347.4171519308491
 21
1150.1186987991989
 31
0.0
  0
LINE
  5
7AB4
  8
1
  6
CONTINUOUS
 10
695.85583106828176
 20
1232.6909108904481
 30
0.0
 11
769.0558310682818
 21
1232.6909108904481
 31
0.0
  0
LINE
  5
7AB5
  8
2
  6
CENTER
 10
1052.955831068281
 20
1042.6909108904481
 30
0.0
 11
982.95583106828155
 21
1042.6909108904481
 31
0.0
  0
CIRCLE
  5
7AB6
  8
1
  6
CONTINUOUS
 10
1017.955831068281
 20
1042.6909108904481
 30
0.0
 40
35.0
  0
LINE
  5
7AB7
  8
2
  6
CENTER
 10
1017.955831068281
 20
1007.690910890448
 30
0.0
 11
1017.955831068281
 21
1077.6909108904481
 31
0.0
  0
LINE
  5
7AB8
  8
1
  6
CONTINUOUS
 10
720.45583106828167
 20
1834.932298091248
 30
0.0
 11
572.45583106828178
 21
1834.932298091248
 31
0.0
  0
LINE
  5
7AB9
  8
1
  6
CONTINUOUS
 10
622.45583106828178
 20
1959.332298091248
 30
0.0
 11
842.45583106828167
 21
1959.332298091248
 31
0.0
  0
LINE
  5
7ABA
  8
1
  6
CONTINUOUS
 10
869.45583106828178
 20
2078.9322980912489
 30
0.0
 11
602.45583106828167
 21
2078.9322980912489
 31
0.0
  0
LINE
  5
7ABB
  8
1
  6
CONTINUOUS
 10
869.45583106828178
 20
1966.932298091248
 30
0.0
 11
602.45583106828167
 21
1966.932298091248
 31
0.0
  0
LINE
  5
7ABC
  8
1
  6
CONTINUOUS
 10
632.45583106828167
 20
2086.9322980912489
 30
0.0
 11
832.45583106828167
 21
2086.9322980912489
 31
0.0
  0
LINE
  5
7ABD
  8
1
  6
CONTINUOUS
 10
602.45583106828167
 20
2099.932298091248
 30
0.0
 11
602.45583106828167
 21
1945.932298091248
 31
0.0
  0
LINE
  5
7ABE
  8
1
  6
CONTINUOUS
 10
617.45583106828178
 20
2064.9322980912489
 30
0.0
 11
617.45583106828178
 21
1980.932298091248
 31
0.0
  0
LINE
  5
7ABF
  8
1
  6
CONTINUOUS
 10
572.45583106828178
 20
1834.932298091248
 30
0.0
 11
572.45583106828178
 21
2058.9322980912489
 31
0.0
  0
LINE
  5
7AC0
  8
1
  6
CONTINUOUS
 10
622.45583106828178
 20
1834.932298091248
 30
0.0
 11
622.45583106828178
 21
1959.332298091248
 31
0.0
  0
LINE
  5
7AC1
  8
1
  6
CONTINUOUS
 10
632.45583106828167
 20
1959.332298091248
 30
0.0
 11
632.45583106828167
 21
1966.932298091248
 31
0.0
  0
LINE
  5
7AC2
  8
1
  6
CONTINUOUS
 10
602.45583106828167
 20
1965.9322980912491
 30
0.0
 11
617.45583106828178
 21
1980.932298091248
 31
0.0
  0
LINE
  5
7AC3
  8
1
  6
CONTINUOUS
 10
635.15583106828183
 20
1762.932298091248
 30
0.0
 11
635.15583106828183
 21
1837.932298091248
 31
0.0
  0
LINE
  5
7AC4
  8
1
  6
CONTINUOUS
 10
572.45583106828178
 20
2058.9322980912489
 30
0.0
 11
602.45583106828167
 21
2058.9322980912489
 31
0.0
  0
LINE
  5
7AC5
  8
1
  6
CONTINUOUS
 10
632.45583106828167
 20
2086.9322980912489
 30
0.0
 11
632.45583106828167
 21
2078.9322980912489
 31
0.0
  0
LINE
  5
7AC6
  8
1
  6
CONTINUOUS
 10
602.45583106828167
 20
2079.932298091248
 30
0.0
 11
617.45583106828178
 21
2064.9322980912489
 31
0.0
  0
LINE
  5
7AC7
  8
1
  6
CONTINUOUS
 10
877.45583106828178
 20
2070.9322980912489
 30
0.0
 11
877.45583106828178
 21
1974.932298091248
 31
0.0
  0
LINE
  5
7AC8
  8
1
  6
CONTINUOUS
 10
1008.455831068281
 20
1834.932298091248
 30
0.0
 11
744.45583106828167
 21
1834.932298091248
 31
0.0
  0
LINE
  5
7AC9
  8
1
  6
CONTINUOUS
 10
687.45583106828167
 20
1818.832298091249
 30
0.0
 11
777.45583106828167
 21
1818.832298091249
 31
0.0
  0
LINE
  5
7ACA
  8
1
  6
CONTINUOUS
 10
687.45583106828167
 20
1783.832298091248
 30
0.0
 11
777.45583106828167
 21
1783.832298091248
 31
0.0
  0
LINE
  5
7ACB
  8
1
  6
CONTINUOUS
 10
687.45583106828167
 20
1818.832298091249
 30
0.0
 11
687.45583106828167
 21
1783.832298091248
 31
0.0
  0
LINE
  5
7ACC
  8
1
  6
CONTINUOUS
 10
777.45583106828167
 20
1818.832298091249
 30
0.0
 11
777.45583106828167
 21
1783.832298091248
 31
0.0
  0
LINE
  5
7ACD
  8
1
  6
CONTINUOUS
 10
720.45583106828167
 20
1959.332298091248
 30
0.0
 11
720.45583106828167
 21
1818.832298091249
 31
0.0
  0
LINE
  5
7ACE
  8
1
  6
CONTINUOUS
 10
744.45583106828167
 20
1959.332298091248
 30
0.0
 11
744.45583106828167
 21
1818.832298091249
 31
0.0
  0
LINE
  5
7ACF
  8
1
  6
CONTINUOUS
 10
842.45583106828167
 20
1959.332298091248
 30
0.0
 11
842.45583106828167
 21
1834.932298091248
 31
0.0
  0
LINE
  5
7AD0
  8
1
  6
CONTINUOUS
 10
832.45583106828167
 20
1959.332298091248
 30
0.0
 11
832.45583106828167
 21
1966.932298091248
 31
0.0
  0
ARC
  5
7AD1
  8
1
  6
CONTINUOUS
 10
869.45583106828178
 20
1974.932298091248
 30
0.0
 40
8.0
 50
270.0
 51
0.0
  0
LINE
  5
7AD2
  8
1
  6
CONTINUOUS
 10
932.95583106828178
 20
2039.432298091248
 30
0.0
 11
1102.955831068281
 21
2039.432298091248
 31
0.0
  0
LINE
  5
7AD3
  8
1
  6
CONTINUOUS
 10
932.95583106828178
 20
1848.632298091248
 30
0.0
 11
1102.955831068281
 21
1848.632298091248
 31
0.0
  0
LINE
  5
7AD4
  8
1
  6
CONTINUOUS
 10
982.95583106828155
 20
1783.832298091248
 30
0.0
 11
1052.955831068281
 21
1783.832298091248
 31
0.0
  0
LINE
  5
7AD5
  8
1
  6
CONTINUOUS
 10
982.95583106828155
 20
1818.832298091249
 30
0.0
 11
1052.955831068281
 21
1818.832298091249
 31
0.0
  0
LINE
  5
7AD6
  8
1
  6
CONTINUOUS
 10
932.95583106828178
 20
1848.632298091248
 30
0.0
 11
932.95583106828178
 21
2039.432298091248
 31
0.0
  0
LINE
  5
7AD7
  8
1
  6
CONTINUOUS
 10
982.95583106828155
 20
1818.832298091249
 30
0.0
 11
982.95583106828155
 21
1783.832298091248
 31
0.0
  0
LINE
  5
7AD8
  8
1
  6
CONTINUOUS
 10
1102.955831068281
 20
1848.632298091248
 30
0.0
 11
1102.955831068281
 21
2039.432298091248
 31
0.0
  0
LINE
  5
7AD9
  8
1
  6
CONTINUOUS
 10
1052.955831068281
 20
1818.832298091249
 30
0.0
 11
1052.955831068281
 21
1783.832298091248
 31
0.0
  0
LINE
  5
7ADA
  8
1
  6
CONTINUOUS
 10
1027.455831068281
 20
1818.832298091249
 30
0.0
 11
1027.455831068281
 21
1848.632298091248
 31
0.0
  0
LINE
  5
7ADB
  8
1
  6
CONTINUOUS
 10
1008.455831068281
 20
1818.832298091249
 30
0.0
 11
1008.455831068281
 21
1848.632298091248
 31
0.0
  0
LINE
  5
7ADC
  8
1
  6
CONTINUOUS
 10
832.45583106828167
 20
2086.9322980912489
 30
0.0
 11
832.45583106828167
 21
2078.9322980912489
 31
0.0
  0
ARC
  5
7ADD
  8
1
  6
CONTINUOUS
 10
869.45583106828178
 20
2070.9322980912489
 30
0.0
 40
8.0
 50
0.0
 51
90.0
  0
LINE
  5
7ADE
  8
1
  6
CONTINUOUS
 10
1115.155831068281
 20
1222.6909108904481
 30
0.0
 11
1115.155831068281
 21
942.69091089044832
 31
0.0
  0
LINE
  5
7ADF
  8
1
  6
CONTINUOUS
 10
1157.455831068281
 20
962.69091089044832
 30
0.0
 11
1157.455831068281
 21
892.69091089044832
 31
0.0
  0
LINE
  5
7AE0
  8
1
  6
CONTINUOUS
 10
1182.455831068281
 20
870.69091089044832
 30
0.0
 11
1182.455831068281
 21
845.69091089044832
 31
0.0
  0
LINE
  5
7AE1
  8
1
  6
CONTINUOUS
 10
1182.455831068281
 20
2058.9322980912489
 30
0.0
 11
1182.455831068281
 21
1834.932298091248
 31
0.0
  0
LINE
  5
7AE2
  8
1
  6
CONTINUOUS
 10
1115.155831068281
 20
1837.932298091248
 30
0.0
 11
1115.155831068281
 21
1762.932298091248
 31
0.0
  0
LINE
  5
7AE3
  8
1
  6
CONTINUOUS
 10
1492.688744930849
 20
965.11869879919959
 30
0.0
 11
1492.688744930849
 21
1245.1186987991989
 31
0.0
  0
LINE
  5
7AE4
  8
1
  6
CONTINUOUS
 10
1417.688744930849
 20
965.11869879919959
 30
0.0
 11
1417.688744930849
 21
1245.1186987991989
 31
0.0
  0
LINE
  5
7AE5
  8
1
  6
CONTINUOUS
 10
1614.0887449308491
 20
1250.1186987991989
 30
0.0
 11
1614.0887449308491
 21
965.11869879919959
 31
0.0
  0
LINE
  5
7AE6
  8
1
  6
CONTINUOUS
 10
1733.688744930849
 20
1261.1186987991989
 30
0.0
 11
1733.688744930849
 21
990.11869879919959
 31
0.0
  0
LINE
  5
7AE7
  8
1
  6
CONTINUOUS
 10
1621.688744930849
 20
990.11869879919959
 30
0.0
 11
1621.688744930849
 21
1261.1186987991989
 31
0.0
  0
LINE
  5
7AE8
  8
1
  6
CONTINUOUS
 10
1733.688744930849
 20
1150.1186987991989
 30
0.0
 11
1621.688744930849
 21
990.11869879919959
 31
0.0
  0
LINE
  5
7AE9
  8
1
  6
CONTINUOUS
 10
1733.688744930849
 20
990.11869879919959
 30
0.0
 11
1621.688744930849
 21
1150.1186987991989
 31
0.0
  0
LINE
  5
7AEA
  8
1
  6
CONTINUOUS
 10
1514.688744930849
 20
1116.818698799199
 30
0.0
 11
1514.688744930849
 21
965.11869879919959
 31
0.0
  0
LINE
  5
7AEB
  8
1
  6
CONTINUOUS
 10
1489.688744930849
 20
868.11869879919959
 30
0.0
 11
1713.688744930849
 21
868.11869879919959
 31
0.0
  0
LINE
  5
7AEC
  8
1
  6
CONTINUOUS
 10
1489.688744930849
 20
893.11869879919959
 30
0.0
 11
1713.688744930849
 21
893.11869879919959
 31
0.0
  0
LINE
  5
7AED
  8
1
  6
CONTINUOUS
 10
1489.688744930849
 20
915.11869879919959
 30
0.0
 11
1713.688744930849
 21
915.11869879919959
 31
0.0
  0
LINE
  5
7AEE
  8
1
  6
CONTINUOUS
 10
1417.688744930849
 20
965.11869879919959
 30
0.0
 11
1713.688744930849
 21
965.11869879919959
 31
0.0
  0
LINE
  5
7AF3
  8
1
  6
CONTINUOUS
 10
1489.688744930849
 20
893.11869879919959
 30
0.0
 11
1489.688744930849
 21
868.11869879919959
 31
0.0
  0
LINE
  5
7AF4
  8
1
  6
CONTINUOUS
 10
1489.688744930849
 20
965.11869879919959
 30
0.0
 11
1489.688744930849
 21
915.11869879919959
 31
0.0
  0
LINE
  5
7AF5
  8
1
  6
CONTINUOUS
 10
1733.688744930849
 20
990.11869879919959
 30
0.0
 11
1621.688744930849
 21
990.11869879919959
 31
0.0
  0
LINE
  5
7AF6
  8
1
  6
CONTINUOUS
 10
1713.688744930849
 20
893.11869879919959
 30
0.0
 11
1713.688744930849
 21
868.11869879919959
 31
0.0
  0
LINE
  5
7AF7
  8
1
  6
CONTINUOUS
 10
1713.688744930849
 20
965.11869879919959
 30
0.0
 11
1713.688744930849
 21
915.11869879919959
 31
0.0
  0
LINE
  5
7AF8
  8
1
  6
CONTINUOUS
 10
1542.7887449308489
 20
1138.1186987991989
 30
0.0
 11
1472.688744930849
 21
1138.1186987991989
 31
0.0
  0
LINE
  5
7AF9
  8
1
  6
CONTINUOUS
 10
1574.388744930849
 20
1162.1186987991989
 30
0.0
 11
1472.688744930849
 21
1162.1186987991989
 31
0.0
  0
LINE
  5
7AFA
  8
1
  6
CONTINUOUS
 10
1614.0887449308491
 20
1192.218698799199
 30
0.0
 11
1514.688744930849
 21
1116.818698799199
 31
0.0
  0
LINE
  5
7AFB
  8
1
  6
CONTINUOUS
 10
1492.688744930849
 20
1245.1186987991989
 30
0.0
 11
1417.688744930849
 21
1245.1186987991989
 31
0.0
  0
LINE
  5
7AFC
  8
1
  6
CONTINUOUS
 10
1472.688744930849
 20
1105.1186987991989
 30
0.0
 11
1472.688744930849
 21
1195.1186987991989
 31
0.0
  0
LINE
  5
7AFD
  8
1
  6
CONTINUOUS
 10
1437.688744930849
 20
1105.1186987991989
 30
0.0
 11
1437.688744930849
 21
1195.1186987991989
 31
0.0
  0
LINE
  5
7AFE
  8
1
  6
CONTINUOUS
 10
1472.688744930849
 20
1105.1186987991989
 30
0.0
 11
1437.688744930849
 21
1105.1186987991989
 31
0.0
  0
LINE
  5
7AFF
  8
1
  6
CONTINUOUS
 10
1472.688744930849
 20
1195.1186987991989
 30
0.0
 11
1437.688744930849
 21
1195.1186987991989
 31
0.0
  0
LINE
  5
7B00
  8
1
  6
CONTINUOUS
 10
1472.688744930849
 20
1100.1186987991989
 30
0.0
 11
1437.688744930849
 21
1100.1186987991989
 31
0.0
  0
LINE
  5
7B01
  8
1
  6
CONTINUOUS
 10
1472.688744930849
 20
1030.1186987991989
 30
0.0
 11
1437.688744930849
 21
1030.1186987991989
 31
0.0
  0
LINE
  5
7B02
  8
1
  6
CONTINUOUS
 10
1472.688744930849
 20
1074.6186987991989
 30
0.0
 11
1514.688744930849
 21
1074.6186987991989
 31
0.0
  0
LINE
  5
7B03
  8
1
  6
CONTINUOUS
 10
1472.688744930849
 20
1055.6186987991989
 30
0.0
 11
1514.688744930849
 21
1055.6186987991989
 31
0.0
  0
LINE
  5
7B04
  8
1
  6
CONTINUOUS
 10
1437.688744930849
 20
1030.1186987991989
 30
0.0
 11
1437.688744930849
 21
1100.1186987991989
 31
0.0
  0
LINE
  5
7B05
  8
1
  6
CONTINUOUS
 10
1472.688744930849
 20
1030.1186987991989
 30
0.0
 11
1472.688744930849
 21
1100.1186987991989
 31
0.0
  0
LINE
  5
7B06
  8
1
  6
CONTINUOUS
 10
1633.688744930849
 20
1273.1186987991989
 30
0.0
 11
1721.688744930849
 21
1273.1186987991989
 31
0.0
  0
LINE
  5
7B07
  8
1
  6
CONTINUOUS
 10
1621.688744930849
 20
1150.1186987991989
 30
0.0
 11
1733.688744930849
 21
1150.1186987991989
 31
0.0
  0
LINE
  5
7B08
  8
1
  6
CONTINUOUS
 10
1614.0887449308491
 20
1250.1186987991989
 30
0.0
 11
1622.0887449308491
 21
1250.1186987991989
 31
0.0
  0
ARC
  5
7B09
  8
1
  6
CONTINUOUS
 10
1633.688744930849
 20
1261.1186987991989
 30
0.0
 40
12.0
 50
90.0
 51
180.0
  0
LINE
  5
7B0A
  8
1
  6
CONTINUOUS
 10
1614.0887449308491
 20
1050.1186987991989
 30
0.0
 11
1622.0887449308491
 21
1050.1186987991989
 31
0.0
  0
LINE
  5
7B0B
  8
1
  6
CONTINUOUS
 10
1741.688744930849
 20
1250.1186987991989
 30
0.0
 11
1733.2887449308489
 21
1250.1186987991989
 31
0.0
  0
ARC
  5
7B0C
  8
1
  6
CONTINUOUS
 10
1721.688744930849
 20
1261.1186987991989
 30
0.0
 40
12.0
 50
0.0
 51
90.0
  0
LINE
  5
7B0D
  8
1
  6
CONTINUOUS
 10
1741.688744930849
 20
1050.1186987991989
 30
0.0
 11
1733.2887449308489
 21
1050.1186987991989
 31
0.0
  0
LINE
  5
7B0E
  8
1
  6
CONTINUOUS
 10
1741.688744930849
 20
1050.1186987991989
 30
0.0
 11
1741.688744930849
 21
1250.1186987991989
 31
0.0
  0
LINE
  5
7B0F
  8
2
  6
CENTER
 10
1213.1083340682819
 20
1127.6909108904481
 30
0.0
 11
530.63689306828167
 21
1127.6909108904481
 31
0.0
  0
LINE
  5
7B10
  8
2
  6
CENTER
 10
1224.8814630682809
 20
1946.932298091248
 30
0.0
 11
526.09758406828166
 21
1946.932298091248
 31
0.0
  0
LINE
  5
7B11
  8
2
  6
CENTER
 10
732.45583106828167
 20
1747.896976091248
 30
0.0
 11
732.45583106828167
 21
2124.041113091248
 31
0.0
  0
LINE
  5
7B12
  8
2
  6
CENTER
 10
1677.688744930849
 20
860.83039079919945
 30
0.0
 11
1677.688744930849
 21
1293.219618799199
 31
0.0
  0
LINE
  5
7B15
  8
3
  6
CONTINUOUS
 10
1741.688744930849
 20
1150.1186987991989
 30
0.0
 11
1741.688744930849
 21
1230.1186987991989
 31
0.0
  0
LINE
  5
7B16
  8
3
  6
CONTINUOUS
 10
1741.688744930849
 20
1230.1186987991989
 30
0.0
 11
1762.3429509308489
 21
1230.1186987991989
 31
0.0
  0
LINE
  5
7B17
  8
3
  6
CONTINUOUS
 10
1741.688744930849
 20
1150.1186987991989
 30
0.0
 11
1741.688744930849
 21
1070.1186987991989
 31
0.0
  0
LINE
  5
7B18
  8
3
  6
CONTINUOUS
 10
1741.688744930849
 20
1070.1186987991989
 30
0.0
 11
1755.3079939308491
 21
1070.1186987991989
 31
0.0
  0
DIMENSION
  5
7B2C
  8
3
  6
CONTINUOUS
  2
*D1
 10
1810.5530829308491
 20
1070.1186987991989
 30
0.0
 11
1788.2429259889241
 21
1150.1186987991989
 31
0.0
 70
   128
 13
1741.688744930849
 23
1230.1186987991989
 33
0.0
 14
1741.688744930849
 24
1070.1186987991989
 34
0.0
 50
90.0
1001
ACAD
1000
DSTYLE
1002
{
1070
   288
1070
     1
1070
   172
1070
     1
1070
    40
1040
10.0
1070
     3
1000
φ<>
1070
   271
1070
     0
1070
   143
1040
0.039
1002
}
  0
DIMENSION
  5
7B3A
  8
3
  6
CONTINUOUS
  2
*D2
 10
1677.688744930849
 20
796.34404779919953
 30
0.0
 11
1578.813400930849
 21
796.34404779919953
 31
0.0
 70
   128
 13
1489.688744930849
 23
868.11869879919959
 33
0.0
 14
1677.688744930849
 24
860.83039079919945
 34
0.0
1001
ACAD
1000
DSTYLE
1002
{
1070
   287
1070
     3
1070
   287
1070
     3
1070
    40
1040
10.0
1070
   143
1040
0.039
1070
   172
1070
     1
1070
   271
1070
     0
1070
   279
1070
     0
1070
   288
1070
     1
1002
}
  0
DIMENSION
  5
7B4A
  8
3
  6
CONTINUOUS
  2
*D3
 10
1713.688744930849
 20
796.34404779919953
 30
0.0
 11
1750.962874930849
 21
796.17954979919955
 31
0.0
 70
   128
 13
1677.688744930849
 23
860.83039079919945
 33
0.0
 14
1713.688744930849
 24
868.11869879919959
 34
0.0
1001
ACAD
1000
DSTYLE
1002
{
1070
   287
1070
     4
1070
   287
1070
     4
1070
    40
1040
10.0
1070
    75
1070
     1
1070
   143
1040
0.039
1070
   172
1070
     1
1070
   271
1070
     0
1070
   279
1070
     1
1070
   288
1070
     1
1002
}
  0
DIMENSION
  5
7B73
  8
3
  6
CONTINUOUS
  2
*D4
 10
1733.688744930849
 20
1305.6208397991991
 30
0.0
 11
1677.688744930849
 21
1327.97946161799
 31
0.0
 70
   128
 13
1621.688744930849
 23
1250.1186987991989
 33
0.0
 14
1733.688744930849
 24
1250.1186987991989
 34
0.0
1001
ACAD
1000
DSTYLE
1002
{
1070
   288
1070
     1
1070
   172
1070
     1
1070
    40
1040
10.0
1070
   271
1070
     0
1070
   143
1040
0.039
1002
}
  0
DIMENSION
  5
7B80
  8
3
  6
CONTINUOUS
  2
*D5
 10
1677.688744930849
 20
1365.1466937991991
 30
0.0
 11
1549.6806609308489
 21
1365.1466937991991
 31
0.0
 70
   128
  1
MAX\P260
 13
1417.688744930849
 23
1245.1186987991989
 33
0.0
 14
1677.688744930849
 24
1334.2672967991989
 34
0.0
1001
ACAD
1000
DSTYLE
1002
{
1070
   287
1070
     3
1070
   287
1070
     3
1070
    40
1040
10.0
1070
   143
1040
0.039
1070
   172
1070
     1
1070
   271
1070
     0
1070
   279
1070
     0
1070
   288
1070
     1
1002
}
  0
DIMENSION
  5
7B8E
  8
3
  6
CONTINUOUS
  2
*D6
 10
1741.688744930849
 20
1365.1466937991991
 30
0.0
 11
1706.1049469308491
 21
1365.311200799199
 31
0.0
 70
   128
 13
1677.688744930849
 23
1334.2672967991989
 33
0.0
 14
1741.688744930849
 24
1250.1186987991989
 34
0.0
1001
ACAD
1000
DSTYLE
1002
{
1070
   287
1070
     4
1070
   287
1070
     4
1070
    40
1040
10.0
1070
    75
1070
     1
1070
   143
1040
0.039
1070
   172
1070
     1
1070
   271
1070
     0
1070
   279
1070
     1
1070
   288
1070
     1
1002
}
  0
DIMENSION
  5
7BB3
  8
3
  6
CONTINUOUS
  2
*D7
 10
568.43856006828184
 20
1127.6909108904481
 30
0.0
 11
568.43856006828173
 21
1046.4141668904481
 31
0.0
 70
   128
 13
602.45583106828167
 23
967.69091089044832
 33
0.0
 14
602.45583106828167
 24
1127.6909108904481
 34
0.0
 50
90.0
1001
ACAD
1000
DSTYLE
1002
{
1070
   287
1070
     3
1070
   287
1070
     3
1070
    40
1040
10.0
1070
   143
1040
0.039
1070
   172
1070
     1
1070
   271
1070
     0
1070
   279
1070
     0
1070
   288
1070
     1
1002
}
  0
DIMENSION
  5
7BFF
  8
3
  6
CONTINUOUS
  2
*D8
 10
732.45583106828167
 20
788.3600878904482
 30
0.0
 11
666.74154606828176
 21
788.3600878904482
 31
0.0
 70
   128
 13
572.45583106828178
 23
845.69091089044832
 33
0.0
 14
732.45583106828167
 24
835.61725189044819
 34
0.0
1001
ACAD
1000
DSTYLE
1002
{
1070
   287
1070
     3
1070
   287
1070
     3
1070
    40
1040
10.0
1070
   143
1040
0.039
1070
   172
1070
     1
1070
   271
1070
     0
1070
   279
1070
     0
1070
   288
1070
     1
1002
}
  0
DIMENSION
  5
7C0B
  8
3
  6
CONTINUOUS
  2
*D9
 10
1182.455831068281
 20
788.3600878904482
 30
0.0
 11
957.45583106828155
 21
813.3600878904482
 31
0.0
 70
     0
 13
732.45583106828167
 23
835.61725189044819
 33
0.0
 14
1182.455831068281
 24
845.69091089044832
 34
0.0
1001
ACAD
1000
DSTYLE
1002
{
1070
   287
1070
     4
1070
   287
1070
     4
1070
    40
1040
10.0
1070
    75
1070
     1
1070
   143
1040
0.039
1070
   172
1070
     1
1070
   271
1070
     0
1070
   279
1070
     1
1070
   288
1070
     1
1002
}
  0
DIMENSION
  5
7C1A
  8
3
  6
CONTINUOUS
  2
*D10
 10
732.45583106828167
 20
1334.442916890448
 30
0.0
 11
667.45583106828178
 21
1361.788053091148
 31
0.0
 70
   128
 13
602.45583106828167
 23
1149.6909108904481
 33
0.0
 14
732.45583106828167
 24
1320.1713098904479
 34
0.0
1001
ACAD
1000
DSTYLE
1002
{
1070
   288
1070
     1
1070
   172
1070
     1
1070
    40
1040
10.0
1070
   271
1070
     0
1070
   143
1040
0.039
1002
}
  0
DIMENSION
  5
7C26
  8
3
  6
CONTINUOUS
  2
*D11
 10
876.92011306828181
 20
1334.442916890448
 30
0.0
 11
804.68797206828185
 21
1359.442916890448
 31
0.0
 70
     0
 13
732.45583106828167
 23
1320.1713098904479
 33
0.0
 14
876.92011306828181
 24
1127.6909108904481
 34
0.0
1001
ACAD
1000
DSTYLE
1002
{
1070
   287
1070
     4
1070
   287
1070
     4
1070
    40
1040
10.0
1070
    75
1070
     1
1070
   143
1040
0.039
1070
   172
1070
     1
1070
   271
1070
     0
1070
   279
1070
     1
1070
   288
1070
     1
1002
}
  0
DIMENSION
  5
7C40
  8
3
  6
CONTINUOUS
  2
*D12
 10
1182.455831068281
 20
1690.138215091248
 30
0.0
 11
871.30594506828174
 21
1690.138215091248
 31
0.0
 70
   128
 13
572.45583106828178
 23
1834.932298091248
 33
0.0
 14
1182.455831068281
 24
1834.932298091248
 34
0.0
1001
ACAD
1000
DSTYLE
1002
{
1070
   287
1070
     3
1070
   287
1070
     3
1070
    40
1040
10.0
1070
   143
1040
0.039
1070
   172
1070
     1
1070
   271
1070
     0
1070
   279
1070
     0
1070
   288
1070
     1
1002
}
  0
DIMENSION
  5
7C4D
  8
3
  6
CONTINUOUS
  2
*D13
 10
1274.3021680682821
 20
1834.932298091248
 30
0.0
 11
1274.3021680682821
 21
1938.6759110912481
 31
0.0
 70
   128
 13
1182.455831068281
 23
2058.9322980912489
 33
0.0
 14
1182.455831068281
 24
1834.932298091248
 34
0.0
 50
90.0
1001
ACAD
1000
DSTYLE
1002
{
1070
   287
1070
     3
1070
   287
1070
     3
1070
    40
1040
10.0
1070
   143
1040
0.039
1070
   172
1070
     1
1070
   271
1070
     0
1070
   279
1070
     0
1070
   288
1070
     1
1002
}
  0
LINE
  5
7C4F
  8
4
  6
CONTINUOUS
 10
1850.0
 20
500.0
 30
0.0
 11
1850.0
 21
300.0
 31
0.0
  0
LINE
  5
7C50
  8
4
  6
CONTINUOUS
 10
1150.0
 20
500.0
 30
0.0
 11
1150.0
 21
300.0
 31
0.0
  0
LINE
  5
7C51
  8
4
  6
CONTINUOUS
 10
650.0
 20
500.0
 30
0.0
 11
650.0
 21
300.0
 31
0.0
  0
LINE
  5
7C54
  8
4
  6
CONTINUOUS
 10
650.0
 20
300.0
 30
0.0
 11
1850.0
 21
300.0
 31
0.0
  0
LINE
  5
7C55
  8
4
  6
CONTINUOUS
 10
650.0
 20
400.0
 30
0.0
 11
1850.0
 21
400.0
 31
0.0
  0
TEXT
  5
7C56
  8
4
  6
CONTINUOUS
 10
688.50208099999998
 20
431.543026
 30
0.0
 40
50.0
  1
機器名称
  0
TEXT
  5
7C57
  8
4
  6
CONTINUOUS
 10
686.258106
 20
321.64515699999993
 30
0.0
 40
50.0
  1
機器型番
  0
TEXT
  5
7C58
  8
4
  6
CONTINUOUS
 10
1177.678744999999
 20
422.57176900000002
 30
0.0
 40
45.0
  1
ミツヤニューマルチファン
  0
TEXT
  5
7C59
  8
4
  6
CONTINUOUS
 10
1186.6544960000001
 20
317.159584
 30
0.0
 40
50.0
  1
NM#1-1
  0
TEXT
  5
7C5B
  8
4
  6
CONTINUOUS
 10
694.38044599999989
 20
2383.4288409999999
 30
0.0
 40
54.0
  1
床置防振ベット
  0
TEXT
  5
7C5C
  8
4
  6
CONTINUOUS
 10
316.16759300000001
 20
2533.8809759999999
 30
0.0
 40
72.0
  1
ベルト駆動式片吸込片持多翼ファン
  0
LINE
  5
7C5D
  8
4
  6
CONTINUOUS
 10
250.0
 20
2469.408754
 30
0.0
 11
1850.0
 21
2469.408754
 31
0.0
  0
LINE
  5
7C5E
  8
4
  6
CONTINUOUS
 10
250.0
 20
2669.408754
 30
0.0
 11
1850.0
 21
2669.408754
 31
0.0
  0
LINE
  5
7C5F
  8
4
  6
CONTINUOUS
 10
650.0
 20
500.0
 30
0.0
 11
1850.0
 21
500.0
 31
0.0
  0
LINE
  5
7C60
  8
4
  6
CONTINUOUS
 10
250.0
 20
2669.408754
 30
0.0
 11
250.0
 21
2469.408754
 31
0.0
  0
TEXT
  5
7C61
  8
4
  6
CONTINUOUS
 10
258.52161399999989
 20
2382.3194779999999
 30
0.0
 40
54.0
  1
右回転左横向
  0
TEXT
  5
7C62
  8
4
  6
CONTINUOUS
 10
1468.9695589999999
 20
2706.0610809999998
 30
0.0
 40
56.0
  1
No.
  0
TEXT
  5
7C63
  8
4
  6
CONTINUOUS
 10
1311.296063
 20
2383.4288409999999
 30
0.0
 40
54.0
  1
縮尺：1/10
  0
LINE
  5
7C64
  8
4
  6
CONTINUOUS
 10
1850.0
 20
2669.408754
 30
0.0
 11
1850.0
 21
2469.408754
 31
0.0
  0
LINE
  5
7C66
  8
4
  6
CONTINUOUS
 10
1440.617422
 20
2681.2635829999999
 30
0.0
 11
1440.617422
 21
2786.6522620000001
 31
0.0
  0
LINE
  5
7C67
  8
4
  6
CONTINUOUS
 10
1440.617422
 20
2786.6522620000001
 30
0.0
 11
1850.0
 21
2786.6522620000001
 31
0.0
  0
LINE
  5
7C68
  8
4
  6
CONTINUOUS
 10
1850.0
 20
2786.6522620000001
 30
0.0
 11
1850.0
 21
2681.2635829999999
 31
0.0
  0
LINE
  5
7C69
  8
4
  6
CONTINUOUS
 10
1850.0
 20
2681.2635829999999
 30
0.0
 11
1440.617422
 21
2681.2635829999999
 31
0.0
  0
DIMENSION
  5
7CB8
  8
3
  6
CONTINUOUS
  2
*D14
 10
376.54501206828178
 20
845.69091089044832
 30
0.0
 11
376.54501206828172
 21
1051.043784890448
 31
0.0
 70
   128
 13
732.45583106828167
 23
1250.3350928904481
 33
0.0
 14
572.45583106828178
 24
845.69091089044832
 34
0.0
 50
90.0
1001
ACAD
1000
DSTYLE
1002
{
1070
   287
1070
     3
1070
   287
1070
     3
1070
    40
1040
10.0
1070
   143
1040
0.039
1070
   172
1070
     1
1070
   271
1070
     0
1070
   279
1070
     0
1070
   288
1070
     1
1002
}
  0
DIMENSION
  5
7D5A
  8
3
  6
CONTINUOUS
  2
*D15
 10
448.40740206828173
 20
1127.6909108904481
 30
0.0
 11
423.57056544209257
 21
1189.0130018904481
 31
0.0
 70
   128
 13
732.45583106828167
 23
1250.3350928904481
 33
0.0
 14
530.63689306828167
 24
1127.6909108904481
 34
0.0
 50
90.0
1001
ACAD
1000
DSTYLE
1002
{
1070
   288
1070
     1
1070
   172
1070
     1
1070
    40
1040
10.0
1070
   271
1070
     0
1070
   143
1040
0.039
1002
}
  0
DIMENSION
  5
7DA1
  8
3
  6
CONTINUOUS
  2
*D16
 10
448.40740206828173
 20
892.69091089044832
 30
0.0
 11
423.40740206828161
 21
1010.190910890448
 31
0.0
 70
     0
 13
530.63689306828167
 23
1127.6909108904481
 33
0.0
 14
597.45583106828178
 24
892.69091089044832
 34
0.0
 50
90.0
1001
ACAD
1000
DSTYLE
1002
{
1070
   287
1070
     4
1070
   287
1070
     4
1070
    40
1040
10.0
1070
    75
1070
     1
1070
   143
1040
0.039
1070
   172
1070
     1
1070
   271
1070
     0
1070
   279
1070
     1
1070
   288
1070
     1
1002
}
  0
DIMENSION
  5
7DB1
  8
3
  6
CONTINUOUS
  2
*D17
 10
448.58653106828189
 20
845.69091089044832
 30
0.0
 11
448.58653106828177
 21
771.4051966047341
 31
0.0
 70
   128
 13
597.45583106828178
 23
892.69091089044832
 33
0.0
 14
572.45583106828178
 24
845.69091089044832
 34
0.0
 50
90.0
1001
ACAD
1000
DSTYLE
1002
{
1070
   287
1070
     3
1070
   287
1070
     3
1070
    40
1040
10.0
1070
   143
1040
0.039
1070
   172
1070
     1
1070
   271
1070
     0
1070
   279
1070
     0
1070
   288
1070
     1
1002
}
  0
DIMENSION
  5
7E10
  8
3
  6
CONTINUOUS
  2
*D18
 10
520.18855306828175
 20
956.69091089044821
 30
0.0
 11
520.18855306828175
 21
1043.8855068904479
 31
0.0
 70
   128
 13
603.45583106828167
 23
1127.6909108904481
 33
0.0
 14
617.45583106828178
 24
956.69091089044821
 34
0.0
 50
90.0
1001
ACAD
1000
DSTYLE
1002
{
1070
   287
1070
     3
1070
   287
1070
     3
1070
    40
1040
10.0
1070
   143
1040
0.039
1070
   172
1070
     1
1070
   271
1070
     0
1070
   279
1070
     0
1070
   288
1070
     1
1002
}
  0
DIMENSION
  5
7E9E
  8
3
  6
CONTINUOUS
  2
*D19
 10
1182.455831068281
 20
1392.128817831943
 30
0.0
 11
903.36826540446782
 21
1392.128817831943
 31
0.0
 70
   128
 13
602.45583106828167
 23
1149.6909108904481
 33
0.0
 14
1182.455831068281
 24
870.69091089044832
 34
0.0
1001
ACAD
1000
DSTYLE
1002
{
1070
   287
1070
     3
1070
   287
1070
     3
1070
    40
1040
10.0
1070
   143
1040
0.039
1070
   172
1070
     1
1070
   271
1070
     0
1070
   279
1070
     0
1070
   288
1070
     1
1002
}
  0
ENDSEC
  0
EOF
