  0
SECTION
  2
HEADER
  9
$ACADVER
  1
AC1009
  9
$INSBASE
 10
0.0
 20
0.0
 30
0.0
  9
$EXTMIN
 10
250.0
 20
300.0
 30
0.0
  9
$EXTMAX
 10
1850.0
 20
2786.6522620000001
 30
0.0
  9
$LIMMIN
 10
0.0
 20
0.0
  9
$LIMMAX
 10
297.0
 20
210.0
  9
$ORTHOMODE
 70
     0
  9
$REGENMODE
 70
     1
  9
$FILLMODE
 70
     0
  9
$QTEXTMODE
 70
     0
  9
$MIRRTEXT
 70
     1
  9
$DRAGMODE
 70
     2
  9
$LTSCALE
 40
100.0
  9
$OSMODE
 70
    37
  9
$ATTMODE
 70
     1
  9
$TEXTSIZE
 40
180.0
  9
$TRACEWID
 40
0.05
  9
$TEXTSTYLE
  7
STANDARD
  9
$CLAYER
  8
3
  9
$CELTYPE
  6
BYLAYER
  9
$CECOLOR
 62
   256
  9
$DIMSCALE
 40
10.0
  9
$DIMASZ
 40
2.0
  9
$DIMEXO
 40
0.5
  9
$DIMDLI
 40
10.0
  9
$DIMRND
 40
0.0
  9
$DIMDLE
 40
0.0
  9
$DIMEXE
 40
1.0
  9
$DIMTP
 40
1.0
  9
$DIMTM
 40
1.0
  9
$DIMTXT
 40
3.0
  9
$DIMCEN
 40
0.0
  9
$DIMTSZ
 40
0.0
  9
$DIMTOL
 70
     0
  9
$DIMLIM
 70
     0
  9
$DIMTIH
 70
     0
  9
$DIMTOH
 70
     0
  9
$DIMSE1
 70
     0
  9
$DIMSE2
 70
     0
  9
$DIMTAD
 70
     1
  9
$DIMZIN
 70
     8
  9
$DIMBLK
  1

  9
$DIMASO
 70
     1
  9
$DIMSHO
 70
     1
  9
$DIMPOST
  1

  9
$DIMAPOST
  1

  9
$DIMALT
 70
     0
  9
$DIMALTD
 70
     2
  9
$DIMALTF
 40
0.039
  9
$DIMLFAC
 40
1.0
  9
$DIMTOFL
 70
     1
  9
$DIMTVP
 40
0.0
  9
$DIMTIX
 70
     0
  9
$DIMSOXD
 70
     0
  9
$DIMSAH
 70
     1
  9
$DIMBLK1
  1
OPEN
  9
$DIMBLK2
  1
OPEN
  9
$DIMSTYLE
  2
IGA
  9
$DIMCLRD
 70
     0
  9
$DIMCLRE
 70
     0
  9
$DIMCLRT
 70
     0
  9
$DIMTFAC
 40
10.0
  9
$DIMGAP
 40
1.0
  9
$LUNITS
 70
     2
  9
$LUPREC
 70
     3
  9
$SKETCHINC
 40
0.1
  9
$FILLETRAD
 40
50.0
  9
$AUNITS
 70
     0
  9
$AUPREC
 70
     0
  9
$MENU
  1
acad
  9
$ELEVATION
 40
0.0
  9
$PELEVATION
 40
0.0
  9
$THICKNESS
 40
0.0
  9
$LIMCHECK
 70
     0
  9
$BLIPMODE
 70
     0
  9
$CHAMFERA
 40
0.5
  9
$CHAMFERB
 40
0.5
  9
$SKPOLY
 70
     0
  9
$TDCREATE
 40
2450773.46952199
  9
$TDUPDATE
 40
2454953.8598895022
  9
$TDINDWG
 40
0.0037982176
  9
$TDUSRTIMER
 40
0.0037982176
  9
$USRTIMER
 70
     1
  9
$ANGBASE
 50
0.0
  9
$ANGDIR
 70
     0
  9
$PDMODE
 70
     0
  9
$PDSIZE
 40
0.0
  9
$PLINEWID
 40
0.0
  9
$COORDS
 70
     1
  9
$SPLFRAME
 70
     0
  9
$SPLINETYPE
 70
     6
  9
$SPLINESEGS
 70
     8
  9
$ATTDIA
 70
     0
  9
$ATTREQ
 70
     1
  9
$HANDLING
 70
 10241
  9
$HANDSEED
  5
7F8C
  9
$SURFTAB1
 70
     6
  9
$SURFTAB2
 70
     6
  9
$SURFTYPE
 70
     6
  9
$SURFU
 70
     6
  9
$SURFV
 70
     6
  9
$UCSNAME
  2

  9
$UCSORG
 10
0.0
 20
0.0
 30
0.0
  9
$UCSXDIR
 10
1.0
 20
0.0
 30
0.0
  9
$UCSYDIR
 10
0.0
 20
1.0
 30
0.0
  9
$PUCSNAME
  2

  9
$PUCSORG
 10
0.0
 20
0.0
 30
0.0
  9
$PUCSXDIR
 10
1.0
 20
0.0
 30
0.0
  9
$PUCSYDIR
 10
0.0
 20
1.0
 30
0.0
  9
$USERI1
 70
     0
  9
$USERI2
 70
     0
  9
$USERI3
 70
     0
  9
$USERI4
 70
     0
  9
$USERI5
 70
     0
  9
$USERR1
 40
0.0
  9
$USERR2
 40
0.0
  9
$USERR3
 40
0.0
  9
$USERR4
 40
0.0
  9
$USERR5
 40
0.0
  9
$WORLDVIEW
 70
     1
  9
$SHADEDGE
 70
     3
  9
$SHADEDIF
 70
    70
  9
$TILEMODE
 70
     1
  9
$MAXACTVP
 70
    16
  9
$PLIMCHECK
 70
     0
  9
$PEXTMIN
 10
1.0000000000000000E+020
 20
1.0000000000000000E+020
 30
1.0000000000000000E+020
  9
$PEXTMAX
 10
-1.0000000000000000E+020
 20
-1.0000000000000000E+020
 30
-1.0000000000000000E+020
  9
$PLIMMIN
 10
0.0
 20
0.0
  9
$PLIMMAX
 10
12.0
 20
9.0
  9
$UNITMODE
 70
     0
  9
$VISRETAIN
 70
     0
  9
$PLINEGEN
 70
     0
  9
$PSLTSCALE
 70
     1
  0
ENDSEC
  0
SECTION
  2
TABLES
  0
TABLE
  2
VPORT
 70
     2
  0
VPORT
  2
*ACTIVE
 70
     0
 10
0.0
 20
0.0
 11
1.0
 21
1.0
 12
2745.3107210715439
 22
1921.0316559012399
 13
0.0
 23
0.0
 14
10.0
 24
10.0
 15
10.0
 25
10.0
 16
0.0
 26
0.0
 36
1.0
 17
0.0
 27
0.0
 37
0.0
 40
3552.212848928405
 41
1.5051150895140659
 42
50.0
 43
0.0
 44
0.0
 50
0.0
 51
0.0
 71
     0
 72
   100
 73
     1
 74
     0
 75
     0
 76
     0
 77
     0
 78
     0
  0
ENDTAB
  0
TABLE
  2
LTYPE
 70
     2
  0
LTYPE
  2
CONTINUOUS
 70
     0
  3
Solid line
 72
    65
 73
     0
 40
0.0
  0
LTYPE
  2
CENTER
 70
     0
  3
____ _ ____ _ ____ _ ____ _ ____ _ ____ _ ____ 
 72
    65
 73
     4
 40
2.0
 49
1.25
 49
-0.25
 49
0.25
 49
-0.25
  0
ENDTAB
  0
TABLE
  2
LAYER
 70
     6
  0
LAYER
  2
0
 70
     0
 62
     7
  6
CONTINUOUS
  0
LAYER
  2
3
 70
     0
 62
     2
  6
CONTINUOUS
  0
LAYER
  2
2
 70
     0
 62
     3
  6
CENTER
  0
LAYER
  2
1
 70
     0
 62
     4
  6
CONTINUOUS
  0
LAYER
  2
4
 70
     0
 62
     7
  6
CONTINUOUS
  0
LAYER
  2
DEFPOINTS
 70
     0
 62
     7
  6
CONTINUOUS
  0
ENDTAB
  0
TABLE
  2
STYLE
 70
     1
  0
STYLE
  2
STANDARD
 70
     0
 40
0.0
 41
1.0
 50
0.0
 71
     0
 42
180.0
  3
simplex.shx
  4
extfont.shx
  0
ENDTAB
  0
TABLE
  2
VIEW
 70
     0
  0
ENDTAB
  0
TABLE
  2
UCS
 70
     0
  0
ENDTAB
  0
TABLE
  2
APPID
 70
     1
  0
APPID
  2
ACAD
 70
     0
  0
ENDTAB
  0
TABLE
  2
DIMSTYLE
 70
     1
  0
DIMSTYLE
  2
IGA
 70
     0
  3

  4

  5

  6
OPEN
  7
OPEN
 40
2.0
 41
2.0
 42
0.5
 43
10.0
 44
1.0
 45
0.0
 46
0.0
 47
1.0
 48
1.0
140
3.0
141
0.0
142
0.0
143
0.03937
144
1.0
145
0.0
146
10.0
147
1.0
 71
     0
 72
     0
 73
     0
 74
     0
 75
     0
 76
     0
 77
     1
 78
     8
170
     0
171
     2
172
     0
173
     1
174
     0
175
     0
176
     0
177
     0
178
     0
  0
ENDTAB
  0
ENDSEC
  0
SECTION
  2
BLOCKS
  0
BLOCK
  8
0
  2
$MODEL_SPACE
 70
     0
 10
0.0
 20
0.0
 30
0.0
  3
$MODEL_SPACE
  1

  0
ENDBLK
  5
1B
  8
0
  0
BLOCK
 67
     1
  8
0
  2
$PAPER_SPACE
 70
     0
 10
0.0
 20
0.0
 30
0.0
  3
$PAPER_SPACE
  1

  0
ENDBLK
  5
18
 67
     1
  8
0
  0
BLOCK
  8
0
  2
_OPEN
 70
     0
 10
0.0
 20
0.0
 30
0.0
  3
_OPEN
  1

  0
LINE
  5
7B38
  8
0
  6
BYBLOCK
 62
     0
 10
-1.0
 20
0.166667
 30
0.0
 11
0.0
 21
0.0
 31
0.0
  0
LINE
  5
7B39
  8
0
  6
BYBLOCK
 62
     0
 10
0.0
 20
0.0
 30
0.0
 11
-1.0
 21
-0.166667
 31
0.0
  0
LINE
  5
7B3A
  8
0
  6
BYBLOCK
 62
     0
 10
0.0
 20
0.0
 30
0.0
 11
-1.0
 21
0.0
 31
0.0
  0
ENDBLK
  5
7B3B
  8
0
  0
BLOCK
  8
0
  2
*D1
 70
     1
 10
0.0
 20
0.0
 30
0.0
  3
*D1
  1

  0
LINE
  5
7EF6
  8
3
  6
CONTINUOUS
 62
     0
 10
680.32496031982168
 20
1196.318284433858
 30
0.0
 11
680.32496031982168
 21
1238.888591433858
 31
0.0
  0
LINE
  5
7EF7
  8
3
  6
CONTINUOUS
 62
     0
 10
840.32496031982168
 20
1196.318284433858
 30
0.0
 11
840.32496031982168
 21
1238.888591433858
 31
0.0
  0
LINE
  5
7EF8
  8
3
  6
CONTINUOUS
 62
     0
 10
700.32496031982168
 20
1228.888591433858
 30
0.0
 11
820.3249603198218
 21
1228.888591433858
 31
0.0
  0
INSERT
  5
7EF9
  8
3
  6
CONTINUOUS
 62
     0
  2
_OPEN
 10
680.32496031982168
 20
1228.888591433858
 30
0.0
 41
20.0
 42
20.0
 43
20.0
 50
180.0
  0
INSERT
  5
7EFA
  8
3
  6
CONTINUOUS
 62
     0
  2
_OPEN
 10
840.32496031982168
 20
1228.888591433858
 30
0.0
 41
20.0
 42
20.0
 43
20.0
  0
TEXT
  8
3
  40
30
  5
7F7C
  62
0
  72
0
  71
0
 10
699.691
 20
1200.79
 30
0.000000
  1
160
  0
POINT
  5
7EFC
  8
DEFPOINTS
  6
CONTINUOUS
 62
     0
 10
680.32496031982168
 20
1191.318284433858
 30
0.0
  0
POINT
  5
7EFD
  8
DEFPOINTS
  6
CONTINUOUS
 62
     0
 10
840.32496031982168
 20
1191.318284433858
 30
0.0
  0
POINT
  5
7EFE
  8
DEFPOINTS
  6
CONTINUOUS
 62
     0
 10
840.32496031982168
 20
1228.888591433858
 30
0.0
  0
ENDBLK
  5
7B55
  8
0
  0
BLOCK
  8
0
  2
*D2
 70
     1
 10
0.0
 20
0.0
 30
0.0
  3
*D2
  1

  0
LINE
  5
7EFF
  8
3
  6
CONTINUOUS
 62
     0
 10
840.32496031982168
 20
1243.4159404338579
 30
0.0
 11
840.32496031982168
 21
1297.520394433858
 31
0.0
  0
LINE
  5
7F00
  8
3
  6
CONTINUOUS
 62
     0
 10
669.3249603198218
 20
1181.318284433858
 30
0.0
 11
669.3249603198218
 21
1297.520394433858
 31
0.0
  0
LINE
  5
7F01
  8
3
  6
CONTINUOUS
 62
     0
 10
820.3249603198218
 20
1287.520394433858
 30
0.0
 11
689.3249603198218
 21
1287.520394433858
 31
0.0
  0
INSERT
  5
7F02
  8
3
  6
CONTINUOUS
 62
     0
  2
_OPEN
 10
840.32496031982168
 20
1287.520394433858
 30
0.0
 41
20.0
 42
20.0
 43
20.0
  0
INSERT
  5
7F03
  8
3
  6
CONTINUOUS
 62
     0
  2
_OPEN
 10
669.3249603198218
 20
1287.520394433858
 30
0.0
 41
20.0
 42
20.0
 43
20.0
 50
180.0
  0
TEXT
  8
3
  40
30
  5
7F7D
  62
0
  72
0
  71
0
 10
695.212
 20
1259.42
 30
0.000000
  1
171
  0
POINT
  5
7F05
  8
DEFPOINTS
  6
CONTINUOUS
 62
     0
 10
840.32496031982168
 20
1238.4159404338579
 30
0.0
  0
POINT
  5
7F06
  8
DEFPOINTS
  6
CONTINUOUS
 62
     0
 10
669.3249603198218
 20
1176.318284433858
 30
0.0
  0
POINT
  5
7F07
  8
DEFPOINTS
  6
CONTINUOUS
 62
     0
 10
669.3249603198218
 20
1287.520394433858
 30
0.0
  0
ENDBLK
  5
7B62
  8
0
  0
BLOCK
  8
0
  2
*D3
 70
     1
 10
0.0
 20
0.0
 30
0.0
  3
*D3
  1

  0
LINE
  5
7F08
  8
3
  6
CONTINUOUS
 62
     0
 10
963.32496031982168
 20
1055.318284433858
 30
0.0
 11
963.32496031982168
 21
1297.520394433858
 31
0.0
  0
LINE
  5
7F09
  8
3
  6
CONTINUOUS
 62
     0
 10
860.3249603198218
 20
1287.520394433858
 30
0.0
 11
943.3249603198218
 21
1287.520394433858
 31
0.0
  0
TEXT
  8
3
  40
30
  5
7F7E
  62
0
  72
0
  71
0
 10
838.903
 20
1259.42
 30
0.000000
  1
123
  0
INSERT
  5
7F0B
  8
3
  6
CONTINUOUS
 62
     0
  2
_OPEN
 10
840.32496031982168
 20
1287.520394433858
 30
0.0
 41
20.0
 42
20.0
 43
20.0
 50
180.0
  0
INSERT
  5
7F0C
  8
3
  6
CONTINUOUS
 62
     0
  2
_OPEN
 10
963.32496031982168
 20
1287.520394433858
 30
0.0
 41
20.0
 42
20.0
 43
20.0
  0
POINT
  5
7F0D
  8
DEFPOINTS
  6
CONTINUOUS
 62
     0
 10
840.32496031982168
 20
1238.4159404338579
 30
0.0
  0
POINT
  5
7F0E
  8
DEFPOINTS
  6
CONTINUOUS
 62
     0
 10
963.32496031982168
 20
1050.318284433858
 30
0.0
  0
POINT
  5
7F0F
  8
DEFPOINTS
  6
CONTINUOUS
 62
     0
 10
963.32496031982168
 20
1287.520394433858
 30
0.0
  0
ENDBLK
  5
7BD8
  8
0
  0
BLOCK
  8
0
  2
*D4
 70
     1
 10
0.0
 20
0.0
 30
0.0
  3
*D4
  1

  0
LINE
  5
7D08
  8
0
  6
BYBLOCK
 62
     0
 10
867.3249603198218
 20
1191.318284433858
 30
0.0
 11
1078.2671807580091
 21
1191.318284433858
 31
0.0
  0
LINE
  5
7D09
  8
0
  6
BYBLOCK
 62
     0
 10
1019.442201319821
 20
1061.318284433858
 30
0.0
 11
1078.2671807580091
 21
1061.318284433858
 31
0.0
  0
LINE
  5
7D0A
  8
0
  6
BYBLOCK
 62
     0
 10
1068.2671807580091
 20
1171.318284433858
 30
0.0
 11
1068.2671807580091
 21
1081.318284433858
 31
0.0
  0
TEXT
  5
7D0B
  8
3
 62
     0
 10
1059.225926143173
 20
1090.603998719572
 30
0.0
 40
30.0
  1
130
 50
90.0
  0
INSERT
  5
7D0C
  8
0
  6
BYBLOCK
 62
     0
  2
_OPEN
 10
1068.2671807580091
 20
1191.318284433858
 30
0.0
 41
20.0
 42
20.0
 43
20.0
 50
90.0
  0
INSERT
  5
7D0D
  8
0
  6
BYBLOCK
 62
     0
  2
_OPEN
 10
1068.2671807580091
 20
1061.318284433858
 30
0.0
 41
20.0
 42
20.0
 43
20.0
 50
270.0
  0
POINT
  5
7D0E
  8
DEFPOINTS
  6
BYBLOCK
 62
     0
 10
862.32496031982168
 20
1191.318284433858
 30
0.0
  0
POINT
  5
7D0F
  8
DEFPOINTS
  6
BYBLOCK
 62
     0
 10
1014.442201319821
 20
1061.318284433858
 30
0.0
  0
POINT
  5
7D10
  8
DEFPOINTS
  6
BYBLOCK
 62
     0
 10
1068.2671807580091
 20
1061.318284433858
 30
0.0
  0
ENDBLK
  5
7D11
  8
0
  0
BLOCK
  8
0
  2
*D5
 70
     1
 10
0.0
 20
0.0
 30
0.0
  3
*D5
  1

  0
LINE
  5
7F10
  8
3
  6
CONTINUOUS
 62
     0
 10
980.32496031982191
 20
826.31828443385825
 30
0.0
 11
1078.2671807580091
 21
826.31828443385825
 31
0.0
  0
LINE
  5
7F11
  8
3
  6
CONTINUOUS
 62
     0
 10
1068.2671807580091
 20
1041.318284433858
 30
0.0
 11
1068.2671807580091
 21
846.31828443385837
 31
0.0
  0
INSERT
  5
7F12
  8
3
  6
CONTINUOUS
 62
     0
  2
_OPEN
 10
1068.2671807580091
 20
1061.318284433858
 30
0.0
 41
20.0
 42
20.0
 43
20.0
 50
90.0
  0
INSERT
  5
7F13
  8
3
  6
CONTINUOUS
 62
     0
  2
_OPEN
 10
1068.2671807580091
 20
826.31828443385825
 30
0.0
 41
20.0
 42
20.0
 43
20.0
 50
270.0
  0
TEXT
  8
3
  40
30
  5
7F7F
  62
0
  72
0
  71
0
 10
983.267
 20
890.718
 30
0.000000
  1
235
  0
POINT
  5
7F15
  8
DEFPOINTS
  6
CONTINUOUS
 62
     0
 10
1014.442201319821
 20
1061.318284433858
 30
0.0
  0
POINT
  5
7F16
  8
DEFPOINTS
  6
CONTINUOUS
 62
     0
 10
975.3249603198218
 20
826.31828443385825
 30
0.0
  0
POINT
  5
7F17
  8
DEFPOINTS
  6
CONTINUOUS
 62
     0
 10
1068.2671807580091
 20
826.31828443385825
 30
0.0
  0
ENDBLK
  5
7CEE
  8
0
  0
BLOCK
  8
0
  2
*D6
 70
     1
 10
0.0
 20
0.0
 30
0.0
  3
*D6
  1

  0
LINE
  5
7F18
  8
3
  6
CONTINUOUS
 62
     0
 10
980.32496031982191
 20
826.31828443385825
 30
0.0
 11
1078.2671807580091
 21
826.31828443385825
 31
0.0
  0
LINE
  5
7F19
  8
3
  6
CONTINUOUS
 62
     0
 10
1005.324960319821
 20
779.31828443385825
 30
0.0
 11
1078.2671807580091
 21
779.31828443385825
 31
0.0
  0
LINE
  5
7F1A
  8
3
  6
CONTINUOUS
 62
     0
 10
1068.2671807580091
 20
846.31828443385837
 30
0.0
 11
1068.2671807580091
 21
866.31828443385825
 31
0.0
  0
LINE
  5
7F1B
  8
3
  6
CONTINUOUS
 62
     0
 10
1068.2671807580091
 20
759.31828443385825
 30
0.0
 11
1068.2671807580091
 21
670.74685586242981
 31
0.0
  0
LINE
  5
7F1C
  8
3
  6
CONTINUOUS
 62
     0
 10
1068.2671807580091
 20
826.31828443385825
 30
0.0
 11
1068.2671807580091
 21
779.31828443385825
 31
0.0
  0
INSERT
  5
7F1D
  8
3
  6
CONTINUOUS
 62
     0
  2
_OPEN
 10
1068.2671807580091
 20
826.31828443385825
 30
0.0
 41
20.0
 42
20.0
 43
20.0
 50
270.0
  0
INSERT
  5
7F1E
  8
3
  6
CONTINUOUS
 62
     0
  2
_OPEN
 10
1068.2671807580091
 20
779.31828443385825
 30
0.0
 41
20.0
 42
20.0
 43
20.0
 50
90.0
  0
TEXT
  8
3
  40
30
  5
7F80
  62
0
  72
0
  71
0
 10
983.267
 20
651.933
 30
0.000000
  1
47
  0
POINT
  5
7F20
  8
DEFPOINTS
  6
CONTINUOUS
 62
     0
 10
975.3249603198218
 20
826.31828443385825
 30
0.0
  0
POINT
  5
7F21
  8
DEFPOINTS
  6
CONTINUOUS
 62
     0
 10
1000.324960319821
 20
779.31828443385825
 30
0.0
  0
POINT
  5
7F22
  8
DEFPOINTS
  6
CONTINUOUS
 62
     0
 10
1068.2671807580091
 20
779.31828443385825
 30
0.0
  0
ENDBLK
  5
7CFB
  8
0
  0
BLOCK
  8
0
  2
*D7
 70
     1
 10
0.0
 20
0.0
 30
0.0
  3
*D7
  1

  0
LINE
  5
7F23
  8
3
  6
CONTINUOUS
 62
     0
 10
867.3249603198218
 20
1191.318284433858
 30
0.0
 11
1179.2395967580089
 21
1191.318284433858
 31
0.0
  0
LINE
  5
7F24
  8
3
  6
CONTINUOUS
 62
     0
 10
1005.324960319821
 20
779.31828443385825
 30
0.0
 11
1179.2395967580089
 21
779.31828443385825
 31
0.0
  0
LINE
  5
7F25
  8
3
  6
CONTINUOUS
 62
     0
 10
1169.2395967580089
 20
1171.318284433858
 30
0.0
 11
1169.2395967580089
 21
799.31828443385825
 31
0.0
  0
INSERT
  5
7F26
  8
3
  6
CONTINUOUS
 62
     0
  2
_OPEN
 10
1169.2395967580089
 20
1191.318284433858
 30
0.0
 41
20.0
 42
20.0
 43
20.0
 50
90.0
  0
INSERT
  5
7F27
  8
3
  6
CONTINUOUS
 62
     0
  2
_OPEN
 10
1169.2395967580089
 20
779.31828443385825
 30
0.0
 41
20.0
 42
20.0
 43
20.0
 50
270.0
  0
TEXT
  8
3
  40
30
  5
7F81
  62
0
  72
0
  71
0
 10
1084.24
 20
956.913
 30
0.000000
  1
412
  0
POINT
  5
7F29
  8
DEFPOINTS
  6
CONTINUOUS
 62
     0
 10
862.32496031982168
 20
1191.318284433858
 30
0.0
  0
POINT
  5
7F2A
  8
DEFPOINTS
  6
CONTINUOUS
 62
     0
 10
1000.324960319821
 20
779.31828443385825
 30
0.0
  0
POINT
  5
7F2B
  8
DEFPOINTS
  6
CONTINUOUS
 62
     0
 10
1169.2395967580089
 20
779.31828443385825
 30
0.0
  0
ENDBLK
  5
7CD7
  8
0
  0
BLOCK
  8
0
  2
*D8
 70
     1
 10
0.0
 20
0.0
 30
0.0
  3
*D8
  1

  0
LINE
  5
7F2C
  8
3
  6
CONTINUOUS
 62
     0
 10
1000.324960319821
 20
774.31828443385825
 30
0.0
 11
1000.324960319821
 21
695.33702543385834
 31
0.0
  0
LINE
  5
7F2D
  8
3
  6
CONTINUOUS
 62
     0
 10
840.32496031982168
 20
738.5230174338584
 30
0.0
 11
840.32496031982168
 21
695.33702543385834
 31
0.0
  0
LINE
  5
7F2E
  8
3
  6
CONTINUOUS
 62
     0
 10
980.32496031982191
 20
705.33702543385834
 30
0.0
 11
860.3249603198218
 21
705.33702543385834
 31
0.0
  0
INSERT
  5
7F2F
  8
3
  6
CONTINUOUS
 62
     0
  2
_OPEN
 10
1000.324960319821
 20
705.33702543385834
 30
0.0
 41
20.0
 42
20.0
 43
20.0
  0
INSERT
  5
7F30
  8
3
  6
CONTINUOUS
 62
     0
  2
_OPEN
 10
840.32496031982168
 20
705.33702543385834
 30
0.0
 41
20.0
 42
20.0
 43
20.0
 50
180.0
  0
TEXT
  8
3
  40
30
  5
7F82
  62
0
  72
0
  71
0
 10
864.146
 20
677.237
 30
0.000000
  1
160
  0
POINT
  5
7F32
  8
DEFPOINTS
  6
CONTINUOUS
 62
     0
 10
1000.324960319821
 20
779.31828443385825
 30
0.0
  0
POINT
  5
7F33
  8
DEFPOINTS
  6
CONTINUOUS
 62
     0
 10
840.32496031982168
 20
743.5230174338584
 30
0.0
  0
POINT
  5
7F34
  8
DEFPOINTS
  6
CONTINUOUS
 62
     0
 10
840.32496031982168
 20
705.33702543385834
 30
0.0
  0
ENDBLK
  5
7BB5
  8
0
  0
BLOCK
  8
0
  2
*D9
 70
     1
 10
0.0
 20
0.0
 30
0.0
  3
*D9
  1

  0
LINE
  5
7F35
  8
3
  6
CONTINUOUS
 62
     0
 10
390.3249603198218
 20
774.31828443385825
 30
0.0
 11
390.3249603198218
 21
695.33702543385834
 31
0.0
  0
LINE
  5
7F36
  8
3
  6
CONTINUOUS
 62
     0
 10
820.3249603198218
 20
705.33702543385834
 30
0.0
 11
410.3249603198218
 21
705.33702543385834
 31
0.0
  0
INSERT
  5
7F37
  8
3
  6
CONTINUOUS
 62
     0
  2
_OPEN
 10
840.32496031982168
 20
705.33702543385834
 30
0.0
 41
20.0
 42
20.0
 43
20.0
  0
INSERT
  5
7F38
  8
3
  6
CONTINUOUS
 62
     0
  2
_OPEN
 10
390.3249603198218
 20
705.33702543385834
 30
0.0
 41
20.0
 42
20.0
 43
20.0
 50
180.0
  0
TEXT
  8
3
  40
30
  5
7F83
  62
0
  72
0
  71
0
 10
555.325
 20
677.237
 30
0.000000
  1
450
  0
POINT
  5
7F3A
  8
DEFPOINTS
  6
CONTINUOUS
 62
     0
 10
840.32496031982168
 20
743.5230174338584
 30
0.0
  0
POINT
  5
7F3B
  8
DEFPOINTS
  6
CONTINUOUS
 62
     0
 10
390.3249603198218
 20
779.31828443385825
 30
0.0
  0
POINT
  5
7F3C
  8
DEFPOINTS
  6
CONTINUOUS
 62
     0
 10
390.3249603198218
 20
705.33702543385834
 30
0.0
  0
ENDBLK
  5
7BC1
  8
0
  0
BLOCK
  8
0
  2
*D10
 70
     1
 10
0.0
 20
0.0
 30
0.0
  3
*D10
  1

  0
LINE
  5
7D34
  8
0
  6
BYBLOCK
 62
     0
 10
1584.324960319821
 20
1196.318284433858
 30
0.0
 11
1584.324960319821
 21
1229.2992664338581
 31
0.0
  0
LINE
  5
7D35
  8
0
  6
BYBLOCK
 62
     0
 10
1696.324960319821
 20
1196.318284433858
 30
0.0
 11
1696.324960319821
 21
1229.2992664338581
 31
0.0
  0
LINE
  5
7D36
  8
0
  6
BYBLOCK
 62
     0
 10
1604.324960319821
 20
1219.2992664338581
 30
0.0
 11
1676.3249603198219
 21
1219.2992664338581
 31
0.0
  0
TEXT
  5
7D37
  8
3
 62
     0
 10
1607.467817462679
 20
1224.9016071041649
 30
0.0
 40
30.0
  1
112
  0
INSERT
  5
7D38
  8
0
  6
BYBLOCK
 62
     0
  2
_OPEN
 10
1584.324960319821
 20
1219.2992664338581
 30
0.0
 41
20.0
 42
20.0
 43
20.0
 50
180.0
  0
INSERT
  5
7D39
  8
0
  6
BYBLOCK
 62
     0
  2
_OPEN
 10
1696.324960319821
 20
1219.2992664338581
 30
0.0
 41
20.0
 42
20.0
 43
20.0
  0
POINT
  5
7D3A
  8
DEFPOINTS
  6
BYBLOCK
 62
     0
 10
1584.324960319821
 20
1191.318284433858
 30
0.0
  0
POINT
  5
7D3B
  8
DEFPOINTS
  6
BYBLOCK
 62
     0
 10
1696.324960319821
 20
1191.318284433858
 30
0.0
  0
POINT
  5
7D3C
  8
DEFPOINTS
  6
BYBLOCK
 62
     0
 10
1696.324960319821
 20
1219.2992664338581
 30
0.0
  0
ENDBLK
  5
7D3D
  8
0
  0
BLOCK
  8
0
  2
*D11
 70
     1
 10
0.0
 20
0.0
 30
0.0
  3
*D11
  1

  0
LINE
  5
7D29
  8
0
  6
BYBLOCK
 62
     0
 10
1709.3249603198219
 20
1141.318284433858
 30
0.0
 11
1784.6446433198209
 21
1141.318284433858
 31
0.0
  0
LINE
  5
7D2A
  8
0
  6
BYBLOCK
 62
     0
 10
1709.3249603198219
 20
981.31828443385837
 30
0.0
 11
1784.6446433198209
 21
981.31828443385837
 31
0.0
  0
LINE
  5
7D2B
  8
0
  6
BYBLOCK
 62
     0
 10
1774.6446433198209
 20
1121.318284433858
 30
0.0
 11
1774.6446433198209
 21
1001.318284433858
 31
0.0
  0
TEXT
  5
7D2C
  8
3
 62
     0
 10
1768.990286516296
 20
1010.603998719572
 30
0.0
 40
30.0
  1
φ160
 50
90.0
  0
INSERT
  5
7D2D
  8
0
  6
BYBLOCK
 62
     0
  2
_OPEN
 10
1774.6446433198209
 20
1141.318284433858
 30
0.0
 41
20.0
 42
20.0
 43
20.0
 50
90.0
  0
INSERT
  5
7D2E
  8
0
  6
BYBLOCK
 62
     0
  2
_OPEN
 10
1774.6446433198209
 20
981.31828443385837
 30
0.0
 41
20.0
 42
20.0
 43
20.0
 50
270.0
  0
POINT
  5
7D2F
  8
DEFPOINTS
  6
BYBLOCK
 62
     0
 10
1704.3249603198219
 20
1141.318284433858
 30
0.0
  0
POINT
  5
7D30
  8
DEFPOINTS
  6
BYBLOCK
 62
     0
 10
1704.3249603198219
 20
981.31828443385837
 30
0.0
  0
POINT
  5
7D31
  8
DEFPOINTS
  6
BYBLOCK
 62
     0
 10
1774.6446433198209
 20
981.31828443385837
 30
0.0
  0
ENDBLK
  5
7D32
  8
0
  0
BLOCK
  8
0
  2
*D12
 70
     1
 10
0.0
 20
0.0
 30
0.0
  3
*D12
  1

  0
LINE
  5
7F3D
  8
3
  6
CONTINUOUS
 62
     0
 10
1380.324960319821
 20
1161.318284433858
 30
0.0
 11
1380.324960319821
 21
1289.7579474338579
 31
0.0
  0
LINE
  5
7F3E
  8
3
  6
CONTINUOUS
 62
     0
 10
1640.3249603198219
 20
1261.690137958898
 30
0.0
 11
1640.3249603198219
 21
1289.7579474338579
 31
0.0
  0
LINE
  5
7F3F
  8
3
  6
CONTINUOUS
 62
     0
 10
1400.3249603198219
 20
1279.7579474338579
 30
0.0
 11
1620.324960319821
 21
1279.7579474338579
 31
0.0
  0
INSERT
  5
7F40
  8
3
  6
CONTINUOUS
 62
     0
  2
_OPEN
 10
1380.324960319821
 20
1279.7579474338579
 30
0.0
 41
20.0
 42
20.0
 43
20.0
 50
180.0
  0
INSERT
  5
7F41
  8
3
  6
CONTINUOUS
 62
     0
  2
_OPEN
 10
1640.3249603198219
 20
1279.7579474338579
 30
0.0
 41
20.0
 42
20.0
 43
20.0
  0
TEXT
  8
3
  40
30
  5
7F84
  62
0
  72
0
  71
0
 10
1454.45
 20
1276.66
 30
0.000000
  1
MAX
  0
TEXT
  8
3
  40
30
  5
7F85
  62
0
  72
0
  71
0
 10
1454.45
 20
1237.66
 30
0.000000
  1
260
  0
POINT
  5
7F43
  8
DEFPOINTS
  6
CONTINUOUS
 62
     0
 10
1380.324960319821
 20
1156.318284433858
 30
0.0
  0
POINT
  5
7F44
  8
DEFPOINTS
  6
CONTINUOUS
 62
     0
 10
1640.3249603198219
 20
1256.690137958898
 30
0.0
  0
POINT
  5
7F45
  8
DEFPOINTS
  6
CONTINUOUS
 62
     0
 10
1640.3249603198219
 20
1279.7579474338579
 30
0.0
  0
ENDBLK
  5
7D5D
  8
0
  0
BLOCK
  8
0
  2
*D13
 70
     1
 10
0.0
 20
0.0
 30
0.0
  3
*D13
  1

  0
LINE
  5
7F46
  8
3
  6
CONTINUOUS
 62
     0
 10
1704.3249603198219
 20
1166.318284433858
 30
0.0
 11
1704.3249603198219
 21
1289.7579474338579
 31
0.0
  0
LINE
  5
7F47
  8
3
  6
CONTINUOUS
 62
     0
 10
1660.3249603198219
 20
1279.7579474338579
 30
0.0
 11
1684.3249603198219
 21
1279.7579474338579
 31
0.0
  0
TEXT
  8
3
  40
30
  5
7F86
  62
0
  72
0
  71
0
 10
1613.67
 20
1255.54
 30
0.000000
  1
64
  0
INSERT
  5
7F49
  8
3
  6
CONTINUOUS
 62
     0
  2
_OPEN
 10
1640.3249603198219
 20
1279.7579474338579
 30
0.0
 41
20.0
 42
20.0
 43
20.0
 50
180.0
  0
INSERT
  5
7F4A
  8
3
  6
CONTINUOUS
 62
     0
  2
_OPEN
 10
1704.3249603198219
 20
1279.7579474338579
 30
0.0
 41
20.0
 42
20.0
 43
20.0
  0
POINT
  5
7F4B
  8
DEFPOINTS
  6
CONTINUOUS
 62
     0
 10
1640.3249603198219
 20
1256.690137958898
 30
0.0
  0
POINT
  5
7F4C
  8
DEFPOINTS
  6
CONTINUOUS
 62
     0
 10
1704.3249603198219
 20
1161.318284433858
 30
0.0
  0
POINT
  5
7F4D
  8
DEFPOINTS
  6
CONTINUOUS
 62
     0
 10
1704.3249603198219
 20
1279.7579474338579
 30
0.0
  0
ENDBLK
  5
7D52
  8
0
  0
BLOCK
  8
0
  2
*D14
 70
     1
 10
0.0
 20
0.0
 30
0.0
  3
*D14
  1

  0
LINE
  5
7F4E
  8
3
  6
CONTINUOUS
 62
     0
 10
1452.3249603198219
 20
774.31828443385825
 30
0.0
 11
1452.3249603198219
 21
701.15885843385843
 31
0.0
  0
LINE
  5
7F4F
  8
3
  6
CONTINUOUS
 62
     0
 10
1640.3249603198219
 20
726.79615443385842
 30
0.0
 11
1640.3249603198219
 21
701.15885843385843
 31
0.0
  0
LINE
  5
7F50
  8
3
  6
CONTINUOUS
 62
     0
 10
1472.3249603198219
 20
711.15885843385831
 30
0.0
 11
1620.324960319821
 21
711.15885843385831
 31
0.0
  0
INSERT
  5
7F51
  8
3
  6
CONTINUOUS
 62
     0
  2
_OPEN
 10
1452.3249603198219
 20
711.15885843385831
 30
0.0
 41
20.0
 42
20.0
 43
20.0
 50
180.0
  0
INSERT
  5
7F52
  8
3
  6
CONTINUOUS
 62
     0
  2
_OPEN
 10
1640.3249603198219
 20
711.15885843385831
 30
0.0
 41
20.0
 42
20.0
 43
20.0
  0
TEXT
  8
3
  40
30
  5
7F87
  62
0
  72
0
  71
0
 10
1491.34
 20
683.059
 30
0.000000
  1
188
  0
POINT
  5
7F54
  8
DEFPOINTS
  6
CONTINUOUS
 62
     0
 10
1452.3249603198219
 20
779.31828443385825
 30
0.0
  0
POINT
  5
7F55
  8
DEFPOINTS
  6
CONTINUOUS
 62
     0
 10
1640.3249603198219
 20
731.79615443385842
 30
0.0
  0
POINT
  5
7F56
  8
DEFPOINTS
  6
CONTINUOUS
 62
     0
 10
1640.3249603198219
 20
711.15885843385831
 30
0.0
  0
ENDBLK
  5
7C47
  8
0
  0
BLOCK
  8
0
  2
*D15
 70
     1
 10
0.0
 20
0.0
 30
0.0
  3
*D15
  1

  0
LINE
  5
7F57
  8
3
  6
CONTINUOUS
 62
     0
 10
1676.3249603198219
 20
774.31828443385825
 30
0.0
 11
1676.3249603198219
 21
701.15885843385843
 31
0.0
  0
LINE
  5
7F58
  8
3
  6
CONTINUOUS
 62
     0
 10
1620.324960319821
 20
711.15885843385831
 30
0.0
 11
1600.3249603198219
 21
711.15885843385831
 31
0.0
  0
LINE
  5
7F59
  8
3
  6
CONTINUOUS
 62
     0
 10
1696.324960319821
 20
711.15885843385831
 30
0.0
 11
1716.3249603198219
 21
711.15885843385831
 31
0.0
  0
TEXT
  8
3
  40
30
  5
7F88
  62
0
  72
0
  71
0
 10
1664.16
 20
681.118
 30
0.000000
  1
36
  0
LINE
  5
7F5B
  8
3
  6
CONTINUOUS
 62
     0
 10
1640.3249603198219
 20
711.15885843385831
 30
0.0
 11
1676.3249603198219
 21
711.15885843385831
 31
0.0
  0
INSERT
  5
7F5C
  8
3
  6
CONTINUOUS
 62
     0
  2
_OPEN
 10
1640.3249603198219
 20
711.15885843385831
 30
0.0
 41
20.0
 42
20.0
 43
20.0
  0
INSERT
  5
7F5D
  8
3
  6
CONTINUOUS
 62
     0
  2
_OPEN
 10
1676.3249603198219
 20
711.15885843385831
 30
0.0
 41
20.0
 42
20.0
 43
20.0
 50
180.0
  0
POINT
  5
7F5E
  8
DEFPOINTS
  6
CONTINUOUS
 62
     0
 10
1640.3249603198219
 20
731.79615443385842
 30
0.0
  0
POINT
  5
7F5F
  8
DEFPOINTS
  6
CONTINUOUS
 62
     0
 10
1676.3249603198219
 20
779.31828443385825
 30
0.0
  0
POINT
  5
7F60
  8
DEFPOINTS
  6
CONTINUOUS
 62
     0
 10
1676.3249603198219
 20
711.15885843385831
 30
0.0
  0
ENDBLK
  5
7C88
  8
0
  0
BLOCK
  8
0
  2
*D16
 70
     1
 10
0.0
 20
0.0
 30
0.0
  3
*D16
  1

  0
LINE
  5
7F61
  8
3
  6
CONTINUOUS
 62
     0
 10
390.3249603198218
 20
1763.5596776571781
 30
0.0
 11
390.3249603198218
 21
1593.3185466571781
 31
0.0
  0
LINE
  5
7F62
  8
3
  6
CONTINUOUS
 62
     0
 10
1000.324960319821
 20
1763.5596776571781
 30
0.0
 11
1000.324960319821
 21
1593.3185466571781
 31
0.0
  0
LINE
  5
7F63
  8
3
  6
CONTINUOUS
 62
     0
 10
410.3249603198218
 20
1603.318546657177
 30
0.0
 11
980.32496031982191
 21
1603.318546657177
 31
0.0
  0
INSERT
  5
7F64
  8
3
  6
CONTINUOUS
 62
     0
  2
_OPEN
 10
390.3249603198218
 20
1603.318546657177
 30
0.0
 41
20.0
 42
20.0
 43
20.0
 50
180.0
  0
INSERT
  5
7F65
  8
3
  6
CONTINUOUS
 62
     0
  2
_OPEN
 10
1000.324960319821
 20
1603.318546657177
 30
0.0
 41
20.0
 42
20.0
 43
20.0
  0
TEXT
  8
3
  40
30
  5
7F89
  62
0
  72
0
  71
0
 10
617.541
 20
1575.22
 30
0.000000
  1
610
  0
POINT
  5
7F67
  8
DEFPOINTS
  6
CONTINUOUS
 62
     0
 10
390.3249603198218
 20
1768.5596776571781
 30
0.0
  0
POINT
  5
7F68
  8
DEFPOINTS
  6
CONTINUOUS
 62
     0
 10
1000.324960319821
 20
1768.5596776571781
 30
0.0
  0
POINT
  5
7F69
  8
DEFPOINTS
  6
CONTINUOUS
 62
     0
 10
1000.324960319821
 20
1603.318546657177
 30
0.0
  0
ENDBLK
  5
7C94
  8
0
  0
BLOCK
  8
0
  2
*D17
 70
     1
 10
0.0
 20
0.0
 30
0.0
  3
*D17
  1

  0
LINE
  5
7F6A
  8
3
  6
CONTINUOUS
 62
     0
 10
1005.324960319821
 20
1992.5596776571781
 30
0.0
 11
1105.022673319821
 21
1992.5596776571781
 31
0.0
  0
LINE
  5
7F6B
  8
3
  6
CONTINUOUS
 62
     0
 10
1005.324960319821
 20
1768.5596776571781
 30
0.0
 11
1105.022673319821
 21
1768.5596776571781
 31
0.0
  0
LINE
  5
7F6C
  8
3
  6
CONTINUOUS
 62
     0
 10
1095.0226733198219
 20
1972.5596776571781
 30
0.0
 11
1095.0226733198219
 21
1788.5596776571781
 31
0.0
  0
INSERT
  5
7F6D
  8
3
  6
CONTINUOUS
 62
     0
  2
_OPEN
 10
1095.0226733198219
 20
1992.5596776571781
 30
0.0
 41
20.0
 42
20.0
 43
20.0
 50
90.0
  0
INSERT
  5
7F6E
  8
3
  6
CONTINUOUS
 62
     0
  2
_OPEN
 10
1095.0226733198219
 20
1768.5596776571781
 30
0.0
 41
20.0
 42
20.0
 43
20.0
 50
270.0
  0
TEXT
  8
3
  40
30
  5
7F8A
  62
0
  72
0
  71
0
 10
1010.02
 20
1825.79
 30
0.000000
  1
224
  0
POINT
  5
7F70
  8
DEFPOINTS
  6
CONTINUOUS
 62
     0
 10
1000.324960319821
 20
1992.5596776571781
 30
0.0
  0
POINT
  5
7F71
  8
DEFPOINTS
  6
CONTINUOUS
 62
     0
 10
1000.324960319821
 20
1768.5596776571781
 30
0.0
  0
POINT
  5
7F72
  8
DEFPOINTS
  6
CONTINUOUS
 62
     0
 10
1095.0226733198219
 20
1768.5596776571781
 30
0.0
  0
ENDBLK
  5
7CA1
  8
0
  0
BLOCK
  8
0
  2
*D18
 70
     1
 10
0.0
 20
0.0
 30
0.0
  3
*D18
  1

  0
LINE
  5
7F73
  8
3
 62
     0
 10
963.32496031982168
 20
1060.318284433858
 30
0.0
 11
963.32496031982168
 21
1361.990631037771
 31
0.0
  0
LINE
  5
7F74
  8
3
 62
     0
 10
390.3249603198218
 20
809.31828443385825
 30
0.0
 11
390.3249603198218
 21
1361.990631037771
 31
0.0
  0
LINE
  5
7F75
  8
3
 62
     0
 10
943.3249603198218
 20
1351.9906310377719
 30
0.0
 11
410.3249603198218
 21
1351.9906310377719
 31
0.0
  0
INSERT
  5
7F76
  8
3
 62
     0
  2
_OPEN
 10
963.32496031982168
 20
1351.9906310377719
 30
0.0
 41
20.0
 42
20.0
 43
20.0
  0
INSERT
  5
7F77
  8
3
 62
     0
  2
_OPEN
 10
390.3249603198218
 20
1351.9906310377719
 30
0.0
 41
20.0
 42
20.0
 43
20.0
 50
180.0
  0
TEXT
  8
3
  40
30
  5
7F8B
  62
0
  72
0
  71
0
 10
649.838
 20
1323.89
 30
0.000000
  1
573
  0
POINT
  5
7F79
  8
DEFPOINTS
 62
     0
 10
963.32496031982168
 20
1055.318284433858
 30
0.0
  0
POINT
  5
7F7A
  8
DEFPOINTS
 62
     0
 10
390.3249603198218
 20
804.31828443385837
 30
0.0
  0
POINT
  5
7F7B
  8
DEFPOINTS
 62
     0
 10
390.3249603198218
 20
1351.9906310377719
 30
0.0
  0
ENDBLK
  5
7D69
  8
0
  0
ENDSEC
  0
SECTION
  2
ENTITIES
  0
CIRCLE
  5
7A8F
  8
1
  6
CONTINUOUS
 10
840.32496031982168
 20
1061.318284433858
 30
0.0
 40
80.0
  0
ARC
  5
7A90
  8
1
  6
CONTINUOUS
 10
849.3249603198218
 20
1052.318284433858
 30
0.0
 40
114.0
 50
359.5
 51
89.500000000000014
  0
ARC
  5
7A91
  8
1
  6
CONTINUOUS
 10
829.32496031982168
 20
1050.318284433858
 30
0.0
 40
134.0
 50
279.89999999999992
 51
0.5
  0
LINE
  5
7A92
  8
1
  6
CONTINUOUS
 10
669.3249603198218
 20
1176.318284433858
 30
0.0
 11
669.3249603198218
 21
1074.318284433858
 31
0.0
  0
ARC
  5
7A93
  8
1
  6
CONTINUOUS
 10
827.3249603198218
 20
1074.318284433858
 30
0.0
 40
158.0
 50
180.0
 51
279.10000000000002
  0
LINE
  5
7A94
  8
1
  6
CONTINUOUS
 10
840.32496031982168
 20
1176.318284433858
 30
0.0
 11
850.3249603198218
 21
1176.318284433858
 31
0.0
  0
LINE
  5
7A95
  8
1
  6
CONTINUOUS
 10
669.3249603198218
 20
1176.318284433858
 30
0.0
 11
680.32496031982168
 21
1176.318284433858
 31
0.0
  0
LINE
  5
7A96
  8
1
  6
CONTINUOUS
 10
840.32496031982168
 20
1176.318284433858
 30
0.0
 11
840.32496031982168
 21
1191.318284433858
 31
0.0
  0
LINE
  5
7A97
  8
1
  6
CONTINUOUS
 10
680.32496031982168
 20
1176.318284433858
 30
0.0
 11
680.32496031982168
 21
1191.318284433858
 31
0.0
  0
LINE
  5
7A98
  8
1
  6
CONTINUOUS
 10
841.3249603198218
 20
1191.318284433858
 30
0.0
 11
826.3249603198218
 21
1176.318284433858
 31
0.0
  0
LINE
  5
7A99
  8
1
  6
CONTINUOUS
 10
694.3249603198218
 20
1176.318284433858
 30
0.0
 11
826.3249603198218
 21
1176.318284433858
 31
0.0
  0
LINE
  5
7A9A
  8
1
  6
CONTINUOUS
 10
679.32496031982168
 20
1191.318284433858
 30
0.0
 11
694.3249603198218
 21
1176.318284433858
 31
0.0
  0
LINE
  5
7A9B
  8
1
  6
CONTINUOUS
 10
658.32496031982168
 20
1191.318284433858
 30
0.0
 11
862.32496031982168
 21
1191.318284433858
 31
0.0
  0
LINE
  5
7A9C
  8
1
  6
CONTINUOUS
 10
850.3249603198218
 20
1176.318284433858
 30
0.0
 11
850.3249603198218
 21
1166.318284433858
 31
0.0
  0
LINE
  5
7A9D
  8
1
  6
CONTINUOUS
 10
680.32496031982168
 20
1992.5596776571781
 30
0.0
 11
390.3249603198218
 21
1992.5596776571781
 31
0.0
  0
LINE
  5
7A9E
  8
1
  6
CONTINUOUS
 10
1000.324960319821
 20
1768.5596776571781
 30
0.0
 11
1000.324960319821
 21
1992.5596776571781
 31
0.0
  0
LINE
  5
7A9F
  8
1
  6
CONTINUOUS
 10
390.3249603198218
 20
1992.5596776571781
 30
0.0
 11
390.3249603198218
 21
1768.5596776571781
 31
0.0
  0
LINE
  5
7AA0
  8
1
  6
CONTINUOUS
 10
390.3249603198218
 20
804.31828443385837
 30
0.0
 11
1000.324960319821
 21
804.31828443385837
 31
0.0
  0
LINE
  5
7AA1
  8
1
  6
CONTINUOUS
 10
390.3249603198218
 20
779.31828443385825
 30
0.0
 11
1000.324960319821
 21
779.31828443385825
 31
0.0
  0
LINE
  5
7AA2
  8
1
  6
CONTINUOUS
 10
390.3249603198218
 20
804.31828443385837
 30
0.0
 11
390.3249603198218
 21
779.31828443385825
 31
0.0
  0
LINE
  5
7AA3
  8
1
  6
CONTINUOUS
 10
1000.324960319821
 20
779.31828443385825
 30
0.0
 11
1000.324960319821
 21
804.31828443385837
 31
0.0
  0
LINE
  5
7AA4
  8
1
  6
CONTINUOUS
 10
1452.3249603198219
 20
779.31828443385825
 30
0.0
 11
1676.3249603198219
 21
779.31828443385825
 31
0.0
  0
LINE
  5
7AA5
  8
1
  6
CONTINUOUS
 10
1452.3249603198219
 20
804.31828443385837
 30
0.0
 11
1676.3249603198219
 21
804.31828443385837
 31
0.0
  0
LINE
  5
7AA6
  8
1
  6
CONTINUOUS
 10
1452.3249603198219
 20
804.31828443385837
 30
0.0
 11
1452.3249603198219
 21
779.31828443385825
 31
0.0
  0
LINE
  5
7AA7
  8
1
  6
CONTINUOUS
 10
1676.3249603198219
 20
804.31828443385837
 30
0.0
 11
1676.3249603198219
 21
779.31828443385825
 31
0.0
  0
LINE
  5
7AA8
  8
1
  6
CONTINUOUS
 10
457.62496031982192
 20
1156.318284433858
 30
0.0
 11
457.62496031982192
 21
876.31828443385825
 31
0.0
  0
LINE
  5
7AA9
  8
1
  6
CONTINUOUS
 10
937.62496031982175
 20
1156.318284433858
 30
0.0
 11
457.62496031982192
 21
1156.318284433858
 31
0.0
  0
LINE
  5
7AAA
  8
1
  6
CONTINUOUS
 10
937.62496031982175
 20
876.31828443385825
 30
0.0
 11
937.62496031982175
 21
1156.318284433858
 31
0.0
  0
LINE
  5
7AAB
  8
1
  6
CONTINUOUS
 10
415.3249603198218
 20
876.31828443385825
 30
0.0
 11
975.3249603198218
 21
876.31828443385825
 31
0.0
  0
LINE
  5
7AAC
  8
1
  6
CONTINUOUS
 10
415.3249603198218
 20
826.31828443385825
 30
0.0
 11
975.3249603198218
 21
826.31828443385825
 31
0.0
  0
LINE
  5
7AAD
  8
1
  6
CONTINUOUS
 10
415.3249603198218
 20
896.31828443385837
 30
0.0
 11
415.3249603198218
 21
826.31828443385825
 31
0.0
  0
LINE
  5
7AAE
  8
1
  6
CONTINUOUS
 10
975.3249603198218
 20
826.31828443385825
 30
0.0
 11
975.3249603198218
 21
876.31828443385825
 31
0.0
  0
ARC
  5
7AAF
  8
1
  6
CONTINUOUS
 10
554.82496031982168
 20
976.31828443385848
 30
0.0
 40
85.0
 50
324.69999999999987
 51
215.30000000000001
  0
LINE
  5
7AB0
  8
1
  6
CONTINUOUS
 10
477.3249603198218
 20
904.31828443385837
 30
0.0
 11
485.52496031982179
 21
927.11828443385843
 31
0.0
  0
LINE
  5
7AB1
  8
1
  6
CONTINUOUS
 10
632.3249603198218
 20
896.31828443385837
 30
0.0
 11
632.3249603198218
 21
904.31828443385837
 31
0.0
  0
LINE
  5
7AB2
  8
1
  6
CONTINUOUS
 10
632.3249603198218
 20
904.31828443385837
 30
0.0
 11
624.12496031982187
 21
927.11828443385843
 31
0.0
  0
LINE
  5
7AB3
  8
1
  6
CONTINUOUS
 10
477.3249603198218
 20
896.31828443385837
 30
0.0
 11
477.3249603198218
 21
904.31828443385837
 31
0.0
  0
LINE
  5
7AB4
  8
1
  6
CONTINUOUS
 10
415.3249603198218
 20
896.31828443385837
 30
0.0
 11
666.3249603198218
 21
896.31828443385837
 31
0.0
  0
LINE
  5
7AB5
  8
1
  6
CONTINUOUS
 10
666.3249603198218
 20
896.31828443385837
 30
0.0
 11
666.3249603198218
 21
876.31828443385825
 31
0.0
  0
LINE
  5
7AB6
  8
1
  6
CONTINUOUS
 10
950.3249603198218
 20
876.31828443385825
 30
0.0
 11
950.3249603198218
 21
1103.4182844338579
 31
0.0
  0
LINE
  5
7AB7
  8
1
  6
CONTINUOUS
 10
730.32496031982168
 20
1103.4182844338579
 30
0.0
 11
730.32496031982168
 21
876.31828443385825
 31
0.0
  0
LINE
  5
7AB8
  8
1
  6
CONTINUOUS
 10
730.32496031982168
 20
1028.0182844338581
 30
0.0
 11
950.3249603198218
 21
1028.0182844338581
 31
0.0
  0
LINE
  5
7AB9
  8
1
  6
CONTINUOUS
 10
876.92496031982182
 20
1166.318284433858
 30
0.0
 11
803.72496031982166
 21
1166.318284433858
 31
0.0
  0
LINE
  5
7ABA
  8
1
  6
CONTINUOUS
 10
730.32496031982168
 20
1103.4182844338579
 30
0.0
 11
803.72496031982166
 21
1166.318284433858
 31
0.0
  0
LINE
  5
7ABB
  8
1
  6
CONTINUOUS
 10
950.3249603198218
 20
1103.4182844338579
 30
0.0
 11
876.92496031982182
 21
1166.318284433858
 31
0.0
  0
LINE
  5
7ABC
  8
1
  6
CONTINUOUS
 10
680.32496031982168
 20
1900.5596776571781
 30
0.0
 11
840.32496031982168
 21
2012.559677657177
 31
0.0
  0
LINE
  5
7ABD
  8
1
  6
CONTINUOUS
 10
840.32496031982168
 20
1900.5596776571781
 30
0.0
 11
680.32496031982168
 21
2012.559677657177
 31
0.0
  0
ARC
  5
7ABE
  8
1
  6
CONTINUOUS
 10
951.3249603198218
 20
2000.559677657177
 30
0.0
 40
12.0
 50
0.0
 51
90.0
  0
ARC
  5
7ABF
  8
1
  6
CONTINUOUS
 10
951.3249603198218
 20
1912.5596776571781
 30
0.0
 40
12.0
 50
270.0
 51
0.0
  0
LINE
  5
7AC0
  8
1
  6
CONTINUOUS
 10
680.32496031982168
 20
2012.559677657177
 30
0.0
 11
951.3249603198218
 21
2012.559677657177
 31
0.0
  0
LINE
  5
7AC1
  8
1
  6
CONTINUOUS
 10
680.32496031982168
 20
1900.5596776571781
 30
0.0
 11
680.32496031982168
 21
2012.559677657177
 31
0.0
  0
LINE
  5
7AC2
  8
1
  6
CONTINUOUS
 10
951.3249603198218
 20
1900.5596776571781
 30
0.0
 11
680.32496031982168
 21
1900.5596776571781
 31
0.0
  0
LINE
  5
7AC3
  8
1
  6
CONTINUOUS
 10
840.32496031982168
 20
2012.559677657177
 30
0.0
 11
840.32496031982168
 21
1900.5596776571781
 31
0.0
  0
LINE
  5
7AC4
  8
1
  6
CONTINUOUS
 10
740.3249603198218
 20
2019.159677657178
 30
0.0
 11
740.3249603198218
 21
2012.159677657178
 31
0.0
  0
LINE
  5
7AC5
  8
1
  6
CONTINUOUS
 10
740.3249603198218
 20
2019.159677657178
 30
0.0
 11
940.32496031982168
 21
2019.159677657178
 31
0.0
  0
LINE
  5
7AC6
  8
1
  6
CONTINUOUS
 10
940.32496031982168
 20
2019.159677657178
 30
0.0
 11
940.32496031982168
 21
2012.159677657178
 31
0.0
  0
LINE
  5
7AC7
  8
1
  6
CONTINUOUS
 10
940.32496031982168
 20
1892.959677657178
 30
0.0
 11
940.32496031982168
 21
1900.9596776571771
 31
0.0
  0
LINE
  5
7AC8
  8
1
  6
CONTINUOUS
 10
730.32496031982168
 20
1892.959677657178
 30
0.0
 11
950.3249603198218
 21
1892.959677657178
 31
0.0
  0
LINE
  5
7AC9
  8
1
  6
CONTINUOUS
 10
740.3249603198218
 20
1892.959677657178
 30
0.0
 11
740.3249603198218
 21
1900.9596776571771
 31
0.0
  0
LINE
  5
7ACA
  8
1
  6
CONTINUOUS
 10
963.32496031982168
 20
2000.559677657177
 30
0.0
 11
963.32496031982168
 21
1912.5596776571781
 31
0.0
  0
LINE
  5
7ACB
  8
1
  6
CONTINUOUS
 10
1697.924960319822
 20
1191.318284433858
 30
0.0
 11
1682.3249603198219
 21
1176.318284433858
 31
0.0
  0
LINE
  5
7ACC
  8
1
  6
CONTINUOUS
 10
1583.3249603198219
 20
1191.318284433858
 30
0.0
 11
1598.324960319821
 21
1176.318284433858
 31
0.0
  0
LINE
  5
7ACD
  8
1
  6
CONTINUOUS
 10
1592.324960319821
 20
927.21828443385846
 30
0.0
 11
1688.3249603198219
 21
927.21828443385846
 31
0.0
  0
LINE
  5
7ACE
  8
1
  6
CONTINUOUS
 10
1640.3249603198219
 20
1176.318284433858
 30
0.0
 11
1598.324960319821
 21
1176.318284433858
 31
0.0
  0
LINE
  5
7ACF
  8
1
  6
CONTINUOUS
 10
1640.3249603198219
 20
1176.318284433858
 30
0.0
 11
1682.3249603198219
 21
1176.318284433858
 31
0.0
  0
ARC
  5
7AD0
  8
1
  6
CONTINUOUS
 10
1592.324960319821
 20
935.21828443385834
 30
0.0
 40
8.0
 50
180.0
 51
270.0
  0
ARC
  5
7AD1
  8
1
  6
CONTINUOUS
 10
1688.3249603198219
 20
935.21828443385834
 30
0.0
 40
8.0
 50
270.0
 51
0.0
  0
LINE
  5
7AD2
  8
1
  6
CONTINUOUS
 10
1696.324960319821
 20
935.21828443385834
 30
0.0
 11
1696.324960319821
 21
1191.318284433858
 31
0.0
  0
LINE
  5
7AD3
  8
1
  6
CONTINUOUS
 10
1563.3249603198219
 20
1191.318284433858
 30
0.0
 11
1717.324960319821
 21
1191.318284433858
 31
0.0
  0
LINE
  5
7AD4
  8
1
  6
CONTINUOUS
 10
1704.3249603198219
 20
1161.318284433858
 30
0.0
 11
1696.324960319821
 21
1161.318284433858
 31
0.0
  0
LINE
  5
7AD5
  8
1
  6
CONTINUOUS
 10
1584.324960319821
 20
935.21828443385834
 30
0.0
 11
1584.324960319821
 21
1191.318284433858
 31
0.0
  0
LINE
  5
7AD6
  8
1
  6
CONTINUOUS
 10
1704.3249603198219
 20
1161.318284433858
 30
0.0
 11
1704.3249603198219
 21
961.31828443385837
 31
0.0
  0
LINE
  5
7AD7
  8
1
  6
CONTINUOUS
 10
1704.3249603198219
 20
961.31828443385837
 30
0.0
 11
1696.324960319821
 21
961.31828443385837
 31
0.0
  0
LINE
  5
7AD8
  8
1
  6
CONTINUOUS
 10
1576.7249603198211
 20
961.31828443385837
 30
0.0
 11
1584.324960319821
 21
961.31828443385837
 31
0.0
  0
LINE
  5
7AD9
  8
1
  6
CONTINUOUS
 10
1576.7249603198211
 20
1161.318284433858
 30
0.0
 11
1576.7249603198211
 21
876.31828443385825
 31
0.0
  0
LINE
  5
7ADA
  8
1
  6
CONTINUOUS
 10
1576.7249603198211
 20
1161.318284433858
 30
0.0
 11
1584.324960319821
 21
1161.318284433858
 31
0.0
  0
LINE
  5
7ADB
  8
1
  6
CONTINUOUS
 10
390.3249603198218
 20
1768.5596776571781
 30
0.0
 11
545.3249603198218
 21
1768.5596776571781
 31
0.0
  0
LINE
  5
7ADC
  8
1
  6
CONTINUOUS
 10
730.32496031982168
 20
1892.959677657178
 30
0.0
 11
730.32496031982168
 21
1768.5596776571781
 31
0.0
  0
LINE
  5
7ADD
  8
1
  6
CONTINUOUS
 10
950.3249603198218
 20
1768.5596776571781
 30
0.0
 11
950.3249603198218
 21
1892.959677657178
 31
0.0
  0
LINE
  5
7ADE
  8
1
  6
CONTINUOUS
 10
469.8249603198218
 20
1782.2596776571779
 30
0.0
 11
469.8249603198218
 21
1973.059677657177
 31
0.0
  0
LINE
  5
7ADF
  8
1
  6
CONTINUOUS
 10
564.3249603198218
 20
1752.459677657178
 30
0.0
 11
564.3249603198218
 21
1782.2596776571779
 31
0.0
  0
LINE
  5
7AE0
  8
1
  6
CONTINUOUS
 10
545.3249603198218
 20
1752.459677657178
 30
0.0
 11
545.3249603198218
 21
1782.2596776571779
 31
0.0
  0
LINE
  5
7AE1
  8
1
  6
CONTINUOUS
 10
639.8249603198218
 20
1782.2596776571779
 30
0.0
 11
469.8249603198218
 21
1782.2596776571779
 31
0.0
  0
LINE
  5
7AE2
  8
1
  6
CONTINUOUS
 10
639.8249603198218
 20
1782.2596776571779
 30
0.0
 11
639.8249603198218
 21
1973.059677657177
 31
0.0
  0
LINE
  5
7AE3
  8
1
  6
CONTINUOUS
 10
937.62496031982175
 20
1696.5596776571781
 30
0.0
 11
457.62496031982192
 21
1696.5596776571781
 31
0.0
  0
LINE
  5
7AE4
  8
1
  6
CONTINUOUS
 10
937.62496031982175
 20
1771.5596776571781
 30
0.0
 11
457.62496031982192
 21
1771.5596776571781
 31
0.0
  0
LINE
  5
7AE5
  8
1
  6
CONTINUOUS
 10
795.3249603198218
 20
1752.459677657178
 30
0.0
 11
795.3249603198218
 21
1717.459677657178
 31
0.0
  0
LINE
  5
7AE6
  8
1
  6
CONTINUOUS
 10
885.3249603198218
 20
1752.459677657178
 30
0.0
 11
885.3249603198218
 21
1717.459677657178
 31
0.0
  0
LINE
  5
7AE7
  8
1
  6
CONTINUOUS
 10
885.3249603198218
 20
1717.459677657178
 30
0.0
 11
795.3249603198218
 21
1717.459677657178
 31
0.0
  0
LINE
  5
7AE8
  8
1
  6
CONTINUOUS
 10
885.3249603198218
 20
1752.459677657178
 30
0.0
 11
795.3249603198218
 21
1752.459677657178
 31
0.0
  0
LINE
  5
7AE9
  8
1
  6
CONTINUOUS
 10
828.3249603198218
 20
1892.959677657178
 30
0.0
 11
828.3249603198218
 21
1752.459677657178
 31
0.0
  0
LINE
  5
7AEA
  8
1
  6
CONTINUOUS
 10
852.3249603198218
 20
1892.959677657178
 30
0.0
 11
852.3249603198218
 21
1752.459677657178
 31
0.0
  0
LINE
  5
7AEB
  8
1
  6
CONTINUOUS
 10
457.62496031982192
 20
1771.5596776571781
 30
0.0
 11
457.62496031982192
 21
1696.5596776571781
 31
0.0
  0
LINE
  5
7AEC
  8
1
  6
CONTINUOUS
 10
937.62496031982175
 20
1696.5596776571781
 30
0.0
 11
937.62496031982175
 21
1771.5596776571781
 31
0.0
  0
LINE
  5
7AED
  8
1
  6
CONTINUOUS
 10
852.3249603198218
 20
1768.5596776571781
 30
0.0
 11
1000.324960319821
 21
1768.5596776571781
 31
0.0
  0
LINE
  5
7AEE
  8
1
  6
CONTINUOUS
 10
589.8249603198218
 20
1752.459677657178
 30
0.0
 11
519.8249603198218
 21
1752.459677657178
 31
0.0
  0
LINE
  5
7AEF
  8
1
  6
CONTINUOUS
 10
589.8249603198218
 20
1717.459677657178
 30
0.0
 11
519.8249603198218
 21
1717.459677657178
 31
0.0
  0
LINE
  5
7AF0
  8
1
  6
CONTINUOUS
 10
589.8249603198218
 20
1752.459677657178
 30
0.0
 11
589.8249603198218
 21
1717.459677657178
 31
0.0
  0
LINE
  5
7AF1
  8
1
  6
CONTINUOUS
 10
519.8249603198218
 20
1752.459677657178
 30
0.0
 11
519.8249603198218
 21
1717.459677657178
 31
0.0
  0
LINE
  5
7AF2
  8
1
  6
CONTINUOUS
 10
564.3249603198218
 20
1768.5596776571781
 30
0.0
 11
828.3249603198218
 21
1768.5596776571781
 31
0.0
  0
LINE
  5
7AF3
  8
1
  6
CONTINUOUS
 10
639.8249603198218
 20
1973.059677657177
 30
0.0
 11
469.8249603198218
 21
1973.059677657177
 31
0.0
  0
LINE
  5
7AF4
  8
1
  6
CONTINUOUS
 10
1505.4249603198209
 20
1049.318284433858
 30
0.0
 11
1435.3249603198219
 21
1049.318284433858
 31
0.0
  0
LINE
  5
7AF5
  8
1
  6
CONTINUOUS
 10
1537.024960319821
 20
1073.318284433858
 30
0.0
 11
1435.3249603198219
 21
1073.318284433858
 31
0.0
  0
LINE
  5
7AF6
  8
1
  6
CONTINUOUS
 10
1435.3249603198219
 20
1016.318284433858
 30
0.0
 11
1435.3249603198219
 21
1106.318284433858
 31
0.0
  0
LINE
  5
7AF7
  8
1
  6
CONTINUOUS
 10
1400.3249603198219
 20
1016.318284433858
 30
0.0
 11
1400.3249603198219
 21
1106.318284433858
 31
0.0
  0
LINE
  5
7AF8
  8
1
  6
CONTINUOUS
 10
1435.3249603198219
 20
1016.318284433858
 30
0.0
 11
1400.3249603198219
 21
1016.318284433858
 31
0.0
  0
LINE
  5
7AF9
  8
1
  6
CONTINUOUS
 10
1435.3249603198219
 20
1106.318284433858
 30
0.0
 11
1400.3249603198219
 21
1106.318284433858
 31
0.0
  0
LINE
  5
7AFA
  8
1
  6
CONTINUOUS
 10
1435.3249603198219
 20
1011.318284433858
 30
0.0
 11
1400.3249603198219
 21
1011.318284433858
 31
0.0
  0
LINE
  5
7AFB
  8
1
  6
CONTINUOUS
 10
1435.3249603198219
 20
941.31828443385848
 30
0.0
 11
1400.3249603198219
 21
941.31828443385848
 31
0.0
  0
LINE
  5
7AFC
  8
1
  6
CONTINUOUS
 10
1400.3249603198219
 20
941.31828443385848
 30
0.0
 11
1400.3249603198219
 21
1011.318284433858
 31
0.0
  0
LINE
  5
7AFD
  8
1
  6
CONTINUOUS
 10
1435.3249603198219
 20
941.31828443385848
 30
0.0
 11
1435.3249603198219
 21
1011.318284433858
 31
0.0
  0
LINE
  5
7AFE
  8
1
  6
CONTINUOUS
 10
1435.3249603198219
 20
985.81828443385837
 30
0.0
 11
1477.3249603198219
 21
985.81828443385837
 31
0.0
  0
LINE
  5
7AFF
  8
1
  6
CONTINUOUS
 10
1435.3249603198219
 20
966.81828443385837
 30
0.0
 11
1477.3249603198219
 21
966.81828443385837
 31
0.0
  0
LINE
  5
7B00
  8
1
  6
CONTINUOUS
 10
1455.324960319821
 20
876.31828443385825
 30
0.0
 11
1455.324960319821
 21
1156.318284433858
 31
0.0
  0
LINE
  5
7B01
  8
1
  6
CONTINUOUS
 10
1380.324960319821
 20
876.31828443385825
 30
0.0
 11
1380.324960319821
 21
1156.318284433858
 31
0.0
  0
LINE
  5
7B02
  8
1
  6
CONTINUOUS
 10
1455.324960319821
 20
1156.318284433858
 30
0.0
 11
1380.324960319821
 21
1156.318284433858
 31
0.0
  0
LINE
  5
7B03
  8
1
  6
CONTINUOUS
 10
1452.3249603198219
 20
826.31828443385825
 30
0.0
 11
1676.3249603198219
 21
826.31828443385825
 31
0.0
  0
LINE
  5
7B04
  8
1
  6
CONTINUOUS
 10
1380.324960319821
 20
876.31828443385825
 30
0.0
 11
1676.3249603198219
 21
876.31828443385825
 31
0.0
  0
LINE
  5
7B05
  8
1
  6
CONTINUOUS
 10
1452.3249603198219
 20
876.31828443385825
 30
0.0
 11
1452.3249603198219
 21
826.31828443385825
 31
0.0
  0
LINE
  5
7B06
  8
1
  6
CONTINUOUS
 10
1477.3249603198219
 20
1028.0182844338581
 30
0.0
 11
1477.3249603198219
 21
876.31828443385825
 31
0.0
  0
LINE
  5
7B07
  8
1
  6
CONTINUOUS
 10
1576.7249603198211
 20
1103.4182844338579
 30
0.0
 11
1477.3249603198219
 21
1028.0182844338581
 31
0.0
  0
LINE
  5
7B08
  8
1
  6
CONTINUOUS
 10
1676.3249603198219
 20
876.31828443385825
 30
0.0
 11
1676.3249603198219
 21
826.31828443385825
 31
0.0
  0
LINE
  5
7B09
  8
1
  6
CONTINUOUS
 10
563.72496031982178
 20
942.41828443385839
 30
0.0
 11
851.72496031982178
 21
1017.818284433858
 31
0.0
  0
LINE
  5
7B0A
  8
1
  6
CONTINUOUS
 10
543.72496031982178
 20
1009.518284433858
 30
0.0
 11
826.02496031982184
 21
1104.0182844338581
 31
0.0
  0
CIRCLE
  5
7B0B
  8
1
  6
CONTINUOUS
 10
554.82496031982168
 20
976.31828443385848
 30
0.0
 40
35.0
  0
LINE
  5
7B0C
  8
2
  6
CENTER
 10
554.82496031982168
 20
941.31828443385848
 30
0.0
 11
554.82496031982168
 21
1011.318284433858
 31
0.0
  0
LINE
  5
7B0D
  8
2
  6
CENTER
 10
519.8249603198218
 20
976.31828443385848
 30
0.0
 11
589.8249603198218
 21
976.31828443385848
 31
0.0
  0
LINE
  5
7B0E
  8
2
  6
CENTER
 10
411.88233731982177
 20
1061.318284433858
 30
0.0
 11
1014.442201319821
 21
1061.318284433858
 31
0.0
  0
LINE
  5
7B0F
  8
2
  6
CENTER
 10
840.32496031982168
 20
743.5230174338584
 30
0.0
 11
840.32496031982168
 21
1238.4159404338579
 31
0.0
  0
CIRCLE
  5
7B10
  8
1
  6
CONTINUOUS
 10
840.32496031982168
 20
1061.318284433858
 30
0.0
 40
45.0
  0
LINE
  5
7B11
  8
1
  6
CONTINUOUS
 10
1000.324960319821
 20
1992.5596776571781
 30
0.0
 11
963.32496031982168
 21
1992.5596776571781
 31
0.0
  0
CIRCLE
  5
7B12
  8
1
  6
CONTINUOUS
 10
840.32496031982168
 20
1061.318284433858
 30
0.0
 40
100.0
  0
LINE
  5
7B13
  8
2
  6
CENTER
 10
357.82982431982191
 20
1880.5596776571781
 30
0.0
 11
1019.293368319821
 21
1880.5596776571781
 31
0.0
  0
LINE
  5
7B14
  8
2
  6
CENTER
 10
1640.3249603198219
 20
1214.219694521212
 30
0.0
 11
1640.3249603198219
 21
731.79615443385842
 31
0.0
  0
LINE
  5
7B15
  8
2
  6
CENTER
 10
840.32496031982168
 20
1653.8088716571781
 30
0.0
 11
840.32496031982168
 21
2056.5066486571782
 31
0.0
  0
LINE
  5
7B16
  8
2
  6
CENTER
 10
1345.8926033198211
 20
1061.318284433858
 30
0.0
 11
1722.216659319821
 21
1061.318284433858
 31
0.0
  0
LINE
  5
7B17
  8
4
  6
CONTINUOUS
 10
1850.0
 20
500.0
 30
0.0
 11
1850.0
 21
300.0
 31
0.0
  0
LINE
  5
7B18
  8
4
  6
CONTINUOUS
 10
1150.0
 20
500.0
 30
0.0
 11
1150.0
 21
300.0
 31
0.0
  0
LINE
  5
7B19
  8
4
  6
CONTINUOUS
 10
650.0
 20
500.0
 30
0.0
 11
650.0
 21
300.0
 31
0.0
  0
LINE
  5
7B1C
  8
4
  6
CONTINUOUS
 10
650.0
 20
300.0
 30
0.0
 11
1850.0
 21
300.0
 31
0.0
  0
LINE
  5
7B1D
  8
4
  6
CONTINUOUS
 10
650.0
 20
400.0
 30
0.0
 11
1850.0
 21
400.0
 31
0.0
  0
TEXT
  5
7B1E
  8
4
  6
CONTINUOUS
 10
688.50208099999998
 20
431.543026
 30
0.0
 40
50.0
  1
機器名称
  0
TEXT
  5
7B1F
  8
4
  6
CONTINUOUS
 10
686.258106
 20
321.64515699999993
 30
0.0
 40
50.0
  1
機器型番
  0
TEXT
  5
7B20
  8
4
  6
CONTINUOUS
 10
1177.833153999999
 20
421.19155499999988
 30
0.0
 40
45.0
  1
ミツヤニューマルチファン
  0
TEXT
  5
7B21
  8
4
  6
CONTINUOUS
 10
1186.6544960000001
 20
317.159584
 30
0.0
 40
50.0
  1
NM#1-1
  0
TEXT
  5
7B23
  8
4
  6
CONTINUOUS
 10
784.73113699999988
 20
2383.4288409999999
 30
0.0
 40
54.0
  1
床置防振ベット
  0
TEXT
  5
7B24
  8
4
  6
CONTINUOUS
 10
316.16759300000001
 20
2533.8809759999999
 30
0.0
 40
72.0
  1
ベルト駆動式片吸込片持多翼ファン
  0
LINE
  5
7B25
  8
4
  6
CONTINUOUS
 10
250.0
 20
2469.408754
 30
0.0
 11
1850.0
 21
2469.408754
 31
0.0
  0
LINE
  5
7B26
  8
4
  6
CONTINUOUS
 10
250.0
 20
2669.408754
 30
0.0
 11
1850.0
 21
2669.408754
 31
0.0
  0
LINE
  5
7B27
  8
4
  6
CONTINUOUS
 10
650.0
 20
500.0
 30
0.0
 11
1850.0
 21
500.0
 31
0.0
  0
LINE
  5
7B28
  8
4
  6
CONTINUOUS
 10
250.0
 20
2669.408754
 30
0.0
 11
250.0
 21
2469.408754
 31
0.0
  0
TEXT
  5
7B29
  8
4
  6
CONTINUOUS
 10
348.87230399999987
 20
2382.3194779999999
 30
0.0
 40
54.0
  1
右回転上向
  0
TEXT
  5
7B2A
  8
4
  6
CONTINUOUS
 10
1468.9695589999999
 20
2706.0610809999998
 30
0.0
 40
56.0
  1
No.
  0
TEXT
  5
7B2B
  8
4
  6
CONTINUOUS
 10
1311.296063
 20
2383.4288409999999
 30
0.0
 40
54.0
  1
縮尺：1/10
  0
LINE
  5
7B2C
  8
4
  6
CONTINUOUS
 10
1850.0
 20
2669.408754
 30
0.0
 11
1850.0
 21
2469.408754
 31
0.0
  0
LINE
  5
7B2E
  8
4
  6
CONTINUOUS
 10
1440.617422
 20
2681.2635829999999
 30
0.0
 11
1440.617422
 21
2786.6522620000001
 31
0.0
  0
LINE
  5
7B2F
  8
4
  6
CONTINUOUS
 10
1440.617422
 20
2786.6522620000001
 30
0.0
 11
1850.0
 21
2786.6522620000001
 31
0.0
  0
LINE
  5
7B30
  8
4
  6
CONTINUOUS
 10
1850.0
 20
2786.6522620000001
 30
0.0
 11
1850.0
 21
2681.2635829999999
 31
0.0
  0
LINE
  5
7B31
  8
4
  6
CONTINUOUS
 10
1850.0
 20
2681.2635829999999
 30
0.0
 11
1440.617422
 21
2681.2635829999999
 31
0.0
  0
DIMENSION
  5
7B56
  8
3
  6
CONTINUOUS
  2
*D1
 10
840.32496031982168
 20
1228.888591433858
 30
0.0
 11
759.69132831982165
 21
1228.888591433858
 31
0.0
 70
   128
 13
680.32496031982168
 23
1191.318284433858
 33
0.0
 14
840.32496031982168
 24
1191.318284433858
 34
0.0
1001
ACAD
1000
DSTYLE
1002
{
1070
   287
1070
     3
1070
   287
1070
     3
1070
    40
1040
10.0
1070
   143
1040
0.039
1070
   172
1070
     1
1070
   271
1070
     0
1070
   279
1070
     0
1070
   288
1070
     1
1002
}
  0
DIMENSION
  5
7B63
  8
3
  6
CONTINUOUS
  2
*D2
 10
669.3249603198218
 20
1287.520394433858
 30
0.0
 11
755.21168231982165
 21
1287.520394433858
 31
0.0
 70
   128
 13
840.32496031982168
 23
1238.4159404338579
 33
0.0
 14
669.3249603198218
 24
1176.318284433858
 34
0.0
1001
ACAD
1000
DSTYLE
1002
{
1070
   287
1070
     3
1070
   287
1070
     3
1070
    40
1040
10.0
1070
   143
1040
0.039
1070
   172
1070
     1
1070
   271
1070
     0
1070
   279
1070
     0
1070
   288
1070
     1
1002
}
  0
DIMENSION
  5
7B71
  8
3
  6
CONTINUOUS
  2
*D3
 10
963.32496031982168
 20
1287.520394433858
 30
0.0
 11
898.90318131982156
 21
1287.520394433858
 31
0.0
 70
   128
 13
840.32496031982168
 23
1238.4159404338579
 33
0.0
 14
963.32496031982168
 24
1050.318284433858
 34
0.0
1001
ACAD
1000
DSTYLE
1002
{
1070
   287
1070
     4
1070
   287
1070
     4
1070
    40
1040
10.0
1070
    75
1070
     1
1070
   143
1040
0.039
1070
   172
1070
     1
1070
   271
1070
     0
1070
   279
1070
     1
1070
   288
1070
     1
1002
}
  0
DIMENSION
  5
7B80
  8
3
  6
CONTINUOUS
  2
*D4
 10
1068.2671807580091
 20
1061.318284433858
 30
0.0
 11
1044.225926143173
 21
1126.318284433858
 31
0.0
 70
   128
 13
862.32496031982168
 23
1191.318284433858
 33
0.0
 14
1014.442201319821
 24
1061.318284433858
 34
0.0
 50
90.0
1001
ACAD
1000
DSTYLE
1002
{
1070
   288
1070
     1
1070
   172
1070
     1
1070
    40
1040
10.0
1070
   271
1070
     0
1070
   143
1040
0.039
1002
}
  0
DIMENSION
  5
7B8C
  8
3
  6
CONTINUOUS
  2
*D5
 10
1068.2671807580091
 20
826.31828443385825
 30
0.0
 11
1043.267180758008
 21
943.81828443385859
 31
0.0
 70
     0
 13
1014.442201319821
 23
1061.318284433858
 33
0.0
 14
975.3249603198218
 24
826.31828443385825
 34
0.0
 50
90.0
1001
ACAD
1000
DSTYLE
1002
{
1070
   287
1070
     4
1070
   287
1070
     4
1070
    40
1040
10.0
1070
    75
1070
     1
1070
   143
1040
0.039
1070
   172
1070
     1
1070
   271
1070
     0
1070
   279
1070
     1
1070
   288
1070
     1
1002
}
  0
DIMENSION
  5
7B9C
  8
3
  6
CONTINUOUS
  2
*D6
 10
1068.2671807580091
 20
779.31828443385825
 30
0.0
 11
1068.2671807580091
 21
705.03257014814415
 31
0.0
 70
   128
 13
975.3249603198218
 23
826.31828443385825
 33
0.0
 14
1000.324960319821
 24
779.31828443385825
 34
0.0
 50
90.0
1001
ACAD
1000
DSTYLE
1002
{
1070
   287
1070
     3
1070
   287
1070
     3
1070
    40
1040
10.0
1070
   143
1040
0.039
1070
   172
1070
     1
1070
   271
1070
     0
1070
   279
1070
     0
1070
   288
1070
     1
1002
}
  0
DIMENSION
  5
7BA9
  8
3
  6
CONTINUOUS
  2
*D7
 10
1169.2395967580089
 20
779.31828443385825
 30
0.0
 11
1169.2395967580089
 21
1010.012989433858
 31
0.0
 70
   128
 13
862.32496031982168
 23
1191.318284433858
 33
0.0
 14
1000.324960319821
 24
779.31828443385825
 34
0.0
 50
90.0
1001
ACAD
1000
DSTYLE
1002
{
1070
   287
1070
     3
1070
   287
1070
     3
1070
    40
1040
10.0
1070
   143
1040
0.039
1070
   172
1070
     1
1070
   271
1070
     0
1070
   279
1070
     0
1070
   288
1070
     1
1002
}
  0
DIMENSION
  5
7BB6
  8
3
  6
CONTINUOUS
  2
*D8
 10
840.32496031982168
 20
705.33702543385834
 30
0.0
 11
924.14628231982192
 21
705.33702543385834
 31
0.0
 70
   128
 13
1000.324960319821
 23
779.31828443385825
 33
0.0
 14
840.32496031982168
 24
743.5230174338584
 34
0.0
1001
ACAD
1000
DSTYLE
1002
{
1070
   287
1070
     3
1070
   287
1070
     3
1070
    40
1040
10.0
1070
   143
1040
0.039
1070
   172
1070
     1
1070
   271
1070
     0
1070
   279
1070
     0
1070
   288
1070
     1
1002
}
  0
DIMENSION
  5
7BC2
  8
3
  6
CONTINUOUS
  2
*D9
 10
390.3249603198218
 20
705.33702543385834
 30
0.0
 11
615.3249603198218
 21
730.33702543385834
 31
0.0
 70
     0
 13
840.32496031982168
 23
743.5230174338584
 33
0.0
 14
390.3249603198218
 24
779.31828443385825
 34
0.0
1001
ACAD
1000
DSTYLE
1002
{
1070
   287
1070
     4
1070
   287
1070
     4
1070
    40
1040
10.0
1070
    75
1070
     1
1070
   143
1040
0.039
1070
   172
1070
     1
1070
   271
1070
     0
1070
   279
1070
     1
1070
   288
1070
     1
1002
}
  0
DIMENSION
  5
7C10
  8
3
  6
CONTINUOUS
  2
*D10
 10
1696.324960319821
 20
1219.2992664338581
 30
0.0
 11
1640.3249603198219
 21
1239.9016071041649
 31
0.0
 70
   128
 13
1584.324960319821
 23
1191.318284433858
 33
0.0
 14
1696.324960319821
 24
1191.318284433858
 34
0.0
1001
ACAD
1000
DSTYLE
1002
{
1070
   288
1070
     1
1070
   172
1070
     1
1070
    40
1040
10.0
1070
   271
1070
     0
1070
   143
1040
0.039
1002
}
  0
DIMENSION
  5
7C1F
  8
3
  6
CONTINUOUS
  2
*D11
 10
1774.6446433198209
 20
981.31828443385837
 30
0.0
 11
1753.990286516296
 21
1061.318284433858
 31
0.0
 70
   128
 13
1704.3249603198219
 23
1141.318284433858
 33
0.0
 14
1704.3249603198219
 24
981.31828443385837
 34
0.0
 50
90.0
1001
ACAD
1000
DSTYLE
1002
{
1070
   288
1070
     1
1070
   172
1070
     1
1070
    40
1040
10.0
1070
     3
1000
φ<>
1070
   271
1070
     0
1070
   143
1040
0.039
1002
}
  0
DIMENSION
  5
7C2D
  8
3
  6
CONTINUOUS
  2
*D12
 10
1640.3249603198219
 20
1279.7579474338579
 30
0.0
 11
1514.4465173198221
 21
1279.7579474338579
 31
0.0
 70
   128
  1
MAX\P260
 13
1380.324960319821
 23
1156.318284433858
 33
0.0
 14
1640.3249603198219
 24
1256.690137958898
 34
0.0
1001
ACAD
1000
DSTYLE
1002
{
1070
   287
1070
     3
1070
   287
1070
     3
1070
    40
1040
10.0
1070
   143
1040
0.039
1070
   172
1070
     1
1070
   271
1070
     0
1070
   279
1070
     0
1070
   288
1070
     1
1002
}
  0
DIMENSION
  5
7C3B
  8
3
  6
CONTINUOUS
  2
*D13
 10
1704.3249603198219
 20
1279.7579474338579
 30
0.0
 11
1673.672237319822
 21
1283.6391674338579
 31
0.0
 70
   128
 13
1640.3249603198219
 23
1256.690137958898
 33
0.0
 14
1704.3249603198219
 24
1161.318284433858
 34
0.0
1001
ACAD
1000
DSTYLE
1002
{
1070
   287
1070
     4
1070
   287
1070
     4
1070
    40
1040
10.0
1070
    75
1070
     1
1070
   143
1040
0.039
1070
   172
1070
     1
1070
   271
1070
     0
1070
   279
1070
     1
1070
   288
1070
     1
1002
}
  0
DIMENSION
  5
7C48
  8
3
  6
CONTINUOUS
  2
*D14
 10
1640.3249603198219
 20
711.15885843385831
 30
0.0
 11
1551.3402793198211
 21
711.15885843385831
 31
0.0
 70
   128
 13
1452.3249603198219
 23
779.31828443385825
 33
0.0
 14
1640.3249603198219
 24
731.79615443385842
 34
0.0
1001
ACAD
1000
DSTYLE
1002
{
1070
   287
1070
     3
1070
   287
1070
     3
1070
    40
1040
10.0
1070
   143
1040
0.039
1070
   172
1070
     1
1070
   271
1070
     0
1070
   279
1070
     0
1070
   288
1070
     1
1002
}
  0
DIMENSION
  5
7C58
  8
3
  6
CONTINUOUS
  2
*D15
 10
1676.3249603198219
 20
711.15885843385831
 30
0.0
 11
1724.1584403198219
 21
709.21825243385842
 31
0.0
 70
   128
 13
1640.3249603198219
 23
731.79615443385842
 33
0.0
 14
1676.3249603198219
 24
779.31828443385825
 34
0.0
1001
ACAD
1000
DSTYLE
1002
{
1070
   287
1070
     4
1070
   287
1070
     4
1070
    40
1040
10.0
1070
    75
1070
     1
1070
   143
1040
0.039
1070
   172
1070
     1
1070
   271
1070
     0
1070
   279
1070
     1
1070
   288
1070
     1
1002
}
  0
DIMENSION
  5
7C95
  8
3
  6
CONTINUOUS
  2
*D16
 10
1000.324960319821
 20
1603.318546657177
 30
0.0
 11
677.54059831982181
 21
1603.318546657177
 31
0.0
 70
   128
 13
390.3249603198218
 23
1768.5596776571781
 33
0.0
 14
1000.324960319821
 24
1768.5596776571781
 34
0.0
1001
ACAD
1000
DSTYLE
1002
{
1070
   287
1070
     3
1070
   287
1070
     3
1070
    40
1040
10.0
1070
   143
1040
0.039
1070
   172
1070
     1
1070
   271
1070
     0
1070
   279
1070
     0
1070
   288
1070
     1
1002
}
  0
DIMENSION
  5
7CA2
  8
3
  6
CONTINUOUS
  2
*D17
 10
1095.0226733198219
 20
1768.5596776571781
 30
0.0
 11
1095.022673319821
 21
1878.8853446571779
 31
0.0
 70
   128
 13
1000.324960319821
 23
1992.5596776571781
 33
0.0
 14
1000.324960319821
 24
1768.5596776571781
 34
0.0
 50
90.0
1001
ACAD
1000
DSTYLE
1002
{
1070
   287
1070
     3
1070
   287
1070
     3
1070
    40
1040
10.0
1070
   143
1040
0.039
1070
   172
1070
     1
1070
   271
1070
     0
1070
   279
1070
     0
1070
   288
1070
     1
1002
}
  0
DIMENSION
  5
7D6A
  8
3
  2
*D18
 10
390.3249603198218
 20
1351.9906310377719
 30
0.0
 11
709.83845004171235
 21
1351.9906310377719
 31
0.0
 70
   128
 13
963.32496031982168
 23
1055.318284433858
 33
0.0
 14
390.3249603198218
 24
804.31828443385837
 34
0.0
1001
ACAD
1000
DSTYLE
1002
{
1070
   287
1070
     3
1070
   287
1070
     3
1070
    40
1040
10.0
1070
   143
1040
0.039
1070
   172
1070
     1
1070
   271
1070
     0
1070
   279
1070
     0
1070
   288
1070
     1
1002
}
  0
ENDSEC
  0
EOF
