  0
SECTION
  2
HEADER
  9
$ACADVER
  1
AC1009
  9
$INSBASE
 10
0.0
 20
0.0
 30
0.0
  9
$EXTMIN
 10
250.0
 20
300.0
 30
0.0
  9
$EXTMAX
 10
1855.3658
 20
2786.6522620000001
 30
0.0
  9
$LIMMIN
 10
0.0
 20
0.0
  9
$LIMMAX
 10
297.0
 20
210.0
  9
$ORTHOMODE
 70
     0
  9
$REGENMODE
 70
     1
  9
$FILLMODE
 70
     0
  9
$QTEXTMODE
 70
     0
  9
$MIRRTEXT
 70
     1
  9
$DRAGMODE
 70
     2
  9
$LTSCALE
 40
100.0
  9
$OSMODE
 70
    37
  9
$ATTMODE
 70
     1
  9
$TEXTSIZE
 40
180.0
  9
$TRACEWID
 40
0.05
  9
$TEXTSTYLE
  7
STANDARD
  9
$CLAYER
  8
3
  9
$CELTYPE
  6
BYLAYER
  9
$CECOLOR
 62
   256
  9
$DIMSCALE
 40
10.0
  9
$DIMASZ
 40
2.0
  9
$DIMEXO
 40
0.5
  9
$DIMDLI
 40
10.0
  9
$DIMRND
 40
0.0
  9
$DIMDLE
 40
0.0
  9
$DIMEXE
 40
1.0
  9
$DIMTP
 40
1.0
  9
$DIMTM
 40
1.0
  9
$DIMTXT
 40
3.0
  9
$DIMCEN
 40
0.0
  9
$DIMTSZ
 40
0.0
  9
$DIMTOL
 70
     0
  9
$DIMLIM
 70
     0
  9
$DIMTIH
 70
     0
  9
$DIMTOH
 70
     0
  9
$DIMSE1
 70
     0
  9
$DIMSE2
 70
     0
  9
$DIMTAD
 70
     1
  9
$DIMZIN
 70
     8
  9
$DIMBLK
  1

  9
$DIMASO
 70
     1
  9
$DIMSHO
 70
     1
  9
$DIMPOST
  1

  9
$DIMAPOST
  1

  9
$DIMALT
 70
     0
  9
$DIMALTD
 70
     2
  9
$DIMALTF
 40
0.039
  9
$DIMLFAC
 40
1.0
  9
$DIMTOFL
 70
     1
  9
$DIMTVP
 40
0.0
  9
$DIMTIX
 70
     0
  9
$DIMSOXD
 70
     0
  9
$DIMSAH
 70
     1
  9
$DIMBLK1
  1
OPEN
  9
$DIMBLK2
  1
OPEN
  9
$DIMSTYLE
  2
IGA
  9
$DIMCLRD
 70
     0
  9
$DIMCLRE
 70
     0
  9
$DIMCLRT
 70
     0
  9
$DIMTFAC
 40
10.0
  9
$DIMGAP
 40
1.0
  9
$LUNITS
 70
     2
  9
$LUPREC
 70
     3
  9
$SKETCHINC
 40
0.1
  9
$FILLETRAD
 40
50.0
  9
$AUNITS
 70
     0
  9
$AUPREC
 70
     0
  9
$MENU
  1
acad
  9
$ELEVATION
 40
0.0
  9
$PELEVATION
 40
0.0
  9
$THICKNESS
 40
0.0
  9
$LIMCHECK
 70
     0
  9
$BLIPMODE
 70
     0
  9
$CHAMFERA
 40
0.5
  9
$CHAMFERB
 40
0.5
  9
$SKPOLY
 70
     0
  9
$TDCREATE
 40
2450731.3398863422
  9
$TDUPDATE
 40
2454953.8598295129
  9
$TDINDWG
 40
0.0055260532
  9
$TDUSRTIMER
 40
0.0055260532
  9
$USRTIMER
 70
     1
  9
$ANGBASE
 50
0.0
  9
$ANGDIR
 70
     0
  9
$PDMODE
 70
     0
  9
$PDSIZE
 40
0.0
  9
$PLINEWID
 40
0.0
  9
$COORDS
 70
     1
  9
$SPLFRAME
 70
     0
  9
$SPLINETYPE
 70
     6
  9
$SPLINESEGS
 70
     8
  9
$ATTDIA
 70
     0
  9
$ATTREQ
 70
     1
  9
$HANDLING
 70
 10241
  9
$HANDSEED
  5
806E
  9
$SURFTAB1
 70
     6
  9
$SURFTAB2
 70
     6
  9
$SURFTYPE
 70
     6
  9
$SURFU
 70
     6
  9
$SURFV
 70
     6
  9
$UCSNAME
  2

  9
$UCSORG
 10
0.0
 20
0.0
 30
0.0
  9
$UCSXDIR
 10
1.0
 20
0.0
 30
0.0
  9
$UCSYDIR
 10
0.0
 20
1.0
 30
0.0
  9
$PUCSNAME
  2

  9
$PUCSORG
 10
0.0
 20
0.0
 30
0.0
  9
$PUCSXDIR
 10
1.0
 20
0.0
 30
0.0
  9
$PUCSYDIR
 10
0.0
 20
1.0
 30
0.0
  9
$USERI1
 70
     0
  9
$USERI2
 70
     0
  9
$USERI3
 70
     0
  9
$USERI4
 70
     0
  9
$USERI5
 70
     0
  9
$USERR1
 40
0.0
  9
$USERR2
 40
0.0
  9
$USERR3
 40
0.0
  9
$USERR4
 40
0.0
  9
$USERR5
 40
0.0
  9
$WORLDVIEW
 70
     1
  9
$SHADEDGE
 70
     3
  9
$SHADEDIF
 70
    70
  9
$TILEMODE
 70
     1
  9
$MAXACTVP
 70
    16
  9
$PLIMCHECK
 70
     0
  9
$PEXTMIN
 10
1.0000000000000000E+020
 20
1.0000000000000000E+020
 30
1.0000000000000000E+020
  9
$PEXTMAX
 10
-1.0000000000000000E+020
 20
-1.0000000000000000E+020
 30
-1.0000000000000000E+020
  9
$PLIMMIN
 10
0.0
 20
0.0
  9
$PLIMMAX
 10
12.0
 20
9.0
  9
$UNITMODE
 70
     0
  9
$VISRETAIN
 70
     0
  9
$PLINEGEN
 70
     0
  9
$PSLTSCALE
 70
     1
  0
ENDSEC
  0
SECTION
  2
TABLES
  0
TABLE
  2
VPORT
 70
     2
  0
VPORT
  2
*ACTIVE
 70
     0
 10
0.0
 20
0.0
 11
1.0
 21
1.0
 12
2652.1072654178101
 22
1899.8490623527859
 13
0.0
 23
0.0
 14
10.0
 24
10.0
 15
10.0
 25
10.0
 16
0.0
 26
0.0
 36
1.0
 17
0.0
 27
0.0
 37
0.0
 40
3552.2128564519348
 41
1.5051150895140659
 42
50.0
 43
0.0
 44
0.0
 50
0.0
 51
0.0
 71
     0
 72
   100
 73
     1
 74
     0
 75
     0
 76
     0
 77
     0
 78
     0
  0
ENDTAB
  0
TABLE
  2
LTYPE
 70
     2
  0
LTYPE
  2
CONTINUOUS
 70
     0
  3
Solid line
 72
    65
 73
     0
 40
0.0
  0
LTYPE
  2
CENTER
 70
     0
  3
____ _ ____ _ ____ _ ____ _ ____ _ ____ _ ____ 
 72
    65
 73
     4
 40
2.0
 49
1.25
 49
-0.25
 49
0.25
 49
-0.25
  0
ENDTAB
  0
TABLE
  2
LAYER
 70
     6
  0
LAYER
  2
0
 70
     0
 62
     7
  6
CONTINUOUS
  0
LAYER
  2
3
 70
     0
 62
     2
  6
CONTINUOUS
  0
LAYER
  2
2
 70
     0
 62
     3
  6
CENTER
  0
LAYER
  2
1
 70
     0
 62
     4
  6
CONTINUOUS
  0
LAYER
  2
4
 70
     0
 62
     7
  6
CONTINUOUS
  0
LAYER
  2
DEFPOINTS
 70
     0
 62
     7
  6
CONTINUOUS
  0
ENDTAB
  0
TABLE
  2
STYLE
 70
     1
  0
STYLE
  2
STANDARD
 70
     0
 40
0.0
 41
1.0
 50
0.0
 71
     0
 42
180.0
  3
simplex.shx
  4
extfont.shx
  0
ENDTAB
  0
TABLE
  2
VIEW
 70
     0
  0
ENDTAB
  0
TABLE
  2
UCS
 70
     0
  0
ENDTAB
  0
TABLE
  2
APPID
 70
     1
  0
APPID
  2
ACAD
 70
     0
  0
ENDTAB
  0
TABLE
  2
DIMSTYLE
 70
     1
  0
DIMSTYLE
  2
IGA
 70
     0
  3

  4

  5

  6
OPEN
  7
OPEN
 40
2.0
 41
2.0
 42
0.5
 43
10.0
 44
1.0
 45
0.0
 46
0.0
 47
1.0
 48
1.0
140
3.0
141
0.0
142
0.0
143
0.03937
144
1.0
145
0.0
146
10.0
147
1.0
 71
     0
 72
     0
 73
     0
 74
     0
 75
     0
 76
     0
 77
     1
 78
     8
170
     0
171
     2
172
     0
173
     1
174
     0
175
     0
176
     0
177
     0
178
     0
  0
ENDTAB
  0
ENDSEC
  0
SECTION
  2
BLOCKS
  0
BLOCK
  8
0
  2
$MODEL_SPACE
 70
     0
 10
0.0
 20
0.0
 30
0.0
  3
$MODEL_SPACE
  1

  0
ENDBLK
  5
1B
  8
0
  0
BLOCK
 67
     1
  8
0
  2
$PAPER_SPACE
 70
     0
 10
0.0
 20
0.0
 30
0.0
  3
$PAPER_SPACE
  1

  0
ENDBLK
  5
18
 67
     1
  8
0
  0
BLOCK
  8
0
  2
_OPEN
 70
     0
 10
0.0
 20
0.0
 30
0.0
  3
_OPEN
  1

  0
LINE
  5
7B17
  8
0
  6
BYBLOCK
 62
     0
 10
-1.0
 20
0.166667
 30
0.0
 11
0.0
 21
0.0
 31
0.0
  0
LINE
  5
7B18
  8
0
  6
BYBLOCK
 62
     0
 10
0.0
 20
0.0
 30
0.0
 11
-1.0
 21
-0.166667
 31
0.0
  0
LINE
  5
7B19
  8
0
  6
BYBLOCK
 62
     0
 10
0.0
 20
0.0
 30
0.0
 11
-1.0
 21
0.0
 31
0.0
  0
ENDBLK
  5
7B1A
  8
0
  0
BLOCK
  8
0
  2
*D1
 70
     1
 10
0.0
 20
0.0
 30
0.0
  3
*D1
  1

  0
LINE
  5
7FCE
  8
3
  6
CONTINUOUS
 62
     0
 10
411.16395922190782
 20
730.96896600000002
 30
0.0
 11
411.16395922190782
 21
641.22071600000004
 31
0.0
  0
LINE
  5
7FCF
  8
3
  6
CONTINUOUS
 62
     0
 10
861.1639592219077
 20
720.605098
 30
0.0
 11
861.1639592219077
 21
641.22071600000004
 31
0.0
  0
LINE
  5
7FD0
  8
3
  6
CONTINUOUS
 62
     0
 10
431.16395922190782
 20
651.22071600000004
 30
0.0
 11
841.16395922190782
 21
651.22071600000004
 31
0.0
  0
INSERT
  5
7FD1
  8
3
  6
CONTINUOUS
 62
     0
  2
_OPEN
 10
411.16395922190782
 20
651.22071600000004
 30
0.0
 41
20.0
 42
20.0
 43
20.0
 50
180.0
  0
INSERT
  5
7FD2
  8
3
  6
CONTINUOUS
 62
     0
  2
_OPEN
 10
861.1639592219077
 20
651.22071600000004
 30
0.0
 41
20.0
 42
20.0
 43
20.0
  0
TEXT
  8
3
  40
30
  5
805D
  62
0
  72
0
  71
0
 10
575.880
 20
623.121
 30
0.000000
  1
450
  0
POINT
  5
7FD4
  8
DEFPOINTS
  6
CONTINUOUS
 62
     0
 10
411.16395922190782
 20
735.96896600000002
 30
0.0
  0
POINT
  5
7FD5
  8
DEFPOINTS
  6
CONTINUOUS
 62
     0
 10
861.1639592219077
 20
725.605098
 30
0.0
  0
POINT
  5
7FD6
  8
DEFPOINTS
  6
CONTINUOUS
 62
     0
 10
861.1639592219077
 20
651.22071600000004
 30
0.0
  0
ENDBLK
  5
7B78
  8
0
  0
BLOCK
  8
0
  2
*D2
 70
     1
 10
0.0
 20
0.0
 30
0.0
  3
*D2
  1

  0
LINE
  5
7FD7
  8
3
  6
CONTINUOUS
 62
     0
 10
1021.163959221907
 20
730.96896600000002
 30
0.0
 11
1021.163959221907
 21
641.22071600000004
 31
0.0
  0
LINE
  5
7FD8
  8
3
  6
CONTINUOUS
 62
     0
 10
881.16395922190782
 20
651.22071600000004
 30
0.0
 11
1001.163959221907
 21
651.22071600000004
 31
0.0
  0
INSERT
  5
7FD9
  8
3
  6
CONTINUOUS
 62
     0
  2
_OPEN
 10
861.1639592219077
 20
651.22071600000004
 30
0.0
 41
20.0
 42
20.0
 43
20.0
 50
180.0
  0
INSERT
  5
7FDA
  8
3
  6
CONTINUOUS
 62
     0
  2
_OPEN
 10
1021.163959221907
 20
651.22071600000004
 30
0.0
 41
20.0
 42
20.0
 43
20.0
  0
TEXT
  8
3
  40
30
  5
805E
  62
0
  72
0
  71
0
 10
881.164
 20
623.121
 30
0.000000
  1
160
  0
POINT
  5
7FDC
  8
DEFPOINTS
  6
CONTINUOUS
 62
     0
 10
861.1639592219077
 20
725.605098
 30
0.0
  0
POINT
  5
7FDD
  8
DEFPOINTS
  6
CONTINUOUS
 62
     0
 10
1021.163959221907
 20
735.96896600000002
 30
0.0
  0
POINT
  5
7FDE
  8
DEFPOINTS
  6
CONTINUOUS
 62
     0
 10
1021.163959221907
 20
651.22071600000004
 30
0.0
  0
ENDBLK
  5
7B84
  8
0
  0
BLOCK
  8
0
  2
*D3
 70
     1
 10
0.0
 20
0.0
 30
0.0
  3
*D3
  1

  0
LINE
  5
7FDF
  8
3
  6
CONTINUOUS
 62
     0
 10
716.16395922190782
 20
1035.968965999999
 30
0.0
 11
716.16395922190782
 21
1242.1765
 31
0.0
  0
LINE
  5
7FE0
  8
3
  6
CONTINUOUS
 62
     0
 10
861.1639592219077
 20
1194.9008679999999
 30
0.0
 11
861.1639592219077
 21
1242.1765
 31
0.0
  0
LINE
  5
7FE1
  8
3
  6
CONTINUOUS
 62
     0
 10
736.16395922190782
 20
1232.1765
 30
0.0
 11
841.16395922190782
 21
1232.1765
 31
0.0
  0
INSERT
  5
7FE2
  8
3
  6
CONTINUOUS
 62
     0
  2
_OPEN
 10
716.16395922190782
 20
1232.1765
 30
0.0
 41
20.0
 42
20.0
 43
20.0
 50
180.0
  0
INSERT
  5
7FE3
  8
3
  6
CONTINUOUS
 62
     0
  2
_OPEN
 10
861.1639592219077
 20
1232.1765
 30
0.0
 41
20.0
 42
20.0
 43
20.0
  0
TEXT
  8
3
  40
30
  5
805F
  62
0
  72
0
  71
0
 10
721.878
 20
1204.08
 30
0.000000
  1
145
  0
POINT
  5
7FE5
  8
DEFPOINTS
  6
CONTINUOUS
 62
     0
 10
716.16395922190782
 20
1030.9689659999999
 30
0.0
  0
POINT
  5
7FE6
  8
DEFPOINTS
  6
CONTINUOUS
 62
     0
 10
861.1639592219077
 20
1189.9008679999999
 30
0.0
  0
POINT
  5
7FE7
  8
DEFPOINTS
  6
CONTINUOUS
 62
     0
 10
861.1639592219077
 20
1232.1765
 30
0.0
  0
ENDBLK
  5
7B92
  8
0
  0
BLOCK
  8
0
  2
*D4
 70
     1
 10
0.0
 20
0.0
 30
0.0
  3
*D4
  1

  0
LINE
  5
7FE8
  8
3
  6
CONTINUOUS
 62
     0
 10
991.16395922190782
 20
1204.9689659999999
 30
0.0
 11
991.16395922190782
 21
1242.1765
 31
0.0
  0
LINE
  5
7FE9
  8
3
  6
CONTINUOUS
 62
     0
 10
881.16395922190782
 20
1232.1765
 30
0.0
 11
971.16395922190793
 21
1232.1765
 31
0.0
  0
TEXT
  8
3
  40
30
  5
8060
  62
0
  72
0
  71
0
 10
868.739
 20
1204.78
 30
0.000000
  1
130
  0
INSERT
  5
7FEB
  8
3
  6
CONTINUOUS
 62
     0
  2
_OPEN
 10
861.1639592219077
 20
1232.1765
 30
0.0
 41
20.0
 42
20.0
 43
20.0
 50
180.0
  0
INSERT
  5
7FEC
  8
3
  6
CONTINUOUS
 62
     0
  2
_OPEN
 10
991.16395922190782
 20
1232.1765
 30
0.0
 41
20.0
 42
20.0
 43
20.0
  0
POINT
  5
7FED
  8
DEFPOINTS
  6
CONTINUOUS
 62
     0
 10
861.1639592219077
 20
1189.9008679999999
 30
0.0
  0
POINT
  5
7FEE
  8
DEFPOINTS
  6
CONTINUOUS
 62
     0
 10
991.16395922190782
 20
1199.968965999999
 30
0.0
  0
POINT
  5
7FEF
  8
DEFPOINTS
  6
CONTINUOUS
 62
     0
 10
991.16395922190782
 20
1232.1765
 30
0.0
  0
ENDBLK
  5
7CF9
  8
0
  0
BLOCK
  8
0
  2
*D5
 70
     1
 10
0.0
 20
0.0
 30
0.0
  3
*D5
  1

  0
LINE
  5
7FF0
  8
3
  6
CONTINUOUS
 62
     0
 10
411.16395922190782
 20
1902.368966
 30
0.0
 11
411.16395922190782
 21
1744.32627
 31
0.0
  0
LINE
  5
7FF1
  8
3
  6
CONTINUOUS
 62
     0
 10
1021.163959221907
 20
1902.368966
 30
0.0
 11
1021.163959221907
 21
1744.32627
 31
0.0
  0
LINE
  5
7FF2
  8
3
  6
CONTINUOUS
 62
     0
 10
431.16395922190782
 20
1754.3262699999991
 30
0.0
 11
1001.163959221907
 21
1754.3262699999991
 31
0.0
  0
INSERT
  5
7FF3
  8
3
  6
CONTINUOUS
 62
     0
  2
_OPEN
 10
411.16395922190782
 20
1754.3262699999991
 30
0.0
 41
20.0
 42
20.0
 43
20.0
 50
180.0
  0
INSERT
  5
7FF4
  8
3
  6
CONTINUOUS
 62
     0
  2
_OPEN
 10
1021.163959221907
 20
1754.3262699999991
 30
0.0
 41
20.0
 42
20.0
 43
20.0
  0
TEXT
  8
3
  40
30
  5
8061
  62
0
  72
0
  71
0
 10
653.410
 20
1726.23
 30
0.000000
  1
610
  0
POINT
  5
7FF6
  8
DEFPOINTS
  6
CONTINUOUS
 62
     0
 10
411.16395922190782
 20
1907.3689659999991
 30
0.0
  0
POINT
  5
7FF7
  8
DEFPOINTS
  6
CONTINUOUS
 62
     0
 10
1021.163959221907
 20
1907.3689659999991
 30
0.0
  0
POINT
  5
7FF8
  8
DEFPOINTS
  6
CONTINUOUS
 62
     0
 10
1021.163959221907
 20
1754.3262699999991
 30
0.0
  0
ENDBLK
  5
7BBB
  8
0
  0
BLOCK
  8
0
  2
*D6
 70
     1
 10
0.0
 20
0.0
 30
0.0
  3
*D6
  1

  0
LINE
  5
7FF9
  8
3
  6
CONTINUOUS
 62
     0
 10
1026.1639592219069
 20
2131.3689659999991
 30
0.0
 11
1127.7156672219071
 21
2131.3689659999991
 31
0.0
  0
LINE
  5
7FFA
  8
3
  6
CONTINUOUS
 62
     0
 10
1026.1639592219069
 20
1907.3689659999991
 30
0.0
 11
1127.7156672219071
 21
1907.3689659999991
 31
0.0
  0
LINE
  5
7FFB
  8
3
  6
CONTINUOUS
 62
     0
 10
1117.715667221908
 20
2111.3689659999991
 30
0.0
 11
1117.715667221908
 21
1927.3689659999991
 31
0.0
  0
INSERT
  5
7FFC
  8
3
  6
CONTINUOUS
 62
     0
  2
_OPEN
 10
1117.715667221908
 20
2131.3689659999991
 30
0.0
 41
20.0
 42
20.0
 43
20.0
 50
90.0
  0
INSERT
  5
7FFD
  8
3
  6
CONTINUOUS
 62
     0
  2
_OPEN
 10
1117.715667221908
 20
1907.3689659999991
 30
0.0
 41
20.0
 42
20.0
 43
20.0
 50
270.0
  0
TEXT
  8
3
  40
30
  5
8062
  62
0
  72
0
  71
0
 10
1032.72
 20
1951.34
 30
0.000000
  1
224
  0
POINT
  5
7FFF
  8
DEFPOINTS
  6
CONTINUOUS
 62
     0
 10
1021.163959221907
 20
2131.368966
 30
0.0
  0
POINT
  5
8000
  8
DEFPOINTS
  6
CONTINUOUS
 62
     0
 10
1021.163959221907
 20
1907.3689659999991
 30
0.0
  0
POINT
  5
8001
  8
DEFPOINTS
  6
CONTINUOUS
 62
     0
 10
1117.715667221908
 20
1907.3689659999991
 30
0.0
  0
ENDBLK
  5
7BC8
  8
0
  0
BLOCK
  8
0
  2
*D7
 70
     1
 10
0.0
 20
0.0
 30
0.0
  3
*D7
  1

  0
LINE
  5
8002
  8
3
  6
CONTINUOUS
 62
     0
 10
1505.514711
 20
730.96896600000002
 30
0.0
 11
1505.514711
 21
661.41950899999995
 31
0.0
  0
LINE
  5
8003
  8
3
  6
CONTINUOUS
 62
     0
 10
1693.5147109999989
 20
725.706863
 30
0.0
 11
1693.5147109999989
 21
661.41950899999995
 31
0.0
  0
LINE
  5
8004
  8
3
  6
CONTINUOUS
 62
     0
 10
1525.514711
 20
671.41950899999995
 30
0.0
 11
1673.514711
 21
671.41950899999995
 31
0.0
  0
INSERT
  5
8005
  8
3
  6
CONTINUOUS
 62
     0
  2
_OPEN
 10
1505.514711
 20
671.41950899999995
 30
0.0
 41
20.0
 42
20.0
 43
20.0
 50
180.0
  0
INSERT
  5
8006
  8
3
  6
CONTINUOUS
 62
     0
  2
_OPEN
 10
1693.5147109999989
 20
671.41950899999995
 30
0.0
 41
20.0
 42
20.0
 43
20.0
  0
TEXT
  8
3
  40
30
  5
8063
  62
0
  72
0
  71
0
 10
1540.21
 20
643.320
 30
0.000000
  1
188
  0
POINT
  5
8008
  8
DEFPOINTS
  6
CONTINUOUS
 62
     0
 10
1505.514711
 20
735.96896600000002
 30
0.0
  0
POINT
  5
8009
  8
DEFPOINTS
  6
CONTINUOUS
 62
     0
 10
1693.5147109999989
 20
730.70686299999988
 30
0.0
  0
POINT
  5
800A
  8
DEFPOINTS
  6
CONTINUOUS
 62
     0
 10
1693.5147109999989
 20
671.41950899999995
 30
0.0
  0
ENDBLK
  5
7BDA
  8
0
  0
BLOCK
  8
0
  2
*D8
 70
     1
 10
0.0
 20
0.0
 30
0.0
  3
*D8
  1

  0
LINE
  5
800B
  8
3
  6
CONTINUOUS
 62
     0
 10
1729.514711
 20
730.96896600000002
 30
0.0
 11
1729.514711
 21
661.41950899999995
 31
0.0
  0
LINE
  5
800C
  8
3
  6
CONTINUOUS
 62
     0
 10
1673.514711
 20
671.41950899999995
 30
0.0
 11
1653.514711
 21
671.41950899999995
 31
0.0
  0
LINE
  5
800D
  8
3
  6
CONTINUOUS
 62
     0
 10
1749.514711
 20
671.41950899999995
 30
0.0
 11
1769.514711
 21
671.41950899999995
 31
0.0
  0
TEXT
  8
3
  40
30
  5
8064
  62
0
  72
0
  71
0
 10
1701.37
 20
643.003
 30
0.000000
  1
36
  0
LINE
  5
800F
  8
3
  6
CONTINUOUS
 62
     0
 10
1693.5147109999989
 20
671.41950899999995
 30
0.0
 11
1729.514711
 21
671.41950899999995
 31
0.0
  0
INSERT
  5
8010
  8
3
  6
CONTINUOUS
 62
     0
  2
_OPEN
 10
1693.5147109999989
 20
671.41950899999995
 30
0.0
 41
20.0
 42
20.0
 43
20.0
  0
INSERT
  5
8011
  8
3
  6
CONTINUOUS
 62
     0
  2
_OPEN
 10
1729.514711
 20
671.41950899999995
 30
0.0
 41
20.0
 42
20.0
 43
20.0
 50
180.0
  0
POINT
  5
8012
  8
DEFPOINTS
  6
CONTINUOUS
 62
     0
 10
1693.5147109999989
 20
730.70686299999988
 30
0.0
  0
POINT
  5
8013
  8
DEFPOINTS
  6
CONTINUOUS
 62
     0
 10
1729.514711
 20
735.96896600000002
 30
0.0
  0
POINT
  5
8014
  8
DEFPOINTS
  6
CONTINUOUS
 62
     0
 10
1729.514711
 20
671.41950899999995
 30
0.0
  0
ENDBLK
  5
7C73
  8
0
  0
BLOCK
  8
0
  2
*D9
 70
     1
 10
0.0
 20
0.0
 30
0.0
  3
*D9
  1

  0
LINE
  5
7EC1
  8
0
  6
BYBLOCK
 62
     0
 10
1637.514711
 20
1182.9689659999999
 30
0.0
 11
1637.514711
 21
1231.260082
 31
0.0
  0
LINE
  5
7EC2
  8
0
  6
BYBLOCK
 62
     0
 10
1749.514711
 20
1182.9689659999999
 30
0.0
 11
1749.514711
 21
1231.260082
 31
0.0
  0
LINE
  5
7EC3
  8
0
  6
BYBLOCK
 62
     0
 10
1657.514711
 20
1221.260082
 30
0.0
 11
1729.514711
 21
1221.260082
 31
0.0
  0
TEXT
  5
7EC4
  8
3
 62
     0
 10
1660.6575681428569
 20
1227.5667645337439
 30
0.0
 40
30.0
  1
112
  0
INSERT
  5
7EC5
  8
0
  6
BYBLOCK
 62
     0
  2
_OPEN
 10
1637.514711
 20
1221.260082
 30
0.0
 41
20.0
 42
20.0
 43
20.0
 50
180.0
  0
INSERT
  5
7EC6
  8
0
  6
BYBLOCK
 62
     0
  2
_OPEN
 10
1749.514711
 20
1221.260082
 30
0.0
 41
20.0
 42
20.0
 43
20.0
  0
POINT
  5
7EC7
  8
DEFPOINTS
  6
BYBLOCK
 62
     0
 10
1637.514711
 20
1177.968965999999
 30
0.0
  0
POINT
  5
7EC8
  8
DEFPOINTS
  6
BYBLOCK
 62
     0
 10
1749.514711
 20
1177.968965999999
 30
0.0
  0
POINT
  5
7EC9
  8
DEFPOINTS
  6
BYBLOCK
 62
     0
 10
1749.514711
 20
1221.260082
 30
0.0
  0
ENDBLK
  5
7ECA
  8
0
  0
BLOCK
  8
0
  2
*D10
 70
     1
 10
0.0
 20
0.0
 30
0.0
  3
*D10
  1

  0
LINE
  5
7EB6
  8
0
  6
BYBLOCK
 62
     0
 10
1762.514711
 20
1097.9689659999999
 30
0.0
 11
1855.3658
 21
1097.9689659999999
 31
0.0
  0
LINE
  5
7EB7
  8
0
  6
BYBLOCK
 62
     0
 10
1762.514711
 20
937.96896600000002
 30
0.0
 11
1855.3658
 21
937.96896600000002
 31
0.0
  0
LINE
  5
7EB8
  8
0
  6
BYBLOCK
 62
     0
 10
1845.3658
 20
1077.9689659999999
 30
0.0
 11
1845.3658
 21
957.96896599999991
 31
0.0
  0
TEXT
  5
7EB9
  8
3
 62
     0
 10
1838.546869847994
 20
967.25468028571424
 30
0.0
 40
30.0
  1
φ160
 50
90.0
  0
INSERT
  5
7EBA
  8
0
  6
BYBLOCK
 62
     0
  2
_OPEN
 10
1845.3658
 20
1097.9689659999999
 30
0.0
 41
20.0
 42
20.0
 43
20.0
 50
90.0
  0
INSERT
  5
7EBB
  8
0
  6
BYBLOCK
 62
     0
  2
_OPEN
 10
1845.3658
 20
937.96896600000002
 30
0.0
 41
20.0
 42
20.0
 43
20.0
 50
270.0
  0
POINT
  5
7EBC
  8
DEFPOINTS
  6
BYBLOCK
 62
     0
 10
1757.5147109999989
 20
1097.9689659999999
 30
0.0
  0
POINT
  5
7EBD
  8
DEFPOINTS
  6
BYBLOCK
 62
     0
 10
1757.5147109999989
 20
937.96896600000002
 30
0.0
  0
POINT
  5
7EBE
  8
DEFPOINTS
  6
BYBLOCK
 62
     0
 10
1845.3658
 20
937.96896600000002
 30
0.0
  0
ENDBLK
  5
7EBF
  8
0
  0
BLOCK
  8
0
  2
*D11
 70
     1
 10
0.0
 20
0.0
 30
0.0
  3
*D11
  1

  0
LINE
  5
8015
  8
3
  6
CONTINUOUS
 62
     0
 10
1433.514711
 20
1117.9689659999999
 30
0.0
 11
1433.514711
 21
1293.6309879999999
 31
0.0
  0
LINE
  5
8016
  8
3
  6
CONTINUOUS
 62
     0
 10
1693.5147109999989
 20
1285.8974820000001
 30
0.0
 11
1693.5147109999989
 21
1293.6309879999999
 31
0.0
  0
LINE
  5
8017
  8
3
  6
CONTINUOUS
 62
     0
 10
1453.514711
 20
1283.6309879999999
 30
0.0
 11
1673.514711
 21
1283.6309879999999
 31
0.0
  0
INSERT
  5
8018
  8
3
  6
CONTINUOUS
 62
     0
  2
_OPEN
 10
1433.514711
 20
1283.6309879999999
 30
0.0
 41
20.0
 42
20.0
 43
20.0
 50
180.0
  0
INSERT
  5
8019
  8
3
  6
CONTINUOUS
 62
     0
  2
_OPEN
 10
1693.5147109999989
 20
1283.6309879999999
 30
0.0
 41
20.0
 42
20.0
 43
20.0
  0
TEXT
  8
3
  40
30
  5
8065
  62
0
  72
0
  71
0
 10
1500.36
 20
1280.53
 30
0.000000
  1
MAX
  0
TEXT
  8
3
  40
30
  5
8066
  62
0
  72
0
  71
0
 10
1500.36
 20
1241.53
 30
0.000000
  1
260
  0
POINT
  5
801B
  8
DEFPOINTS
  6
CONTINUOUS
 62
     0
 10
1433.514711
 20
1112.968965999999
 30
0.0
  0
POINT
  5
801C
  8
DEFPOINTS
  6
CONTINUOUS
 62
     0
 10
1693.5147109999989
 20
1280.8974820000001
 30
0.0
  0
POINT
  5
801D
  8
DEFPOINTS
  6
CONTINUOUS
 62
     0
 10
1693.5147109999989
 20
1283.6309879999999
 30
0.0
  0
ENDBLK
  5
7EE2
  8
0
  0
BLOCK
  8
0
  2
*D12
 70
     1
 10
0.0
 20
0.0
 30
0.0
  3
*D12
  1

  0
LINE
  5
801E
  8
3
  6
CONTINUOUS
 62
     0
 10
1757.5147109999989
 20
1122.968965999999
 30
0.0
 11
1757.5147109999989
 21
1293.6309879999999
 31
0.0
  0
LINE
  5
801F
  8
3
  6
CONTINUOUS
 62
     0
 10
1713.514711
 20
1283.6309879999999
 30
0.0
 11
1737.514711
 21
1283.6309879999999
 31
0.0
  0
TEXT
  8
3
  40
30
  5
8067
  62
0
  72
0
  71
0
 10
1665.34
 20
1256.50
 30
0.000000
  1
64
  0
INSERT
  5
8021
  8
3
  6
CONTINUOUS
 62
     0
  2
_OPEN
 10
1693.5147109999989
 20
1283.6309879999999
 30
0.0
 41
20.0
 42
20.0
 43
20.0
 50
180.0
  0
INSERT
  5
8022
  8
3
  6
CONTINUOUS
 62
     0
  2
_OPEN
 10
1757.5147109999989
 20
1283.6309879999999
 30
0.0
 41
20.0
 42
20.0
 43
20.0
  0
POINT
  5
8023
  8
DEFPOINTS
  6
CONTINUOUS
 62
     0
 10
1693.5147109999989
 20
1280.8974820000001
 30
0.0
  0
POINT
  5
8024
  8
DEFPOINTS
  6
CONTINUOUS
 62
     0
 10
1757.5147109999989
 20
1117.9689659999999
 30
0.0
  0
POINT
  5
8025
  8
DEFPOINTS
  6
CONTINUOUS
 62
     0
 10
1757.5147109999989
 20
1283.6309879999999
 30
0.0
  0
ENDBLK
  5
7CE3
  8
0
  0
BLOCK
  8
0
  2
*D13
 70
     1
 10
0.0
 20
0.0
 30
0.0
  3
*D13
  1

  0
LINE
  5
8026
  8
3
  6
CONTINUOUS
 62
     0
 10
995.16395922190793
 20
1177.968965999999
 30
0.0
 11
1071.042293221908
 21
1177.968965999999
 31
0.0
  0
LINE
  5
8027
  8
3
  6
CONTINUOUS
 62
     0
 10
996.16395922190793
 20
1017.968966
 30
0.0
 11
1071.042293221908
 21
1017.968966
 31
0.0
  0
LINE
  5
8028
  8
3
  6
CONTINUOUS
 62
     0
 10
1061.042293221908
 20
1157.9689659999999
 30
0.0
 11
1061.042293221908
 21
1037.9689659999999
 31
0.0
  0
INSERT
  5
8029
  8
3
  6
CONTINUOUS
 62
     0
  2
_OPEN
 10
1061.042293221908
 20
1177.968965999999
 30
0.0
 41
20.0
 42
20.0
 43
20.0
 50
90.0
  0
INSERT
  5
802A
  8
3
  6
CONTINUOUS
 62
     0
  2
_OPEN
 10
1061.042293221908
 20
1017.968966
 30
0.0
 41
20.0
 42
20.0
 43
20.0
 50
270.0
  0
TEXT
  8
3
  40
30
  5
8068
  62
0
  72
0
  71
0
 10
976.042
 20
1046.93
 30
0.000000
  1
160
  0
POINT
  5
802C
  8
DEFPOINTS
  6
CONTINUOUS
 62
     0
 10
990.16395922190782
 20
1177.968965999999
 30
0.0
  0
POINT
  5
802D
  8
DEFPOINTS
  6
CONTINUOUS
 62
     0
 10
991.16395922190782
 20
1017.968966
 30
0.0
  0
POINT
  5
802E
  8
DEFPOINTS
  6
CONTINUOUS
 62
     0
 10
1061.042293221908
 20
1017.968966
 30
0.0
  0
ENDBLK
  5
7D0F
  8
0
  0
BLOCK
  8
0
  2
*D14
 70
     1
 10
0.0
 20
0.0
 30
0.0
  3
*D14
  1

  0
LINE
  5
802F
  8
3
  6
CONTINUOUS
 62
     0
 10
981.16395922190782
 20
1188.9689659999999
 30
0.0
 11
1159.3117542219079
 21
1188.9689659999999
 31
0.0
  0
LINE
  5
8030
  8
3
  6
CONTINUOUS
 62
     0
 10
996.16395922190793
 20
1017.968966
 30
0.0
 11
1159.3117542219079
 21
1017.968966
 31
0.0
  0
LINE
  5
8031
  8
3
  6
CONTINUOUS
 62
     0
 10
1149.3117542219079
 20
1168.968965999999
 30
0.0
 11
1149.3117542219079
 21
1037.9689659999999
 31
0.0
  0
INSERT
  5
8032
  8
3
  6
CONTINUOUS
 62
     0
  2
_OPEN
 10
1149.3117542219079
 20
1188.9689659999999
 30
0.0
 41
20.0
 42
20.0
 43
20.0
 50
90.0
  0
INSERT
  5
8033
  8
3
  6
CONTINUOUS
 62
     0
  2
_OPEN
 10
1149.3117542219079
 20
1017.968966
 30
0.0
 41
20.0
 42
20.0
 43
20.0
 50
270.0
  0
TEXT
  8
3
  40
30
  5
8069
  62
0
  72
0
  71
0
 10
1064.31
 20
1044.19
 30
0.000000
  1
171
  0
POINT
  5
8035
  8
DEFPOINTS
  6
CONTINUOUS
 62
     0
 10
976.1639592219077
 20
1188.9689659999999
 30
0.0
  0
POINT
  5
8036
  8
DEFPOINTS
  6
CONTINUOUS
 62
     0
 10
991.16395922190782
 20
1017.968966
 30
0.0
  0
POINT
  5
8037
  8
DEFPOINTS
  6
CONTINUOUS
 62
     0
 10
1149.3117542219079
 20
1017.968966
 30
0.0
  0
ENDBLK
  5
7E32
  8
0
  0
BLOCK
  8
0
  2
*D15
 70
     1
 10
0.0
 20
0.0
 30
0.0
  3
*D15
  1

  0
LINE
  5
8038
  8
3
  6
CONTINUOUS
 62
     0
 10
1001.163959221907
 20
782.96896600000002
 30
0.0
 11
1159.3117542219079
 21
782.96896600000002
 31
0.0
  0
LINE
  5
8039
  8
3
  6
CONTINUOUS
 62
     0
 10
1149.3117542219079
 20
997.96896600000002
 30
0.0
 11
1149.3117542219079
 21
802.96896600000002
 31
0.0
  0
INSERT
  5
803A
  8
3
  6
CONTINUOUS
 62
     0
  2
_OPEN
 10
1149.3117542219079
 20
1017.968966
 30
0.0
 41
20.0
 42
20.0
 43
20.0
 50
90.0
  0
INSERT
  5
803B
  8
3
  6
CONTINUOUS
 62
     0
  2
_OPEN
 10
1149.3117542219079
 20
782.96896600000002
 30
0.0
 41
20.0
 42
20.0
 43
20.0
 50
270.0
  0
TEXT
  8
3
  40
30
  5
806A
  62
0
  72
0
  71
0
 10
1064.31
 20
847.369
 30
0.000000
  1
235
  0
POINT
  5
803D
  8
DEFPOINTS
  6
CONTINUOUS
 62
     0
 10
991.16395922190782
 20
1017.968966
 30
0.0
  0
POINT
  5
803E
  8
DEFPOINTS
  6
CONTINUOUS
 62
     0
 10
996.16395922190793
 20
782.96896600000002
 30
0.0
  0
POINT
  5
803F
  8
DEFPOINTS
  6
CONTINUOUS
 62
     0
 10
1149.3117542219079
 20
782.96896600000002
 30
0.0
  0
ENDBLK
  5
7E3E
  8
0
  0
BLOCK
  8
0
  2
*D16
 70
     1
 10
0.0
 20
0.0
 30
0.0
  3
*D16
  1

  0
LINE
  5
8040
  8
3
  6
CONTINUOUS
 62
     0
 10
1001.163959221907
 20
782.96896600000002
 30
0.0
 11
1159.709761221907
 21
782.96896600000002
 31
0.0
  0
LINE
  5
8041
  8
3
  6
CONTINUOUS
 62
     0
 10
1026.1639592219069
 20
735.96896600000002
 30
0.0
 11
1159.709761221907
 21
735.96896600000002
 31
0.0
  0
LINE
  5
8042
  8
3
  6
CONTINUOUS
 62
     0
 10
1149.7097612219079
 20
802.96896600000002
 30
0.0
 11
1149.7097612219079
 21
822.96896600000002
 31
0.0
  0
LINE
  5
8043
  8
3
  6
CONTINUOUS
 62
     0
 10
1149.7097612219079
 20
715.96896600000002
 30
0.0
 11
1149.7097612219079
 21
627.39753742857135
 31
0.0
  0
LINE
  5
8044
  8
3
  6
CONTINUOUS
 62
     0
 10
1149.7097612219079
 20
782.96896600000002
 30
0.0
 11
1149.7097612219079
 21
735.96896600000002
 31
0.0
  0
INSERT
  5
8045
  8
3
  6
CONTINUOUS
 62
     0
  2
_OPEN
 10
1149.7097612219079
 20
782.96896600000002
 30
0.0
 41
20.0
 42
20.0
 43
20.0
 50
270.0
  0
INSERT
  5
8046
  8
3
  6
CONTINUOUS
 62
     0
  2
_OPEN
 10
1149.7097612219079
 20
735.96896600000002
 30
0.0
 41
20.0
 42
20.0
 43
20.0
 50
90.0
  0
TEXT
  8
3
  40
30
  5
806B
  62
0
  72
0
  71
0
 10
1064.71
 20
608.583
 30
0.000000
  1
47
  0
POINT
  5
8048
  8
DEFPOINTS
  6
CONTINUOUS
 62
     0
 10
996.16395922190793
 20
782.96896600000002
 30
0.0
  0
POINT
  5
8049
  8
DEFPOINTS
  6
CONTINUOUS
 62
     0
 10
1021.163959221907
 20
735.96896600000002
 30
0.0
  0
POINT
  5
804A
  8
DEFPOINTS
  6
CONTINUOUS
 62
     0
 10
1149.7097612219079
 20
735.96896600000002
 30
0.0
  0
ENDBLK
  5
7ED7
  8
0
  0
BLOCK
  8
0
  2
*D17
 70
     1
 10
0.0
 20
0.0
 30
0.0
  3
*D17
  1

  0
LINE
  5
804B
  8
3
  6
CONTINUOUS
 62
     0
 10
996.16395922190793
 20
1199.968965999999
 30
0.0
 11
1228.5737952219081
 21
1199.968965999999
 31
0.0
  0
LINE
  5
804C
  8
3
  6
CONTINUOUS
 62
     0
 10
1026.1639592219069
 20
735.96896600000002
 30
0.0
 11
1228.5737952219081
 21
735.96896600000002
 31
0.0
  0
LINE
  5
804D
  8
3
  6
CONTINUOUS
 62
     0
 10
1218.5737952219081
 20
1179.968965999999
 30
0.0
 11
1218.5737952219081
 21
755.96896600000002
 31
0.0
  0
INSERT
  5
804E
  8
3
  6
CONTINUOUS
 62
     0
  2
_OPEN
 10
1218.5737952219081
 20
1199.968965999999
 30
0.0
 41
20.0
 42
20.0
 43
20.0
 50
90.0
  0
INSERT
  5
804F
  8
3
  6
CONTINUOUS
 62
     0
  2
_OPEN
 10
1218.5737952219081
 20
735.96896600000002
 30
0.0
 41
20.0
 42
20.0
 43
20.0
 50
270.0
  0
TEXT
  8
3
  40
30
  5
806C
  62
0
  72
0
  71
0
 10
1133.57
 20
892.258
 30
0.000000
  1
464
  0
POINT
  5
8051
  8
DEFPOINTS
  6
CONTINUOUS
 62
     0
 10
991.16395922190782
 20
1199.968965999999
 30
0.0
  0
POINT
  5
8052
  8
DEFPOINTS
  6
CONTINUOUS
 62
     0
 10
1021.163959221907
 20
735.96896600000002
 30
0.0
  0
POINT
  5
8053
  8
DEFPOINTS
  6
CONTINUOUS
 62
     0
 10
1218.5737952219081
 20
735.96896600000002
 30
0.0
  0
ENDBLK
  5
7E76
  8
0
  0
BLOCK
  8
0
  2
*D18
 70
     1
 10
0.0
 20
0.0
 30
0.0
  3
*D18
  1

  0
LINE
  5
8054
  8
3
 62
     0
 10
991.16395922190782
 20
1204.9689659999999
 30
0.0
 11
991.16395922190782
 21
1297.4117487604431
 31
0.0
  0
LINE
  5
8055
  8
3
 62
     0
 10
411.16395922190782
 20
765.96896600000002
 30
0.0
 11
411.16395922190782
 21
1297.4117487604431
 31
0.0
  0
LINE
  5
8056
  8
3
 62
     0
 10
971.16395922190793
 20
1287.4117487604431
 30
0.0
 11
431.16395922190782
 21
1287.4117487604431
 31
0.0
  0
INSERT
  5
8057
  8
3
 62
     0
  2
_OPEN
 10
991.16395922190782
 20
1287.4117487604431
 30
0.0
 41
20.0
 42
20.0
 43
20.0
  0
INSERT
  5
8058
  8
3
 62
     0
  2
_OPEN
 10
411.16395922190782
 20
1287.4117487604431
 30
0.0
 41
20.0
 42
20.0
 43
20.0
 50
180.0
  0
TEXT
  8
3
  40
30
  5
806D
  62
0
  72
0
  71
0
 10
649.657
 20
1259.31
 30
0.000000
  1
580
  0
POINT
  5
805A
  8
DEFPOINTS
 62
     0
 10
991.16395922190782
 20
1199.968965999999
 30
0.0
  0
POINT
  5
805B
  8
DEFPOINTS
 62
     0
 10
411.16395922190782
 20
760.96896600000002
 30
0.0
  0
POINT
  5
805C
  8
DEFPOINTS
 62
     0
 10
411.16395922190782
 20
1287.4117487604431
 30
0.0
  0
ENDBLK
  5
7EEE
  8
0
  0
ENDSEC
  0
SECTION
  2
ENTITIES
  0
LINE
  5
7A8A
  8
1
  6
CONTINUOUS
 10
411.16395922190782
 20
735.96896600000002
 30
0.0
 11
1021.163959221907
 21
735.96896600000002
 31
0.0
  0
LINE
  5
7A8B
  8
1
  6
CONTINUOUS
 10
411.16395922190782
 20
760.96896600000002
 30
0.0
 11
1021.163959221907
 21
760.96896600000002
 31
0.0
  0
LINE
  5
7A8C
  8
1
  6
CONTINUOUS
 10
436.16395922190782
 20
852.96896600000002
 30
0.0
 11
687.16395922190782
 21
852.96896600000002
 31
0.0
  0
ARC
  5
7A8D
  8
1
  6
CONTINUOUS
 10
575.66395922190782
 20
932.96896599999991
 30
0.0
 40
85.0
 50
324.69999999999987
 51
215.30000000000001
  0
LINE
  5
7A8E
  8
1
  6
CONTINUOUS
 10
436.16395922190782
 20
782.96896600000002
 30
0.0
 11
996.16395922190793
 21
782.96896600000002
 31
0.0
  0
LINE
  5
7A8F
  8
1
  6
CONTINUOUS
 10
436.16395922190782
 20
832.96896599999991
 30
0.0
 11
996.16395922190793
 21
832.96896599999991
 31
0.0
  0
LINE
  5
7A90
  8
1
  6
CONTINUOUS
 10
958.46395922190777
 20
1112.968965999999
 30
0.0
 11
478.46395922190783
 21
1112.968965999999
 31
0.0
  0
LINE
  5
7A91
  8
1
  6
CONTINUOUS
 10
564.56395922190779
 20
966.16896599999995
 30
0.0
 11
846.86395922190763
 21
1060.668965999999
 31
0.0
  0
LINE
  5
7A92
  8
1
  6
CONTINUOUS
 10
584.56395922190779
 20
899.06896600000005
 30
0.0
 11
872.56395922190779
 21
974.46896600000002
 31
0.0
  0
LINE
  5
7A93
  8
1
  6
CONTINUOUS
 10
498.16395922190782
 20
860.96896600000002
 30
0.0
 11
506.36395922190781
 21
883.76896599999998
 31
0.0
  0
LINE
  5
7A94
  8
1
  6
CONTINUOUS
 10
478.46395922190783
 20
1112.968965999999
 30
0.0
 11
478.46395922190783
 21
832.96896599999991
 31
0.0
  0
LINE
  5
7A95
  8
1
  6
CONTINUOUS
 10
411.16395922190782
 20
760.96896600000002
 30
0.0
 11
411.16395922190782
 21
735.96896600000002
 31
0.0
  0
LINE
  5
7A96
  8
1
  6
CONTINUOUS
 10
498.16395922190782
 20
852.96896600000002
 30
0.0
 11
498.16395922190782
 21
860.96896600000002
 31
0.0
  0
LINE
  5
7A97
  8
1
  6
CONTINUOUS
 10
436.16395922190782
 20
852.96896600000002
 30
0.0
 11
436.16395922190782
 21
782.96896600000002
 31
0.0
  0
LINE
  5
7A98
  8
2
  6
CENTER
 10
540.66395922190782
 20
932.96896599999991
 30
0.0
 11
610.66395922190782
 21
932.96896599999991
 31
0.0
  0
CIRCLE
  5
7A9A
  8
1
  6
CONTINUOUS
 10
575.66395922190782
 20
932.96896599999991
 30
0.0
 40
35.0
  0
LINE
  5
7A9B
  8
1
  6
CONTINUOUS
 10
653.16395922190782
 20
860.96896600000002
 30
0.0
 11
644.96395922190766
 21
883.76896599999998
 31
0.0
  0
LINE
  5
7A9C
  8
1
  6
CONTINUOUS
 10
958.46395922190777
 20
832.96896599999991
 30
0.0
 11
958.46395922190777
 21
1112.968965999999
 31
0.0
  0
LINE
  5
7A9D
  8
1
  6
CONTINUOUS
 10
971.16395922190793
 20
832.96896599999991
 30
0.0
 11
971.16395922190793
 21
1060.068966
 31
0.0
  0
LINE
  5
7A9E
  8
1
  6
CONTINUOUS
 10
751.1639592219077
 20
1060.068966
 30
0.0
 11
751.1639592219077
 21
832.96896599999991
 31
0.0
  0
ARC
  5
7A9F
  8
1
  6
CONTINUOUS
 10
852.1639592219077
 20
1008.968966
 30
0.0
 40
114.0
 50
269.5
 51
359.5
  0
ARC
  5
7AA0
  8
1
  6
CONTINUOUS
 10
850.16395922190782
 20
1028.968965999999
 30
0.0
 40
134.0
 50
189.90000000000001
 51
270.5
  0
LINE
  5
7AA1
  8
1
  6
CONTINUOUS
 10
653.16395922190782
 20
852.96896600000002
 30
0.0
 11
653.16395922190782
 21
860.96896600000002
 31
0.0
  0
LINE
  5
7AA2
  8
1
  6
CONTINUOUS
 10
687.16395922190782
 20
852.96896600000002
 30
0.0
 11
687.16395922190782
 21
832.96896599999991
 31
0.0
  0
LINE
  5
7AA3
  8
1
  6
CONTINUOUS
 10
1021.163959221907
 20
735.96896600000002
 30
0.0
 11
1021.163959221907
 21
760.96896600000002
 31
0.0
  0
LINE
  5
7AA4
  8
1
  6
CONTINUOUS
 10
996.16395922190793
 20
782.96896600000002
 30
0.0
 11
996.16395922190793
 21
832.96896599999991
 31
0.0
  0
CIRCLE
  5
7AA5
  8
1
  6
CONTINUOUS
 10
861.1639592219077
 20
1017.968966
 30
0.0
 40
45.0
  0
LINE
  5
7AA6
  8
1
  6
CONTINUOUS
 10
751.1639592219077
 20
984.66896599999995
 30
0.0
 11
971.16395922190793
 21
984.66896599999995
 31
0.0
  0
LINE
  5
7AA7
  8
1
  6
CONTINUOUS
 10
897.76395922190795
 20
1122.968965999999
 30
0.0
 11
824.56395922190768
 21
1122.968965999999
 31
0.0
  0
ARC
  5
7AA8
  8
1
  6
CONTINUOUS
 10
874.16395922190782
 20
1030.9689659999999
 30
0.0
 40
158.0
 50
90.0
 51
189.09999999999999
  0
LINE
  5
7AA9
  8
2
  6
CENTER
 10
816.16395922190782
 20
1017.968966
 30
0.0
 11
1027.7654532219069
 21
1017.968966
 31
0.0
  0
CIRCLE
  5
7AAA
  8
1
  6
CONTINUOUS
 10
861.1639592219077
 20
1017.968966
 30
0.0
 40
80.0
  0
CIRCLE
  5
7AAB
  8
1
  6
CONTINUOUS
 10
861.1639592219077
 20
1017.968966
 30
0.0
 40
100.0
  0
LINE
  5
7AAC
  8
1
  6
CONTINUOUS
 10
751.1639592219077
 20
1060.068966
 30
0.0
 11
824.56395922190768
 21
1122.968965999999
 31
0.0
  0
LINE
  5
7AAD
  8
1
  6
CONTINUOUS
 10
991.16395922190782
 20
1199.968965999999
 30
0.0
 11
991.16395922190782
 21
995.96896600000002
 31
0.0
  0
LINE
  5
7AAE
  8
1
  6
CONTINUOUS
 10
971.16395922190793
 20
1060.068966
 30
0.0
 11
897.76395922190795
 21
1122.968965999999
 31
0.0
  0
LINE
  5
7AAF
  8
1
  6
CONTINUOUS
 10
976.1639592219077
 20
1188.9689659999999
 30
0.0
 11
874.16395922190782
 21
1188.9689659999999
 31
0.0
  0
LINE
  5
7AB0
  8
2
  6
CENTER
 10
861.1639592219077
 20
725.605098
 30
0.0
 11
861.1639592219077
 21
1189.9008679999999
 31
0.0
  0
LINE
  5
7AB1
  8
1
  6
CONTINUOUS
 10
976.1639592219077
 20
1007.968965999999
 30
0.0
 11
966.16395922190782
 21
1007.968965999999
 31
0.0
  0
LINE
  5
7AB2
  8
1
  6
CONTINUOUS
 10
991.16395922190782
 20
1178.9689659999999
 30
0.0
 11
976.1639592219077
 21
1163.9689659999999
 31
0.0
  0
LINE
  5
7AB3
  8
1
  6
CONTINUOUS
 10
976.1639592219077
 20
1163.9689659999999
 30
0.0
 11
976.1639592219077
 21
1031.968965999999
 31
0.0
  0
LINE
  5
7AB4
  8
1
  6
CONTINUOUS
 10
991.16395922190782
 20
1016.968966
 30
0.0
 11
976.1639592219077
 21
1031.968965999999
 31
0.0
  0
LINE
  5
7AB5
  8
1
  6
CONTINUOUS
 10
976.1639592219077
 20
1177.968965999999
 30
0.0
 11
991.16395922190782
 21
1177.968965999999
 31
0.0
  0
LINE
  5
7AB6
  8
1
  6
CONTINUOUS
 10
976.1639592219077
 20
1017.968966
 30
0.0
 11
991.16395922190782
 21
1017.968966
 31
0.0
  0
LINE
  5
7AB7
  8
1
  6
CONTINUOUS
 10
976.1639592219077
 20
1188.9689659999999
 30
0.0
 11
976.1639592219077
 21
1177.968965999999
 31
0.0
  0
LINE
  5
7AB8
  8
1
  6
CONTINUOUS
 10
976.1639592219077
 20
1017.968966
 30
0.0
 11
976.1639592219077
 21
1007.968965999999
 31
0.0
  0
LINE
  5
7AB9
  8
1
  6
CONTINUOUS
 10
727.06395922190779
 20
2131.368966
 30
0.0
 11
411.16395922190782
 21
2131.368966
 31
0.0
  0
LINE
  5
7ABA
  8
1
  6
CONTINUOUS
 10
585.16395922190782
 20
1907.3689659999991
 30
0.0
 11
849.16395922190782
 21
1907.3689659999991
 31
0.0
  0
LINE
  5
7ABB
  8
1
  6
CONTINUOUS
 10
958.46395922190777
 20
1910.368966
 30
0.0
 11
478.46395922190783
 21
1910.368966
 31
0.0
  0
LINE
  5
7ABC
  8
1
  6
CONTINUOUS
 10
958.46395922190777
 20
1835.368966
 30
0.0
 11
478.46395922190783
 21
1835.368966
 31
0.0
  0
LINE
  5
7ABD
  8
1
  6
CONTINUOUS
 10
660.66395922190782
 20
2111.868966
 30
0.0
 11
490.66395922190782
 21
2111.868966
 31
0.0
  0
LINE
  5
7ABE
  8
1
  6
CONTINUOUS
 10
660.66395922190782
 20
1921.0689659999989
 30
0.0
 11
490.66395922190782
 21
1921.0689659999989
 31
0.0
  0
LINE
  5
7ABF
  8
1
  6
CONTINUOUS
 10
411.16395922190782
 20
2131.368966
 30
0.0
 11
411.16395922190782
 21
1907.3689659999991
 31
0.0
  0
LINE
  5
7AC0
  8
1
  6
CONTINUOUS
 10
411.16395922190782
 20
1907.3689659999991
 30
0.0
 11
566.16395922190782
 21
1907.3689659999991
 31
0.0
  0
LINE
  5
7AC1
  8
1
  6
CONTINUOUS
 10
490.66395922190782
 20
1921.0689659999989
 30
0.0
 11
490.66395922190782
 21
2111.868966
 31
0.0
  0
LINE
  5
7AC2
  8
1
  6
CONTINUOUS
 10
478.46395922190783
 20
1910.368966
 30
0.0
 11
478.46395922190783
 21
1835.368966
 31
0.0
  0
LINE
  5
7AC3
  8
1
  6
CONTINUOUS
 10
540.66395922190782
 20
1891.2689660000001
 30
0.0
 11
540.66395922190782
 21
1856.2689660000001
 31
0.0
  0
LINE
  5
7AC4
  8
1
  6
CONTINUOUS
 10
610.66395922190782
 20
1891.2689660000001
 30
0.0
 11
610.66395922190782
 21
1856.2689660000001
 31
0.0
  0
LINE
  5
7AC5
  8
1
  6
CONTINUOUS
 10
610.66395922190782
 20
1856.2689660000001
 30
0.0
 11
540.66395922190782
 21
1856.2689660000001
 31
0.0
  0
LINE
  5
7AC6
  8
1
  6
CONTINUOUS
 10
610.66395922190782
 20
1891.2689660000001
 30
0.0
 11
540.66395922190782
 21
1891.2689660000001
 31
0.0
  0
LINE
  5
7AC7
  8
1
  6
CONTINUOUS
 10
566.16395922190782
 20
1891.2689660000001
 30
0.0
 11
566.16395922190782
 21
1921.0689659999989
 31
0.0
  0
LINE
  5
7AC8
  8
1
  6
CONTINUOUS
 10
585.16395922190782
 20
1891.2689660000001
 30
0.0
 11
585.16395922190782
 21
1921.0689659999989
 31
0.0
  0
LINE
  5
7AC9
  8
1
  6
CONTINUOUS
 10
1021.163959221907
 20
1907.3689659999991
 30
0.0
 11
1021.163959221907
 21
2131.368966
 31
0.0
  0
LINE
  5
7ACA
  8
1
  6
CONTINUOUS
 10
991.16395922190782
 20
2172.368966
 30
0.0
 11
991.16395922190782
 21
2018.368966
 31
0.0
  0
LINE
  5
7ACB
  8
1
  6
CONTINUOUS
 10
976.1639592219077
 20
2137.3689659999991
 30
0.0
 11
976.1639592219077
 21
2053.368966
 31
0.0
  0
LINE
  5
7ACC
  8
1
  6
CONTINUOUS
 10
727.06395922190779
 20
2143.368966
 30
0.0
 11
727.06395922190779
 21
2047.368966
 31
0.0
  0
LINE
  5
7ACD
  8
1
  6
CONTINUOUS
 10
906.16395922190782
 20
1891.2689660000001
 30
0.0
 11
816.16395922190782
 21
1891.2689660000001
 31
0.0
  0
LINE
  5
7ACE
  8
1
  6
CONTINUOUS
 10
906.16395922190782
 20
1856.2689660000001
 30
0.0
 11
816.16395922190782
 21
1856.2689660000001
 31
0.0
  0
LINE
  5
7ACF
  8
1
  6
CONTINUOUS
 10
971.16395922190793
 20
2031.7689660000001
 30
0.0
 11
751.1639592219077
 21
2031.7689660000001
 31
0.0
  0
LINE
  5
7AD0
  8
1
  6
CONTINUOUS
 10
735.06395922190779
 20
2039.368966
 30
0.0
 11
991.16395922190782
 21
2039.368966
 31
0.0
  0
LINE
  5
7AD1
  8
1
  6
CONTINUOUS
 10
660.66395922190782
 20
1921.0689659999989
 30
0.0
 11
660.66395922190782
 21
2111.868966
 31
0.0
  0
ARC
  5
7AD2
  8
1
  6
CONTINUOUS
 10
735.06395922190779
 20
2047.368966
 30
0.0
 40
8.0
 50
180.0
 51
270.0
  0
LINE
  5
7AD3
  8
1
  6
CONTINUOUS
 10
751.1639592219077
 20
2031.7689660000001
 30
0.0
 11
751.1639592219077
 21
1907.3689659999991
 31
0.0
  0
LINE
  5
7AD4
  8
1
  6
CONTINUOUS
 10
761.16395922190782
 20
2031.7689660000001
 30
0.0
 11
761.16395922190782
 21
2039.368966
 31
0.0
  0
LINE
  5
7AD5
  8
1
  6
CONTINUOUS
 10
816.16395922190782
 20
1891.2689660000001
 30
0.0
 11
816.16395922190782
 21
1856.2689660000001
 31
0.0
  0
LINE
  5
7AD6
  8
1
  6
CONTINUOUS
 10
873.16395922190782
 20
1907.3689659999991
 30
0.0
 11
1021.163959221907
 21
1907.3689659999991
 31
0.0
  0
LINE
  5
7AD7
  8
1
  6
CONTINUOUS
 10
906.16395922190782
 20
1891.2689660000001
 30
0.0
 11
906.16395922190782
 21
1856.2689660000001
 31
0.0
  0
LINE
  5
7AD8
  8
1
  6
CONTINUOUS
 10
873.16395922190782
 20
2031.7689660000001
 30
0.0
 11
873.16395922190782
 21
1891.2689660000001
 31
0.0
  0
LINE
  5
7AD9
  8
1
  6
CONTINUOUS
 10
849.16395922190782
 20
2031.7689660000001
 30
0.0
 11
849.16395922190782
 21
1891.2689660000001
 31
0.0
  0
LINE
  5
7ADA
  8
1
  6
CONTINUOUS
 10
971.16395922190793
 20
1907.3689659999991
 30
0.0
 11
971.16395922190793
 21
2031.7689660000001
 31
0.0
  0
LINE
  5
7ADB
  8
1
  6
CONTINUOUS
 10
961.1639592219077
 20
2031.7689660000001
 30
0.0
 11
961.1639592219077
 21
2039.368966
 31
0.0
  0
LINE
  5
7ADC
  8
1
  6
CONTINUOUS
 10
991.16395922190782
 20
2038.368966
 30
0.0
 11
976.1639592219077
 21
2053.368966
 31
0.0
  0
LINE
  5
7ADD
  8
1
  6
CONTINUOUS
 10
958.46395922190777
 20
1835.368966
 30
0.0
 11
958.46395922190777
 21
1910.368966
 31
0.0
  0
LINE
  5
7ADE
  8
1
  6
CONTINUOUS
 10
735.06395922190779
 20
2151.368966
 30
0.0
 11
991.16395922190782
 21
2151.368966
 31
0.0
  0
LINE
  5
7ADF
  8
1
  6
CONTINUOUS
 10
961.1639592219077
 20
2159.368966
 30
0.0
 11
761.16395922190782
 21
2159.368966
 31
0.0
  0
ARC
  5
7AE0
  8
1
  6
CONTINUOUS
 10
735.06395922190779
 20
2143.368966
 30
0.0
 40
8.0
 50
90.0
 51
180.0
  0
LINE
  5
7AE1
  8
1
  6
CONTINUOUS
 10
761.16395922190782
 20
2159.368966
 30
0.0
 11
761.16395922190782
 21
2151.368966
 31
0.0
  0
LINE
  5
7AE2
  8
1
  6
CONTINUOUS
 10
1021.163959221907
 20
2131.368966
 30
0.0
 11
991.16395922190782
 21
2131.368966
 31
0.0
  0
LINE
  5
7AE3
  8
1
  6
CONTINUOUS
 10
996.16395922190793
 20
2131.368966
 30
0.0
 11
991.16395922190782
 21
2131.368966
 31
0.0
  0
LINE
  5
7AE4
  8
1
  6
CONTINUOUS
 10
961.1639592219077
 20
2159.368966
 30
0.0
 11
961.1639592219077
 21
2151.368966
 31
0.0
  0
LINE
  5
7AE5
  8
1
  6
CONTINUOUS
 10
991.16395922190782
 20
2152.368966
 30
0.0
 11
976.1639592219077
 21
2137.3689659999991
 31
0.0
  0
LINE
  5
7AE6
  8
1
  6
CONTINUOUS
 10
1505.514711
 20
760.96896600000002
 30
0.0
 11
1729.514711
 21
760.96896600000002
 31
0.0
  0
LINE
  5
7AE7
  8
1
  6
CONTINUOUS
 10
1505.514711
 20
735.96896600000002
 30
0.0
 11
1729.514711
 21
735.96896600000002
 31
0.0
  0
LINE
  5
7AE8
  8
1
  6
CONTINUOUS
 10
1629.9147109999999
 20
1060.068966
 30
0.0
 11
1530.514711
 21
984.66896599999995
 31
0.0
  0
LINE
  5
7AE9
  8
1
  6
CONTINUOUS
 10
1433.514711
 20
832.96896599999991
 30
0.0
 11
1729.514711
 21
832.96896599999991
 31
0.0
  0
LINE
  5
7AEA
  8
1
  6
CONTINUOUS
 10
1505.514711
 20
782.96896600000002
 30
0.0
 11
1729.514711
 21
782.96896600000002
 31
0.0
  0
LINE
  5
7AEB
  8
1
  6
CONTINUOUS
 10
1590.2147109999989
 20
1029.968965999999
 30
0.0
 11
1488.514711
 21
1029.968965999999
 31
0.0
  0
LINE
  5
7AEC
  8
1
  6
CONTINUOUS
 10
1558.6147109999999
 20
1005.968965999999
 30
0.0
 11
1488.514711
 21
1005.968965999999
 31
0.0
  0
LINE
  5
7AED
  8
1
  6
CONTINUOUS
 10
1530.514711
 20
984.66896599999995
 30
0.0
 11
1530.514711
 21
832.96896599999991
 31
0.0
  0
LINE
  5
7AEE
  8
1
  6
CONTINUOUS
 10
1433.514711
 20
832.96896599999991
 30
0.0
 11
1433.514711
 21
1112.968965999999
 31
0.0
  0
LINE
  5
7AEF
  8
1
  6
CONTINUOUS
 10
1508.514711
 20
832.96896599999991
 30
0.0
 11
1508.514711
 21
1112.968965999999
 31
0.0
  0
LINE
  5
7AF5
  8
1
  6
CONTINUOUS
 10
1505.514711
 20
760.96896600000002
 30
0.0
 11
1505.514711
 21
735.96896600000002
 31
0.0
  0
LINE
  5
7AF6
  8
1
  6
CONTINUOUS
 10
1505.514711
 20
832.96896599999991
 30
0.0
 11
1505.514711
 21
782.96896600000002
 31
0.0
  0
LINE
  5
7AF7
  8
1
  6
CONTINUOUS
 10
1508.514711
 20
1112.968965999999
 30
0.0
 11
1433.514711
 21
1112.968965999999
 31
0.0
  0
LINE
  5
7AF8
  8
1
  6
CONTINUOUS
 10
1488.514711
 20
967.96896600000014
 30
0.0
 11
1453.514711
 21
967.96896600000014
 31
0.0
  0
LINE
  5
7AF9
  8
1
  6
CONTINUOUS
 10
1488.514711
 20
1062.968965999999
 30
0.0
 11
1453.514711
 21
1062.968965999999
 31
0.0
  0
LINE
  5
7AFA
  8
1
  6
CONTINUOUS
 10
1488.514711
 20
972.96896600000002
 30
0.0
 11
1453.514711
 21
972.96896600000002
 31
0.0
  0
LINE
  5
7AFB
  8
1
  6
CONTINUOUS
 10
1453.514711
 20
972.96896600000002
 30
0.0
 11
1453.514711
 21
1062.968965999999
 31
0.0
  0
LINE
  5
7AFC
  8
1
  6
CONTINUOUS
 10
1488.514711
 20
972.96896600000002
 30
0.0
 11
1488.514711
 21
1062.968965999999
 31
0.0
  0
LINE
  5
7AFD
  8
1
  6
CONTINUOUS
 10
1488.514711
 20
923.46896600000002
 30
0.0
 11
1530.514711
 21
923.46896600000002
 31
0.0
  0
LINE
  5
7AFE
  8
1
  6
CONTINUOUS
 10
1488.514711
 20
942.46896600000002
 30
0.0
 11
1530.514711
 21
942.46896600000002
 31
0.0
  0
LINE
  5
7AFF
  8
1
  6
CONTINUOUS
 10
1488.514711
 20
897.96896600000002
 30
0.0
 11
1453.514711
 21
897.96896600000002
 31
0.0
  0
LINE
  5
7B00
  8
1
  6
CONTINUOUS
 10
1488.514711
 20
897.96896600000002
 30
0.0
 11
1488.514711
 21
967.96896600000014
 31
0.0
  0
LINE
  5
7B01
  8
1
  6
CONTINUOUS
 10
1453.514711
 20
897.96896600000002
 30
0.0
 11
1453.514711
 21
967.96896600000014
 31
0.0
  0
ARC
  5
7B02
  8
1
  6
CONTINUOUS
 10
1649.514711
 20
895.868966
 30
0.0
 40
12.0
 50
180.0
 51
270.0
  0
ARC
  5
7B03
  8
1
  6
CONTINUOUS
 10
1737.514711
 20
895.868966
 30
0.0
 40
12.0
 50
270.0
 51
0.0
  0
LINE
  5
7B04
  8
1
  6
CONTINUOUS
 10
1629.9147109999999
 20
1117.9689659999999
 30
0.0
 11
1629.9147109999999
 21
832.96896599999991
 31
0.0
  0
LINE
  5
7B05
  8
1
  6
CONTINUOUS
 10
1729.514711
 20
760.96896600000002
 30
0.0
 11
1729.514711
 21
735.96896600000002
 31
0.0
  0
LINE
  5
7B06
  8
1
  6
CONTINUOUS
 10
1729.514711
 20
832.96896599999991
 30
0.0
 11
1729.514711
 21
782.96896600000002
 31
0.0
  0
LINE
  5
7B07
  8
1
  6
CONTINUOUS
 10
1757.5147109999989
 20
1117.9689659999999
 30
0.0
 11
1749.114710999999
 21
1117.9689659999999
 31
0.0
  0
LINE
  5
7B08
  8
1
  6
CONTINUOUS
 10
1757.5147109999989
 20
917.96896600000014
 30
0.0
 11
1749.114710999999
 21
917.96896600000014
 31
0.0
  0
LINE
  5
7B09
  8
1
  6
CONTINUOUS
 10
1749.514711
 20
1177.968965999999
 30
0.0
 11
1637.514711
 21
1017.968966
 31
0.0
  0
LINE
  5
7B0A
  8
1
  6
CONTINUOUS
 10
1749.514711
 20
1017.968966
 30
0.0
 11
1637.514711
 21
1177.968965999999
 31
0.0
  0
LINE
  5
7B0B
  8
1
  6
CONTINUOUS
 10
1749.514711
 20
1177.968965999999
 30
0.0
 11
1637.514711
 21
1177.968965999999
 31
0.0
  0
LINE
  5
7B0C
  8
1
  6
CONTINUOUS
 10
1637.514711
 20
1017.968966
 30
0.0
 11
1749.514711
 21
1017.968966
 31
0.0
  0
LINE
  5
7B0D
  8
1
  6
CONTINUOUS
 10
1629.9147109999999
 20
1117.9689659999999
 30
0.0
 11
1637.914710999999
 21
1117.9689659999999
 31
0.0
  0
LINE
  5
7B0E
  8
1
  6
CONTINUOUS
 10
1629.9147109999999
 20
917.96896600000014
 30
0.0
 11
1637.914710999999
 21
917.96896600000014
 31
0.0
  0
LINE
  5
7B0F
  8
1
  6
CONTINUOUS
 10
1637.514711
 20
1177.968965999999
 30
0.0
 11
1637.514711
 21
895.868966
 31
0.0
  0
LINE
  5
7B10
  8
1
  6
CONTINUOUS
 10
1649.514711
 20
883.868966
 30
0.0
 11
1737.514711
 21
883.868966
 31
0.0
  0
LINE
  5
7B11
  8
1
  6
CONTINUOUS
 10
1749.514711
 20
895.868966
 30
0.0
 11
1749.514711
 21
1177.968965999999
 31
0.0
  0
LINE
  5
7B6A
  8
2
  6
CENTER
 10
575.66395922190782
 20
897.96896600000002
 30
0.0
 11
575.66395922190782
 21
967.96896600000014
 31
0.0
  0
LINE
  5
7B6B
  8
2
  6
CENTER
 10
861.1639592219077
 20
1704.698298
 30
0.0
 11
861.1639592219077
 21
2235.7619570000002
 31
0.0
  0
DIMENSION
  5
7B79
  8
3
  6
CONTINUOUS
  2
*D1
 10
861.1639592219077
 20
651.22071600000004
 30
0.0
 11
635.87997022190768
 21
651.22071600000004
 31
0.0
 70
   128
 13
411.16395922190782
 23
735.96896600000002
 33
0.0
 14
861.1639592219077
 24
725.605098
 34
0.0
1001
ACAD
1000
DSTYLE
1002
{
1070
   287
1070
     3
1070
   287
1070
     3
1070
    40
1040
10.0
1070
   143
1040
0.039
1070
   172
1070
     1
1070
   271
1070
     0
1070
   279
1070
     0
1070
   288
1070
     1
1002
}
  0
DIMENSION
  5
7B85
  8
3
  6
CONTINUOUS
  2
*D2
 10
1021.163959221907
 20
651.22071600000004
 30
0.0
 11
941.16395922190782
 21
676.22071600000004
 31
0.0
 70
     0
 13
861.1639592219077
 23
725.605098
 33
0.0
 14
1021.163959221907
 24
735.96896600000002
 34
0.0
1001
ACAD
1000
DSTYLE
1002
{
1070
   287
1070
     4
1070
   287
1070
     4
1070
    40
1040
10.0
1070
    75
1070
     1
1070
   143
1040
0.039
1070
   172
1070
     1
1070
   271
1070
     0
1070
   279
1070
     1
1070
   288
1070
     1
1002
}
  0
DIMENSION
  5
7B93
  8
3
  6
CONTINUOUS
  2
*D3
 10
861.1639592219077
 20
1232.1765
 30
0.0
 11
781.87824522190783
 21
1232.1765
 31
0.0
 70
   128
 13
716.16395922190782
 23
1030.9689659999999
 33
0.0
 14
861.1639592219077
 24
1189.9008679999999
 34
0.0
1001
ACAD
1000
DSTYLE
1002
{
1070
   287
1070
     3
1070
   287
1070
     3
1070
    40
1040
10.0
1070
   143
1040
0.039
1070
   172
1070
     1
1070
   271
1070
     0
1070
   279
1070
     0
1070
   288
1070
     1
1002
}
  0
DIMENSION
  5
7BA1
  8
3
  6
CONTINUOUS
  2
*D4
 10
991.16395922190782
 20
1232.1765
 30
0.0
 11
928.73897422190782
 21
1232.8784859999989
 31
0.0
 70
   128
 13
861.1639592219077
 23
1189.9008679999999
 33
0.0
 14
991.16395922190782
 24
1199.968965999999
 34
0.0
1001
ACAD
1000
DSTYLE
1002
{
1070
   287
1070
     4
1070
   287
1070
     4
1070
    40
1040
10.0
1070
    75
1070
     1
1070
   143
1040
0.039
1070
   172
1070
     1
1070
   271
1070
     0
1070
   279
1070
     1
1070
   288
1070
     1
1002
}
  0
LINE
  5
7BAF
  8
2
  6
CENTER
 10
294.32319422190778
 20
2019.368966
 30
0.0
 11
1026.839515221907
 21
2019.368966
 31
0.0
  0
DIMENSION
  5
7BBC
  8
3
  6
CONTINUOUS
  2
*D5
 10
1021.163959221907
 20
1754.3262699999991
 30
0.0
 11
713.40953622190784
 21
1754.3262699999991
 31
0.0
 70
   128
 13
411.16395922190782
 23
1907.3689659999991
 33
0.0
 14
1021.163959221907
 24
1907.3689659999991
 34
0.0
1001
ACAD
1000
DSTYLE
1002
{
1070
   287
1070
     3
1070
   287
1070
     3
1070
    40
1040
10.0
1070
   143
1040
0.039
1070
   172
1070
     1
1070
   271
1070
     0
1070
   279
1070
     0
1070
   288
1070
     1
1002
}
  0
DIMENSION
  5
7BC9
  8
3
  6
CONTINUOUS
  2
*D6
 10
1117.715667221908
 20
1907.3689659999991
 30
0.0
 11
1117.7156672219071
 21
2004.444800999999
 31
0.0
 70
   128
 13
1021.163959221907
 23
2131.368966
 33
0.0
 14
1021.163959221907
 24
1907.3689659999991
 34
0.0
 50
90.0
1001
ACAD
1000
DSTYLE
1002
{
1070
   287
1070
     3
1070
   287
1070
     3
1070
    40
1040
10.0
1070
   143
1040
0.039
1070
   172
1070
     1
1070
   271
1070
     0
1070
   279
1070
     0
1070
   288
1070
     1
1002
}
  0
LINE
  5
7BCB
  8
2
  6
CENTER
 10
1388.8781750000001
 20
1017.968966
 30
0.0
 11
1789.9783660000001
 21
1017.968966
 31
0.0
  0
LINE
  5
7BCD
  8
2
  6
CENTER
 10
1693.5147109999989
 20
1190.6916670000001
 30
0.0
 11
1693.5147109999989
 21
730.70686299999988
 31
0.0
  0
DIMENSION
  5
7BDB
  8
3
  6
CONTINUOUS
  2
*D7
 10
1693.5147109999989
 20
671.41950899999995
 30
0.0
 11
1600.211041
 21
671.41950899999995
 31
0.0
 70
   128
 13
1505.514711
 23
735.96896600000002
 33
0.0
 14
1693.5147109999989
 24
730.70686299999988
 34
0.0
1001
ACAD
1000
DSTYLE
1002
{
1070
   287
1070
     3
1070
   287
1070
     3
1070
    40
1040
10.0
1070
   143
1040
0.039
1070
   172
1070
     1
1070
   271
1070
     0
1070
   279
1070
     0
1070
   288
1070
     1
1002
}
  0
DIMENSION
  5
7BEB
  8
3
  6
CONTINUOUS
  2
*D8
 10
1729.514711
 20
671.41950899999995
 30
0.0
 11
1761.3701590000001
 21
671.10307699999987
 31
0.0
 70
   128
 13
1693.5147109999989
 23
730.70686299999988
 33
0.0
 14
1729.514711
 24
735.96896600000002
 34
0.0
1001
ACAD
1000
DSTYLE
1002
{
1070
   287
1070
     4
1070
   287
1070
     4
1070
    40
1040
10.0
1070
    75
1070
     1
1070
   143
1040
0.039
1070
   172
1070
     1
1070
   271
1070
     0
1070
   279
1070
     1
1070
   288
1070
     1
1002
}
  0
DIMENSION
  5
7C07
  8
3
  6
CONTINUOUS
  2
*D9
 10
1749.514711
 20
1221.260082
 30
0.0
 11
1693.5147109999989
 21
1242.5667645337439
 31
0.0
 70
   128
 13
1637.514711
 23
1177.968965999999
 33
0.0
 14
1749.514711
 24
1177.968965999999
 34
0.0
1001
ACAD
1000
DSTYLE
1002
{
1070
   288
1070
     1
1070
   172
1070
     1
1070
    40
1040
10.0
1070
   271
1070
     0
1070
   143
1040
0.039
1002
}
  0
LINE
  5
7C30
  8
4
  6
CONTINUOUS
 10
1850.0
 20
500.0
 30
0.0
 11
1850.0
 21
300.0
 31
0.0
  0
LINE
  5
7C31
  8
4
  6
CONTINUOUS
 10
1150.0
 20
500.0
 30
0.0
 11
1150.0
 21
300.0
 31
0.0
  0
LINE
  5
7C32
  8
4
  6
CONTINUOUS
 10
650.0
 20
500.0
 30
0.0
 11
650.0
 21
300.0
 31
0.0
  0
LINE
  5
7C35
  8
4
  6
CONTINUOUS
 10
650.0
 20
300.0
 30
0.0
 11
1850.0
 21
300.0
 31
0.0
  0
LINE
  5
7C36
  8
4
  6
CONTINUOUS
 10
650.0
 20
400.0
 30
0.0
 11
1850.0
 21
400.0
 31
0.0
  0
TEXT
  5
7C37
  8
4
  6
CONTINUOUS
 10
688.50208099999998
 20
431.543026
 30
0.0
 40
50.0
  1
機器名称
  0
TEXT
  5
7C38
  8
4
  6
CONTINUOUS
 10
686.258106
 20
321.64515699999993
 30
0.0
 40
50.0
  1
機器型番
  0
TEXT
  5
7C39
  8
4
  6
CONTINUOUS
 10
1177.678744999999
 20
422.57176900000002
 30
0.0
 40
45.0
  1
ミツヤニューマルチファン
  0
TEXT
  5
7C3A
  8
4
  6
CONTINUOUS
 10
1186.6544960000001
 20
317.159584
 30
0.0
 40
50.0
  1
NM#1-1
  0
TEXT
  5
7C3C
  8
4
  6
CONTINUOUS
 10
765.56234900000004
 20
2383.4288409999999
 30
0.0
 40
54.0
  1
床置防振ベット
  0
TEXT
  5
7C3D
  8
4
  6
CONTINUOUS
 10
316.16759300000001
 20
2533.8809759999999
 30
0.0
 40
72.0
  1
ベルト駆動式片吸込片持多翼ファン
  0
LINE
  5
7C3E
  8
4
  6
CONTINUOUS
 10
250.0
 20
2469.408754
 30
0.0
 11
1850.0
 21
2469.408754
 31
0.0
  0
LINE
  5
7C3F
  8
4
  6
CONTINUOUS
 10
250.0
 20
2669.408754
 30
0.0
 11
1850.0
 21
2669.408754
 31
0.0
  0
LINE
  5
7C40
  8
4
  6
CONTINUOUS
 10
650.0
 20
500.0
 30
0.0
 11
1850.0
 21
500.0
 31
0.0
  0
LINE
  5
7C41
  8
4
  6
CONTINUOUS
 10
250.0
 20
2669.408754
 30
0.0
 11
250.0
 21
2469.408754
 31
0.0
  0
TEXT
  5
7C42
  8
4
  6
CONTINUOUS
 10
329.70351699999998
 20
2382.3194779999999
 30
0.0
 40
54.0
  1
右回転右横向
  0
TEXT
  5
7C43
  8
4
  6
CONTINUOUS
 10
1468.9695589999999
 20
2706.0610809999998
 30
0.0
 40
56.0
  1
No.
  0
TEXT
  5
7C44
  8
4
  6
CONTINUOUS
 10
1311.296063
 20
2383.4288409999999
 30
0.0
 40
54.0
  1
縮尺：1/10
  0
LINE
  5
7C45
  8
4
  6
CONTINUOUS
 10
1850.0
 20
2669.408754
 30
0.0
 11
1850.0
 21
2469.408754
 31
0.0
  0
LINE
  5
7C47
  8
4
  6
CONTINUOUS
 10
1440.617422
 20
2681.2635829999999
 30
0.0
 11
1440.617422
 21
2786.6522620000001
 31
0.0
  0
LINE
  5
7C48
  8
4
  6
CONTINUOUS
 10
1440.617422
 20
2786.6522620000001
 30
0.0
 11
1850.0
 21
2786.6522620000001
 31
0.0
  0
LINE
  5
7C49
  8
4
  6
CONTINUOUS
 10
1850.0
 20
2786.6522620000001
 30
0.0
 11
1850.0
 21
2681.2635829999999
 31
0.0
  0
LINE
  5
7C4A
  8
4
  6
CONTINUOUS
 10
1850.0
 20
2681.2635829999999
 30
0.0
 11
1440.617422
 21
2681.2635829999999
 31
0.0
  0
LINE
  5
7C76
  8
3
  6
CONTINUOUS
 10
1757.5147109999989
 20
1097.9689659999999
 30
0.0
 11
1785.1635779999999
 21
1097.9689659999999
 31
0.0
  0
LINE
  5
7C78
  8
3
  6
CONTINUOUS
 10
1757.5147109999989
 20
937.96896600000002
 30
0.0
 11
1790.6365060000001
 21
937.96896600000002
 31
0.0
  0
DIMENSION
  5
7C85
  8
3
  6
CONTINUOUS
  2
*D10
 10
1845.3658
 20
937.96896600000002
 30
0.0
 11
1823.546869847994
 21
1017.968965999999
 31
0.0
 70
   128
 13
1757.5147109999989
 23
1097.9689659999999
 33
0.0
 14
1757.5147109999989
 24
937.96896600000002
 34
0.0
 50
90.0
1001
ACAD
1000
DSTYLE
1002
{
1070
   288
1070
     1
1070
   172
1070
     1
1070
    40
1040
10.0
1070
     3
1000
φ<>
1070
   271
1070
     0
1070
   143
1040
0.039
1002
}
  0
LINE
  5
7C86
  8
1
  6
CONTINUOUS
 10
1757.5147109999989
 20
1117.9689659999999
 30
0.0
 11
1757.5147109999989
 21
917.96896600000014
 31
0.0
  0
DIMENSION
  5
7C94
  8
3
  6
CONTINUOUS
  2
*D11
 10
1693.5147109999989
 20
1283.6309879999999
 30
0.0
 11
1560.36365
 21
1283.6309879999999
 31
0.0
 70
   128
  1
MAX\P260
 13
1433.514711
 23
1112.968965999999
 33
0.0
 14
1693.5147109999989
 24
1280.8974820000001
 34
0.0
1001
ACAD
1000
DSTYLE
1002
{
1070
   287
1070
     3
1070
   287
1070
     3
1070
    40
1040
10.0
1070
   143
1040
0.039
1070
   172
1070
     1
1070
   271
1070
     0
1070
   279
1070
     0
1070
   288
1070
     1
1002
}
  0
DIMENSION
  5
7CCD
  8
3
  6
CONTINUOUS
  2
*D12
 10
1757.5147109999989
 20
1283.6309879999999
 30
0.0
 11
1725.341817
 21
1284.599543999999
 31
0.0
 70
   128
 13
1693.5147109999989
 23
1280.8974820000001
 33
0.0
 14
1757.5147109999989
 24
1117.9689659999999
 34
0.0
1001
ACAD
1000
DSTYLE
1002
{
1070
   287
1070
     4
1070
   287
1070
     4
1070
    40
1040
10.0
1070
    75
1070
     1
1070
   143
1040
0.039
1070
   172
1070
     1
1070
   271
1070
     0
1070
   279
1070
     1
1070
   288
1070
     1
1002
}
  0
DIMENSION
  5
7D10
  8
3
  6
CONTINUOUS
  2
*D13
 10
1061.042293221908
 20
1017.968966
 30
0.0
 11
1061.0422932219069
 21
1100.0257389999999
 31
0.0
 70
   128
 13
990.16395922190782
 23
1177.968965999999
 33
0.0
 14
991.16395922190782
 24
1017.968966
 34
0.0
 50
90.0
1001
ACAD
1000
DSTYLE
1002
{
1070
   287
1070
     3
1070
   287
1070
     3
1070
    40
1040
10.0
1070
   143
1040
0.039
1070
   172
1070
     1
1070
   271
1070
     0
1070
   279
1070
     0
1070
   288
1070
     1
1002
}
  0
DIMENSION
  5
7E33
  8
3
  6
CONTINUOUS
  2
*D14
 10
1149.3117542219079
 20
1017.968966
 30
0.0
 11
1149.3117542219079
 21
1097.2858789999991
 31
0.0
 70
   128
 13
976.1639592219077
 23
1188.9689659999999
 33
0.0
 14
991.16395922190782
 24
1017.968966
 34
0.0
 50
90.0
1001
ACAD
1000
DSTYLE
1002
{
1070
   287
1070
     3
1070
   287
1070
     3
1070
    40
1040
10.0
1070
   143
1040
0.039
1070
   172
1070
     1
1070
   271
1070
     0
1070
   279
1070
     0
1070
   288
1070
     1
1002
}
  0
DIMENSION
  5
7E3F
  8
3
  6
CONTINUOUS
  2
*D15
 10
1149.3117542219079
 20
782.96896600000002
 30
0.0
 11
1124.311754221907
 21
900.46896600000025
 31
0.0
 70
     0
 13
991.16395922190782
 23
1017.968966
 33
0.0
 14
996.16395922190793
 24
782.96896600000002
 34
0.0
 50
90.0
1001
ACAD
1000
DSTYLE
1002
{
1070
   287
1070
     4
1070
   287
1070
     4
1070
    40
1040
10.0
1070
    75
1070
     1
1070
   143
1040
0.039
1070
   172
1070
     1
1070
   271
1070
     0
1070
   279
1070
     1
1070
   288
1070
     1
1002
}
  0
DIMENSION
  5
7E4F
  8
3
  6
CONTINUOUS
  2
*D16
 10
1149.7097612219079
 20
735.96896600000002
 30
0.0
 11
1149.709761221907
 21
661.68325171428569
 31
0.0
 70
   128
 13
996.16395922190793
 23
782.96896600000002
 33
0.0
 14
1021.163959221907
 24
735.96896600000002
 34
0.0
 50
90.0
1001
ACAD
1000
DSTYLE
1002
{
1070
   287
1070
     3
1070
   287
1070
     3
1070
    40
1040
10.0
1070
   143
1040
0.039
1070
   172
1070
     1
1070
   271
1070
     0
1070
   279
1070
     0
1070
   288
1070
     1
1002
}
  0
DIMENSION
  5
7E77
  8
3
  6
CONTINUOUS
  2
*D17
 10
1218.5737952219081
 20
735.96896600000002
 30
0.0
 11
1218.5737952219069
 21
945.35750700000006
 31
0.0
 70
   128
 13
991.16395922190782
 23
1199.968965999999
 33
0.0
 14
1021.163959221907
 24
735.96896600000002
 34
0.0
 50
90.0
1001
ACAD
1000
DSTYLE
1002
{
1070
   287
1070
     3
1070
   287
1070
     3
1070
    40
1040
10.0
1070
   143
1040
0.039
1070
   172
1070
     1
1070
   271
1070
     0
1070
   279
1070
     0
1070
   288
1070
     1
1002
}
  0
DIMENSION
  5
7EEF
  8
3
  2
*D18
 10
411.16395922190782
 20
1287.4117487604431
 30
0.0
 11
709.65672112248831
 21
1287.4117487604431
 31
0.0
 70
   128
 13
991.16395922190782
 23
1199.968965999999
 33
0.0
 14
411.16395922190782
 24
760.96896600000002
 34
0.0
1001
ACAD
1000
DSTYLE
1002
{
1070
   287
1070
     3
1070
   287
1070
     3
1070
    40
1040
10.0
1070
   143
1040
0.039
1070
   172
1070
     1
1070
   271
1070
     0
1070
   279
1070
     0
1070
   288
1070
     1
1002
}
  0
ENDSEC
  0
EOF
