  0
SECTION
  2
HEADER
  9
$ACADVER
  1
AC1009
  9
$INSBASE
 10
0.0
 20
0.0
 30
0.0
  9
$EXTMIN
 10
250.0
 20
300.0
 30
0.0
  9
$EXTMAX
 10
1850.0
 20
2786.6522620000001
 30
0.0
  9
$LIMMIN
 10
0.0
 20
0.0
  9
$LIMMAX
 10
297.0
 20
210.0
  9
$ORTHOMODE
 70
     0
  9
$REGENMODE
 70
     1
  9
$FILLMODE
 70
     0
  9
$QTEXTMODE
 70
     0
  9
$MIRRTEXT
 70
     1
  9
$DRAGMODE
 70
     2
  9
$LTSCALE
 40
100.0
  9
$OSMODE
 70
    37
  9
$ATTMODE
 70
     1
  9
$TEXTSIZE
 40
180.0
  9
$TRACEWID
 40
0.05
  9
$TEXTSTYLE
  7
STANDARD
  9
$CLAYER
  8
3
  9
$CELTYPE
  6
BYLAYER
  9
$CECOLOR
 62
   256
  9
$DIMSCALE
 40
10.0
  9
$DIMASZ
 40
2.0
  9
$DIMEXO
 40
0.5
  9
$DIMDLI
 40
10.0
  9
$DIMRND
 40
0.0
  9
$DIMDLE
 40
0.0
  9
$DIMEXE
 40
1.0
  9
$DIMTP
 40
1.0
  9
$DIMTM
 40
1.0
  9
$DIMTXT
 40
3.0
  9
$DIMCEN
 40
0.0
  9
$DIMTSZ
 40
0.0
  9
$DIMTOL
 70
     0
  9
$DIMLIM
 70
     0
  9
$DIMTIH
 70
     0
  9
$DIMTOH
 70
     0
  9
$DIMSE1
 70
     0
  9
$DIMSE2
 70
     0
  9
$DIMTAD
 70
     1
  9
$DIMZIN
 70
     8
  9
$DIMBLK
  1

  9
$DIMASO
 70
     1
  9
$DIMSHO
 70
     1
  9
$DIMPOST
  1

  9
$DIMAPOST
  1

  9
$DIMALT
 70
     0
  9
$DIMALTD
 70
     2
  9
$DIMALTF
 40
0.039
  9
$DIMLFAC
 40
1.0
  9
$DIMTOFL
 70
     1
  9
$DIMTVP
 40
0.0
  9
$DIMTIX
 70
     0
  9
$DIMSOXD
 70
     0
  9
$DIMSAH
 70
     1
  9
$DIMBLK1
  1
OPEN
  9
$DIMBLK2
  1
OPEN
  9
$DIMSTYLE
  2
IGA
  9
$DIMCLRD
 70
     0
  9
$DIMCLRE
 70
     0
  9
$DIMCLRT
 70
     0
  9
$DIMTFAC
 40
10.0
  9
$DIMGAP
 40
1.0
  9
$LUNITS
 70
     2
  9
$LUPREC
 70
     3
  9
$SKETCHINC
 40
0.1
  9
$FILLETRAD
 40
50.0
  9
$AUNITS
 70
     0
  9
$AUPREC
 70
     0
  9
$MENU
  1
acad
  9
$ELEVATION
 40
0.0
  9
$PELEVATION
 40
0.0
  9
$THICKNESS
 40
0.0
  9
$LIMCHECK
 70
     0
  9
$BLIPMODE
 70
     0
  9
$CHAMFERA
 40
0.5
  9
$CHAMFERB
 40
0.5
  9
$SKPOLY
 70
     0
  9
$TDCREATE
 40
2450731.3706790511
  9
$TDUPDATE
 40
2454953.8597100931
  9
$TDINDWG
 40
0.0080426273
  9
$TDUSRTIMER
 40
0.0080426273
  9
$USRTIMER
 70
     1
  9
$ANGBASE
 50
0.0
  9
$ANGDIR
 70
     0
  9
$PDMODE
 70
     0
  9
$PDSIZE
 40
0.0
  9
$PLINEWID
 40
0.0
  9
$COORDS
 70
     1
  9
$SPLFRAME
 70
     0
  9
$SPLINETYPE
 70
     6
  9
$SPLINESEGS
 70
     8
  9
$ATTDIA
 70
     0
  9
$ATTREQ
 70
     1
  9
$HANDLING
 70
 10241
  9
$HANDSEED
  5
80F3
  9
$SURFTAB1
 70
     6
  9
$SURFTAB2
 70
     6
  9
$SURFTYPE
 70
     6
  9
$SURFU
 70
     6
  9
$SURFV
 70
     6
  9
$UCSNAME
  2

  9
$UCSORG
 10
0.0
 20
0.0
 30
0.0
  9
$UCSXDIR
 10
1.0
 20
0.0
 30
0.0
  9
$UCSYDIR
 10
0.0
 20
1.0
 30
0.0
  9
$PUCSNAME
  2

  9
$PUCSORG
 10
0.0
 20
0.0
 30
0.0
  9
$PUCSXDIR
 10
1.0
 20
0.0
 30
0.0
  9
$PUCSYDIR
 10
0.0
 20
1.0
 30
0.0
  9
$USERI1
 70
     0
  9
$USERI2
 70
     0
  9
$USERI3
 70
     0
  9
$USERI4
 70
     0
  9
$USERI5
 70
     0
  9
$USERR1
 40
0.0
  9
$USERR2
 40
0.0
  9
$USERR3
 40
0.0
  9
$USERR4
 40
0.0
  9
$USERR5
 40
0.0
  9
$WORLDVIEW
 70
     1
  9
$SHADEDGE
 70
     3
  9
$SHADEDIF
 70
    70
  9
$TILEMODE
 70
     1
  9
$MAXACTVP
 70
    16
  9
$PLIMCHECK
 70
     0
  9
$PEXTMIN
 10
1.0000000000000000E+020
 20
1.0000000000000000E+020
 30
1.0000000000000000E+020
  9
$PEXTMAX
 10
-1.0000000000000000E+020
 20
-1.0000000000000000E+020
 30
-1.0000000000000000E+020
  9
$PLIMMIN
 10
0.0
 20
0.0
  9
$PLIMMAX
 10
12.0
 20
9.0
  9
$UNITMODE
 70
     0
  9
$VISRETAIN
 70
     0
  9
$PLINEGEN
 70
     0
  9
$PSLTSCALE
 70
     1
  0
ENDSEC
  0
SECTION
  2
TABLES
  0
TABLE
  2
VPORT
 70
     2
  0
VPORT
  2
*ACTIVE
 70
     0
 10
0.0
 20
0.0
 11
1.0
 21
1.0
 12
2698.708990413732
 22
1853.2473267298119
 13
0.0
 23
0.0
 14
10.0
 24
10.0
 15
10.0
 25
10.0
 16
0.0
 26
0.0
 36
1.0
 17
0.0
 27
0.0
 37
0.0
 40
3552.212848928405
 41
1.5051150895140659
 42
50.0
 43
0.0
 44
0.0
 50
0.0
 51
0.0
 71
     0
 72
   100
 73
     1
 74
     0
 75
     0
 76
     0
 77
     0
 78
     0
  0
ENDTAB
  0
TABLE
  2
LTYPE
 70
     2
  0
LTYPE
  2
CONTINUOUS
 70
     0
  3
Solid line
 72
    65
 73
     0
 40
0.0
  0
LTYPE
  2
CENTER
 70
     0
  3
____ _ ____ _ ____ _ ____ _ ____ _ ____ _ ____ 
 72
    65
 73
     4
 40
2.0
 49
1.25
 49
-0.25
 49
0.25
 49
-0.25
  0
ENDTAB
  0
TABLE
  2
LAYER
 70
     6
  0
LAYER
  2
0
 70
     0
 62
     7
  6
CONTINUOUS
  0
LAYER
  2
3
 70
     0
 62
     2
  6
CONTINUOUS
  0
LAYER
  2
2
 70
     0
 62
     3
  6
CENTER
  0
LAYER
  2
1
 70
     0
 62
     4
  6
CONTINUOUS
  0
LAYER
  2
4
 70
     0
 62
     7
  6
CONTINUOUS
  0
LAYER
  2
DEFPOINTS
 70
     0
 62
     7
  6
CONTINUOUS
  0
ENDTAB
  0
TABLE
  2
STYLE
 70
     1
  0
STYLE
  2
STANDARD
 70
     0
 40
0.0
 41
1.0
 50
0.0
 71
     0
 42
180.0
  3
simplex.shx
  4
extfont.shx
  0
ENDTAB
  0
TABLE
  2
VIEW
 70
     0
  0
ENDTAB
  0
TABLE
  2
UCS
 70
     0
  0
ENDTAB
  0
TABLE
  2
APPID
 70
     1
  0
APPID
  2
ACAD
 70
     0
  0
ENDTAB
  0
TABLE
  2
DIMSTYLE
 70
     1
  0
DIMSTYLE
  2
IGA
 70
     0
  3

  4

  5

  6
OPEN
  7
OPEN
 40
2.0
 41
2.0
 42
0.5
 43
10.0
 44
1.0
 45
0.0
 46
0.0
 47
1.0
 48
1.0
140
3.0
141
0.0
142
0.0
143
0.03937
144
1.0
145
0.0
146
10.0
147
1.0
 71
     0
 72
     0
 73
     0
 74
     0
 75
     0
 76
     0
 77
     1
 78
     8
170
     0
171
     2
172
     0
173
     1
174
     0
175
     0
176
     0
177
     0
178
     0
  0
ENDTAB
  0
ENDSEC
  0
SECTION
  2
BLOCKS
  0
BLOCK
  8
0
  2
$MODEL_SPACE
 70
     0
 10
0.0
 20
0.0
 30
0.0
  3
$MODEL_SPACE
  1

  0
ENDBLK
  5
1B
  8
0
  0
BLOCK
 67
     1
  8
0
  2
$PAPER_SPACE
 70
     0
 10
0.0
 20
0.0
 30
0.0
  3
$PAPER_SPACE
  1

  0
ENDBLK
  5
18
 67
     1
  8
0
  0
BLOCK
  8
0
  2
_OPEN
 70
     0
 10
0.0
 20
0.0
 30
0.0
  3
_OPEN
  1

  0
LINE
  5
7B15
  8
0
  6
BYBLOCK
 62
     0
 10
-1.0
 20
0.166667
 30
0.0
 11
0.0
 21
0.0
 31
0.0
  0
LINE
  5
7B16
  8
0
  6
BYBLOCK
 62
     0
 10
0.0
 20
0.0
 30
0.0
 11
-1.0
 21
-0.166667
 31
0.0
  0
LINE
  5
7B17
  8
0
  6
BYBLOCK
 62
     0
 10
0.0
 20
0.0
 30
0.0
 11
-1.0
 21
0.0
 31
0.0
  0
ENDBLK
  5
7B18
  8
0
  0
BLOCK
  8
0
  2
*D1
 70
     1
 10
0.0
 20
0.0
 30
0.0
  3
*D1
  1

  0
LINE
  5
8066
  8
3
  6
CONTINUOUS
 62
     0
 10
351.48262999999992
 20
776.03783698127279
 30
0.0
 11
351.48262999999992
 21
684.70621898127274
 31
0.0
  0
LINE
  5
8067
  8
3
  6
CONTINUOUS
 62
     0
 10
511.48262999999992
 20
770.33960798127282
 30
0.0
 11
511.48262999999992
 21
684.70621898127274
 31
0.0
  0
LINE
  5
8068
  8
3
  6
CONTINUOUS
 62
     0
 10
371.48262999999992
 20
694.70621898127274
 30
0.0
 11
491.48262999999992
 21
694.70621898127274
 31
0.0
  0
INSERT
  5
8069
  8
3
  6
CONTINUOUS
 62
     0
  2
_OPEN
 10
351.48262999999992
 20
694.70621898127274
 30
0.0
 41
20.0
 42
20.0
 43
20.0
 50
180.0
  0
INSERT
  5
806A
  8
3
  6
CONTINUOUS
 62
     0
  2
_OPEN
 10
511.48262999999992
 20
694.70621898127274
 30
0.0
 41
20.0
 42
20.0
 43
20.0
  0
TEXT
  8
3
  40
30
  5
80E4
  62
0
  72
0
  71
0
 10
372.902
 20
666.606
 30
0.000000
  1
160
  0
POINT
  5
806C
  8
DEFPOINTS
  6
CONTINUOUS
 62
     0
 10
351.48262999999992
 20
781.03783698127279
 30
0.0
  0
POINT
  5
806D
  8
DEFPOINTS
  6
CONTINUOUS
 62
     0
 10
511.48262999999992
 20
775.33960798127282
 30
0.0
  0
POINT
  5
806E
  8
DEFPOINTS
  6
CONTINUOUS
 62
     0
 10
511.48262999999992
 20
694.70621898127274
 30
0.0
  0
ENDBLK
  5
7B32
  8
0
  0
BLOCK
  8
0
  2
*D2
 70
     1
 10
0.0
 20
0.0
 30
0.0
  3
*D2
  1

  0
LINE
  5
806F
  8
3
  6
CONTINUOUS
 62
     0
 10
961.48262999999997
 20
776.03783698127279
 30
0.0
 11
961.48262999999997
 21
684.70621898127274
 31
0.0
  0
LINE
  5
8070
  8
3
  6
CONTINUOUS
 62
     0
 10
531.48262999999997
 20
694.70621898127274
 30
0.0
 11
941.48263000000009
 21
694.70621898127274
 31
0.0
  0
INSERT
  5
8071
  8
3
  6
CONTINUOUS
 62
     0
  2
_OPEN
 10
511.48262999999992
 20
694.70621898127274
 30
0.0
 41
20.0
 42
20.0
 43
20.0
 50
180.0
  0
INSERT
  5
8072
  8
3
  6
CONTINUOUS
 62
     0
  2
_OPEN
 10
961.48262999999997
 20
694.70621898127274
 30
0.0
 41
20.0
 42
20.0
 43
20.0
  0
TEXT
  8
3
  40
30
  5
80E5
  62
0
  72
0
  71
0
 10
676.483
 20
666.606
 30
0.000000
  1
450
  0
POINT
  5
8074
  8
DEFPOINTS
  6
CONTINUOUS
 62
     0
 10
511.48262999999992
 20
775.33960798127282
 30
0.0
  0
POINT
  5
8075
  8
DEFPOINTS
  6
CONTINUOUS
 62
     0
 10
961.48262999999997
 20
781.03783698127279
 30
0.0
  0
POINT
  5
8076
  8
DEFPOINTS
  6
CONTINUOUS
 62
     0
 10
961.48262999999997
 20
694.70621898127274
 30
0.0
  0
ENDBLK
  5
7B3E
  8
0
  0
BLOCK
  8
0
  2
*D3
 70
     1
 10
0.0
 20
0.0
 30
0.0
  3
*D3
  1

  0
LINE
  5
8077
  8
3
  6
CONTINUOUS
 62
     0
 10
671.48262999999986
 20
1198.037836981272
 30
0.0
 11
671.48262999999986
 21
1251.9980469812731
 31
0.0
  0
LINE
  5
8078
  8
3
  6
CONTINUOUS
 62
     0
 10
511.48262999999992
 20
1198.037836981272
 30
0.0
 11
511.48262999999992
 21
1251.9980469812731
 31
0.0
  0
LINE
  5
8079
  8
3
  6
CONTINUOUS
 62
     0
 10
651.48262999999997
 20
1241.998046981272
 30
0.0
 11
531.48262999999997
 21
1241.998046981272
 31
0.0
  0
INSERT
  5
807A
  8
3
  6
CONTINUOUS
 62
     0
  2
_OPEN
 10
671.48262999999986
 20
1241.998046981272
 30
0.0
 41
20.0
 42
20.0
 43
20.0
  0
INSERT
  5
807B
  8
3
  6
CONTINUOUS
 62
     0
  2
_OPEN
 10
511.48262999999992
 20
1241.998046981272
 30
0.0
 41
20.0
 42
20.0
 43
20.0
 50
180.0
  0
TEXT
  8
3
  40
30
  5
80E6
  62
0
  72
0
  71
0
 10
545.768
 20
1213.90
 30
0.000000
  1
160
  0
POINT
  5
807D
  8
DEFPOINTS
  6
CONTINUOUS
 62
     0
 10
671.48262999999986
 20
1193.037836981272
 30
0.0
  0
POINT
  5
807E
  8
DEFPOINTS
  6
CONTINUOUS
 62
     0
 10
511.48262999999992
 20
1193.037836981272
 30
0.0
  0
POINT
  5
807F
  8
DEFPOINTS
  6
CONTINUOUS
 62
     0
 10
511.48262999999992
 20
1241.998046981272
 30
0.0
  0
ENDBLK
  5
7DD0
  8
0
  0
BLOCK
  8
0
  2
*D4
 70
     1
 10
0.0
 20
0.0
 30
0.0
  3
*D4
  1

  0
LINE
  5
8080
  8
3
  6
CONTINUOUS
 62
     0
 10
351.48262999999992
 20
1822.529080113555
 30
0.0
 11
351.48262999999992
 21
1643.112504113556
 31
0.0
  0
LINE
  5
8081
  8
3
  6
CONTINUOUS
 62
     0
 10
961.48262999999997
 20
1822.529080113555
 30
0.0
 11
961.48262999999997
 21
1643.112504113556
 31
0.0
  0
LINE
  5
8082
  8
3
  6
CONTINUOUS
 62
     0
 10
371.48262999999992
 20
1653.112504113556
 30
0.0
 11
941.48263000000009
 21
1653.112504113556
 31
0.0
  0
INSERT
  5
8083
  8
3
  6
CONTINUOUS
 62
     0
  2
_OPEN
 10
351.48262999999992
 20
1653.112504113556
 30
0.0
 41
20.0
 42
20.0
 43
20.0
 50
180.0
  0
INSERT
  5
8084
  8
3
  6
CONTINUOUS
 62
     0
  2
_OPEN
 10
961.48262999999997
 20
1653.112504113556
 30
0.0
 41
20.0
 42
20.0
 43
20.0
  0
TEXT
  8
3
  40
30
  5
80E7
  62
0
  72
0
  71
0
 10
577.038
 20
1625.01
 30
0.000000
  1
610
  0
POINT
  5
8086
  8
DEFPOINTS
  6
CONTINUOUS
 62
     0
 10
351.48262999999992
 20
1827.529080113555
 30
0.0
  0
POINT
  5
8087
  8
DEFPOINTS
  6
CONTINUOUS
 62
     0
 10
961.48262999999997
 20
1827.529080113555
 30
0.0
  0
POINT
  5
8088
  8
DEFPOINTS
  6
CONTINUOUS
 62
     0
 10
961.48262999999997
 20
1653.112504113556
 30
0.0
  0
ENDBLK
  5
7B9D
  8
0
  0
BLOCK
  8
0
  2
*D5
 70
     1
 10
0.0
 20
0.0
 30
0.0
  3
*D5
  1

  0
LINE
  5
8089
  8
3
  6
CONTINUOUS
 62
     0
 10
966.48263000000009
 20
2051.5290801135552
 30
0.0
 11
1067.834601
 21
2051.5290801135552
 31
0.0
  0
LINE
  5
808A
  8
3
  6
CONTINUOUS
 62
     0
 10
966.48263000000009
 20
1827.529080113555
 30
0.0
 11
1067.834601
 21
1827.529080113555
 31
0.0
  0
LINE
  5
808B
  8
3
  6
CONTINUOUS
 62
     0
 10
1057.834601
 20
2031.529080113555
 30
0.0
 11
1057.834601
 21
1847.529080113555
 31
0.0
  0
INSERT
  5
808C
  8
3
  6
CONTINUOUS
 62
     0
  2
_OPEN
 10
1057.834601
 20
2051.5290801135552
 30
0.0
 41
20.0
 42
20.0
 43
20.0
 50
90.0
  0
INSERT
  5
808D
  8
3
  6
CONTINUOUS
 62
     0
  2
_OPEN
 10
1057.834601
 20
1827.529080113555
 30
0.0
 41
20.0
 42
20.0
 43
20.0
 50
270.0
  0
TEXT
  8
3
  40
30
  5
80E8
  62
0
  72
0
  71
0
 10
972.835
 20
1893.60
 30
0.000000
  1
224
  0
POINT
  5
808F
  8
DEFPOINTS
  6
CONTINUOUS
 62
     0
 10
961.48262999999997
 20
2051.5290801135552
 30
0.0
  0
POINT
  5
8090
  8
DEFPOINTS
  6
CONTINUOUS
 62
     0
 10
961.48262999999997
 20
1827.529080113555
 30
0.0
  0
POINT
  5
8091
  8
DEFPOINTS
  6
CONTINUOUS
 62
     0
 10
1057.834601
 20
1827.529080113555
 30
0.0
  0
ENDBLK
  5
7BAA
  8
0
  0
BLOCK
  8
0
  2
*D6
 70
     1
 10
0.0
 20
0.0
 30
0.0
  3
*D6
  1

  0
LINE
  5
7EF1
  8
0
  6
BYBLOCK
 62
     0
 10
1601.4268937291599
 20
1198.037836981272
 30
0.0
 11
1601.4268937291599
 21
1225.0403019812729
 31
0.0
  0
LINE
  5
7EF2
  8
0
  6
BYBLOCK
 62
     0
 10
1713.4268937291599
 20
1196.499374981272
 30
0.0
 11
1713.4268937291599
 21
1225.0403019812729
 31
0.0
  0
LINE
  5
7EF3
  8
0
  6
BYBLOCK
 62
     0
 10
1621.4268937291599
 20
1215.040301981272
 30
0.0
 11
1693.4268937291599
 21
1215.040301981272
 31
0.0
  0
TEXT
  5
7EF4
  8
3
 62
     0
 10
1624.569750872017
 20
1221.9857984514831
 30
0.0
 40
30.0
  1
112
  0
INSERT
  5
7EF5
  8
0
  6
BYBLOCK
 62
     0
  2
_OPEN
 10
1601.4268937291599
 20
1215.040301981272
 30
0.0
 41
20.0
 42
20.0
 43
20.0
 50
180.0
  0
INSERT
  5
7EF6
  8
0
  6
BYBLOCK
 62
     0
  2
_OPEN
 10
1713.4268937291599
 20
1215.040301981272
 30
0.0
 41
20.0
 42
20.0
 43
20.0
  0
POINT
  5
7EF7
  8
DEFPOINTS
  6
BYBLOCK
 62
     0
 10
1601.4268937291599
 20
1193.037836981272
 30
0.0
  0
POINT
  5
7EF8
  8
DEFPOINTS
  6
BYBLOCK
 62
     0
 10
1713.4268937291599
 20
1191.499374981272
 30
0.0
  0
POINT
  5
7EF9
  8
DEFPOINTS
  6
BYBLOCK
 62
     0
 10
1713.4268937291599
 20
1215.040301981272
 30
0.0
  0
ENDBLK
  5
7EFA
  8
0
  0
BLOCK
  8
0
  2
*D7
 70
     1
 10
0.0
 20
0.0
 30
0.0
  3
*D7
  1

  0
LINE
  5
8092
  8
3
  6
CONTINUOUS
 62
     0
 10
1469.4268937291599
 20
776.03783698127279
 30
0.0
 11
1469.4268937291599
 21
699.59729098127275
 31
0.0
  0
LINE
  5
8093
  8
3
  6
CONTINUOUS
 62
     0
 10
1657.4268937291599
 20
766.31805598127278
 30
0.0
 11
1657.4268937291599
 21
699.59729098127275
 31
0.0
  0
LINE
  5
8094
  8
3
  6
CONTINUOUS
 62
     0
 10
1489.4268937291599
 20
709.59729098127275
 30
0.0
 11
1637.4268937291599
 21
709.59729098127275
 31
0.0
  0
INSERT
  5
8095
  8
3
  6
CONTINUOUS
 62
     0
  2
_OPEN
 10
1469.4268937291599
 20
709.59729098127275
 30
0.0
 41
20.0
 42
20.0
 43
20.0
 50
180.0
  0
INSERT
  5
8096
  8
3
  6
CONTINUOUS
 62
     0
  2
_OPEN
 10
1657.4268937291599
 20
709.59729098127275
 30
0.0
 41
20.0
 42
20.0
 43
20.0
  0
TEXT
  8
3
  40
30
  5
80E9
  62
0
  72
0
  71
0
 10
1502.88
 20
681.497
 30
0.000000
  1
188
  0
POINT
  5
8098
  8
DEFPOINTS
  6
CONTINUOUS
 62
     0
 10
1469.4268937291599
 20
781.03783698127279
 30
0.0
  0
POINT
  5
8099
  8
DEFPOINTS
  6
CONTINUOUS
 62
     0
 10
1657.4268937291599
 20
771.31805598127278
 30
0.0
  0
POINT
  5
809A
  8
DEFPOINTS
  6
CONTINUOUS
 62
     0
 10
1657.4268937291599
 20
709.59729098127275
 30
0.0
  0
ENDBLK
  5
7BF3
  8
0
  0
BLOCK
  8
0
  2
*D8
 70
     1
 10
0.0
 20
0.0
 30
0.0
  3
*D8
  1

  0
LINE
  5
809B
  8
3
  6
CONTINUOUS
 62
     0
 10
1693.4268937291599
 20
776.03783698127279
 30
0.0
 11
1693.4268937291599
 21
699.59729098127275
 31
0.0
  0
LINE
  5
809C
  8
3
  6
CONTINUOUS
 62
     0
 10
1637.4268937291599
 20
709.59729098127275
 30
0.0
 11
1617.4268937291599
 21
709.59729098127275
 31
0.0
  0
LINE
  5
809D
  8
3
  6
CONTINUOUS
 62
     0
 10
1713.4268937291599
 20
709.59729098127275
 30
0.0
 11
1733.4268937291599
 21
709.59729098127275
 31
0.0
  0
TEXT
  8
3
  40
30
  5
80EA
  62
0
  72
0
  71
0
 10
1677.22
 20
678.182
 30
0.000000
  1
36
  0
LINE
  5
809F
  8
3
  6
CONTINUOUS
 62
     0
 10
1657.4268937291599
 20
709.59729098127275
 30
0.0
 11
1693.4268937291599
 21
709.59729098127275
 31
0.0
  0
INSERT
  5
80A0
  8
3
  6
CONTINUOUS
 62
     0
  2
_OPEN
 10
1657.4268937291599
 20
709.59729098127275
 30
0.0
 41
20.0
 42
20.0
 43
20.0
  0
INSERT
  5
80A1
  8
3
  6
CONTINUOUS
 62
     0
  2
_OPEN
 10
1693.4268937291599
 20
709.59729098127275
 30
0.0
 41
20.0
 42
20.0
 43
20.0
 50
180.0
  0
POINT
  5
80A2
  8
DEFPOINTS
  6
CONTINUOUS
 62
     0
 10
1657.4268937291599
 20
771.31805598127278
 30
0.0
  0
POINT
  5
80A3
  8
DEFPOINTS
  6
CONTINUOUS
 62
     0
 10
1693.4268937291599
 20
781.03783698127279
 30
0.0
  0
POINT
  5
80A4
  8
DEFPOINTS
  6
CONTINUOUS
 62
     0
 10
1693.4268937291599
 20
709.59729098127275
 30
0.0
  0
ENDBLK
  5
7CDF
  8
0
  0
BLOCK
  8
0
  2
*D9
 70
     1
 10
0.0
 20
0.0
 30
0.0
  3
*D9
  1

  0
LINE
  5
80A5
  8
3
  6
CONTINUOUS
 62
     0
 10
1397.4268937291599
 20
1163.0378369812729
 30
0.0
 11
1397.4268937291599
 21
1283.0711789812719
 31
0.0
  0
LINE
  5
80A6
  8
3
  6
CONTINUOUS
 62
     0
 10
1657.4268937291599
 20
1263.055165981272
 30
0.0
 11
1657.4268937291599
 21
1283.0711789812719
 31
0.0
  0
LINE
  5
80A7
  8
3
  6
CONTINUOUS
 62
     0
 10
1417.4268937291599
 20
1273.0711789812719
 30
0.0
 11
1637.4268937291599
 21
1273.0711789812719
 31
0.0
  0
INSERT
  5
80A8
  8
3
  6
CONTINUOUS
 62
     0
  2
_OPEN
 10
1397.4268937291599
 20
1273.0711789812719
 30
0.0
 41
20.0
 42
20.0
 43
20.0
 50
180.0
  0
INSERT
  5
80A9
  8
3
  6
CONTINUOUS
 62
     0
  2
_OPEN
 10
1657.4268937291599
 20
1273.0711789812719
 30
0.0
 41
20.0
 42
20.0
 43
20.0
  0
TEXT
  8
3
  40
30
  5
80EB
  62
0
  72
0
  71
0
 10
1470.62
 20
1269.97
 30
0.000000
  1
MAX
  0
TEXT
  8
3
  40
30
  5
80EC
  62
0
  72
0
  71
0
 10
1470.62
 20
1230.97
 30
0.000000
  1
260
  0
POINT
  5
80AB
  8
DEFPOINTS
  6
CONTINUOUS
 62
     0
 10
1397.4268937291599
 20
1158.037836981272
 30
0.0
  0
POINT
  5
80AC
  8
DEFPOINTS
  6
CONTINUOUS
 62
     0
 10
1657.4268937291599
 20
1258.055165981272
 30
0.0
  0
POINT
  5
80AD
  8
DEFPOINTS
  6
CONTINUOUS
 62
     0
 10
1657.4268937291599
 20
1273.0711789812719
 30
0.0
  0
ENDBLK
  5
7F12
  8
0
  0
BLOCK
  8
0
  2
*D10
 70
     1
 10
0.0
 20
0.0
 30
0.0
  3
*D10
  1

  0
LINE
  5
80AE
  8
3
  6
CONTINUOUS
 62
     0
 10
1721.4268937291599
 20
1168.037836981272
 30
0.0
 11
1721.4268937291599
 21
1283.0711789812719
 31
0.0
  0
LINE
  5
80AF
  8
3
  6
CONTINUOUS
 62
     0
 10
1677.4268937291599
 20
1273.0711789812719
 30
0.0
 11
1701.4268937291599
 21
1273.0711789812719
 31
0.0
  0
TEXT
  8
3
  40
30
  5
80ED
  62
0
  72
0
  71
0
 10
1628.50
 20
1243.22
 30
0.000000
  1
64
  0
INSERT
  5
80B1
  8
3
  6
CONTINUOUS
 62
     0
  2
_OPEN
 10
1657.4268937291599
 20
1273.0711789812719
 30
0.0
 41
20.0
 42
20.0
 43
20.0
 50
180.0
  0
INSERT
  5
80B2
  8
3
  6
CONTINUOUS
 62
     0
  2
_OPEN
 10
1721.4268937291599
 20
1273.0711789812719
 30
0.0
 41
20.0
 42
20.0
 43
20.0
  0
POINT
  5
80B3
  8
DEFPOINTS
  6
CONTINUOUS
 62
     0
 10
1657.4268937291599
 20
1258.055165981272
 30
0.0
  0
POINT
  5
80B4
  8
DEFPOINTS
  6
CONTINUOUS
 62
     0
 10
1721.4268937291599
 20
1163.0378369812729
 30
0.0
  0
POINT
  5
80B5
  8
DEFPOINTS
  6
CONTINUOUS
 62
     0
 10
1721.4268937291599
 20
1273.0711789812719
 30
0.0
  0
ENDBLK
  5
7CC5
  8
0
  0
BLOCK
  8
0
  2
*D11
 70
     1
 10
0.0
 20
0.0
 30
0.0
  3
*D11
  1

  0
LINE
  5
7EE6
  8
0
  6
BYBLOCK
 62
     0
 10
1726.4268937291599
 20
1143.0378369812729
 30
0.0
 11
1813.6059477291601
 21
1143.0378369812729
 31
0.0
  0
LINE
  5
7EE7
  8
0
  6
BYBLOCK
 62
     0
 10
1726.4268937291599
 20
983.03783698127268
 30
0.0
 11
1813.6059477291601
 21
983.03783698127268
 31
0.0
  0
LINE
  5
7EE8
  8
0
  6
BYBLOCK
 62
     0
 10
1803.6059477291601
 20
1123.0378369812729
 30
0.0
 11
1803.6059477291601
 21
1003.037836981272
 31
0.0
  0
TEXT
  5
7EE9
  8
3
 62
     0
 10
1795.945293178487
 20
1012.323551266987
 30
0.0
 40
30.0
  1
φ160
 50
90.0
  0
INSERT
  5
7EEA
  8
0
  6
BYBLOCK
 62
     0
  2
_OPEN
 10
1803.6059477291601
 20
1143.0378369812729
 30
0.0
 41
20.0
 42
20.0
 43
20.0
 50
90.0
  0
INSERT
  5
7EEB
  8
0
  6
BYBLOCK
 62
     0
  2
_OPEN
 10
1803.6059477291601
 20
983.03783698127268
 30
0.0
 41
20.0
 42
20.0
 43
20.0
 50
270.0
  0
POINT
  5
7EEC
  8
DEFPOINTS
  6
BYBLOCK
 62
     0
 10
1721.4268937291599
 20
1143.0378369812729
 30
0.0
  0
POINT
  5
7EED
  8
DEFPOINTS
  6
BYBLOCK
 62
     0
 10
1721.4268937291599
 20
983.03783698127268
 30
0.0
  0
POINT
  5
7EEE
  8
DEFPOINTS
  6
BYBLOCK
 62
     0
 10
1803.6059477291601
 20
983.03783698127268
 30
0.0
  0
ENDBLK
  5
7EEF
  8
0
  0
BLOCK
  8
0
  2
*D12
 70
     1
 10
0.0
 20
0.0
 30
0.0
  3
*D12
  1

  0
LINE
  5
80B6
  8
3
  6
CONTINUOUS
 62
     0
 10
966.48263000000009
 20
781.03783698127279
 30
0.0
 11
1148.0108959827189
 21
781.03783698127279
 31
0.0
  0
LINE
  5
80B7
  8
3
  6
CONTINUOUS
 62
     0
 10
698.48262999999986
 20
1193.037836981272
 30
0.0
 11
1148.0108959827189
 21
1193.037836981272
 31
0.0
  0
LINE
  5
80B8
  8
3
  6
CONTINUOUS
 62
     0
 10
1138.0108959827189
 20
801.03783698127268
 30
0.0
 11
1138.0108959827189
 21
1173.0378369812729
 31
0.0
  0
INSERT
  5
80B9
  8
3
  6
CONTINUOUS
 62
     0
  2
_OPEN
 10
1138.0108959827189
 20
781.03783698127279
 30
0.0
 41
20.0
 42
20.0
 43
20.0
 50
270.0
  0
INSERT
  5
80BA
  8
3
  6
CONTINUOUS
 62
     0
  2
_OPEN
 10
1138.0108959827189
 20
1193.037836981272
 30
0.0
 41
20.0
 42
20.0
 43
20.0
 50
90.0
  0
TEXT
  8
3
  40
30
  5
80EE
  62
0
  72
0
  71
0
 10
1053.01
 20
930.971
 30
0.000000
  1
412
  0
POINT
  5
80BC
  8
DEFPOINTS
  6
CONTINUOUS
 62
     0
 10
961.48262999999997
 20
781.03783698127279
 30
0.0
  0
POINT
  5
80BD
  8
DEFPOINTS
  6
CONTINUOUS
 62
     0
 10
693.48262999999997
 20
1193.037836981272
 30
0.0
  0
POINT
  5
80BE
  8
DEFPOINTS
  6
CONTINUOUS
 62
     0
 10
1138.0108959827189
 20
1193.037836981272
 30
0.0
  0
ENDBLK
  5
7F43
  8
0
  0
BLOCK
  8
0
  2
*D13
 70
     1
 10
0.0
 20
0.0
 30
0.0
  3
*D13
  1

  0
LINE
  5
80BF
  8
3
  6
CONTINUOUS
 62
     0
 10
958.00914023616485
 20
1063.037836981272
 30
0.0
 11
1066.755957982718
 21
1063.037836981272
 31
0.0
  0
LINE
  5
80C0
  8
3
  6
CONTINUOUS
 62
     0
 10
941.48263000000009
 20
828.03783698127279
 30
0.0
 11
1066.755957982718
 21
828.03783698127279
 31
0.0
  0
LINE
  5
80C1
  8
3
  6
CONTINUOUS
 62
     0
 10
1056.755957982718
 20
1043.037836981272
 30
0.0
 11
1056.755957982718
 21
848.03783698127268
 31
0.0
  0
INSERT
  5
80C2
  8
3
  6
CONTINUOUS
 62
     0
  2
_OPEN
 10
1056.755957982718
 20
1063.037836981272
 30
0.0
 41
20.0
 42
20.0
 43
20.0
 50
90.0
  0
INSERT
  5
80C3
  8
3
  6
CONTINUOUS
 62
     0
  2
_OPEN
 10
1056.755957982718
 20
828.03783698127279
 30
0.0
 41
20.0
 42
20.0
 43
20.0
 50
270.0
  0
TEXT
  8
3
  40
30
  5
80EF
  62
0
  72
0
  71
0
 10
971.756
 20
892.438
 30
0.000000
  1
235
  0
POINT
  5
80C5
  8
DEFPOINTS
  6
CONTINUOUS
 62
     0
 10
953.00914023616497
 20
1063.037836981272
 30
0.0
  0
POINT
  5
80C6
  8
DEFPOINTS
  6
CONTINUOUS
 62
     0
 10
936.48262999999997
 20
828.03783698127279
 30
0.0
  0
POINT
  5
80C7
  8
DEFPOINTS
  6
CONTINUOUS
 62
     0
 10
1056.755957982718
 20
828.03783698127279
 30
0.0
  0
ENDBLK
  5
7F75
  8
0
  0
BLOCK
  8
0
  2
*D14
 70
     1
 10
0.0
 20
0.0
 30
0.0
  3
*D14
  1

  0
LINE
  5
80C8
  8
3
  6
CONTINUOUS
 62
     0
 10
941.48263000000009
 20
828.03783698127279
 30
0.0
 11
1066.702206982719
 21
828.03783698127279
 31
0.0
  0
LINE
  5
80C9
  8
3
  6
CONTINUOUS
 62
     0
 10
966.48263000000009
 20
781.03783698127279
 30
0.0
 11
1066.702206982719
 21
781.03783698127279
 31
0.0
  0
LINE
  5
80CA
  8
3
  6
CONTINUOUS
 62
     0
 10
1056.7022069827181
 20
848.03783698127268
 30
0.0
 11
1056.7022069827181
 21
868.03783698127268
 31
0.0
  0
LINE
  5
80CB
  8
3
  6
CONTINUOUS
 62
     0
 10
1056.7022069827181
 20
761.03783698127268
 30
0.0
 11
1056.7022069827181
 21
672.46640840984423
 31
0.0
  0
LINE
  5
80CC
  8
3
  6
CONTINUOUS
 62
     0
 10
1056.7022069827181
 20
828.03783698127279
 30
0.0
 11
1056.7022069827181
 21
781.03783698127279
 31
0.0
  0
INSERT
  5
80CD
  8
3
  6
CONTINUOUS
 62
     0
  2
_OPEN
 10
1056.7022069827181
 20
828.03783698127279
 30
0.0
 41
20.0
 42
20.0
 43
20.0
 50
270.0
  0
INSERT
  5
80CE
  8
3
  6
CONTINUOUS
 62
     0
  2
_OPEN
 10
1056.7022069827181
 20
781.03783698127279
 30
0.0
 41
20.0
 42
20.0
 43
20.0
 50
90.0
  0
TEXT
  8
3
  40
30
  5
80F0
  62
0
  72
0
  71
0
 10
971.702
 20
653.652
 30
0.000000
  1
47
  0
POINT
  5
80D0
  8
DEFPOINTS
  6
CONTINUOUS
 62
     0
 10
936.48262999999997
 20
828.03783698127279
 30
0.0
  0
POINT
  5
80D1
  8
DEFPOINTS
  6
CONTINUOUS
 62
     0
 10
961.48262999999997
 20
781.03783698127279
 30
0.0
  0
POINT
  5
80D2
  8
DEFPOINTS
  6
CONTINUOUS
 62
     0
 10
1056.7022069827181
 20
781.03783698127279
 30
0.0
  0
ENDBLK
  5
7F50
  8
0
  0
BLOCK
  8
0
  2
*D15
 70
     1
 10
0.0
 20
0.0
 30
0.0
  3
*D15
  1

  0
LINE
  5
7ED0
  8
0
  6
BYBLOCK
 62
     0
 10
388.83844900000003
 20
1068.037836981272
 30
0.0
 11
388.83844900000003
 21
1315.9409059812731
 31
0.0
  0
LINE
  5
7ED1
  8
0
  6
BYBLOCK
 62
     0
 10
511.48262999999992
 20
1198.037836981272
 30
0.0
 11
511.48262999999992
 21
1315.9409059812731
 31
0.0
  0
LINE
  5
7ED2
  8
0
  6
BYBLOCK
 62
     0
 10
408.83844900000008
 20
1305.940905981272
 30
0.0
 11
491.48262999999992
 21
1305.940905981272
 31
0.0
  0
TEXT
  5
7ED3
  8
3
 62
     0
 10
414.4462542857143
 20
1317.508600759106
 30
0.0
 40
30.0
  1
123
  0
INSERT
  5
7ED4
  8
0
  6
BYBLOCK
 62
     0
  2
_OPEN
 10
388.83844900000003
 20
1305.940905981272
 30
0.0
 41
20.0
 42
20.0
 43
20.0
 50
180.0
  0
INSERT
  5
7ED5
  8
0
  6
BYBLOCK
 62
     0
  2
_OPEN
 10
511.48262999999992
 20
1305.940905981272
 30
0.0
 41
20.0
 42
20.0
 43
20.0
  0
POINT
  5
7ED6
  8
DEFPOINTS
  6
BYBLOCK
 62
     0
 10
388.83844900000003
 20
1063.037836981272
 30
0.0
  0
POINT
  5
7ED7
  8
DEFPOINTS
  6
BYBLOCK
 62
     0
 10
511.48262999999992
 20
1193.037836981272
 30
0.0
  0
POINT
  5
7ED8
  8
DEFPOINTS
  6
BYBLOCK
 62
     0
 10
511.48262999999992
 20
1305.940905981272
 30
0.0
  0
ENDBLK
  5
7ED9
  8
0
  0
BLOCK
  8
0
  2
*D16
 70
     1
 10
0.0
 20
0.0
 30
0.0
  3
*D16
  1

  0
LINE
  5
80D3
  8
3
  6
CONTINUOUS
 62
     0
 10
682.48262999999986
 20
1183.0378369812729
 30
0.0
 11
682.48262999999986
 21
1315.9409059812731
 31
0.0
  0
LINE
  5
80D4
  8
3
  6
CONTINUOUS
 62
     0
 10
531.48262999999997
 20
1305.940905981272
 30
0.0
 11
662.48262999999986
 21
1305.940905981272
 31
0.0
  0
INSERT
  5
80D5
  8
3
  6
CONTINUOUS
 62
     0
  2
_OPEN
 10
511.48262999999992
 20
1305.940905981272
 30
0.0
 41
20.0
 42
20.0
 43
20.0
 50
180.0
  0
INSERT
  5
80D6
  8
3
  6
CONTINUOUS
 62
     0
  2
_OPEN
 10
682.48262999999986
 20
1305.940905981272
 30
0.0
 41
20.0
 42
20.0
 43
20.0
  0
TEXT
  8
3
  40
30
  5
80F1
  62
0
  72
0
  71
0
 10
536.983
 20
1277.84
 30
0.000000
  1
171
  0
POINT
  5
80D8
  8
DEFPOINTS
  6
CONTINUOUS
 62
     0
 10
511.48262999999992
 20
1193.037836981272
 30
0.0
  0
POINT
  5
80D9
  8
DEFPOINTS
  6
CONTINUOUS
 62
     0
 10
682.48262999999986
 20
1178.037836981272
 30
0.0
  0
POINT
  5
80DA
  8
DEFPOINTS
  6
CONTINUOUS
 62
     0
 10
682.48262999999986
 20
1305.940905981272
 30
0.0
  0
ENDBLK
  5
7E85
  8
0
  0
BLOCK
  8
0
  2
*D17
 70
     1
 10
0.0
 20
0.0
 30
0.0
  3
*D17
  1

  0
LINE
  5
80DB
  8
3
 62
     0
 10
388.83844900000003
 20
1320.940905981272
 30
0.0
 11
388.83844900000003
 21
1380.8810511960851
 31
0.0
  0
LINE
  5
80DC
  8
3
 62
     0
 10
961.48262999999997
 20
811.03783698127279
 30
0.0
 11
961.48262999999997
 21
1380.8810511960851
 31
0.0
  0
LINE
  5
80DD
  8
3
 62
     0
 10
408.83844900000008
 20
1370.8810511960851
 30
0.0
 11
941.48263000000009
 21
1370.8810511960851
 31
0.0
  0
INSERT
  5
80DE
  8
3
 62
     0
  2
_OPEN
 10
388.83844900000003
 20
1370.8810511960851
 30
0.0
 41
20.0
 42
20.0
 43
20.0
 50
180.0
  0
INSERT
  5
80DF
  8
3
 62
     0
  2
_OPEN
 10
961.48262999999997
 20
1370.8810511960851
 30
0.0
 41
20.0
 42
20.0
 43
20.0
  0
TEXT
  8
3
  40
30
  5
80F2
  62
0
  72
0
  71
0
 10
616.359
 20
1342.78
 30
0.000000
  1
573
  0
POINT
  5
80E1
  8
DEFPOINTS
 62
     0
 10
388.83844900000003
 20
1315.9409059812731
 30
0.0
  0
POINT
  5
80E2
  8
DEFPOINTS
 62
     0
 10
961.48262999999997
 20
806.03783698127279
 30
0.0
  0
POINT
  5
80E3
  8
DEFPOINTS
 62
     0
 10
961.48262999999997
 20
1370.8810511960851
 30
0.0
  0
ENDBLK
  5
7F22
  8
0
  0
BLOCK
  8
0
  2
*D18
 70
     1
 10
0.0
 20
0.0
 30
0.0
  3
*D18
  1

  0
LINE
  5
7F8F
  8
0
  6
BYBLOCK
 62
     0
 10
703.48262999999986
 20
1193.037836981272
 30
0.0
 11
1066.755957982718
 21
1193.037836981272
 31
0.0
  0
LINE
  5
7F90
  8
0
  6
BYBLOCK
 62
     0
 10
1056.755957982718
 20
1083.037836981272
 30
0.0
 11
1056.755957982718
 21
1173.0378369812729
 31
0.0
  0
TEXT
  5
7F91
  8
3
 62
     0
 10
1045.2047996479571
 20
1092.3235512669869
 30
0.0
 40
30.0
  1
130
 50
90.0
  0
INSERT
  5
7F92
  8
0
  6
BYBLOCK
 62
     0
  2
_OPEN
 10
1056.755957982718
 20
1063.037836981272
 30
0.0
 41
20.0
 42
20.0
 43
20.0
 50
270.0
  0
INSERT
  5
7F93
  8
0
  6
BYBLOCK
 62
     0
  2
_OPEN
 10
1056.755957982718
 20
1193.037836981272
 30
0.0
 41
20.0
 42
20.0
 43
20.0
 50
90.0
  0
POINT
  5
7F94
  8
DEFPOINTS
  6
BYBLOCK
 62
     0
 10
953.00914023616497
 20
1063.037836981272
 30
0.0
  0
POINT
  5
7F95
  8
DEFPOINTS
  6
BYBLOCK
 62
     0
 10
698.48262999999986
 20
1193.037836981272
 30
0.0
  0
POINT
  5
7F96
  8
DEFPOINTS
  6
BYBLOCK
 62
     0
 10
1056.755957982718
 20
1193.037836981272
 30
0.0
  0
ENDBLK
  5
7F97
  8
0
  0
ENDSEC
  0
SECTION
  2
ENTITIES
  0
CIRCLE
  5
7A89
  8
1
  6
CONTINUOUS
 10
511.48262999999992
 20
1063.037836981272
 30
0.0
 40
80.0
  0
CIRCLE
  5
7A8A
  8
1
  6
CONTINUOUS
 10
511.48262999999992
 20
1063.037836981272
 30
0.0
 40
100.0
  0
LINE
  5
7A8B
  8
1
  6
CONTINUOUS
 10
808.08262999999999
 20
1011.237836981272
 30
0.0
 11
525.78262999999993
 21
1105.737836981272
 31
0.0
  0
LINE
  5
7A8C
  8
1
  6
CONTINUOUS
 10
788.08262999999988
 20
944.13783698127281
 30
0.0
 11
500.08262999999988
 21
1019.537836981272
 31
0.0
  0
LINE
  5
7A8D
  8
1
  6
CONTINUOUS
 10
787.48262999999986
 20
1827.529080113555
 30
0.0
 11
523.48262999999986
 21
1827.529080113555
 31
0.0
  0
LINE
  5
7A8E
  8
1
  6
CONTINUOUS
 10
414.1826299999999
 20
1830.529080113555
 30
0.0
 11
894.18263000000002
 21
1830.529080113555
 31
0.0
  0
LINE
  5
7A8F
  8
1
  6
CONTINUOUS
 10
414.1826299999999
 20
1755.529080113555
 30
0.0
 11
894.18263000000002
 21
1755.529080113555
 31
0.0
  0
LINE
  5
7A90
  8
1
  6
CONTINUOUS
 10
621.48262999999986
 20
1951.9290801135551
 30
0.0
 11
401.48262999999997
 21
1951.9290801135551
 31
0.0
  0
LINE
  5
7A91
  8
1
  6
CONTINUOUS
 10
611.48262999999986
 20
2078.1290801135551
 30
0.0
 11
411.48262999999992
 21
2078.1290801135551
 31
0.0
  0
LINE
  5
7A92
  8
1
  6
CONTINUOUS
 10
400.48262999999992
 20
1959.529080113555
 30
0.0
 11
671.48262999999986
 21
1959.529080113555
 31
0.0
  0
LINE
  5
7A93
  8
1
  6
CONTINUOUS
 10
671.48262999999986
 20
2071.5290801135552
 30
0.0
 11
400.48262999999992
 21
2071.5290801135552
 31
0.0
  0
LINE
  5
7A94
  8
1
  6
CONTINUOUS
 10
511.48262999999992
 20
1959.529080113555
 30
0.0
 11
671.48262999999986
 21
2071.5290801135552
 31
0.0
  0
LINE
  5
7A95
  8
1
  6
CONTINUOUS
 10
671.48262999999986
 20
1959.529080113555
 30
0.0
 11
511.48262999999992
 21
2071.5290801135552
 31
0.0
  0
LINE
  5
7A96
  8
1
  6
CONTINUOUS
 10
621.48262999999986
 20
1105.1378369812719
 30
0.0
 11
548.08262999999999
 21
1168.037836981272
 31
0.0
  0
LINE
  5
7A97
  8
1
  6
CONTINUOUS
 10
621.48262999999986
 20
1029.737836981272
 30
0.0
 11
401.48262999999997
 21
1029.737836981272
 31
0.0
  0
LINE
  5
7A98
  8
1
  6
CONTINUOUS
 10
936.48262999999997
 20
828.03783698127279
 30
0.0
 11
376.48262999999992
 21
828.03783698127279
 31
0.0
  0
LINE
  5
7A99
  8
1
  6
CONTINUOUS
 10
936.48262999999997
 20
878.03783698127279
 30
0.0
 11
376.48262999999992
 21
878.03783698127279
 31
0.0
  0
LINE
  5
7A9A
  8
1
  6
CONTINUOUS
 10
414.1826299999999
 20
1158.037836981272
 30
0.0
 11
894.18263000000002
 21
1158.037836981272
 31
0.0
  0
LINE
  5
7A9B
  8
1
  6
CONTINUOUS
 10
961.48262999999997
 20
781.03783698127279
 30
0.0
 11
351.48262999999992
 21
781.03783698127279
 31
0.0
  0
LINE
  5
7A9C
  8
1
  6
CONTINUOUS
 10
961.48262999999997
 20
806.03783698127279
 30
0.0
 11
351.48262999999992
 21
806.03783698127279
 31
0.0
  0
LINE
  5
7A9D
  8
1
  6
CONTINUOUS
 10
693.48262999999997
 20
1193.037836981272
 30
0.0
 11
489.48262999999997
 21
1193.037836981272
 31
0.0
  0
LINE
  5
7A9E
  8
1
  6
CONTINUOUS
 10
657.48262999999986
 20
1178.037836981272
 30
0.0
 11
525.48262999999986
 21
1178.037836981272
 31
0.0
  0
ARC
  5
7A9F
  8
1
  6
CONTINUOUS
 10
524.48262999999986
 20
1076.037836981272
 30
0.0
 40
158.0
 50
260.89999999999992
 51
0.0
  0
LINE
  5
7AA0
  8
1
  6
CONTINUOUS
 10
401.48262999999997
 20
878.03783698127279
 30
0.0
 11
401.48262999999997
 21
1105.1378369812719
 31
0.0
  0
LINE
  5
7AA1
  8
1
  6
CONTINUOUS
 10
414.1826299999999
 20
878.03783698127279
 30
0.0
 11
414.1826299999999
 21
1158.037836981272
 31
0.0
  0
ARC
  5
7AA2
  8
1
  6
CONTINUOUS
 10
522.48262999999997
 20
1052.037836981272
 30
0.0
 40
134.0
 50
179.49999999999989
 51
260.10000000000002
  0
LINE
  5
7AA3
  8
1
  6
CONTINUOUS
 10
376.48262999999992
 20
828.03783698127279
 30
0.0
 11
376.48262999999992
 21
878.03783698127279
 31
0.0
  0
LINE
  5
7AA4
  8
1
  6
CONTINUOUS
 10
351.48262999999992
 20
781.03783698127279
 30
0.0
 11
351.48262999999992
 21
806.03783698127279
 31
0.0
  0
LINE
  5
7AA5
  8
1
  6
CONTINUOUS
 10
401.48262999999997
 20
1105.1378369812719
 30
0.0
 11
474.88263000000012
 21
1168.037836981272
 31
0.0
  0
ARC
  5
7AA6
  8
1
  6
CONTINUOUS
 10
502.48262999999992
 20
1054.037836981272
 30
0.0
 40
114.0
 50
90.5
 51
180.49999999999989
  0
CIRCLE
  5
7AA7
  8
1
  6
CONTINUOUS
 10
511.48262999999992
 20
1063.037836981272
 30
0.0
 40
45.0
  0
LINE
  5
7AA8
  8
2
  6
CENTER
 10
511.48262999999992
 20
775.33960798127282
 30
0.0
 11
511.48262999999992
 21
1290.948365981272
 31
0.0
  0
LINE
  5
7AA9
  8
2
  6
CENTER
 10
1738.2160547291601
 20
1063.037836981272
 30
0.0
 11
1355.468893773693
 21
1063.037836981272
 31
0.0
  0
LINE
  5
7AAA
  8
1
  6
CONTINUOUS
 10
474.88263000000012
 20
1168.037836981272
 30
0.0
 11
548.08262999999999
 21
1168.037836981272
 31
0.0
  0
LINE
  5
7AAB
  8
1
  6
CONTINUOUS
 10
501.48262999999997
 20
1178.037836981272
 30
0.0
 11
501.48262999999997
 21
1168.037836981272
 31
0.0
  0
LINE
  5
7AAC
  8
1
  6
CONTINUOUS
 10
510.48262999999997
 20
1193.037836981272
 30
0.0
 11
525.48262999999986
 21
1178.037836981272
 31
0.0
  0
LINE
  5
7AAD
  8
1
  6
CONTINUOUS
 10
511.48262999999992
 20
1178.037836981272
 30
0.0
 11
511.48262999999992
 21
1193.037836981272
 31
0.0
  0
LINE
  5
7AAE
  8
1
  6
CONTINUOUS
 10
511.48262999999992
 20
1178.037836981272
 30
0.0
 11
501.48262999999997
 21
1178.037836981272
 31
0.0
  0
LINE
  5
7AAF
  8
1
  6
CONTINUOUS
 10
511.48262999999992
 20
2071.5290801135552
 30
0.0
 11
511.48262999999992
 21
1959.529080113555
 31
0.0
  0
LINE
  5
7AB0
  8
1
  6
CONTINUOUS
 10
388.48262999999992
 20
2059.5290801135552
 30
0.0
 11
388.48262999999992
 21
1971.529080113555
 31
0.0
  0
LINE
  5
7AB1
  8
1
  6
CONTINUOUS
 10
351.48262999999992
 20
1827.529080113555
 30
0.0
 11
351.48262999999992
 21
2051.5290801135552
 31
0.0
  0
LINE
  5
7AB2
  8
1
  6
CONTINUOUS
 10
499.48262999999992
 20
1827.529080113555
 30
0.0
 11
351.48262999999992
 21
1827.529080113555
 31
0.0
  0
LINE
  5
7AB3
  8
1
  6
CONTINUOUS
 10
401.48262999999997
 20
1827.529080113555
 30
0.0
 11
401.48262999999997
 21
1951.9290801135551
 31
0.0
  0
LINE
  5
7AB4
  8
1
  6
CONTINUOUS
 10
411.48262999999992
 20
1951.9290801135551
 30
0.0
 11
411.48262999999992
 21
1959.9290801135551
 31
0.0
  0
ARC
  5
7AB5
  8
1
  6
CONTINUOUS
 10
400.48262999999992
 20
1971.529080113555
 30
0.0
 40
12.0
 50
180.0
 51
270.0
  0
LINE
  5
7AB6
  8
1
  6
CONTINUOUS
 10
414.1826299999999
 20
1755.529080113555
 30
0.0
 11
414.1826299999999
 21
1830.529080113555
 31
0.0
  0
LINE
  5
7AB7
  8
1
  6
CONTINUOUS
 10
466.48262999999992
 20
1811.4290801135551
 30
0.0
 11
556.48262999999997
 21
1811.4290801135551
 31
0.0
  0
LINE
  5
7AB8
  8
1
  6
CONTINUOUS
 10
466.48262999999992
 20
1776.429080113556
 30
0.0
 11
556.48262999999997
 21
1776.429080113556
 31
0.0
  0
LINE
  5
7AB9
  8
1
  6
CONTINUOUS
 10
466.48262999999992
 20
1811.4290801135551
 30
0.0
 11
466.48262999999992
 21
1776.429080113556
 31
0.0
  0
LINE
  5
7ABA
  8
1
  6
CONTINUOUS
 10
556.48262999999997
 20
1811.4290801135551
 30
0.0
 11
556.48262999999997
 21
1776.429080113556
 31
0.0
  0
LINE
  5
7ABB
  8
1
  6
CONTINUOUS
 10
499.48262999999992
 20
1951.9290801135551
 30
0.0
 11
499.48262999999992
 21
1811.4290801135551
 31
0.0
  0
LINE
  5
7ABC
  8
1
  6
CONTINUOUS
 10
523.48262999999986
 20
1951.9290801135551
 30
0.0
 11
523.48262999999986
 21
1811.4290801135551
 31
0.0
  0
LINE
  5
7ABD
  8
1
  6
CONTINUOUS
 10
351.48262999999992
 20
2051.5290801135552
 30
0.0
 11
388.48262999999992
 21
2051.5290801135552
 31
0.0
  0
LINE
  5
7ABE
  8
1
  6
CONTINUOUS
 10
411.48262999999992
 20
2078.1290801135551
 30
0.0
 11
411.48262999999992
 21
2071.1290801135551
 31
0.0
  0
ARC
  5
7ABF
  8
1
  6
CONTINUOUS
 10
400.48262999999992
 20
2059.5290801135552
 30
0.0
 40
12.0
 50
90.0
 51
180.0
  0
LINE
  5
7AC0
  8
1
  6
CONTINUOUS
 10
874.48263000000009
 20
906.03783698127279
 30
0.0
 11
866.28263000000004
 21
928.83783698127286
 31
0.0
  0
LINE
  5
7AC1
  8
1
  6
CONTINUOUS
 10
719.48262999999986
 20
906.03783698127279
 30
0.0
 11
727.68263000000002
 21
928.83783698127286
 31
0.0
  0
LINE
  5
7AC2
  8
1
  6
CONTINUOUS
 10
621.48262999999986
 20
1105.1378369812719
 30
0.0
 11
621.48262999999986
 21
878.03783698127279
 31
0.0
  0
ARC
  5
7AC3
  8
1
  6
CONTINUOUS
 10
796.98262999999997
 20
978.03783698127279
 30
0.0
 40
85.0
 50
324.69999999999987
 51
215.30000000000001
  0
LINE
  5
7AC4
  8
1
  6
CONTINUOUS
 10
894.18263000000002
 20
1158.037836981272
 30
0.0
 11
894.18263000000002
 21
878.03783698127279
 31
0.0
  0
LINE
  5
7AC5
  8
1
  6
CONTINUOUS
 10
936.48262999999997
 20
898.03783698127268
 30
0.0
 11
685.48262999999997
 21
898.03783698127268
 31
0.0
  0
LINE
  5
7AC6
  8
1
  6
CONTINUOUS
 10
685.48262999999997
 20
898.03783698127268
 30
0.0
 11
685.48262999999997
 21
878.03783698127279
 31
0.0
  0
LINE
  5
7AC7
  8
1
  6
CONTINUOUS
 10
719.48262999999986
 20
898.03783698127268
 30
0.0
 11
719.48262999999986
 21
906.03783698127279
 31
0.0
  0
LINE
  5
7AC8
  8
1
  6
CONTINUOUS
 10
874.48263000000009
 20
898.03783698127268
 30
0.0
 11
874.48263000000009
 21
906.03783698127279
 31
0.0
  0
LINE
  5
7AC9
  8
1
  6
CONTINUOUS
 10
936.48262999999997
 20
898.03783698127268
 30
0.0
 11
936.48262999999997
 21
828.03783698127279
 31
0.0
  0
LINE
  5
7ACA
  8
1
  6
CONTINUOUS
 10
961.48262999999997
 20
806.03783698127279
 30
0.0
 11
961.48262999999997
 21
781.03783698127279
 31
0.0
  0
LINE
  5
7ACB
  8
2
  6
CENTER
 10
831.98262999999986
 20
978.03783698127279
 30
0.0
 11
761.98262999999986
 21
978.03783698127279
 31
0.0
  0
CIRCLE
  5
7ACC
  8
1
  6
CONTINUOUS
 10
796.98262999999997
 20
978.03783698127279
 30
0.0
 40
35.0
  0
LINE
  5
7ACD
  8
1
  6
CONTINUOUS
 10
672.48262999999997
 20
1193.037836981272
 30
0.0
 11
657.48262999999986
 21
1178.037836981272
 31
0.0
  0
LINE
  5
7ACE
  8
1
  6
CONTINUOUS
 10
671.48262999999986
 20
1178.037836981272
 30
0.0
 11
671.48262999999986
 21
1193.037836981272
 31
0.0
  0
LINE
  5
7ACF
  8
1
  6
CONTINUOUS
 10
682.48262999999986
 20
1178.037836981272
 30
0.0
 11
671.48262999999986
 21
1178.037836981272
 31
0.0
  0
LINE
  5
7AD0
  8
1
  6
CONTINUOUS
 10
682.48262999999986
 20
1178.037836981272
 30
0.0
 11
682.48262999999986
 21
1076.037836981272
 31
0.0
  0
LINE
  5
7AD1
  8
2
  6
CENTER
 10
796.98262999999997
 20
943.03783698127268
 30
0.0
 11
796.98262999999997
 21
1013.037836981272
 31
0.0
  0
LINE
  5
7AD2
  8
1
  6
CONTINUOUS
 10
961.48262999999997
 20
2051.5290801135552
 30
0.0
 11
961.48262999999997
 21
1827.529080113555
 31
0.0
  0
LINE
  5
7AD3
  8
1
  6
CONTINUOUS
 10
671.48262999999986
 20
1959.529080113555
 30
0.0
 11
671.48262999999986
 21
2071.5290801135552
 31
0.0
  0
LINE
  5
7AD4
  8
1
  6
CONTINUOUS
 10
711.98262999999986
 20
2032.029080113555
 30
0.0
 11
881.98262999999997
 21
2032.029080113555
 31
0.0
  0
LINE
  5
7AD5
  8
1
  6
CONTINUOUS
 10
761.98262999999986
 20
1776.429080113556
 30
0.0
 11
831.98262999999986
 21
1776.429080113556
 31
0.0
  0
LINE
  5
7AD6
  8
1
  6
CONTINUOUS
 10
761.98262999999986
 20
1811.4290801135551
 30
0.0
 11
831.98262999999986
 21
1811.4290801135551
 31
0.0
  0
LINE
  5
7AD7
  8
1
  6
CONTINUOUS
 10
711.98262999999986
 20
1841.2290801135559
 30
0.0
 11
881.98262999999997
 21
1841.2290801135559
 31
0.0
  0
LINE
  5
7AD8
  8
1
  6
CONTINUOUS
 10
621.48262999999986
 20
1951.9290801135551
 30
0.0
 11
621.48262999999986
 21
1827.529080113555
 31
0.0
  0
LINE
  5
7AD9
  8
1
  6
CONTINUOUS
 10
611.48262999999986
 20
1951.9290801135551
 30
0.0
 11
611.48262999999986
 21
1959.9290801135551
 31
0.0
  0
LINE
  5
7ADA
  8
1
  6
CONTINUOUS
 10
711.98262999999986
 20
1841.2290801135559
 30
0.0
 11
711.98262999999986
 21
2032.029080113555
 31
0.0
  0
LINE
  5
7ADB
  8
1
  6
CONTINUOUS
 10
761.98262999999986
 20
1811.4290801135551
 30
0.0
 11
761.98262999999986
 21
1776.429080113556
 31
0.0
  0
LINE
  5
7ADC
  8
1
  6
CONTINUOUS
 10
961.48262999999997
 20
1827.529080113555
 30
0.0
 11
806.48262999999997
 21
1827.529080113555
 31
0.0
  0
LINE
  5
7ADD
  8
1
  6
CONTINUOUS
 10
881.98262999999997
 20
1841.2290801135559
 30
0.0
 11
881.98262999999997
 21
2032.029080113555
 31
0.0
  0
LINE
  5
7ADE
  8
1
  6
CONTINUOUS
 10
831.98262999999986
 20
1811.4290801135551
 30
0.0
 11
831.98262999999986
 21
1776.429080113556
 31
0.0
  0
LINE
  5
7ADF
  8
1
  6
CONTINUOUS
 10
806.48262999999997
 20
1811.4290801135551
 30
0.0
 11
806.48262999999997
 21
1841.2290801135559
 31
0.0
  0
LINE
  5
7AE0
  8
1
  6
CONTINUOUS
 10
787.48262999999986
 20
1811.4290801135551
 30
0.0
 11
787.48262999999986
 21
1841.2290801135559
 31
0.0
  0
LINE
  5
7AE1
  8
1
  6
CONTINUOUS
 10
894.18263000000002
 20
1830.529080113555
 30
0.0
 11
894.18263000000002
 21
1755.529080113555
 31
0.0
  0
LINE
  5
7AE2
  8
1
  6
CONTINUOUS
 10
671.48262999999986
 20
2051.5290801135552
 30
0.0
 11
961.48262999999997
 21
2051.5290801135552
 31
0.0
  0
LINE
  5
7AE3
  8
1
  6
CONTINUOUS
 10
611.48262999999986
 20
2078.1290801135551
 30
0.0
 11
611.48262999999986
 21
2071.1290801135551
 31
0.0
  0
ARC
  5
7AE8
  8
1
  6
CONTINUOUS
 10
1705.4268937291599
 20
936.93783698127288
 30
0.0
 40
8.0
 50
270.0
 51
0.0
  0
ARC
  5
7AE9
  8
1
  6
CONTINUOUS
 10
1609.4268937291599
 20
936.93783698127288
 30
0.0
 40
8.0
 50
180.0
 51
270.0
  0
LINE
  5
7AEA
  8
1
  6
CONTINUOUS
 10
1593.8268937291591
 20
1163.0378369812729
 30
0.0
 11
1593.8268937291591
 21
878.03783698127279
 31
0.0
  0
LINE
  5
7AEB
  8
1
  6
CONTINUOUS
 10
1472.4268937291599
 20
878.03783698127279
 30
0.0
 11
1472.4268937291599
 21
1158.037836981272
 31
0.0
  0
LINE
  5
7AEC
  8
1
  6
CONTINUOUS
 10
1397.4268937291599
 20
878.03783698127279
 30
0.0
 11
1397.4268937291599
 21
1158.037836981272
 31
0.0
  0
LINE
  5
7AED
  8
1
  6
CONTINUOUS
 10
1494.4268937291599
 20
1029.737836981272
 30
0.0
 11
1494.4268937291599
 21
878.03783698127279
 31
0.0
  0
LINE
  5
7AEE
  8
1
  6
CONTINUOUS
 10
1469.4268937291599
 20
781.03783698127279
 30
0.0
 11
1693.4268937291599
 21
781.03783698127279
 31
0.0
  0
LINE
  5
7AEF
  8
1
  6
CONTINUOUS
 10
1469.4268937291599
 20
806.03783698127279
 30
0.0
 11
1693.4268937291599
 21
806.03783698127279
 31
0.0
  0
LINE
  5
7AF0
  8
1
  6
CONTINUOUS
 10
1469.4268937291599
 20
828.03783698127279
 30
0.0
 11
1693.4268937291599
 21
828.03783698127279
 31
0.0
  0
LINE
  5
7AF1
  8
1
  6
CONTINUOUS
 10
1397.4268937291599
 20
878.03783698127279
 30
0.0
 11
1693.4268937291599
 21
878.03783698127279
 31
0.0
  0
LINE
  5
7AF2
  8
1
  6
CONTINUOUS
 10
1469.4268937291599
 20
806.03783698127279
 30
0.0
 11
1469.4268937291599
 21
781.03783698127279
 31
0.0
  0
LINE
  5
7AF3
  8
1
  6
CONTINUOUS
 10
1469.4268937291599
 20
878.03783698127279
 30
0.0
 11
1469.4268937291599
 21
828.03783698127279
 31
0.0
  0
LINE
  5
7AF4
  8
1
  6
CONTINUOUS
 10
1693.4268937291599
 20
806.03783698127279
 30
0.0
 11
1693.4268937291599
 21
781.03783698127279
 31
0.0
  0
LINE
  5
7AF5
  8
1
  6
CONTINUOUS
 10
1693.4268937291599
 20
878.03783698127279
 30
0.0
 11
1693.4268937291599
 21
828.03783698127279
 31
0.0
  0
LINE
  5
7AF6
  8
1
  6
CONTINUOUS
 10
1600.4268937291599
 20
1193.037836981272
 30
0.0
 11
1615.4268937291599
 21
1178.037836981272
 31
0.0
  0
LINE
  5
7AF7
  8
1
  6
CONTINUOUS
 10
1580.4268937291599
 20
1193.037836981272
 30
0.0
 11
1734.4268937291599
 21
1193.037836981272
 31
0.0
  0
LINE
  5
7AF8
  8
1
  6
CONTINUOUS
 10
1609.4268937291599
 20
928.93783698127288
 30
0.0
 11
1705.4268937291599
 21
928.93783698127288
 31
0.0
  0
LINE
  5
7AF9
  8
1
  6
CONTINUOUS
 10
1522.5268937291601
 20
1051.037836981272
 30
0.0
 11
1452.4268937291599
 21
1051.037836981272
 31
0.0
  0
LINE
  5
7AFA
  8
1
  6
CONTINUOUS
 10
1554.12689372916
 20
1075.037836981272
 30
0.0
 11
1452.4268937291599
 21
1075.037836981272
 31
0.0
  0
LINE
  5
7AFB
  8
1
  6
CONTINUOUS
 10
1593.8268937291591
 20
1105.1378369812719
 30
0.0
 11
1494.4268937291599
 21
1029.737836981272
 31
0.0
  0
LINE
  5
7AFC
  8
1
  6
CONTINUOUS
 10
1452.4268937291599
 20
1018.037836981272
 30
0.0
 11
1452.4268937291599
 21
1108.037836981272
 31
0.0
  0
LINE
  5
7AFD
  8
1
  6
CONTINUOUS
 10
1417.4268937291599
 20
1018.037836981272
 30
0.0
 11
1417.4268937291599
 21
1108.037836981272
 31
0.0
  0
LINE
  5
7AFE
  8
1
  6
CONTINUOUS
 10
1452.4268937291599
 20
1018.037836981272
 30
0.0
 11
1417.4268937291599
 21
1018.037836981272
 31
0.0
  0
LINE
  5
7AFF
  8
1
  6
CONTINUOUS
 10
1452.4268937291599
 20
1108.037836981272
 30
0.0
 11
1417.4268937291599
 21
1108.037836981272
 31
0.0
  0
LINE
  5
7B00
  8
1
  6
CONTINUOUS
 10
1452.4268937291599
 20
1013.037836981272
 30
0.0
 11
1417.4268937291599
 21
1013.037836981272
 31
0.0
  0
LINE
  5
7B01
  8
1
  6
CONTINUOUS
 10
1472.4268937291599
 20
1158.037836981272
 30
0.0
 11
1397.4268937291599
 21
1158.037836981272
 31
0.0
  0
LINE
  5
7B02
  8
1
  6
CONTINUOUS
 10
1452.4268937291599
 20
943.03783698127268
 30
0.0
 11
1417.4268937291599
 21
943.03783698127268
 31
0.0
  0
LINE
  5
7B03
  8
1
  6
CONTINUOUS
 10
1452.4268937291599
 20
987.53783698127268
 30
0.0
 11
1494.4268937291599
 21
987.53783698127268
 31
0.0
  0
LINE
  5
7B04
  8
1
  6
CONTINUOUS
 10
1452.4268937291599
 20
968.53783698127279
 30
0.0
 11
1494.4268937291599
 21
968.53783698127279
 31
0.0
  0
LINE
  5
7B05
  8
1
  6
CONTINUOUS
 10
1417.4268937291599
 20
943.03783698127268
 30
0.0
 11
1417.4268937291599
 21
1013.037836981272
 31
0.0
  0
LINE
  5
7B06
  8
1
  6
CONTINUOUS
 10
1452.4268937291599
 20
943.03783698127268
 30
0.0
 11
1452.4268937291599
 21
1013.037836981272
 31
0.0
  0
LINE
  5
7B07
  8
1
  6
CONTINUOUS
 10
1593.8268937291591
 20
1163.0378369812729
 30
0.0
 11
1601.4268937291599
 21
1163.0378369812729
 31
0.0
  0
LINE
  5
7B08
  8
1
  6
CONTINUOUS
 10
1593.8268937291591
 20
963.03783698127279
 30
0.0
 11
1601.4268937291599
 21
963.03783698127279
 31
0.0
  0
LINE
  5
7B09
  8
1
  6
CONTINUOUS
 10
1601.4268937291599
 20
936.93783698127288
 30
0.0
 11
1601.4268937291599
 21
1193.037836981272
 31
0.0
  0
LINE
  5
7B0A
  8
1
  6
CONTINUOUS
 10
1721.4268937291599
 20
1163.0378369812729
 30
0.0
 11
1713.4268937291599
 21
1163.0378369812729
 31
0.0
  0
LINE
  5
7B0B
  8
1
  6
CONTINUOUS
 10
1721.4268937291599
 20
963.03783698127279
 30
0.0
 11
1713.4268937291599
 21
963.03783698127279
 31
0.0
  0
LINE
  5
7B0C
  8
1
  6
CONTINUOUS
 10
1715.0268937291589
 20
1193.037836981272
 30
0.0
 11
1699.4268937291599
 21
1178.037836981272
 31
0.0
  0
LINE
  5
7B0D
  8
1
  6
CONTINUOUS
 10
1657.4268937291599
 20
1178.037836981272
 30
0.0
 11
1615.4268937291599
 21
1178.037836981272
 31
0.0
  0
LINE
  5
7B0E
  8
1
  6
CONTINUOUS
 10
1657.4268937291599
 20
1178.037836981272
 30
0.0
 11
1699.4268937291599
 21
1178.037836981272
 31
0.0
  0
LINE
  5
7B0F
  8
1
  6
CONTINUOUS
 10
1713.4268937291599
 20
936.93783698127288
 30
0.0
 11
1713.4268937291599
 21
1193.037836981272
 31
0.0
  0
LINE
  5
7B11
  8
2
  6
CENTER
 10
511.48262999999992
 20
1697.1915381135559
 30
0.0
 11
511.48262999999992
 21
2160.0398551135549
 31
0.0
  0
DIMENSION
  5
7B33
  8
3
  6
CONTINUOUS
  2
*D1
 10
511.48262999999992
 20
694.70621898127274
 30
0.0
 11
432.90226999999999
 21
694.70621898127274
 31
0.0
 70
   128
 13
351.48262999999992
 23
781.03783698127279
 33
0.0
 14
511.48262999999992
 24
775.33960798127282
 34
0.0
1001
ACAD
1000
DSTYLE
1002
{
1070
   287
1070
     3
1070
   287
1070
     3
1070
    40
1040
10.0
1070
   143
1040
0.039
1070
   172
1070
     1
1070
   271
1070
     0
1070
   279
1070
     0
1070
   288
1070
     1
1002
}
  0
DIMENSION
  5
7B3F
  8
3
  6
CONTINUOUS
  2
*D2
 10
961.48262999999997
 20
694.70621898127274
 30
0.0
 11
736.48262999999986
 21
719.70621898127274
 31
0.0
 70
     0
 13
511.48262999999992
 23
775.33960798127282
 33
0.0
 14
961.48262999999997
 24
781.03783698127279
 34
0.0
1001
ACAD
1000
DSTYLE
1002
{
1070
   287
1070
     4
1070
   287
1070
     4
1070
    40
1040
10.0
1070
    75
1070
     1
1070
   143
1040
0.039
1070
   172
1070
     1
1070
   271
1070
     0
1070
   279
1070
     1
1070
   288
1070
     1
1002
}
  0
DIMENSION
  5
7B68
  8
3
  6
CONTINUOUS
  2
*D3
 10
511.48262999999992
 20
1241.998046981272
 30
0.0
 11
605.76834399999996
 21
1241.998046981272
 31
0.0
 70
   128
 13
671.48262999999986
 23
1193.037836981272
 33
0.0
 14
511.48262999999992
 24
1193.037836981272
 34
0.0
1001
ACAD
1000
DSTYLE
1002
{
1070
   287
1070
     3
1070
   287
1070
     3
1070
    40
1040
10.0
1070
   143
1040
0.039
1070
   172
1070
     1
1070
   271
1070
     0
1070
   279
1070
     0
1070
   288
1070
     1
1002
}
  0
DIMENSION
  5
7B9E
  8
3
  6
CONTINUOUS
  2
*D4
 10
961.48262999999997
 20
1653.112504113556
 30
0.0
 11
637.03837899999985
 21
1653.112504113556
 31
0.0
 70
   128
 13
351.48262999999992
 23
1827.529080113555
 33
0.0
 14
961.48262999999997
 24
1827.529080113555
 34
0.0
1001
ACAD
1000
DSTYLE
1002
{
1070
   287
1070
     3
1070
   287
1070
     3
1070
    40
1040
10.0
1070
   143
1040
0.039
1070
   172
1070
     1
1070
   271
1070
     0
1070
   279
1070
     0
1070
   288
1070
     1
1002
}
  0
DIMENSION
  5
7BAB
  8
3
  6
CONTINUOUS
  2
*D5
 10
1057.834601
 20
1827.529080113555
 30
0.0
 11
1057.834601
 21
1946.703160113555
 31
0.0
 70
   128
 13
961.48262999999997
 23
2051.5290801135552
 33
0.0
 14
961.48262999999997
 24
1827.529080113555
 34
0.0
 50
90.0
1001
ACAD
1000
DSTYLE
1002
{
1070
   287
1070
     3
1070
   287
1070
     3
1070
    40
1040
10.0
1070
   143
1040
0.039
1070
   172
1070
     1
1070
   271
1070
     0
1070
   279
1070
     0
1070
   288
1070
     1
1002
}
  0
LINE
  5
7BAC
  8
2
  6
CENTER
 10
993.20932600000003
 20
1939.529080113555
 30
0.0
 11
296.39381500000002
 21
1939.529080113555
 31
0.0
  0
LINE
  5
7BAD
  8
2
  6
CENTER
 10
1657.4268937291599
 20
771.31805598127278
 30
0.0
 11
1657.4268937291599
 21
1200.0271409812731
 31
0.0
  0
DIMENSION
  5
7BBC
  8
3
  6
CONTINUOUS
  2
*D6
 10
1713.4268937291599
 20
1215.040301981272
 30
0.0
 11
1657.4268937291599
 21
1236.9857984514831
 31
0.0
 70
   128
 13
1601.4268937291599
 23
1193.037836981272
 33
0.0
 14
1713.4268937291599
 24
1191.499374981272
 34
0.0
1001
ACAD
1000
DSTYLE
1002
{
1070
   288
1070
     1
1070
   172
1070
     1
1070
    40
1040
10.0
1070
   271
1070
     0
1070
   143
1040
0.039
1002
}
  0
DIMENSION
  5
7BF4
  8
3
  6
CONTINUOUS
  2
*D7
 10
1657.4268937291599
 20
709.59729098127275
 30
0.0
 11
1562.8842897291599
 21
709.59729098127275
 31
0.0
 70
   128
 13
1469.4268937291599
 23
781.03783698127279
 33
0.0
 14
1657.4268937291599
 24
771.31805598127278
 34
0.0
1001
ACAD
1000
DSTYLE
1002
{
1070
   287
1070
     3
1070
   287
1070
     3
1070
    40
1040
10.0
1070
   143
1040
0.039
1070
   172
1070
     1
1070
   271
1070
     0
1070
   279
1070
     0
1070
   288
1070
     1
1002
}
  0
DIMENSION
  5
7C04
  8
3
  6
CONTINUOUS
  2
*D8
 10
1693.4268937291599
 20
709.59729098127275
 30
0.0
 11
1737.21850072916
 21
706.28218098127275
 31
0.0
 70
   128
 13
1657.4268937291599
 23
771.31805598127278
 33
0.0
 14
1693.4268937291599
 24
781.03783698127279
 34
0.0
1001
ACAD
1000
DSTYLE
1002
{
1070
   287
1070
     4
1070
   287
1070
     4
1070
    40
1040
10.0
1070
    75
1070
     1
1070
   143
1040
0.039
1070
   172
1070
     1
1070
   271
1070
     0
1070
   279
1070
     1
1070
   280
1070
     2
1070
   288
1070
     1
1002
}
  0
LINE
  5
7C12
  8
2
  6
CENTER
 10
999.37793099999999
 20
1063.037836981272
 30
0.0
 11
359.5325069999999
 21
1063.037836981272
 31
0.0
  0
LINE
  5
7C20
  8
4
  6
CONTINUOUS
 10
1850.0
 20
500.0
 30
0.0
 11
1850.0
 21
300.0
 31
0.0
  0
LINE
  5
7C21
  8
4
  6
CONTINUOUS
 10
1150.0
 20
500.0
 30
0.0
 11
1150.0
 21
300.0
 31
0.0
  0
LINE
  5
7C22
  8
4
  6
CONTINUOUS
 10
650.0
 20
500.0
 30
0.0
 11
650.0
 21
300.0
 31
0.0
  0
LINE
  5
7C25
  8
4
  6
CONTINUOUS
 10
650.0
 20
300.0
 30
0.0
 11
1850.0
 21
300.0
 31
0.0
  0
LINE
  5
7C26
  8
4
  6
CONTINUOUS
 10
650.0
 20
400.0
 30
0.0
 11
1850.0
 21
400.0
 31
0.0
  0
TEXT
  5
7C27
  8
4
  6
CONTINUOUS
 10
688.50208099999998
 20
431.543026
 30
0.0
 40
50.0
  1
機器名称
  0
TEXT
  5
7C28
  8
4
  6
CONTINUOUS
 10
686.258106
 20
321.64515699999993
 30
0.0
 40
50.0
  1
機器型番
  0
TEXT
  5
7C29
  8
4
  6
CONTINUOUS
 10
1177.678744999999
 20
422.57176900000002
 30
0.0
 40
45.0
  1
ミツヤニューマルチファン
  0
TEXT
  5
7C2A
  8
4
  6
CONTINUOUS
 10
1186.6544960000001
 20
317.159584
 30
0.0
 40
50.0
  1
NM#1-1
  0
TEXT
  5
7C2C
  8
4
  6
CONTINUOUS
 10
796.30308400000001
 20
2383.4288409999999
 30
0.0
 40
54.0
  1
床置防振ベット
  0
TEXT
  5
7C2D
  8
4
  6
CONTINUOUS
 10
316.16759300000001
 20
2533.8809759999999
 30
0.0
 40
72.0
  1
ベルト駆動式片吸込片持多翼ファン
  0
LINE
  5
7C2E
  8
4
  6
CONTINUOUS
 10
250.0
 20
2469.408754
 30
0.0
 11
1850.0
 21
2469.408754
 31
0.0
  0
LINE
  5
7C2F
  8
4
  6
CONTINUOUS
 10
250.0
 20
2669.408754
 30
0.0
 11
1850.0
 21
2669.408754
 31
0.0
  0
LINE
  5
7C30
  8
4
  6
CONTINUOUS
 10
650.0
 20
500.0
 30
0.0
 11
1850.0
 21
500.0
 31
0.0
  0
LINE
  5
7C31
  8
4
  6
CONTINUOUS
 10
250.0
 20
2669.408754
 30
0.0
 11
250.0
 21
2469.408754
 31
0.0
  0
TEXT
  5
7C32
  8
4
  6
CONTINUOUS
 10
360.44425200000001
 20
2382.3194779999999
 30
0.0
 40
54.0
  1
左回転上向
  0
TEXT
  5
7C33
  8
4
  6
CONTINUOUS
 10
1468.9695589999999
 20
2706.0610809999998
 30
0.0
 40
56.0
  1
No.
  0
TEXT
  5
7C34
  8
4
  6
CONTINUOUS
 10
1311.296063
 20
2383.4288409999999
 30
0.0
 40
54.0
  1
縮尺：1/10
  0
LINE
  5
7C35
  8
4
  6
CONTINUOUS
 10
1850.0
 20
2669.408754
 30
0.0
 11
1850.0
 21
2469.408754
 31
0.0
  0
LINE
  5
7C37
  8
4
  6
CONTINUOUS
 10
1440.617422
 20
2681.2635829999999
 30
0.0
 11
1440.617422
 21
2786.6522620000001
 31
0.0
  0
LINE
  5
7C38
  8
4
  6
CONTINUOUS
 10
1440.617422
 20
2786.6522620000001
 30
0.0
 11
1850.0
 21
2786.6522620000001
 31
0.0
  0
LINE
  5
7C39
  8
4
  6
CONTINUOUS
 10
1850.0
 20
2786.6522620000001
 30
0.0
 11
1850.0
 21
2681.2635829999999
 31
0.0
  0
LINE
  5
7C3A
  8
4
  6
CONTINUOUS
 10
1850.0
 20
2681.2635829999999
 30
0.0
 11
1440.617422
 21
2681.2635829999999
 31
0.0
  0
DIMENSION
  5
7CA1
  8
3
  6
CONTINUOUS
  2
*D9
 10
1657.4268937291599
 20
1273.0711789812719
 30
0.0
 11
1530.62104172916
 21
1273.0711789812719
 31
0.0
 70
   128
  1
MAX\P260
 13
1397.4268937291599
 23
1158.037836981272
 33
0.0
 14
1657.4268937291599
 24
1258.055165981272
 34
0.0
1001
ACAD
1000
DSTYLE
1002
{
1070
   287
1070
     3
1070
   287
1070
     3
1070
    40
1040
10.0
1070
   143
1040
0.039
1070
   172
1070
     1
1070
   271
1070
     0
1070
   279
1070
     0
1070
   288
1070
     1
1002
}
  0
DIMENSION
  5
7CAF
  8
3
  6
CONTINUOUS
  2
*D10
 10
1721.4268937291599
 20
1273.0711789812719
 30
0.0
 11
1688.4973477291601
 21
1271.319640981272
 31
0.0
 70
   128
 13
1657.4268937291599
 23
1258.055165981272
 33
0.0
 14
1721.4268937291599
 24
1163.0378369812729
 34
0.0
1001
ACAD
1000
DSTYLE
1002
{
1070
   287
1070
     4
1070
   287
1070
     4
1070
    40
1040
10.0
1070
    75
1070
     1
1070
   143
1040
0.039
1070
   172
1070
     1
1070
   271
1070
     0
1070
   279
1070
     1
1070
   288
1070
     1
1002
}
  0
LINE
  5
7D39
  8
3
  6
CONTINUOUS
 10
1721.4268937291599
 20
1143.0378369812729
 30
0.0
 11
1774.6952897291601
 21
1143.0378369812729
 31
0.0
  0
LINE
  5
7D3B
  8
3
  6
CONTINUOUS
 10
1721.4268937291599
 20
983.03783698127268
 30
0.0
 11
1753.2799847291601
 21
983.03783698127268
 31
0.0
  0
DIMENSION
  5
7D48
  8
3
  6
CONTINUOUS
  2
*D11
 10
1803.6059477291601
 20
983.03783698127268
 30
0.0
 11
1780.945293178487
 21
1063.037836981272
 31
0.0
 70
   128
 13
1721.4268937291599
 23
1143.0378369812729
 33
0.0
 14
1721.4268937291599
 24
983.03783698127268
 34
0.0
 50
90.0
1001
ACAD
1000
DSTYLE
1002
{
1070
   288
1070
     1
1070
   172
1070
     1
1070
    40
1040
10.0
1070
     3
1000
φ<>
1070
   271
1070
     0
1070
   143
1040
0.039
1002
}
  0
LINE
  5
7D4A
  8
1
  6
CONTINUOUS
 10
1721.4268937291599
 20
1163.0378369812729
 30
0.0
 11
1721.4268937291599
 21
963.03783698127279
 31
0.0
  0
DIMENSION
  5
7DC4
  8
3
  6
CONTINUOUS
  2
*D12
 10
1138.0108959827189
 20
1193.037836981272
 30
0.0
 11
1138.010895982718
 21
984.07098098127267
 31
0.0
 70
   128
 13
961.48262999999997
 23
781.03783698127279
 33
0.0
 14
693.48262999999997
 24
1193.037836981272
 34
0.0
 50
90.0
1001
ACAD
1000
DSTYLE
1002
{
1070
   287
1070
     3
1070
   287
1070
     3
1070
    40
1040
10.0
1070
   143
1040
0.039
1070
   172
1070
     1
1070
   271
1070
     0
1070
   279
1070
     0
1070
   288
1070
     1
1002
}
  0
DIMENSION
  5
7E4A
  8
3
  6
CONTINUOUS
  2
*D13
 10
1056.755957982718
 20
828.03783698127279
 30
0.0
 11
1031.755957982718
 21
945.53783698127313
 31
0.0
 70
     0
 13
953.00914023616497
 23
1063.037836981272
 33
0.0
 14
936.48262999999997
 24
828.03783698127279
 34
0.0
 50
90.0
1001
ACAD
1000
DSTYLE
1002
{
1070
   287
1070
     3
1070
   287
1070
     3
1070
    40
1040
10.0
1070
   143
1040
0.039
1070
   172
1070
     1
1070
   271
1070
     0
1070
   279
1070
     0
1070
   288
1070
     1
1002
}
  0
DIMENSION
  5
7E5A
  8
3
  6
CONTINUOUS
  2
*D14
 10
1056.7022069827181
 20
781.03783698127279
 30
0.0
 11
1056.7022069827181
 21
706.75212269555857
 31
0.0
 70
   128
 13
936.48262999999997
 23
828.03783698127279
 33
0.0
 14
961.48262999999997
 24
781.03783698127279
 34
0.0
 50
90.0
1001
ACAD
1000
DSTYLE
1002
{
1070
   287
1070
     3
1070
   287
1070
     3
1070
    40
1040
10.0
1070
   143
1040
0.039
1070
   172
1070
     1
1070
   271
1070
     0
1070
   279
1070
     0
1070
   288
1070
     1
1002
}
  0
DIMENSION
  5
7E7A
  8
3
  6
CONTINUOUS
  2
*D15
 10
511.48262999999992
 20
1305.940905981272
 30
0.0
 11
450.16054000000003
 21
1332.508600759106
 31
0.0
 70
   128
 13
388.83844900000003
 23
1063.037836981272
 33
0.0
 14
511.48262999999992
 24
1193.037836981272
 34
0.0
1001
ACAD
1000
DSTYLE
1002
{
1070
   288
1070
     1
1070
   172
1070
     1
1070
    40
1040
10.0
1070
   271
1070
     0
1070
   143
1040
0.039
1002
}
  0
DIMENSION
  5
7E86
  8
3
  6
CONTINUOUS
  2
*D16
 10
682.48262999999986
 20
1305.940905981272
 30
0.0
 11
596.98262999999997
 21
1330.9409059812731
 31
0.0
 70
     0
 13
511.48262999999992
 23
1193.037836981272
 33
0.0
 14
682.48262999999986
 24
1178.037836981272
 34
0.0
1001
ACAD
1000
DSTYLE
1002
{
1070
   287
1070
     4
1070
   287
1070
     4
1070
    40
1040
10.0
1070
    75
1070
     1
1070
   143
1040
0.039
1070
   172
1070
     1
1070
   271
1070
     0
1070
   279
1070
     1
1070
   288
1070
     1
1002
}
  0
DIMENSION
  5
7F23
  8
3
  2
*D17
 10
961.48262999999997
 20
1370.8810511960851
 30
0.0
 11
676.35867104453416
 21
1370.8810511960851
 31
0.0
 70
   128
 13
388.83844900000003
 23
1315.9409059812731
 33
0.0
 14
961.48262999999997
 24
806.03783698127279
 34
0.0
1001
ACAD
1000
DSTYLE
1002
{
1070
   287
1070
     3
1070
   287
1070
     3
1070
    40
1040
10.0
1070
   143
1040
0.039
1070
   172
1070
     1
1070
   271
1070
     0
1070
   279
1070
     0
1070
   288
1070
     1
1002
}
  0
DIMENSION
  5
7F83
  8
3
  2
*D18
 10
1056.755957982718
 20
1193.037836981272
 30
0.0
 11
1030.2047996479571
 21
1128.037836981272
 31
0.0
 70
   128
 13
953.00914023616497
 23
1063.037836981272
 33
0.0
 14
698.48262999999986
 24
1193.037836981272
 34
0.0
 50
90.0
1001
ACAD
1000
DSTYLE
1002
{
1070
   288
1070
     1
1070
   172
1070
     1
1070
    75
1070
     1
1070
    40
1040
10.0
1070
   271
1070
     0
1070
   143
1040
0.039
1002
}
  0
ENDSEC
  0
EOF
