  0
SECTION
  2
HEADER
  9
$ACADVER
  1
AC1009
  9
$INSBASE
 10
0.0
 20
0.0
 30
0.0
  9
$EXTMIN
 10
250.0
 20
300.0
 30
0.0
  9
$EXTMAX
 10
1850.0
 20
2786.6522620000001
 30
0.0
  9
$LIMMIN
 10
0.0
 20
0.0
  9
$LIMMAX
 10
297.0
 20
210.0
  9
$ORTHOMODE
 70
     0
  9
$REGENMODE
 70
     1
  9
$FILLMODE
 70
     0
  9
$QTEXTMODE
 70
     0
  9
$MIRRTEXT
 70
     1
  9
$DRAGMODE
 70
     2
  9
$LTSCALE
 40
100.0
  9
$OSMODE
 70
    37
  9
$ATTMODE
 70
     1
  9
$TEXTSIZE
 40
180.0
  9
$TRACEWID
 40
0.05
  9
$TEXTSTYLE
  7
STANDARD
  9
$CLAYER
  8
3
  9
$CELTYPE
  6
BYLAYER
  9
$CECOLOR
 62
   256
  9
$DIMSCALE
 40
10.0
  9
$DIMASZ
 40
2.0
  9
$DIMEXO
 40
0.5
  9
$DIMDLI
 40
10.0
  9
$DIMRND
 40
0.0
  9
$DIMDLE
 40
0.0
  9
$DIMEXE
 40
1.0
  9
$DIMTP
 40
1.0
  9
$DIMTM
 40
1.0
  9
$DIMTXT
 40
3.0
  9
$DIMCEN
 40
0.0
  9
$DIMTSZ
 40
0.0
  9
$DIMTOL
 70
     0
  9
$DIMLIM
 70
     0
  9
$DIMTIH
 70
     0
  9
$DIMTOH
 70
     0
  9
$DIMSE1
 70
     0
  9
$DIMSE2
 70
     0
  9
$DIMTAD
 70
     1
  9
$DIMZIN
 70
     8
  9
$DIMBLK
  1

  9
$DIMASO
 70
     1
  9
$DIMSHO
 70
     1
  9
$DIMPOST
  1

  9
$DIMAPOST
  1

  9
$DIMALT
 70
     0
  9
$DIMALTD
 70
     2
  9
$DIMALTF
 40
0.039
  9
$DIMLFAC
 40
1.0
  9
$DIMTOFL
 70
     1
  9
$DIMTVP
 40
0.0
  9
$DIMTIX
 70
     0
  9
$DIMSOXD
 70
     0
  9
$DIMSAH
 70
     1
  9
$DIMBLK1
  1
OPEN
  9
$DIMBLK2
  1
OPEN
  9
$DIMSTYLE
  2
IGA
  9
$DIMCLRD
 70
     0
  9
$DIMCLRE
 70
     0
  9
$DIMCLRT
 70
     0
  9
$DIMTFAC
 40
10.0
  9
$DIMGAP
 40
1.0
  9
$LUNITS
 70
     2
  9
$LUPREC
 70
     3
  9
$SKETCHINC
 40
0.1
  9
$FILLETRAD
 40
50.0
  9
$AUNITS
 70
     0
  9
$AUPREC
 70
     0
  9
$MENU
  1
acad
  9
$ELEVATION
 40
0.0
  9
$PELEVATION
 40
0.0
  9
$THICKNESS
 40
0.0
  9
$LIMCHECK
 70
     0
  9
$BLIPMODE
 70
     0
  9
$CHAMFERA
 40
0.5
  9
$CHAMFERB
 40
0.5
  9
$SKPOLY
 70
     0
  9
$TDCREATE
 40
2450773.4543850692
  9
$TDUPDATE
 40
2454953.8596492009
  9
$TDINDWG
 40
0.003975463
  9
$TDUSRTIMER
 40
0.003975463
  9
$USRTIMER
 70
     1
  9
$ANGBASE
 50
0.0
  9
$ANGDIR
 70
     0
  9
$PDMODE
 70
     0
  9
$PDSIZE
 40
0.0
  9
$PLINEWID
 40
0.0
  9
$COORDS
 70
     1
  9
$SPLFRAME
 70
     0
  9
$SPLINETYPE
 70
     6
  9
$SPLINESEGS
 70
     8
  9
$ATTDIA
 70
     0
  9
$ATTREQ
 70
     1
  9
$HANDLING
 70
 10241
  9
$HANDSEED
  5
7F42
  9
$SURFTAB1
 70
     6
  9
$SURFTAB2
 70
     6
  9
$SURFTYPE
 70
     6
  9
$SURFU
 70
     6
  9
$SURFV
 70
     6
  9
$UCSNAME
  2

  9
$UCSORG
 10
0.0
 20
0.0
 30
0.0
  9
$UCSXDIR
 10
1.0
 20
0.0
 30
0.0
  9
$UCSYDIR
 10
0.0
 20
1.0
 30
0.0
  9
$PUCSNAME
  2

  9
$PUCSORG
 10
0.0
 20
0.0
 30
0.0
  9
$PUCSXDIR
 10
1.0
 20
0.0
 30
0.0
  9
$PUCSYDIR
 10
0.0
 20
1.0
 30
0.0
  9
$USERI1
 70
     0
  9
$USERI2
 70
     0
  9
$USERI3
 70
     0
  9
$USERI4
 70
     0
  9
$USERI5
 70
     0
  9
$USERR1
 40
0.0
  9
$USERR2
 40
0.0
  9
$USERR3
 40
0.0
  9
$USERR4
 40
0.0
  9
$USERR5
 40
0.0
  9
$WORLDVIEW
 70
     1
  9
$SHADEDGE
 70
     3
  9
$SHADEDIF
 70
    70
  9
$TILEMODE
 70
     1
  9
$MAXACTVP
 70
    16
  9
$PLIMCHECK
 70
     0
  9
$PEXTMIN
 10
1.0000000000000000E+020
 20
1.0000000000000000E+020
 30
1.0000000000000000E+020
  9
$PEXTMAX
 10
-1.0000000000000000E+020
 20
-1.0000000000000000E+020
 30
-1.0000000000000000E+020
  9
$PLIMMIN
 10
0.0
 20
0.0
  9
$PLIMMAX
 10
12.0
 20
9.0
  9
$UNITMODE
 70
     0
  9
$VISRETAIN
 70
     0
  9
$PLINEGEN
 70
     0
  9
$PSLTSCALE
 70
     1
  0
ENDSEC
  0
SECTION
  2
TABLES
  0
TABLE
  2
VPORT
 70
     2
  0
VPORT
  2
*ACTIVE
 70
     0
 10
0.0
 20
0.0
 11
1.0
 21
1.0
 12
2736.8376755307381
 22
1950.6873092313581
 13
0.0
 23
0.0
 14
10.0
 24
10.0
 15
10.0
 25
10.0
 16
0.0
 26
0.0
 36
1.0
 17
0.0
 27
0.0
 37
0.0
 40
3552.2128564519348
 41
1.5051150895140659
 42
50.0
 43
0.0
 44
0.0
 50
0.0
 51
0.0
 71
     0
 72
   100
 73
     1
 74
     0
 75
     0
 76
     0
 77
     0
 78
     0
  0
ENDTAB
  0
TABLE
  2
LTYPE
 70
     2
  0
LTYPE
  2
CONTINUOUS
 70
     0
  3
Solid line
 72
    65
 73
     0
 40
0.0
  0
LTYPE
  2
CENTER
 70
     0
  3
____ _ ____ _ ____ _ ____ _ ____ _ ____ _ ____ 
 72
    65
 73
     4
 40
2.0
 49
1.25
 49
-0.25
 49
0.25
 49
-0.25
  0
ENDTAB
  0
TABLE
  2
LAYER
 70
     6
  0
LAYER
  2
0
 70
     0
 62
     7
  6
CONTINUOUS
  0
LAYER
  2
3
 70
     0
 62
     2
  6
CONTINUOUS
  0
LAYER
  2
2
 70
     0
 62
     3
  6
CENTER
  0
LAYER
  2
1
 70
     0
 62
     4
  6
CONTINUOUS
  0
LAYER
  2
4
 70
     0
 62
     7
  6
CONTINUOUS
  0
LAYER
  2
DEFPOINTS
 70
     0
 62
     7
  6
CONTINUOUS
  0
ENDTAB
  0
TABLE
  2
STYLE
 70
     1
  0
STYLE
  2
STANDARD
 70
     0
 40
0.0
 41
1.0
 50
0.0
 71
     0
 42
180.0
  3
simplex.shx
  4
extfont.shx
  0
ENDTAB
  0
TABLE
  2
VIEW
 70
     0
  0
ENDTAB
  0
TABLE
  2
UCS
 70
     0
  0
ENDTAB
  0
TABLE
  2
APPID
 70
     1
  0
APPID
  2
ACAD
 70
     0
  0
ENDTAB
  0
TABLE
  2
DIMSTYLE
 70
     1
  0
DIMSTYLE
  2
IGA
 70
     0
  3

  4

  5

  6
OPEN
  7
OPEN
 40
2.0
 41
2.0
 42
0.5
 43
10.0
 44
1.0
 45
0.0
 46
0.0
 47
1.0
 48
1.0
140
3.0
141
0.0
142
0.0
143
0.03937
144
1.0
145
0.0
146
10.0
147
1.0
 71
     0
 72
     0
 73
     0
 74
     0
 75
     0
 76
     0
 77
     1
 78
     8
170
     0
171
     2
172
     0
173
     1
174
     0
175
     0
176
     0
177
     0
178
     0
  0
ENDTAB
  0
ENDSEC
  0
SECTION
  2
BLOCKS
  0
BLOCK
  8
0
  2
$MODEL_SPACE
 70
     0
 10
0.0
 20
0.0
 30
0.0
  3
$MODEL_SPACE
  1

  0
ENDBLK
  5
1B
  8
0
  0
BLOCK
 67
     1
  8
0
  2
$PAPER_SPACE
 70
     0
 10
0.0
 20
0.0
 30
0.0
  3
$PAPER_SPACE
  1

  0
ENDBLK
  5
18
 67
     1
  8
0
  0
BLOCK
  8
0
  2
_OPEN
 70
     0
 10
0.0
 20
0.0
 30
0.0
  3
_OPEN
  1

  0
LINE
  5
7BF0
  8
0
  6
BYBLOCK
 62
     0
 10
-1.0
 20
0.166667
 30
0.0
 11
0.0
 21
0.0
 31
0.0
  0
LINE
  5
7BF1
  8
0
  6
BYBLOCK
 62
     0
 10
0.0
 20
0.0
 30
0.0
 11
-1.0
 21
-0.166667
 31
0.0
  0
LINE
  5
7BF2
  8
0
  6
BYBLOCK
 62
     0
 10
0.0
 20
0.0
 30
0.0
 11
-1.0
 21
0.0
 31
0.0
  0
ENDBLK
  5
7BF3
  8
0
  0
BLOCK
  8
0
  2
*D1
 70
     1
 10
0.0
 20
0.0
 30
0.0
  3
*D1
  1

  0
LINE
  5
7EAC
  8
3
  6
CONTINUOUS
 62
     0
 10
542.63250384719413
 20
1206.941033814134
 30
0.0
 11
487.15873284719441
 21
1206.941033814134
 31
0.0
  0
LINE
  5
7EAD
  8
3
  6
CONTINUOUS
 62
     0
 10
510.03059384719421
 20
1046.941033814134
 30
0.0
 11
487.1587328471943
 21
1046.941033814134
 31
0.0
  0
LINE
  5
7EAE
  8
3
  6
CONTINUOUS
 62
     0
 10
497.15873284719441
 20
1186.941033814134
 30
0.0
 11
497.1587328471943
 21
1066.941033814134
 31
0.0
  0
INSERT
  5
7EAF
  8
3
  6
CONTINUOUS
 62
     0
  2
_OPEN
 10
497.15873284719441
 20
1206.941033814134
 30
0.0
 41
20.0
 42
20.0
 43
20.0
 50
90.0
  0
INSERT
  5
7EB0
  8
3
  6
CONTINUOUS
 62
     0
  2
_OPEN
 10
497.1587328471943
 20
1046.941033814134
 30
0.0
 41
20.0
 42
20.0
 43
20.0
 50
270.0
  0
TEXT
  8
3
  40
30
  5
7F32
  62
0
  72
0
  71
0
 10
412.159
 20
1077.45
 30
0.000000
  1
160
  0
POINT
  5
7EB2
  8
DEFPOINTS
  6
CONTINUOUS
 62
     0
 10
547.63250384719413
 20
1206.941033814134
 30
0.0
  0
POINT
  5
7EB3
  8
DEFPOINTS
  6
CONTINUOUS
 62
     0
 10
515.03059384719427
 20
1046.941033814134
 30
0.0
  0
POINT
  5
7EB4
  8
DEFPOINTS
  6
CONTINUOUS
 62
     0
 10
497.1587328471943
 20
1046.941033814134
 30
0.0
  0
ENDBLK
  5
7C00
  8
0
  0
BLOCK
  8
0
  2
*D2
 70
     1
 10
0.0
 20
0.0
 30
0.0
  3
*D2
  1

  0
LINE
  5
7EB5
  8
3
  6
CONTINUOUS
 62
     0
 10
557.63250384719413
 20
1217.941033814134
 30
0.0
 11
424.87692084719441
 21
1217.941033814134
 31
0.0
  0
LINE
  5
7EB6
  8
3
  6
CONTINUOUS
 62
     0
 10
510.03059384719421
 20
1046.941033814134
 30
0.0
 11
424.8769208471943
 21
1046.941033814134
 31
0.0
  0
LINE
  5
7EB7
  8
3
  6
CONTINUOUS
 62
     0
 10
434.87692084719441
 20
1197.941033814134
 30
0.0
 11
434.87692084719441
 21
1066.941033814134
 31
0.0
  0
INSERT
  5
7EB8
  8
3
  6
CONTINUOUS
 62
     0
  2
_OPEN
 10
434.87692084719441
 20
1217.941033814134
 30
0.0
 41
20.0
 42
20.0
 43
20.0
 50
90.0
  0
INSERT
  5
7EB9
  8
3
  6
CONTINUOUS
 62
     0
  2
_OPEN
 10
434.87692084719441
 20
1046.941033814134
 30
0.0
 41
20.0
 42
20.0
 43
20.0
 50
270.0
  0
TEXT
  8
3
  40
30
  5
7F33
  62
0
  72
0
  71
0
 10
349.877
 20
1082.07
 30
0.000000
  1
171
  0
POINT
  5
7EBB
  8
DEFPOINTS
  6
CONTINUOUS
 62
     0
 10
562.63250384719413
 20
1217.941033814134
 30
0.0
  0
POINT
  5
7EBC
  8
DEFPOINTS
  6
CONTINUOUS
 62
     0
 10
515.03059384719427
 20
1046.941033814134
 30
0.0
  0
POINT
  5
7EBD
  8
DEFPOINTS
  6
CONTINUOUS
 62
     0
 10
434.87692084719441
 20
1046.941033814134
 30
0.0
  0
ENDBLK
  5
7C0D
  8
0
  0
BLOCK
  8
0
  2
*D3
 70
     1
 10
0.0
 20
0.0
 30
0.0
  3
*D3
  1

  0
LINE
  5
7EBE
  8
3
  6
CONTINUOUS
 62
     0
 10
537.63250384719413
 20
811.94103381413458
 30
0.0
 11
424.87692084719419
 21
811.94103381413458
 31
0.0
  0
LINE
  5
7EBF
  8
3
  6
CONTINUOUS
 62
     0
 10
434.87692084719419
 20
1026.9410338141349
 30
0.0
 11
434.87692084719419
 21
831.9410338141347
 31
0.0
  0
INSERT
  5
7EC0
  8
3
  6
CONTINUOUS
 62
     0
  2
_OPEN
 10
434.87692084719419
 20
1046.941033814134
 30
0.0
 41
20.0
 42
20.0
 43
20.0
 50
90.0
  0
INSERT
  5
7EC1
  8
3
  6
CONTINUOUS
 62
     0
  2
_OPEN
 10
434.87692084719419
 20
811.94103381413458
 30
0.0
 41
20.0
 42
20.0
 43
20.0
 50
270.0
  0
TEXT
  8
3
  40
30
  5
7F34
  62
0
  72
0
  71
0
 10
349.877
 20
876.341
 30
0.000000
  1
235
  0
POINT
  5
7EC3
  8
DEFPOINTS
  6
CONTINUOUS
 62
     0
 10
515.03059384719427
 20
1046.941033814134
 30
0.0
  0
POINT
  5
7EC4
  8
DEFPOINTS
  6
CONTINUOUS
 62
     0
 10
542.63250384719413
 20
811.94103381413458
 30
0.0
  0
POINT
  5
7EC5
  8
DEFPOINTS
  6
CONTINUOUS
 62
     0
 10
434.87692084719419
 20
811.94103381413458
 30
0.0
  0
ENDBLK
  5
7C19
  8
0
  0
BLOCK
  8
0
  2
*D4
 70
     1
 10
0.0
 20
0.0
 30
0.0
  3
*D4
  1

  0
LINE
  5
7EC6
  8
3
  6
CONTINUOUS
 62
     0
 10
537.63250384719413
 20
811.94103381413458
 30
0.0
 11
424.8769208471943
 21
811.94103381413458
 31
0.0
  0
LINE
  5
7EC7
  8
3
  6
CONTINUOUS
 62
     0
 10
512.63250384719413
 20
764.9410338141347
 30
0.0
 11
424.8769208471943
 21
764.9410338141347
 31
0.0
  0
LINE
  5
7EC8
  8
3
  6
CONTINUOUS
 62
     0
 10
434.87692084719419
 20
831.9410338141347
 30
0.0
 11
434.87692084719419
 21
851.94103381413458
 31
0.0
  0
LINE
  5
7EC9
  8
3
  6
CONTINUOUS
 62
     0
 10
434.87692084719419
 20
744.9410338141347
 30
0.0
 11
434.87692084719419
 21
656.36960524270614
 31
0.0
  0
LINE
  5
7ECA
  8
3
  6
CONTINUOUS
 62
     0
 10
434.87692084719419
 20
811.94103381413458
 30
0.0
 11
434.87692084719419
 21
764.9410338141347
 31
0.0
  0
INSERT
  5
7ECB
  8
3
  6
CONTINUOUS
 62
     0
  2
_OPEN
 10
434.87692084719419
 20
811.94103381413458
 30
0.0
 41
20.0
 42
20.0
 43
20.0
 50
270.0
  0
INSERT
  5
7ECC
  8
3
  6
CONTINUOUS
 62
     0
  2
_OPEN
 10
434.87692084719419
 20
764.9410338141347
 30
0.0
 41
20.0
 42
20.0
 43
20.0
 50
90.0
  0
TEXT
  8
3
  40
30
  5
7F35
  62
0
  72
0
  71
0
 10
349.877
 20
637.555
 30
0.000000
  1
47
  0
POINT
  5
7ECE
  8
DEFPOINTS
  6
CONTINUOUS
 62
     0
 10
542.63250384719413
 20
811.94103381413458
 30
0.0
  0
POINT
  5
7ECF
  8
DEFPOINTS
  6
CONTINUOUS
 62
     0
 10
517.63250384719413
 20
764.9410338141347
 30
0.0
  0
POINT
  5
7ED0
  8
DEFPOINTS
  6
CONTINUOUS
 62
     0
 10
434.87692084719419
 20
764.9410338141347
 30
0.0
  0
ENDBLK
  5
7DBE
  8
0
  0
BLOCK
  8
0
  2
*D5
 70
     1
 10
0.0
 20
0.0
 30
0.0
  3
*D5
  1

  0
LINE
  5
7ED1
  8
3
  6
CONTINUOUS
 62
     0
 10
542.63250384719413
 20
1228.941033814134
 30
0.0
 11
351.70128518728342
 21
1228.941033814134
 31
0.0
  0
LINE
  5
7ED2
  8
3
  6
CONTINUOUS
 62
     0
 10
512.63250384719413
 20
764.9410338141347
 30
0.0
 11
351.7012851872833
 21
764.9410338141347
 31
0.0
  0
LINE
  5
7ED3
  8
3
  6
CONTINUOUS
 62
     0
 10
361.70128518728342
 20
1208.941033814134
 30
0.0
 11
361.7012851872833
 21
784.9410338141347
 31
0.0
  0
INSERT
  5
7ED4
  8
3
  6
CONTINUOUS
 62
     0
  2
_OPEN
 10
361.70128518728342
 20
1228.941033814134
 30
0.0
 41
20.0
 42
20.0
 43
20.0
 50
90.0
  0
INSERT
  5
7ED5
  8
3
  6
CONTINUOUS
 62
     0
  2
_OPEN
 10
361.7012851872833
 20
764.9410338141347
 30
0.0
 41
20.0
 42
20.0
 43
20.0
 50
270.0
  0
TEXT
  8
3
  40
30
  5
7F36
  62
0
  72
0
  71
0
 10
276.701
 20
939.106
 30
0.000000
  1
464
  0
POINT
  5
7ED7
  8
DEFPOINTS
  6
CONTINUOUS
 62
     0
 10
547.63250384719413
 20
1228.941033814134
 30
0.0
  0
POINT
  5
7ED8
  8
DEFPOINTS
  6
CONTINUOUS
 62
     0
 10
517.63250384719413
 20
764.9410338141347
 30
0.0
  0
POINT
  5
7ED9
  8
DEFPOINTS
  6
CONTINUOUS
 62
     0
 10
361.7012851872833
 20
764.9410338141347
 30
0.0
  0
ENDBLK
  5
7D3B
  8
0
  0
BLOCK
  8
0
  2
*D6
 70
     1
 10
0.0
 20
0.0
 30
0.0
  3
*D6
  1

  0
LINE
  5
7EDA
  8
3
  6
CONTINUOUS
 62
     0
 10
517.63250384719413
 20
759.94103381413458
 30
0.0
 11
517.63250384719413
 21
687.0624248141346
 31
0.0
  0
LINE
  5
7EDB
  8
3
  6
CONTINUOUS
 62
     0
 10
677.63250384719413
 20
734.49266681413462
 30
0.0
 11
677.63250384719413
 21
687.0624248141346
 31
0.0
  0
LINE
  5
7EDC
  8
3
  6
CONTINUOUS
 62
     0
 10
537.63250384719413
 20
697.06242481413472
 30
0.0
 11
657.63250384719413
 21
697.06242481413472
 31
0.0
  0
INSERT
  5
7EDD
  8
3
  6
CONTINUOUS
 62
     0
  2
_OPEN
 10
517.63250384719413
 20
697.06242481413472
 30
0.0
 41
20.0
 42
20.0
 43
20.0
 50
180.0
  0
INSERT
  5
7EDE
  8
3
  6
CONTINUOUS
 62
     0
  2
_OPEN
 10
677.63250384719413
 20
697.06242481413472
 30
0.0
 41
20.0
 42
20.0
 43
20.0
  0
TEXT
  8
3
  40
30
  5
7F37
  62
0
  72
0
  71
0
 10
538.688
 20
668.962
 30
0.000000
  1
160
  0
POINT
  5
7EE0
  8
DEFPOINTS
  6
CONTINUOUS
 62
     0
 10
517.63250384719413
 20
764.9410338141347
 30
0.0
  0
POINT
  5
7EE1
  8
DEFPOINTS
  6
CONTINUOUS
 62
     0
 10
677.63250384719413
 20
739.49266681413462
 30
0.0
  0
POINT
  5
7EE2
  8
DEFPOINTS
  6
CONTINUOUS
 62
     0
 10
677.63250384719413
 20
697.06242481413472
 30
0.0
  0
ENDBLK
  5
7C43
  8
0
  0
BLOCK
  8
0
  2
*D7
 70
     1
 10
0.0
 20
0.0
 30
0.0
  3
*D7
  1

  0
LINE
  5
7EE3
  8
3
  6
CONTINUOUS
 62
     0
 10
1127.6325038471939
 20
759.94103381413458
 30
0.0
 11
1127.6325038471939
 21
687.0624248141346
 31
0.0
  0
LINE
  5
7EE4
  8
3
  6
CONTINUOUS
 62
     0
 10
697.63250384719413
 20
697.06242481413472
 30
0.0
 11
1107.6325038471939
 21
697.06242481413472
 31
0.0
  0
INSERT
  5
7EE5
  8
3
  6
CONTINUOUS
 62
     0
  2
_OPEN
 10
677.63250384719413
 20
697.06242481413472
 30
0.0
 41
20.0
 42
20.0
 43
20.0
 50
180.0
  0
INSERT
  5
7EE6
  8
3
  6
CONTINUOUS
 62
     0
  2
_OPEN
 10
1127.6325038471939
 20
697.06242481413472
 30
0.0
 41
20.0
 42
20.0
 43
20.0
  0
TEXT
  8
3
  40
30
  5
7F38
  62
0
  72
0
  71
0
 10
842.633
 20
668.962
 30
0.000000
  1
450
  0
POINT
  5
7EE8
  8
DEFPOINTS
  6
CONTINUOUS
 62
     0
 10
677.63250384719413
 20
739.49266681413462
 30
0.0
  0
POINT
  5
7EE9
  8
DEFPOINTS
  6
CONTINUOUS
 62
     0
 10
1127.6325038471939
 20
764.9410338141347
 30
0.0
  0
POINT
  5
7EEA
  8
DEFPOINTS
  6
CONTINUOUS
 62
     0
 10
1127.6325038471939
 20
697.06242481413472
 30
0.0
  0
ENDBLK
  5
7C4F
  8
0
  0
BLOCK
  8
0
  2
*D8
 70
     1
 10
0.0
 20
0.0
 30
0.0
  3
*D8
  1

  0
LINE
  5
7D70
  8
0
  6
BYBLOCK
 62
     0
 10
547.63250384719413
 20
1233.941033814134
 30
0.0
 11
547.63250384719413
 21
1274.2911028141341
 31
0.0
  0
LINE
  5
7D71
  8
0
  6
BYBLOCK
 62
     0
 10
677.63250384719413
 20
1235.6055958141339
 30
0.0
 11
677.63250384719413
 21
1274.2911028141341
 31
0.0
  0
LINE
  5
7D72
  8
0
  6
BYBLOCK
 62
     0
 10
567.63250384719413
 20
1264.291102814135
 30
0.0
 11
657.63250384719413
 21
1264.291102814135
 31
0.0
  0
TEXT
  5
7D73
  8
3
 62
     0
 10
576.91821813290835
 20
1278.869864639398
 30
0.0
 40
30.0
  1
130
  0
INSERT
  5
7D74
  8
0
  6
BYBLOCK
 62
     0
  2
_OPEN
 10
547.63250384719413
 20
1264.291102814135
 30
0.0
 41
20.0
 42
20.0
 43
20.0
 50
180.0
  0
INSERT
  5
7D75
  8
0
  6
BYBLOCK
 62
     0
  2
_OPEN
 10
677.63250384719413
 20
1264.291102814135
 30
0.0
 41
20.0
 42
20.0
 43
20.0
  0
POINT
  5
7D76
  8
DEFPOINTS
  6
BYBLOCK
 62
     0
 10
547.63250384719413
 20
1228.941033814134
 30
0.0
  0
POINT
  5
7D77
  8
DEFPOINTS
  6
BYBLOCK
 62
     0
 10
677.63250384719413
 20
1230.6055958141339
 30
0.0
  0
POINT
  5
7D78
  8
DEFPOINTS
  6
BYBLOCK
 62
     0
 10
677.63250384719413
 20
1264.291102814135
 30
0.0
  0
ENDBLK
  5
7D79
  8
0
  0
BLOCK
  8
0
  2
*D9
 70
     1
 10
0.0
 20
0.0
 30
0.0
  3
*D9
  1

  0
LINE
  5
7EEB
  8
3
  6
CONTINUOUS
 62
     0
 10
822.63250384719413
 20
1064.941033814134
 30
0.0
 11
822.63250384719413
 21
1274.2911028141341
 31
0.0
  0
LINE
  5
7EEC
  8
3
  6
CONTINUOUS
 62
     0
 10
697.63250384719413
 20
1264.291102814135
 30
0.0
 11
802.63250384719424
 21
1264.291102814135
 31
0.0
  0
INSERT
  5
7EED
  8
3
  6
CONTINUOUS
 62
     0
  2
_OPEN
 10
677.63250384719413
 20
1264.291102814135
 30
0.0
 41
20.0
 42
20.0
 43
20.0
 50
180.0
  0
INSERT
  5
7EEE
  8
3
  6
CONTINUOUS
 62
     0
  2
_OPEN
 10
822.63250384719413
 20
1264.291102814135
 30
0.0
 41
20.0
 42
20.0
 43
20.0
  0
TEXT
  8
3
  40
30
  5
7F39
  62
0
  72
0
  71
0
 10
690.133
 20
1236.19
 30
0.000000
  1
145
  0
POINT
  5
7EF0
  8
DEFPOINTS
  6
CONTINUOUS
 62
     0
 10
677.63250384719413
 20
1230.6055958141339
 30
0.0
  0
POINT
  5
7EF1
  8
DEFPOINTS
  6
CONTINUOUS
 62
     0
 10
822.63250384719413
 20
1059.941033814134
 30
0.0
  0
POINT
  5
7EF2
  8
DEFPOINTS
  6
CONTINUOUS
 62
     0
 10
822.63250384719413
 20
1264.291102814135
 30
0.0
  0
ENDBLK
  5
7C6A
  8
0
  0
BLOCK
  8
0
  2
*D10
 70
     1
 10
0.0
 20
0.0
 30
0.0
  3
*D10
  1

  0
LINE
  5
7D86
  8
0
  6
BYBLOCK
 62
     0
 10
1748.4453619999999
 20
1211.941033814134
 30
0.0
 11
1748.4453619999999
 21
1246.621409814134
 31
0.0
  0
LINE
  5
7D87
  8
0
  6
BYBLOCK
 62
     0
 10
1636.445361999999
 20
1211.941033814134
 30
0.0
 11
1636.445361999999
 21
1246.621409814134
 31
0.0
  0
LINE
  5
7D88
  8
0
  6
BYBLOCK
 62
     0
 10
1728.4453619999999
 20
1236.621409814134
 30
0.0
 11
1656.445361999999
 21
1236.621409814134
 31
0.0
  0
TEXT
  5
7D89
  8
3
 62
     0
 10
1659.588219142857
 20
1243.3534493528709
 30
0.0
 40
30.0
  1
112
  0
INSERT
  5
7D8A
  8
0
  6
BYBLOCK
 62
     0
  2
_OPEN
 10
1748.4453619999999
 20
1236.621409814134
 30
0.0
 41
20.0
 42
20.0
 43
20.0
  0
INSERT
  5
7D8B
  8
0
  6
BYBLOCK
 62
     0
  2
_OPEN
 10
1636.445361999999
 20
1236.621409814134
 30
0.0
 41
20.0
 42
20.0
 43
20.0
 50
180.0
  0
POINT
  5
7D8C
  8
DEFPOINTS
  6
BYBLOCK
 62
     0
 10
1748.4453619999999
 20
1206.941033814134
 30
0.0
  0
POINT
  5
7D8D
  8
DEFPOINTS
  6
BYBLOCK
 62
     0
 10
1636.445361999999
 20
1206.941033814134
 30
0.0
  0
POINT
  5
7D8E
  8
DEFPOINTS
  6
BYBLOCK
 62
     0
 10
1636.445361999999
 20
1236.621409814134
 30
0.0
  0
ENDBLK
  5
7D8F
  8
0
  0
BLOCK
  8
0
  2
*D11
 70
     1
 10
0.0
 20
0.0
 30
0.0
  3
*D11
  1

  0
LINE
  5
7D7B
  8
0
  6
BYBLOCK
 62
     0
 10
1761.4453619999999
 20
1126.941033814134
 30
0.0
 11
1827.6969559999991
 21
1126.941033814134
 31
0.0
  0
LINE
  5
7D7C
  8
0
  6
BYBLOCK
 62
     0
 10
1761.4453619999999
 20
966.94103381413447
 30
0.0
 11
1827.6969559999991
 21
966.94103381413447
 31
0.0
  0
LINE
  5
7D7D
  8
0
  6
BYBLOCK
 62
     0
 10
1817.6969559999991
 20
1106.941033814134
 30
0.0
 11
1817.6969559999991
 21
986.94103381413458
 31
0.0
  0
TEXT
  5
7D7E
  8
3
 62
     0
 10
1808.1425551046141
 20
996.22674809984869
 30
0.0
 40
30.0
  1
φ160
 50
90.0
  0
INSERT
  5
7D7F
  8
0
  6
BYBLOCK
 62
     0
  2
_OPEN
 10
1817.6969559999991
 20
1126.941033814134
 30
0.0
 41
20.0
 42
20.0
 43
20.0
 50
90.0
  0
INSERT
  5
7D80
  8
0
  6
BYBLOCK
 62
     0
  2
_OPEN
 10
1817.6969559999991
 20
966.94103381413447
 30
0.0
 41
20.0
 42
20.0
 43
20.0
 50
270.0
  0
POINT
  5
7D81
  8
DEFPOINTS
  6
BYBLOCK
 62
     0
 10
1756.4453619999999
 20
1126.941033814134
 30
0.0
  0
POINT
  5
7D82
  8
DEFPOINTS
  6
BYBLOCK
 62
     0
 10
1756.4453619999999
 20
966.94103381413447
 30
0.0
  0
POINT
  5
7D83
  8
DEFPOINTS
  6
BYBLOCK
 62
     0
 10
1817.6969559999991
 20
966.94103381413447
 30
0.0
  0
ENDBLK
  5
7D84
  8
0
  0
BLOCK
  8
0
  2
*D12
 70
     1
 10
0.0
 20
0.0
 30
0.0
  3
*D12
  1

  0
LINE
  5
7EF3
  8
3
  6
CONTINUOUS
 62
     0
 10
1432.4453619999999
 20
1146.941033814134
 30
0.0
 11
1432.4453619999999
 21
1306.572404814134
 31
0.0
  0
LINE
  5
7EF4
  8
3
  6
CONTINUOUS
 62
     0
 10
1692.4453619999999
 20
1278.1090222022201
 30
0.0
 11
1692.4453619999999
 21
1306.572404814134
 31
0.0
  0
LINE
  5
7EF5
  8
3
  6
CONTINUOUS
 62
     0
 10
1452.445361999999
 20
1296.572404814134
 30
0.0
 11
1672.4453619999999
 21
1296.572404814134
 31
0.0
  0
INSERT
  5
7EF6
  8
3
  6
CONTINUOUS
 62
     0
  2
_OPEN
 10
1432.4453619999999
 20
1296.572404814134
 30
0.0
 41
20.0
 42
20.0
 43
20.0
 50
180.0
  0
INSERT
  5
7EF7
  8
3
  6
CONTINUOUS
 62
     0
  2
_OPEN
 10
1692.4453619999999
 20
1296.572404814134
 30
0.0
 41
20.0
 42
20.0
 43
20.0
  0
TEXT
  8
3
  40
30
  5
7F3A
  62
0
  72
0
  71
0
 10
1499.29
 20
1293.47
 30
0.000000
  1
MAX
  0
TEXT
  8
3
  40
30
  5
7F3B
  62
0
  72
0
  71
0
 10
1499.29
 20
1254.47
 30
0.000000
  1
260
  0
POINT
  5
7EF9
  8
DEFPOINTS
  6
CONTINUOUS
 62
     0
 10
1432.4453619999999
 20
1141.941033814134
 30
0.0
  0
POINT
  5
7EFA
  8
DEFPOINTS
  6
CONTINUOUS
 62
     0
 10
1692.4453619999999
 20
1273.1090222022201
 30
0.0
  0
POINT
  5
7EFB
  8
DEFPOINTS
  6
CONTINUOUS
 62
     0
 10
1692.4453619999999
 20
1296.572404814134
 30
0.0
  0
ENDBLK
  5
7DD6
  8
0
  0
BLOCK
  8
0
  2
*D13
 70
     1
 10
0.0
 20
0.0
 30
0.0
  3
*D13
  1

  0
LINE
  5
7EFC
  8
3
  6
CONTINUOUS
 62
     0
 10
1756.4453619999999
 20
1151.941033814134
 30
0.0
 11
1756.4453619999999
 21
1306.572404814134
 31
0.0
  0
LINE
  5
7EFD
  8
3
  6
CONTINUOUS
 62
     0
 10
1712.4453619999999
 20
1296.572404814134
 30
0.0
 11
1736.4453619999999
 21
1296.572404814134
 31
0.0
  0
TEXT
  8
3
  40
30
  5
7F3C
  62
0
  72
0
  71
0
 10
1665.46
 20
1270.78
 30
0.000000
  1
64
  0
INSERT
  5
7EFF
  8
3
  6
CONTINUOUS
 62
     0
  2
_OPEN
 10
1692.4453619999999
 20
1296.572404814134
 30
0.0
 41
20.0
 42
20.0
 43
20.0
 50
180.0
  0
INSERT
  5
7F00
  8
3
  6
CONTINUOUS
 62
     0
  2
_OPEN
 10
1756.4453619999999
 20
1296.572404814134
 30
0.0
 41
20.0
 42
20.0
 43
20.0
  0
POINT
  5
7F01
  8
DEFPOINTS
  6
CONTINUOUS
 62
     0
 10
1692.4453619999999
 20
1273.1090222022201
 30
0.0
  0
POINT
  5
7F02
  8
DEFPOINTS
  6
CONTINUOUS
 62
     0
 10
1756.4453619999999
 20
1146.941033814134
 30
0.0
  0
POINT
  5
7F03
  8
DEFPOINTS
  6
CONTINUOUS
 62
     0
 10
1756.4453619999999
 20
1296.572404814134
 30
0.0
  0
ENDBLK
  5
7DA4
  8
0
  0
BLOCK
  8
0
  2
*D14
 70
     1
 10
0.0
 20
0.0
 30
0.0
  3
*D14
  1

  0
LINE
  5
7F04
  8
3
  6
CONTINUOUS
 62
     0
 10
1504.4453619999999
 20
759.94103381413458
 30
0.0
 11
1504.4453619999999
 21
698.53711181413462
 31
0.0
  0
LINE
  5
7F05
  8
3
  6
CONTINUOUS
 62
     0
 10
1692.4453619999999
 20
747.08530581413447
 30
0.0
 11
1692.4453619999999
 21
698.53711181413462
 31
0.0
  0
LINE
  5
7F06
  8
3
  6
CONTINUOUS
 62
     0
 10
1524.445361999999
 20
708.53711181413451
 30
0.0
 11
1672.4453619999999
 21
708.53711181413451
 31
0.0
  0
INSERT
  5
7F07
  8
3
  6
CONTINUOUS
 62
     0
  2
_OPEN
 10
1504.4453619999999
 20
708.53711181413451
 30
0.0
 41
20.0
 42
20.0
 43
20.0
 50
180.0
  0
INSERT
  5
7F08
  8
3
  6
CONTINUOUS
 62
     0
  2
_OPEN
 10
1692.4453619999999
 20
708.53711181413451
 30
0.0
 41
20.0
 42
20.0
 43
20.0
  0
TEXT
  8
3
  40
30
  5
7F3D
  62
0
  72
0
  71
0
 10
1540.86
 20
680.437
 30
0.000000
  1
188
  0
POINT
  5
7F0A
  8
DEFPOINTS
  6
CONTINUOUS
 62
     0
 10
1504.4453619999999
 20
764.9410338141347
 30
0.0
  0
POINT
  5
7F0B
  8
DEFPOINTS
  6
CONTINUOUS
 62
     0
 10
1692.4453619999999
 20
752.08530581413447
 30
0.0
  0
POINT
  5
7F0C
  8
DEFPOINTS
  6
CONTINUOUS
 62
     0
 10
1692.4453619999999
 20
708.53711181413451
 30
0.0
  0
ENDBLK
  5
7CCA
  8
0
  0
BLOCK
  8
0
  2
*D15
 70
     1
 10
0.0
 20
0.0
 30
0.0
  3
*D15
  1

  0
LINE
  5
7F0D
  8
3
  6
CONTINUOUS
 62
     0
 10
1728.4453619999999
 20
759.94103381413458
 30
0.0
 11
1728.4453619999999
 21
698.53711181413462
 31
0.0
  0
LINE
  5
7F0E
  8
3
  6
CONTINUOUS
 62
     0
 10
1672.4453619999999
 20
708.53711181413451
 30
0.0
 11
1652.4453619999999
 21
708.53711181413451
 31
0.0
  0
LINE
  5
7F0F
  8
3
  6
CONTINUOUS
 62
     0
 10
1748.4453619999999
 20
708.53711181413451
 30
0.0
 11
1768.4453619999999
 21
708.53711181413451
 31
0.0
  0
TEXT
  8
3
  40
30
  5
7F3E
  62
0
  72
0
  71
0
 10
1711.61
 20
680.437
 30
0.000000
  1
36
  0
LINE
  5
7F11
  8
3
  6
CONTINUOUS
 62
     0
 10
1692.4453619999999
 20
708.53711181413451
 30
0.0
 11
1728.4453619999999
 21
708.53711181413451
 31
0.0
  0
INSERT
  5
7F12
  8
3
  6
CONTINUOUS
 62
     0
  2
_OPEN
 10
1692.4453619999999
 20
708.53711181413451
 30
0.0
 41
20.0
 42
20.0
 43
20.0
  0
INSERT
  5
7F13
  8
3
  6
CONTINUOUS
 62
     0
  2
_OPEN
 10
1728.4453619999999
 20
708.53711181413451
 30
0.0
 41
20.0
 42
20.0
 43
20.0
 50
180.0
  0
POINT
  5
7F14
  8
DEFPOINTS
  6
CONTINUOUS
 62
     0
 10
1692.4453619999999
 20
752.08530581413447
 30
0.0
  0
POINT
  5
7F15
  8
DEFPOINTS
  6
CONTINUOUS
 62
     0
 10
1728.4453619999999
 20
764.9410338141347
 30
0.0
  0
POINT
  5
7F16
  8
DEFPOINTS
  6
CONTINUOUS
 62
     0
 10
1728.4453619999999
 20
708.53711181413451
 30
0.0
  0
ENDBLK
  5
7D0B
  8
0
  0
BLOCK
  8
0
  2
*D16
 70
     1
 10
0.0
 20
0.0
 30
0.0
  3
*D16
  1

  0
LINE
  5
7F17
  8
3
  6
CONTINUOUS
 62
     0
 10
517.63250384719413
 20
1785.6141447792791
 30
0.0
 11
517.63250384719413
 21
1621.8810697792781
 31
0.0
  0
LINE
  5
7F18
  8
3
  6
CONTINUOUS
 62
     0
 10
1127.6325038471939
 20
1785.6141447792791
 30
0.0
 11
1127.6325038471939
 21
1621.8810697792781
 31
0.0
  0
LINE
  5
7F19
  8
3
  6
CONTINUOUS
 62
     0
 10
537.63250384719413
 20
1631.8810697792781
 30
0.0
 11
1107.6325038471939
 21
1631.8810697792781
 31
0.0
  0
INSERT
  5
7F1A
  8
3
  6
CONTINUOUS
 62
     0
  2
_OPEN
 10
517.63250384719413
 20
1631.8810697792781
 30
0.0
 41
20.0
 42
20.0
 43
20.0
 50
180.0
  0
INSERT
  5
7F1B
  8
3
  6
CONTINUOUS
 62
     0
  2
_OPEN
 10
1127.6325038471939
 20
1631.8810697792781
 30
0.0
 41
20.0
 42
20.0
 43
20.0
  0
TEXT
  8
3
  40
30
  5
7F3F
  62
0
  72
0
  71
0
 10
741.674
 20
1603.78
 30
0.000000
  1
610
  0
POINT
  5
7F1D
  8
DEFPOINTS
  6
CONTINUOUS
 62
     0
 10
517.63250384719413
 20
1790.6141447792779
 30
0.0
  0
POINT
  5
7F1E
  8
DEFPOINTS
  6
CONTINUOUS
 62
     0
 10
1127.6325038471939
 20
1790.6141447792779
 30
0.0
  0
POINT
  5
7F1F
  8
DEFPOINTS
  6
CONTINUOUS
 62
     0
 10
1127.6325038471939
 20
1631.8810697792781
 30
0.0
  0
ENDBLK
  5
7D17
  8
0
  0
BLOCK
  8
0
  2
*D17
 70
     1
 10
0.0
 20
0.0
 30
0.0
  3
*D17
  1

  0
LINE
  5
7F20
  8
3
  6
CONTINUOUS
 62
     0
 10
1132.6325038471939
 20
2014.6141447792791
 30
0.0
 11
1222.3940138471939
 21
2014.6141447792791
 31
0.0
  0
LINE
  5
7F21
  8
3
  6
CONTINUOUS
 62
     0
 10
1132.6325038471939
 20
1790.6141447792779
 30
0.0
 11
1222.3940138471939
 21
1790.6141447792779
 31
0.0
  0
LINE
  5
7F22
  8
3
  6
CONTINUOUS
 62
     0
 10
1212.3940138471939
 20
1994.6141447792791
 30
0.0
 11
1212.3940138471939
 21
1810.6141447792791
 31
0.0
  0
INSERT
  5
7F23
  8
3
  6
CONTINUOUS
 62
     0
  2
_OPEN
 10
1212.3940138471939
 20
2014.6141447792791
 30
0.0
 41
20.0
 42
20.0
 43
20.0
 50
90.0
  0
INSERT
  5
7F24
  8
3
  6
CONTINUOUS
 62
     0
  2
_OPEN
 10
1212.3940138471939
 20
1790.6141447792779
 30
0.0
 41
20.0
 42
20.0
 43
20.0
 50
270.0
  0
TEXT
  8
3
  40
30
  5
7F40
  62
0
  72
0
  71
0
 10
1127.39
 20
1850.89
 30
0.000000
  1
224
  0
POINT
  5
7F26
  8
DEFPOINTS
  6
CONTINUOUS
 62
     0
 10
1127.6325038471939
 20
2014.6141447792791
 30
0.0
  0
POINT
  5
7F27
  8
DEFPOINTS
  6
CONTINUOUS
 62
     0
 10
1127.6325038471939
 20
1790.6141447792779
 30
0.0
  0
POINT
  5
7F28
  8
DEFPOINTS
  6
CONTINUOUS
 62
     0
 10
1212.3940138471939
 20
1790.6141447792779
 30
0.0
  0
ENDBLK
  5
7D24
  8
0
  0
BLOCK
  8
0
  2
*D18
 70
     1
 10
0.0
 20
0.0
 30
0.0
  3
*D18
  1

  0
LINE
  5
7F29
  8
3
 62
     0
 10
547.63250384719413
 20
1233.941033814134
 30
0.0
 11
547.63250384719413
 21
1335.1452821894111
 31
0.0
  0
LINE
  5
7F2A
  8
3
 62
     0
 10
1127.6325038471939
 20
794.9410338141347
 30
0.0
 11
1127.6325038471939
 21
1335.1452821894111
 31
0.0
  0
LINE
  5
7F2B
  8
3
 62
     0
 10
567.63250384719413
 20
1325.1452821894111
 30
0.0
 11
1107.6325038471939
 21
1325.1452821894111
 31
0.0
  0
INSERT
  5
7F2C
  8
3
 62
     0
  2
_OPEN
 10
547.63250384719413
 20
1325.1452821894111
 30
0.0
 41
20.0
 42
20.0
 43
20.0
 50
180.0
  0
INSERT
  5
7F2D
  8
3
 62
     0
  2
_OPEN
 10
1127.6325038471939
 20
1325.1452821894111
 30
0.0
 41
20.0
 42
20.0
 43
20.0
  0
TEXT
  8
3
  40
30
  5
7F41
  62
0
  72
0
  71
0
 10
771.747
 20
1297.05
 30
0.000000
  1
580
  0
POINT
  5
7F2F
  8
DEFPOINTS
 62
     0
 10
547.63250384719413
 20
1228.941033814134
 30
0.0
  0
POINT
  5
7F30
  8
DEFPOINTS
 62
     0
 10
1127.6325038471939
 20
789.9410338141347
 30
0.0
  0
POINT
  5
7F31
  8
DEFPOINTS
 62
     0
 10
1127.6325038471939
 20
1325.1452821894111
 30
0.0
  0
ENDBLK
  5
7DCA
  8
0
  0
ENDSEC
  0
SECTION
  2
ENTITIES
  0
CIRCLE
  5
7AEC
  8
1
  6
CONTINUOUS
 10
677.63250384719413
 20
1046.941033814134
 30
0.0
 40
80.0
  0
CIRCLE
  5
7AED
  8
1
  6
CONTINUOUS
 10
677.63250384719413
 20
1046.941033814134
 30
0.0
 40
100.0
  0
LINE
  5
7AEE
  8
1
  6
CONTINUOUS
 10
577.63250384719413
 20
2042.6141447792779
 30
0.0
 11
777.63250384719413
 21
2042.6141447792779
 31
0.0
  0
LINE
  5
7AEF
  8
1
  6
CONTINUOUS
 10
562.63250384719413
 20
1046.941033814134
 30
0.0
 11
562.63250384719413
 21
1036.941033814134
 31
0.0
  0
LINE
  5
7AF0
  8
1
  6
CONTINUOUS
 10
562.63250384719413
 20
1217.941033814134
 30
0.0
 11
562.63250384719413
 21
1206.941033814134
 31
0.0
  0
LINE
  5
7AF1
  8
1
  6
CONTINUOUS
 10
562.63250384719413
 20
1046.941033814134
 30
0.0
 11
547.63250384719413
 21
1046.941033814134
 31
0.0
  0
LINE
  5
7AF2
  8
1
  6
CONTINUOUS
 10
562.63250384719413
 20
1206.941033814134
 30
0.0
 11
547.63250384719413
 21
1206.941033814134
 31
0.0
  0
LINE
  5
7AF3
  8
1
  6
CONTINUOUS
 10
954.23250384719415
 20
928.04103381413449
 30
0.0
 11
666.23250384719415
 21
1003.441033814134
 31
0.0
  0
LINE
  5
7AF4
  8
1
  6
CONTINUOUS
 10
974.23250384719427
 20
995.14103381413452
 30
0.0
 11
691.93250384719408
 21
1089.6410338141341
 31
0.0
  0
LINE
  5
7AF5
  8
2
  6
CENTER
 10
1771.553105
 20
1046.941033814134
 30
0.0
 11
1404.1336119999989
 21
1046.941033814134
 31
0.0
  0
LINE
  5
7AF6
  8
2
  6
CENTER
 10
677.63250384719413
 20
739.49266681413462
 30
0.0
 11
677.63250384719413
 21
1230.6055958141339
 31
0.0
  0
LINE
  5
7AF7
  8
1
  6
CONTINUOUS
 10
851.63250384719424
 20
881.9410338141347
 30
0.0
 11
851.63250384719424
 21
861.94103381413481
 31
0.0
  0
LINE
  5
7AF8
  8
1
  6
CONTINUOUS
 10
547.63250384719413
 20
1045.941033814134
 30
0.0
 11
562.63250384719413
 21
1060.941033814134
 31
0.0
  0
LINE
  5
7AF9
  8
1
  6
CONTINUOUS
 10
562.63250384719413
 20
1192.941033814134
 30
0.0
 11
562.63250384719413
 21
1060.941033814134
 31
0.0
  0
LINE
  5
7AFA
  8
1
  6
CONTINUOUS
 10
547.63250384719413
 20
1207.941033814134
 30
0.0
 11
562.63250384719413
 21
1192.941033814134
 31
0.0
  0
ARC
  5
7AFB
  8
1
  6
CONTINUOUS
 10
688.63250384719413
 20
1057.941033814134
 30
0.0
 40
134.0
 50
269.5
 51
350.10000000000002
  0
ARC
  5
7AFC
  8
1
  6
CONTINUOUS
 10
686.63250384719413
 20
1037.941033814134
 30
0.0
 40
114.0
 50
180.49999999999989
 51
270.5
  0
ARC
  5
7AFD
  8
1
  6
CONTINUOUS
 10
664.63250384719413
 20
1059.941033814134
 30
0.0
 40
158.0
 50
350.89999999999992
 51
90.0
  0
LINE
  5
7AFE
  8
1
  6
CONTINUOUS
 10
562.63250384719413
 20
1217.941033814134
 30
0.0
 11
664.63250384719413
 21
1217.941033814134
 31
0.0
  0
LINE
  5
7AFF
  8
1
  6
CONTINUOUS
 10
547.63250384719413
 20
1228.941033814134
 30
0.0
 11
547.63250384719413
 21
1024.941033814134
 31
0.0
  0
LINE
  5
7B00
  8
1
  6
CONTINUOUS
 10
562.63250384719413
 20
1036.941033814134
 30
0.0
 11
572.63250384719413
 21
1036.941033814134
 31
0.0
  0
LINE
  5
7B01
  8
1
  6
CONTINUOUS
 10
547.63250384719413
 20
1921.6141447792791
 30
0.0
 11
562.63250384719413
 21
1936.6141447792779
 31
0.0
  0
LINE
  5
7B02
  8
1
  6
CONTINUOUS
 10
547.63250384719413
 20
2035.6141447792791
 30
0.0
 11
562.63250384719413
 21
2020.6141447792779
 31
0.0
  0
LINE
  5
7B03
  8
1
  6
CONTINUOUS
 10
811.73250384719415
 20
2026.6141447792779
 30
0.0
 11
811.73250384719415
 21
1930.6141447792779
 31
0.0
  0
LINE
  5
7B04
  8
1
  6
CONTINUOUS
 10
562.63250384719413
 20
2020.6141447792779
 30
0.0
 11
562.63250384719413
 21
1936.6141447792779
 31
0.0
  0
ARC
  5
7B05
  8
1
  6
CONTINUOUS
 10
803.73250384719415
 20
2026.6141447792779
 30
0.0
 40
8.0
 50
0.0
 51
90.0
  0
ARC
  5
7B06
  8
1
  6
CONTINUOUS
 10
803.73250384719415
 20
1930.6141447792779
 30
0.0
 40
8.0
 50
270.0
 51
0.0
  0
LINE
  5
7B07
  8
1
  6
CONTINUOUS
 10
803.73250384719415
 20
1922.6141447792779
 30
0.0
 11
547.63250384719413
 21
1922.6141447792779
 31
0.0
  0
LINE
  5
7B08
  8
1
  6
CONTINUOUS
 10
547.63250384719413
 20
2055.6141447792788
 30
0.0
 11
547.63250384719413
 21
1901.6141447792779
 31
0.0
  0
LINE
  5
7B09
  8
1
  6
CONTINUOUS
 10
577.63250384719413
 20
1915.014144779278
 30
0.0
 11
577.63250384719413
 21
1922.6141447792779
 31
0.0
  0
LINE
  5
7B0A
  8
1
  6
CONTINUOUS
 10
803.73250384719415
 20
2034.6141447792791
 30
0.0
 11
547.63250384719413
 21
2034.6141447792791
 31
0.0
  0
LINE
  5
7B0B
  8
1
  6
CONTINUOUS
 10
567.63250384719413
 20
1915.014144779278
 30
0.0
 11
787.63250384719413
 21
1915.014144779278
 31
0.0
  0
LINE
  5
7B0C
  8
1
  6
CONTINUOUS
 10
777.63250384719413
 20
1915.014144779278
 30
0.0
 11
777.63250384719413
 21
1922.6141447792779
 31
0.0
  0
LINE
  5
7B0D
  8
1
  6
CONTINUOUS
 10
777.63250384719413
 20
2042.6141447792779
 30
0.0
 11
777.63250384719413
 21
2034.6141447792791
 31
0.0
  0
LINE
  5
7B0E
  8
1
  6
CONTINUOUS
 10
577.63250384719413
 20
2042.6141447792779
 30
0.0
 11
577.63250384719413
 21
2034.6141447792791
 31
0.0
  0
LINE
  5
7B0F
  8
1
  6
CONTINUOUS
 10
1127.6325038471939
 20
1790.6141447792779
 30
0.0
 11
972.63250384719424
 21
1790.6141447792779
 31
0.0
  0
LINE
  5
7B10
  8
1
  6
CONTINUOUS
 10
542.63250384719413
 20
2014.6141447792791
 30
0.0
 11
547.63250384719413
 21
2014.6141447792791
 31
0.0
  0
LINE
  5
7B11
  8
1
  6
CONTINUOUS
 10
567.63250384719413
 20
1089.0410338141339
 30
0.0
 11
641.03250384719411
 21
1151.941033814134
 31
0.0
  0
LINE
  5
7B12
  8
1
  6
CONTINUOUS
 10
787.63250384719413
 20
1089.0410338141339
 30
0.0
 11
714.23250384719415
 21
1151.941033814134
 31
0.0
  0
LINE
  5
7B13
  8
1
  6
CONTINUOUS
 10
641.03250384719411
 20
1151.941033814134
 30
0.0
 11
714.23250384719415
 21
1151.941033814134
 31
0.0
  0
LINE
  5
7B14
  8
1
  6
CONTINUOUS
 10
787.63250384719413
 20
1013.6410338141339
 30
0.0
 11
567.63250384719413
 21
1013.6410338141339
 31
0.0
  0
LINE
  5
7B15
  8
1
  6
CONTINUOUS
 10
787.63250384719413
 20
1089.0410338141339
 30
0.0
 11
787.63250384719413
 21
861.94103381413481
 31
0.0
  0
LINE
  5
7B16
  8
1
  6
CONTINUOUS
 10
567.63250384719413
 20
861.94103381413481
 30
0.0
 11
567.63250384719413
 21
1089.0410338141339
 31
0.0
  0
CIRCLE
  5
7B17
  8
1
  6
CONTINUOUS
 10
963.13250384719424
 20
961.94103381413458
 30
0.0
 40
35.0
  0
LINE
  5
7B18
  8
1
  6
CONTINUOUS
 10
1060.3325038471939
 20
1141.941033814134
 30
0.0
 11
1060.3325038471939
 21
861.94103381413481
 31
0.0
  0
LINE
  5
7B19
  8
1
  6
CONTINUOUS
 10
580.33250384719418
 20
1141.941033814134
 30
0.0
 11
1060.3325038471939
 21
1141.941033814134
 31
0.0
  0
LINE
  5
7B1A
  8
1
  6
CONTINUOUS
 10
1102.6325038471939
 20
861.94103381413481
 30
0.0
 11
542.63250384719413
 21
861.94103381413481
 31
0.0
  0
LINE
  5
7B1B
  8
1
  6
CONTINUOUS
 10
1102.6325038471939
 20
811.94103381413458
 30
0.0
 11
542.63250384719413
 21
811.94103381413458
 31
0.0
  0
LINE
  5
7B1C
  8
1
  6
CONTINUOUS
 10
1102.6325038471939
 20
881.9410338141347
 30
0.0
 11
1102.6325038471939
 21
811.94103381413458
 31
0.0
  0
ARC
  5
7B1D
  8
1
  6
CONTINUOUS
 10
963.13250384719424
 20
961.94103381413458
 30
0.0
 40
85.0
 50
324.69999999999987
 51
215.30000000000001
  0
LINE
  5
7B1E
  8
1
  6
CONTINUOUS
 10
1040.6325038471939
 20
889.94103381413447
 30
0.0
 11
1032.4325038471941
 21
912.74103381413454
 31
0.0
  0
LINE
  5
7B1F
  8
1
  6
CONTINUOUS
 10
885.63250384719424
 20
881.9410338141347
 30
0.0
 11
885.63250384719424
 21
889.94103381413447
 31
0.0
  0
LINE
  5
7B20
  8
1
  6
CONTINUOUS
 10
885.63250384719424
 20
889.94103381413447
 30
0.0
 11
893.83250384719418
 21
912.74103381413454
 31
0.0
  0
LINE
  5
7B21
  8
1
  6
CONTINUOUS
 10
1040.6325038471939
 20
881.9410338141347
 30
0.0
 11
1040.6325038471939
 21
889.94103381413447
 31
0.0
  0
LINE
  5
7B22
  8
1
  6
CONTINUOUS
 10
1102.6325038471939
 20
881.9410338141347
 30
0.0
 11
851.63250384719424
 21
881.9410338141347
 31
0.0
  0
CIRCLE
  5
7B23
  8
1
  6
CONTINUOUS
 10
677.63250384719413
 20
1046.941033814134
 30
0.0
 40
45.0
  0
LINE
  5
7B24
  8
1
  6
CONTINUOUS
 10
580.33250384719418
 20
861.94103381413481
 30
0.0
 11
580.33250384719418
 21
1141.941033814134
 31
0.0
  0
LINE
  5
7B25
  8
1
  6
CONTINUOUS
 10
542.63250384719413
 20
811.94103381413458
 30
0.0
 11
542.63250384719413
 21
861.94103381413481
 31
0.0
  0
LINE
  5
7B26
  8
1
  6
CONTINUOUS
 10
787.63250384719413
 20
1915.014144779278
 30
0.0
 11
787.63250384719413
 21
1790.6141447792779
 31
0.0
  0
LINE
  5
7B27
  8
1
  6
CONTINUOUS
 10
567.63250384719413
 20
1790.6141447792779
 30
0.0
 11
567.63250384719413
 21
1915.014144779278
 31
0.0
  0
LINE
  5
7B28
  8
1
  6
CONTINUOUS
 10
1048.1325038471939
 20
1804.314144779278
 30
0.0
 11
1048.1325038471939
 21
1995.1141447792791
 31
0.0
  0
LINE
  5
7B29
  8
1
  6
CONTINUOUS
 10
953.63250384719413
 20
1774.514144779278
 30
0.0
 11
953.63250384719413
 21
1804.314144779278
 31
0.0
  0
LINE
  5
7B2A
  8
1
  6
CONTINUOUS
 10
972.63250384719424
 20
1774.514144779278
 30
0.0
 11
972.63250384719424
 21
1804.314144779278
 31
0.0
  0
LINE
  5
7B2B
  8
1
  6
CONTINUOUS
 10
878.13250384719413
 20
1804.314144779278
 30
0.0
 11
1048.1325038471939
 21
1804.314144779278
 31
0.0
  0
LINE
  5
7B2C
  8
1
  6
CONTINUOUS
 10
878.13250384719413
 20
1995.1141447792791
 30
0.0
 11
1048.1325038471939
 21
1995.1141447792791
 31
0.0
  0
LINE
  5
7B2D
  8
1
  6
CONTINUOUS
 10
878.13250384719413
 20
1804.314144779278
 30
0.0
 11
878.13250384719413
 21
1995.1141447792791
 31
0.0
  0
LINE
  5
7B2E
  8
1
  6
CONTINUOUS
 10
580.33250384719418
 20
1718.6141447792779
 30
0.0
 11
1060.3325038471939
 21
1718.6141447792779
 31
0.0
  0
LINE
  5
7B2F
  8
1
  6
CONTINUOUS
 10
580.33250384719418
 20
1793.6141447792791
 30
0.0
 11
1060.3325038471939
 21
1793.6141447792791
 31
0.0
  0
LINE
  5
7B30
  8
1
  6
CONTINUOUS
 10
722.63250384719413
 20
1774.514144779278
 30
0.0
 11
722.63250384719413
 21
1739.5141447792789
 31
0.0
  0
LINE
  5
7B31
  8
1
  6
CONTINUOUS
 10
632.63250384719413
 20
1774.514144779278
 30
0.0
 11
632.63250384719413
 21
1739.5141447792789
 31
0.0
  0
LINE
  5
7B32
  8
1
  6
CONTINUOUS
 10
632.63250384719413
 20
1739.5141447792789
 30
0.0
 11
722.63250384719413
 21
1739.5141447792789
 31
0.0
  0
LINE
  5
7B33
  8
1
  6
CONTINUOUS
 10
632.63250384719413
 20
1774.514144779278
 30
0.0
 11
722.63250384719413
 21
1774.514144779278
 31
0.0
  0
LINE
  5
7B34
  8
1
  6
CONTINUOUS
 10
689.63250384719413
 20
1915.014144779278
 30
0.0
 11
689.63250384719413
 21
1774.514144779278
 31
0.0
  0
LINE
  5
7B35
  8
1
  6
CONTINUOUS
 10
665.63250384719413
 20
1915.014144779278
 30
0.0
 11
665.63250384719413
 21
1774.514144779278
 31
0.0
  0
LINE
  5
7B36
  8
1
  6
CONTINUOUS
 10
1060.3325038471939
 20
1793.6141447792791
 30
0.0
 11
1060.3325038471939
 21
1718.6141447792779
 31
0.0
  0
LINE
  5
7B37
  8
1
  6
CONTINUOUS
 10
580.33250384719418
 20
1718.6141447792779
 30
0.0
 11
580.33250384719418
 21
1793.6141447792791
 31
0.0
  0
LINE
  5
7B38
  8
1
  6
CONTINUOUS
 10
665.63250384719413
 20
1790.6141447792779
 30
0.0
 11
517.63250384719413
 21
1790.6141447792779
 31
0.0
  0
LINE
  5
7B39
  8
1
  6
CONTINUOUS
 10
928.13250384719413
 20
1774.514144779278
 30
0.0
 11
998.13250384719424
 21
1774.514144779278
 31
0.0
  0
LINE
  5
7B3A
  8
1
  6
CONTINUOUS
 10
928.13250384719413
 20
1739.5141447792789
 30
0.0
 11
998.13250384719424
 21
1739.5141447792789
 31
0.0
  0
LINE
  5
7B3B
  8
1
  6
CONTINUOUS
 10
928.13250384719413
 20
1774.514144779278
 30
0.0
 11
928.13250384719413
 21
1739.5141447792789
 31
0.0
  0
LINE
  5
7B3C
  8
1
  6
CONTINUOUS
 10
998.13250384719424
 20
1774.514144779278
 30
0.0
 11
998.13250384719424
 21
1739.5141447792789
 31
0.0
  0
LINE
  5
7B3D
  8
2
  6
CENTER
 10
963.13250384719424
 20
926.94103381413458
 30
0.0
 11
963.13250384719424
 21
996.94103381413447
 31
0.0
  0
LINE
  5
7B3E
  8
2
  6
CENTER
 10
998.13250384719424
 20
961.94103381413458
 30
0.0
 11
928.13250384719413
 21
961.94103381413458
 31
0.0
  0
LINE
  5
7B3F
  8
1
  6
CONTINUOUS
 10
517.63250384719413
 20
2014.6141447792791
 30
0.0
 11
547.63250384719413
 21
2014.6141447792791
 31
0.0
  0
LINE
  5
7B40
  8
1
  6
CONTINUOUS
 10
953.63250384719413
 20
1790.6141447792779
 30
0.0
 11
689.63250384719413
 21
1790.6141447792779
 31
0.0
  0
LINE
  5
7B41
  8
1
  6
CONTINUOUS
 10
1127.6325038471939
 20
789.9410338141347
 30
0.0
 11
517.63250384719413
 21
789.9410338141347
 31
0.0
  0
LINE
  5
7B42
  8
1
  6
CONTINUOUS
 10
1127.6325038471939
 20
764.9410338141347
 30
0.0
 11
517.63250384719413
 21
764.9410338141347
 31
0.0
  0
LINE
  5
7B43
  8
1
  6
CONTINUOUS
 10
1127.6325038471939
 20
789.9410338141347
 30
0.0
 11
1127.6325038471939
 21
764.9410338141347
 31
0.0
  0
LINE
  5
7B44
  8
1
  6
CONTINUOUS
 10
517.63250384719413
 20
764.9410338141347
 30
0.0
 11
517.63250384719413
 21
789.9410338141347
 31
0.0
  0
LINE
  5
7B45
  8
1
  6
CONTINUOUS
 10
1127.6325038471939
 20
2014.6141447792791
 30
0.0
 11
1127.6325038471939
 21
1790.6141447792779
 31
0.0
  0
LINE
  5
7B46
  8
1
  6
CONTINUOUS
 10
517.63250384719413
 20
1790.6141447792779
 30
0.0
 11
517.63250384719413
 21
2014.6141447792791
 31
0.0
  0
LINE
  5
7B47
  8
1
  6
CONTINUOUS
 10
811.73250384719415
 20
2014.6141447792791
 30
0.0
 11
1127.6325038471939
 21
2014.6141447792791
 31
0.0
  0
LINE
  5
7B4B
  8
1
  6
CONTINUOUS
 10
1728.4453619999999
 20
789.9410338141347
 30
0.0
 11
1728.4453619999999
 21
764.9410338141347
 31
0.0
  0
LINE
  5
7B4C
  8
1
  6
CONTINUOUS
 10
1504.4453619999999
 20
789.9410338141347
 30
0.0
 11
1504.4453619999999
 21
764.9410338141347
 31
0.0
  0
LINE
  5
7B4D
  8
1
  6
CONTINUOUS
 10
1504.4453619999999
 20
789.9410338141347
 30
0.0
 11
1728.4453619999999
 21
789.9410338141347
 31
0.0
  0
LINE
  5
7B4E
  8
1
  6
CONTINUOUS
 10
1504.4453619999999
 20
764.9410338141347
 30
0.0
 11
1728.4453619999999
 21
764.9410338141347
 31
0.0
  0
LINE
  5
7B6E
  8
1
  6
CONTINUOUS
 10
1628.845362
 20
1089.0410338141339
 30
0.0
 11
1529.445361999999
 21
1013.6410338141339
 31
0.0
  0
LINE
  5
7B6F
  8
1
  6
CONTINUOUS
 10
1529.445361999999
 20
1013.6410338141339
 30
0.0
 11
1529.445361999999
 21
861.94103381413481
 31
0.0
  0
LINE
  5
7B70
  8
1
  6
CONTINUOUS
 10
1504.4453619999999
 20
861.94103381413481
 30
0.0
 11
1504.4453619999999
 21
811.94103381413458
 31
0.0
  0
LINE
  5
7B71
  8
1
  6
CONTINUOUS
 10
1432.4453619999999
 20
861.94103381413481
 30
0.0
 11
1728.4453619999999
 21
861.94103381413481
 31
0.0
  0
LINE
  5
7B72
  8
1
  6
CONTINUOUS
 10
1504.4453619999999
 20
811.94103381413458
 30
0.0
 11
1728.4453619999999
 21
811.94103381413458
 31
0.0
  0
LINE
  5
7B73
  8
1
  6
CONTINUOUS
 10
1728.4453619999999
 20
861.94103381413481
 30
0.0
 11
1728.4453619999999
 21
811.94103381413458
 31
0.0
  0
LINE
  5
7B99
  8
1
  6
CONTINUOUS
 10
1748.4453619999999
 20
1206.941033814134
 30
0.0
 11
1636.445361999999
 21
1046.941033814134
 31
0.0
  0
LINE
  5
7B9A
  8
1
  6
CONTINUOUS
 10
1748.4453619999999
 20
1046.941033814134
 30
0.0
 11
1636.445361999999
 21
1206.941033814134
 31
0.0
  0
ARC
  5
7B9B
  8
1
  6
CONTINUOUS
 10
1648.4453619999999
 20
924.84103381413445
 30
0.0
 40
12.0
 50
180.0
 51
270.0
  0
ARC
  5
7B9C
  8
1
  6
CONTINUOUS
 10
1736.4453619999999
 20
924.84103381413445
 30
0.0
 40
12.0
 50
270.0
 51
0.0
  0
LINE
  5
7B9D
  8
1
  6
CONTINUOUS
 10
1636.445361999999
 20
1206.941033814134
 30
0.0
 11
1636.445361999999
 21
924.84103381413445
 31
0.0
  0
LINE
  5
7B9E
  8
1
  6
CONTINUOUS
 10
1748.4453619999999
 20
1206.941033814134
 30
0.0
 11
1636.445361999999
 21
1206.941033814134
 31
0.0
  0
LINE
  5
7B9F
  8
1
  6
CONTINUOUS
 10
1748.4453619999999
 20
924.84103381413445
 30
0.0
 11
1748.4453619999999
 21
1206.941033814134
 31
0.0
  0
LINE
  5
7BA0
  8
1
  6
CONTINUOUS
 10
1636.445361999999
 20
1046.941033814134
 30
0.0
 11
1748.4453619999999
 21
1046.941033814134
 31
0.0
  0
LINE
  5
7BA1
  8
1
  6
CONTINUOUS
 10
1628.845362
 20
1146.941033814134
 30
0.0
 11
1636.845362
 21
1146.941033814134
 31
0.0
  0
LINE
  5
7BA2
  8
1
  6
CONTINUOUS
 10
1628.845362
 20
1146.941033814134
 30
0.0
 11
1628.845362
 21
861.94103381413481
 31
0.0
  0
LINE
  5
7BA3
  8
1
  6
CONTINUOUS
 10
1628.845362
 20
946.94103381413447
 30
0.0
 11
1636.845362
 21
946.94103381413447
 31
0.0
  0
LINE
  5
7BA4
  8
1
  6
CONTINUOUS
 10
1756.4453619999999
 20
946.94103381413447
 30
0.0
 11
1748.0453620000001
 21
946.94103381413447
 31
0.0
  0
LINE
  5
7BA6
  8
1
  6
CONTINUOUS
 10
1756.4453619999999
 20
1146.941033814134
 30
0.0
 11
1748.0453620000001
 21
1146.941033814134
 31
0.0
  0
LINE
  5
7BAB
  8
1
  6
CONTINUOUS
 10
1648.4453619999999
 20
912.84103381413456
 30
0.0
 11
1736.4453619999999
 21
912.84103381413456
 31
0.0
  0
LINE
  5
7BB0
  8
1
  6
CONTINUOUS
 10
1507.4453619999999
 20
1141.941033814134
 30
0.0
 11
1432.4453619999999
 21
1141.941033814134
 31
0.0
  0
LINE
  5
7BB1
  8
1
  6
CONTINUOUS
 10
1432.4453619999999
 20
861.94103381413481
 30
0.0
 11
1432.4453619999999
 21
1141.941033814134
 31
0.0
  0
LINE
  5
7BB2
  8
1
  6
CONTINUOUS
 10
1507.4453619999999
 20
861.94103381413481
 30
0.0
 11
1507.4453619999999
 21
1141.941033814134
 31
0.0
  0
LINE
  5
7BB3
  8
1
  6
CONTINUOUS
 10
1487.445361999999
 20
952.44103381413447
 30
0.0
 11
1529.445361999999
 21
952.44103381413447
 31
0.0
  0
LINE
  5
7BB4
  8
1
  6
CONTINUOUS
 10
1487.445361999999
 20
971.44103381413458
 30
0.0
 11
1529.445361999999
 21
971.44103381413458
 31
0.0
  0
LINE
  5
7BB5
  8
1
  6
CONTINUOUS
 10
1487.445361999999
 20
926.94103381413458
 30
0.0
 11
1487.445361999999
 21
996.94103381413447
 31
0.0
  0
LINE
  5
7BB6
  8
1
  6
CONTINUOUS
 10
1452.445361999999
 20
926.94103381413458
 30
0.0
 11
1452.445361999999
 21
996.94103381413447
 31
0.0
  0
LINE
  5
7BB7
  8
1
  6
CONTINUOUS
 10
1487.445361999999
 20
926.94103381413458
 30
0.0
 11
1452.445361999999
 21
926.94103381413458
 31
0.0
  0
LINE
  5
7BB8
  8
1
  6
CONTINUOUS
 10
1487.445361999999
 20
996.94103381413447
 30
0.0
 11
1452.445361999999
 21
996.94103381413447
 31
0.0
  0
LINE
  5
7BB9
  8
1
  6
CONTINUOUS
 10
1487.445361999999
 20
1091.941033814134
 30
0.0
 11
1452.445361999999
 21
1091.941033814134
 31
0.0
  0
LINE
  5
7BBA
  8
1
  6
CONTINUOUS
 10
1487.445361999999
 20
1001.941033814134
 30
0.0
 11
1452.445361999999
 21
1001.941033814134
 31
0.0
  0
LINE
  5
7BBB
  8
1
  6
CONTINUOUS
 10
1452.445361999999
 20
1001.941033814134
 30
0.0
 11
1452.445361999999
 21
1091.941033814134
 31
0.0
  0
LINE
  5
7BBC
  8
1
  6
CONTINUOUS
 10
1487.445361999999
 20
1001.941033814134
 30
0.0
 11
1487.445361999999
 21
1091.941033814134
 31
0.0
  0
LINE
  5
7BBD
  8
1
  6
CONTINUOUS
 10
1589.145362
 20
1058.941033814134
 30
0.0
 11
1487.445361999999
 21
1058.941033814134
 31
0.0
  0
LINE
  5
7BBE
  8
1
  6
CONTINUOUS
 10
1557.5453619999989
 20
1034.941033814134
 30
0.0
 11
1487.445361999999
 21
1034.941033814134
 31
0.0
  0
LINE
  5
7BC4
  8
1
  6
CONTINUOUS
 10
1756.4453619999999
 20
1146.941033814134
 30
0.0
 11
1756.4453619999999
 21
946.94103381413447
 31
0.0
  0
LINE
  5
7BCB
  8
2
  6
CENTER
 10
1692.4453619999999
 20
1231.1405702529189
 30
0.0
 11
1692.4453619999999
 21
752.08530581413447
 31
0.0
  0
LINE
  5
7BCC
  8
2
  6
CENTER
 10
484.03196184719422
 20
1902.6141447792791
 30
0.0
 11
1149.0757558471939
 21
1902.6141447792791
 31
0.0
  0
LINE
  5
7BCD
  8
2
  6
CENTER
 10
677.63250384719413
 20
1676.732749779278
 30
0.0
 11
677.63250384719413
 21
2067.1045637792781
 31
0.0
  0
LINE
  5
7BCE
  8
2
  6
CENTER
 10
1081.8746638471939
 20
1046.941033814134
 30
0.0
 11
515.03059384719427
 21
1046.941033814134
 31
0.0
  0
LINE
  5
7BCF
  8
4
  6
CONTINUOUS
 10
1850.0
 20
500.0
 30
0.0
 11
1850.0
 21
300.0
 31
0.0
  0
LINE
  5
7BD0
  8
4
  6
CONTINUOUS
 10
1150.0
 20
500.0
 30
0.0
 11
1150.0
 21
300.0
 31
0.0
  0
LINE
  5
7BD1
  8
4
  6
CONTINUOUS
 10
650.0
 20
500.0
 30
0.0
 11
650.0
 21
300.0
 31
0.0
  0
LINE
  5
7BD4
  8
4
  6
CONTINUOUS
 10
650.0
 20
300.0
 30
0.0
 11
1850.0
 21
300.0
 31
0.0
  0
LINE
  5
7BD5
  8
4
  6
CONTINUOUS
 10
650.0
 20
400.0
 30
0.0
 11
1850.0
 21
400.0
 31
0.0
  0
TEXT
  5
7BD6
  8
4
  6
CONTINUOUS
 10
688.50208099999998
 20
431.543026
 30
0.0
 40
50.0
  1
機器名称
  0
TEXT
  5
7BD7
  8
4
  6
CONTINUOUS
 10
686.258106
 20
321.64515699999993
 30
0.0
 40
50.0
  1
機器型番
  0
TEXT
  5
7BD8
  8
4
  6
CONTINUOUS
 10
1174.018738
 20
421.25264099999998
 30
0.0
 40
44.0
  1
ミツヤニューマルチファン
  0
TEXT
  5
7BD9
  8
4
  6
CONTINUOUS
 10
1186.6544960000001
 20
317.159584
 30
0.0
 40
50.0
  1
NM#1-1
  0
TEXT
  5
7BDB
  8
4
  6
CONTINUOUS
 10
808.74205900000004
 20
2383.4288409999999
 30
0.0
 40
54.0
  1
床置防振ベット
  0
TEXT
  5
7BDC
  8
4
  6
CONTINUOUS
 10
316.16759300000001
 20
2533.8809759999999
 30
0.0
 40
72.0
  1
ベルト駆動式片吸込片持多翼ファン
  0
LINE
  5
7BDD
  8
4
  6
CONTINUOUS
 10
250.0
 20
2469.408754
 30
0.0
 11
1850.0
 21
2469.408754
 31
0.0
  0
LINE
  5
7BDE
  8
4
  6
CONTINUOUS
 10
250.0
 20
2669.408754
 30
0.0
 11
1850.0
 21
2669.408754
 31
0.0
  0
LINE
  5
7BDF
  8
4
  6
CONTINUOUS
 10
650.0
 20
500.0
 30
0.0
 11
1850.0
 21
500.0
 31
0.0
  0
LINE
  5
7BE0
  8
4
  6
CONTINUOUS
 10
250.0
 20
2669.408754
 30
0.0
 11
250.0
 21
2469.408754
 31
0.0
  0
TEXT
  5
7BE1
  8
4
  6
CONTINUOUS
 10
372.88322699999992
 20
2382.3194779999999
 30
0.0
 40
54.0
  1
左回転左横向
  0
TEXT
  5
7BE2
  8
4
  6
CONTINUOUS
 10
1468.9695589999999
 20
2706.0610809999998
 30
0.0
 40
56.0
  1
No.
  0
TEXT
  5
7BE3
  8
4
  6
CONTINUOUS
 10
1311.296063
 20
2383.4288409999999
 30
0.0
 40
54.0
  1
縮尺：1/10
  0
LINE
  5
7BE4
  8
4
  6
CONTINUOUS
 10
1850.0
 20
2669.408754
 30
0.0
 11
1850.0
 21
2469.408754
 31
0.0
  0
LINE
  5
7BE6
  8
4
  6
CONTINUOUS
 10
1440.617422
 20
2681.2635829999999
 30
0.0
 11
1440.617422
 21
2786.6522620000001
 31
0.0
  0
LINE
  5
7BE7
  8
4
  6
CONTINUOUS
 10
1440.617422
 20
2786.6522620000001
 30
0.0
 11
1850.0
 21
2786.6522620000001
 31
0.0
  0
LINE
  5
7BE8
  8
4
  6
CONTINUOUS
 10
1850.0
 20
2786.6522620000001
 30
0.0
 11
1850.0
 21
2681.2635829999999
 31
0.0
  0
LINE
  5
7BE9
  8
4
  6
CONTINUOUS
 10
1850.0
 20
2681.2635829999999
 30
0.0
 11
1440.617422
 21
2681.2635829999999
 31
0.0
  0
DIMENSION
  5
7C01
  8
3
  6
CONTINUOUS
  2
*D1
 10
497.1587328471943
 20
1046.941033814134
 30
0.0
 11
497.15873284719407
 21
1130.5520438141341
 31
0.0
 70
   128
 13
547.63250384719413
 23
1206.941033814134
 33
0.0
 14
515.03059384719427
 24
1046.941033814134
 34
0.0
 50
90.0
1001
ACAD
1000
DSTYLE
1002
{
1070
   287
1070
     3
1070
   287
1070
     3
1070
    40
1040
10.0
1070
   143
1040
0.039
1070
   172
1070
     1
1070
   271
1070
     0
1070
   279
1070
     0
1070
   288
1070
     1
1002
}
  0
DIMENSION
  5
7C0E
  8
3
  6
CONTINUOUS
  2
*D2
 10
434.87692084719441
 20
1046.941033814134
 30
0.0
 11
434.87692084719419
 21
1135.1658718141341
 31
0.0
 70
   128
 13
562.63250384719413
 23
1217.941033814134
 33
0.0
 14
515.03059384719427
 24
1046.941033814134
 34
0.0
 50
90.0
1001
ACAD
1000
DSTYLE
1002
{
1070
   287
1070
     3
1070
   287
1070
     3
1070
    40
1040
10.0
1070
   143
1040
0.039
1070
   172
1070
     1
1070
   271
1070
     0
1070
   279
1070
     0
1070
   288
1070
     1
1002
}
  0
DIMENSION
  5
7C1A
  8
3
  6
CONTINUOUS
  2
*D3
 10
434.87692084719419
 20
811.94103381413458
 30
0.0
 11
409.87692084719401
 21
929.44103381413481
 31
0.0
 70
     0
 13
515.03059384719427
 23
1046.941033814134
 33
0.0
 14
542.63250384719413
 24
811.94103381413458
 34
0.0
 50
90.0
1001
ACAD
1000
DSTYLE
1002
{
1070
   287
1070
     4
1070
   287
1070
     4
1070
    40
1040
10.0
1070
    75
1070
     1
1070
   143
1040
0.039
1070
   172
1070
     1
1070
   271
1070
     0
1070
   279
1070
     1
1070
   288
1070
     1
1002
}
  0
DIMENSION
  5
7C2A
  8
3
  6
CONTINUOUS
  2
*D4
 10
434.87692084719419
 20
764.9410338141347
 30
0.0
 11
434.87692084719413
 21
690.65531952842036
 31
0.0
 70
   128
 13
542.63250384719413
 23
811.94103381413458
 33
0.0
 14
517.63250384719413
 24
764.9410338141347
 34
0.0
 50
90.0
1001
ACAD
1000
DSTYLE
1002
{
1070
   287
1070
     3
1070
   287
1070
     3
1070
    40
1040
10.0
1070
   143
1040
0.039
1070
   172
1070
     1
1070
   271
1070
     0
1070
   279
1070
     0
1070
   288
1070
     1
1002
}
  0
DIMENSION
  5
7C37
  8
3
  6
CONTINUOUS
  2
*D5
 10
361.7012851872833
 20
764.9410338141347
 30
0.0
 11
361.70128518728319
 21
992.2057978141346
 31
0.0
 70
   128
 13
547.63250384719413
 23
1228.941033814134
 33
0.0
 14
517.63250384719413
 24
764.9410338141347
 34
0.0
 50
90.0
1001
ACAD
1000
DSTYLE
1002
{
1070
   287
1070
     3
1070
   287
1070
     3
1070
    40
1040
10.0
1070
   143
1040
0.039
1070
   172
1070
     1
1070
   271
1070
     0
1070
   279
1070
     0
1070
   288
1070
     1
1002
}
  0
DIMENSION
  5
7C44
  8
3
  6
CONTINUOUS
  2
*D6
 10
677.63250384719413
 20
697.06242481413472
 30
0.0
 11
598.68761284719415
 21
697.06242481413472
 31
0.0
 70
   128
 13
517.63250384719413
 23
764.9410338141347
 33
0.0
 14
677.63250384719413
 24
739.49266681413462
 34
0.0
1001
ACAD
1000
DSTYLE
1002
{
1070
   287
1070
     3
1070
   287
1070
     3
1070
    40
1040
10.0
1070
   143
1040
0.039
1070
   172
1070
     1
1070
   271
1070
     0
1070
   279
1070
     0
1070
   288
1070
     1
1002
}
  0
DIMENSION
  5
7C50
  8
3
  6
CONTINUOUS
  2
*D7
 10
1127.6325038471939
 20
697.06242481413472
 30
0.0
 11
902.63250384719424
 21
722.06242481413472
 31
0.0
 70
     0
 13
677.63250384719413
 23
739.49266681413462
 33
0.0
 14
1127.6325038471939
 24
764.9410338141347
 34
0.0
1001
ACAD
1000
DSTYLE
1002
{
1070
   287
1070
     4
1070
   287
1070
     4
1070
    40
1040
10.0
1070
    75
1070
     1
1070
   143
1040
0.039
1070
   172
1070
     1
1070
   271
1070
     0
1070
   279
1070
     1
1070
   288
1070
     1
1002
}
  0
DIMENSION
  5
7C5F
  8
3
  6
CONTINUOUS
  2
*D8
 10
677.63250384719413
 20
1264.291102814135
 30
0.0
 11
612.63250384719413
 21
1293.869864639398
 31
0.0
 70
   128
 13
547.63250384719413
 23
1228.941033814134
 33
0.0
 14
677.63250384719413
 24
1230.6055958141339
 34
0.0
1001
ACAD
1000
DSTYLE
1002
{
1070
   288
1070
     1
1070
   172
1070
     1
1070
    40
1040
10.0
1070
   271
1070
     0
1070
   143
1040
0.039
1002
}
  0
DIMENSION
  5
7C6B
  8
3
  6
CONTINUOUS
  2
*D9
 10
822.63250384719413
 20
1264.291102814135
 30
0.0
 11
750.13250384719413
 21
1289.2911028141341
 31
0.0
 70
     0
 13
677.63250384719413
 23
1230.6055958141339
 33
0.0
 14
822.63250384719413
 24
1059.941033814134
 34
0.0
1001
ACAD
1000
DSTYLE
1002
{
1070
   287
1070
     4
1070
   287
1070
     4
1070
    40
1040
10.0
1070
    75
1070
     1
1070
   143
1040
0.039
1070
   172
1070
     1
1070
   271
1070
     0
1070
   279
1070
     1
1070
   288
1070
     1
1002
}
  0
DIMENSION
  5
7C94
  8
3
  6
CONTINUOUS
  2
*D10
 10
1636.445361999999
 20
1236.621409814134
 30
0.0
 11
1692.4453619999999
 21
1258.3534493528709
 31
0.0
 70
   128
 13
1748.4453619999999
 23
1206.941033814134
 33
0.0
 14
1636.445361999999
 24
1206.941033814134
 34
0.0
1001
ACAD
1000
DSTYLE
1002
{
1070
   288
1070
     1
1070
   172
1070
     1
1070
    40
1040
10.0
1070
   271
1070
     0
1070
   143
1040
0.039
1002
}
  0
DIMENSION
  5
7CA3
  8
3
  6
CONTINUOUS
  2
*D11
 10
1817.6969559999991
 20
966.94103381413447
 30
0.0
 11
1793.1425551046141
 21
1046.941033814134
 31
0.0
 70
   128
 13
1756.4453619999999
 23
1126.941033814134
 33
0.0
 14
1756.4453619999999
 24
966.94103381413447
 34
0.0
 50
90.0
1001
ACAD
1000
DSTYLE
1002
{
1070
   288
1070
     1
1070
   172
1070
     1
1070
    40
1040
10.0
1070
     3
1000
φ<>
1070
   271
1070
     0
1070
   143
1040
0.039
1002
}
  0
DIMENSION
  5
7CB0
  8
3
  6
CONTINUOUS
  2
*D12
 10
1692.4453619999999
 20
1296.572404814134
 30
0.0
 11
1559.2913590000001
 21
1296.572404814134
 31
0.0
 70
   128
  1
MAX\P260
 13
1432.4453619999999
 23
1141.941033814134
 33
0.0
 14
1692.4453619999999
 24
1273.1090222022201
 34
0.0
1001
ACAD
1000
DSTYLE
1002
{
1070
   287
1070
     3
1070
   287
1070
     3
1070
    40
1040
10.0
1070
   143
1040
0.039
1070
   172
1070
     1
1070
   271
1070
     0
1070
   279
1070
     0
1070
   288
1070
     1
1002
}
  0
DIMENSION
  5
7CBE
  8
3
  6
CONTINUOUS
  2
*D13
 10
1756.4453619999999
 20
1296.572404814134
 30
0.0
 11
1725.462959
 21
1298.8808888141341
 31
0.0
 70
   128
 13
1692.4453619999999
 23
1273.1090222022201
 33
0.0
 14
1756.4453619999999
 24
1146.941033814134
 34
0.0
1001
ACAD
1000
DSTYLE
1002
{
1070
   287
1070
     4
1070
   287
1070
     4
1070
    40
1040
10.0
1070
    75
1070
     1
1070
   143
1040
0.039
1070
   172
1070
     1
1070
   271
1070
     0
1070
   279
1070
     1
1070
   288
1070
     1
1002
}
  0
DIMENSION
  5
7CCB
  8
3
  6
CONTINUOUS
  2
*D14
 10
1692.4453619999999
 20
708.53711181413451
 30
0.0
 11
1600.862509
 21
708.53711181413451
 31
0.0
 70
   128
 13
1504.4453619999999
 23
764.9410338141347
 33
0.0
 14
1692.4453619999999
 24
752.08530581413447
 34
0.0
1001
ACAD
1000
DSTYLE
1002
{
1070
   287
1070
     3
1070
   287
1070
     3
1070
    40
1040
10.0
1070
   143
1040
0.039
1070
   172
1070
     1
1070
   271
1070
     0
1070
   279
1070
     0
1070
   288
1070
     1
1002
}
  0
DIMENSION
  5
7CDB
  8
3
  6
CONTINUOUS
  2
*D15
 10
1728.4453619999999
 20
708.53711181413451
 30
0.0
 11
1771.6112700000001
 21
708.53711181413451
 31
0.0
 70
   128
 13
1692.4453619999999
 23
752.08530581413447
 33
0.0
 14
1728.4453619999999
 24
764.9410338141347
 34
0.0
1001
ACAD
1000
DSTYLE
1002
{
1070
   287
1070
     4
1070
   287
1070
     4
1070
    40
1040
10.0
1070
    75
1070
     1
1070
   143
1040
0.039
1070
   172
1070
     1
1070
   271
1070
     0
1070
   279
1070
     1
1070
   288
1070
     1
1002
}
  0
DIMENSION
  5
7D18
  8
3
  6
CONTINUOUS
  2
*D16
 10
1127.6325038471939
 20
1631.8810697792781
 30
0.0
 11
801.67400384719417
 21
1631.8810697792781
 31
0.0
 70
   128
 13
517.63250384719413
 23
1790.6141447792779
 33
0.0
 14
1127.6325038471939
 24
1790.6141447792779
 34
0.0
1001
ACAD
1000
DSTYLE
1002
{
1070
   287
1070
     3
1070
   287
1070
     3
1070
    40
1040
10.0
1070
   143
1040
0.039
1070
   172
1070
     1
1070
   271
1070
     0
1070
   279
1070
     0
1070
   288
1070
     1
1002
}
  0
DIMENSION
  5
7D25
  8
3
  6
CONTINUOUS
  2
*D17
 10
1212.3940138471939
 20
1790.6141447792779
 30
0.0
 11
1212.3940138471939
 21
1903.9926527792779
 31
0.0
 70
   128
 13
1127.6325038471939
 23
2014.6141447792791
 33
0.0
 14
1127.6325038471939
 24
1790.6141447792779
 34
0.0
 50
90.0
1001
ACAD
1000
DSTYLE
1002
{
1070
   287
1070
     3
1070
   287
1070
     3
1070
    40
1040
10.0
1070
   143
1040
0.039
1070
   172
1070
     1
1070
   271
1070
     0
1070
   279
1070
     0
1070
   288
1070
     1
1002
}
  0
DIMENSION
  5
7DCB
  8
3
  2
*D18
 10
1127.6325038471939
 20
1325.1452821894111
 30
0.0
 11
831.74702409697591
 21
1325.1452821894111
 31
0.0
 70
   128
 13
547.63250384719413
 23
1228.941033814134
 33
0.0
 14
1127.6325038471939
 24
789.9410338141347
 34
0.0
1001
ACAD
1000
DSTYLE
1002
{
1070
   287
1070
     3
1070
   287
1070
     3
1070
    40
1040
10.0
1070
   143
1040
0.039
1070
   172
1070
     1
1070
   271
1070
     0
1070
   279
1070
     0
1070
   288
1070
     1
1002
}
  0
ENDSEC
  0
EOF
