  0
SECTION
  2
HEADER
  9
$ACADVER
  1
AC1009
  9
$INSBASE
 10
0.0
 20
0.0
 30
0.0
  9
$EXTMIN
 10
205.47420699999989
 20
300.0
 30
0.0
  9
$EXTMAX
 10
1850.0
 20
2786.6522620000001
 30
0.0
  9
$LIMMIN
 10
0.0
 20
0.0
  9
$LIMMAX
 10
297.0
 20
210.0
  9
$ORTHOMODE
 70
     0
  9
$REGENMODE
 70
     1
  9
$FILLMODE
 70
     0
  9
$QTEXTMODE
 70
     0
  9
$MIRRTEXT
 70
     1
  9
$DRAGMODE
 70
     2
  9
$LTSCALE
 40
100.0
  9
$OSMODE
 70
    37
  9
$ATTMODE
 70
     1
  9
$TEXTSIZE
 40
180.0
  9
$TRACEWID
 40
0.05
  9
$TEXTSTYLE
  7
STANDARD
  9
$CLAYER
  8
3
  9
$CELTYPE
  6
BYLAYER
  9
$CECOLOR
 62
   256
  9
$DIMSCALE
 40
10.0
  9
$DIMASZ
 40
2.0
  9
$DIMEXO
 40
0.5
  9
$DIMDLI
 40
10.0
  9
$DIMRND
 40
0.0
  9
$DIMDLE
 40
0.0
  9
$DIMEXE
 40
1.0
  9
$DIMTP
 40
1.0
  9
$DIMTM
 40
1.0
  9
$DIMTXT
 40
3.0
  9
$DIMCEN
 40
0.0
  9
$DIMTSZ
 40
0.0
  9
$DIMTOL
 70
     0
  9
$DIMLIM
 70
     0
  9
$DIMTIH
 70
     0
  9
$DIMTOH
 70
     0
  9
$DIMSE1
 70
     0
  9
$DIMSE2
 70
     0
  9
$DIMTAD
 70
     1
  9
$DIMZIN
 70
     8
  9
$DIMBLK
  1

  9
$DIMASO
 70
     1
  9
$DIMSHO
 70
     1
  9
$DIMPOST
  1

  9
$DIMAPOST
  1

  9
$DIMALT
 70
     0
  9
$DIMALTD
 70
     2
  9
$DIMALTF
 40
0.039
  9
$DIMLFAC
 40
1.0
  9
$DIMTOFL
 70
     1
  9
$DIMTVP
 40
0.0
  9
$DIMTIX
 70
     0
  9
$DIMSOXD
 70
     0
  9
$DIMSAH
 70
     1
  9
$DIMBLK1
  1
OPEN
  9
$DIMBLK2
  1
OPEN
  9
$DIMSTYLE
  2
IGA
  9
$DIMCLRD
 70
     0
  9
$DIMCLRE
 70
     0
  9
$DIMCLRT
 70
     0
  9
$DIMTFAC
 40
10.0
  9
$DIMGAP
 40
1.0
  9
$LUNITS
 70
     2
  9
$LUPREC
 70
     3
  9
$SKETCHINC
 40
0.1
  9
$FILLETRAD
 40
50.0
  9
$AUNITS
 70
     0
  9
$AUPREC
 70
     0
  9
$MENU
  1
acad
  9
$ELEVATION
 40
0.0
  9
$PELEVATION
 40
0.0
  9
$THICKNESS
 40
0.0
  9
$LIMCHECK
 70
     0
  9
$BLIPMODE
 70
     0
  9
$CHAMFERA
 40
0.5
  9
$CHAMFERB
 40
0.5
  9
$SKPOLY
 70
     0
  9
$TDCREATE
 40
2450726.5694952542
  9
$TDUPDATE
 40
2454953.8595895828
  9
$TDINDWG
 40
0.0027852083
  9
$TDUSRTIMER
 40
0.0027852083
  9
$USRTIMER
 70
     1
  9
$ANGBASE
 50
0.0
  9
$ANGDIR
 70
     0
  9
$PDMODE
 70
     0
  9
$PDSIZE
 40
0.0
  9
$PLINEWID
 40
0.0
  9
$COORDS
 70
     1
  9
$SPLFRAME
 70
     0
  9
$SPLINETYPE
 70
     6
  9
$SPLINESEGS
 70
     8
  9
$ATTDIA
 70
     0
  9
$ATTREQ
 70
     1
  9
$HANDLING
 70
 10241
  9
$HANDSEED
  5
7F2F
  9
$SURFTAB1
 70
     6
  9
$SURFTAB2
 70
     6
  9
$SURFTYPE
 70
     6
  9
$SURFU
 70
     6
  9
$SURFV
 70
     6
  9
$UCSNAME
  2

  9
$UCSORG
 10
0.0
 20
0.0
 30
0.0
  9
$UCSXDIR
 10
1.0
 20
0.0
 30
0.0
  9
$UCSYDIR
 10
0.0
 20
1.0
 30
0.0
  9
$PUCSNAME
  2

  9
$PUCSORG
 10
0.0
 20
0.0
 30
0.0
  9
$PUCSXDIR
 10
1.0
 20
0.0
 30
0.0
  9
$PUCSYDIR
 10
0.0
 20
1.0
 30
0.0
  9
$USERI1
 70
     0
  9
$USERI2
 70
     0
  9
$USERI3
 70
     0
  9
$USERI4
 70
     0
  9
$USERI5
 70
     0
  9
$USERR1
 40
0.0
  9
$USERR2
 40
0.0
  9
$USERR3
 40
0.0
  9
$USERR4
 40
0.0
  9
$USERR5
 40
0.0
  9
$WORLDVIEW
 70
     1
  9
$SHADEDGE
 70
     3
  9
$SHADEDIF
 70
    70
  9
$TILEMODE
 70
     1
  9
$MAXACTVP
 70
    16
  9
$PLIMCHECK
 70
     0
  9
$PEXTMIN
 10
1.0000000000000000E+020
 20
1.0000000000000000E+020
 30
1.0000000000000000E+020
  9
$PEXTMAX
 10
-1.0000000000000000E+020
 20
-1.0000000000000000E+020
 30
-1.0000000000000000E+020
  9
$PLIMMIN
 10
0.0
 20
0.0
  9
$PLIMMAX
 10
12.0
 20
9.0
  9
$UNITMODE
 70
     0
  9
$VISRETAIN
 70
     0
  9
$PLINEGEN
 70
     0
  9
$PSLTSCALE
 70
     1
  0
ENDSEC
  0
SECTION
  2
TABLES
  0
TABLE
  2
VPORT
 70
     2
  0
VPORT
  2
*ACTIVE
 70
     0
 10
0.0
 20
0.0
 11
1.0
 21
1.0
 12
2773.3532996260369
 22
1842.618752942167
 13
0.0
 23
0.0
 14
10.0
 24
10.0
 15
10.0
 25
10.0
 16
0.0
 26
0.0
 36
1.0
 17
0.0
 27
0.0
 37
0.0
 40
3685.237518247654
 41
1.5051150895140659
 42
50.0
 43
0.0
 44
0.0
 50
0.0
 51
0.0
 71
     0
 72
   100
 73
     1
 74
     0
 75
     0
 76
     0
 77
     0
 78
     0
  0
ENDTAB
  0
TABLE
  2
LTYPE
 70
     2
  0
LTYPE
  2
CONTINUOUS
 70
     0
  3
Solid line
 72
    65
 73
     0
 40
0.0
  0
LTYPE
  2
CENTER
 70
     0
  3
____ _ ____ _ ____ _ ____ _ ____ _ ____ _ ____ 
 72
    65
 73
     4
 40
2.0
 49
1.25
 49
-0.25
 49
0.25
 49
-0.25
  0
ENDTAB
  0
TABLE
  2
LAYER
 70
     6
  0
LAYER
  2
0
 70
     0
 62
     7
  6
CONTINUOUS
  0
LAYER
  2
3
 70
     0
 62
     2
  6
CONTINUOUS
  0
LAYER
  2
2
 70
     0
 62
     3
  6
CENTER
  0
LAYER
  2
1
 70
     0
 62
     4
  6
CONTINUOUS
  0
LAYER
  2
4
 70
     0
 62
     7
  6
CONTINUOUS
  0
LAYER
  2
DEFPOINTS
 70
     0
 62
     7
  6
CONTINUOUS
  0
ENDTAB
  0
TABLE
  2
STYLE
 70
     1
  0
STYLE
  2
STANDARD
 70
     0
 40
0.0
 41
1.0
 50
0.0
 71
     0
 42
180.0
  3
simplex.shx
  4
extfont.shx
  0
ENDTAB
  0
TABLE
  2
VIEW
 70
     0
  0
ENDTAB
  0
TABLE
  2
UCS
 70
     0
  0
ENDTAB
  0
TABLE
  2
APPID
 70
     1
  0
APPID
  2
ACAD
 70
     0
  0
ENDTAB
  0
TABLE
  2
DIMSTYLE
 70
     1
  0
DIMSTYLE
  2
IGA
 70
     0
  3

  4

  5

  6
OPEN
  7
OPEN
 40
2.0
 41
2.0
 42
0.5
 43
10.0
 44
1.0
 45
0.0
 46
0.0
 47
1.0
 48
1.0
140
3.0
141
0.0
142
0.0
143
0.03937
144
1.0
145
0.0
146
10.0
147
1.0
 71
     0
 72
     0
 73
     0
 74
     0
 75
     0
 76
     0
 77
     1
 78
     8
170
     0
171
     2
172
     0
173
     1
174
     0
175
     0
176
     0
177
     0
178
     0
  0
ENDTAB
  0
ENDSEC
  0
SECTION
  2
BLOCKS
  0
BLOCK
  8
0
  2
$MODEL_SPACE
 70
     0
 10
0.0
 20
0.0
 30
0.0
  3
$MODEL_SPACE
  1

  0
ENDBLK
  5
1B
  8
0
  0
BLOCK
 67
     1
  8
0
  2
$PAPER_SPACE
 70
     0
 10
0.0
 20
0.0
 30
0.0
  3
$PAPER_SPACE
  1

  0
ENDBLK
  5
18
 67
     1
  8
0
  0
BLOCK
  8
0
  2
_OPEN
 70
     0
 10
0.0
 20
0.0
 30
0.0
  3
_OPEN
  1

  0
LINE
  5
7BC8
  8
0
  6
BYBLOCK
 62
     0
 10
-1.0
 20
0.166667
 30
0.0
 11
0.0
 21
0.0
 31
0.0
  0
LINE
  5
7BC9
  8
0
  6
BYBLOCK
 62
     0
 10
0.0
 20
0.0
 30
0.0
 11
-1.0
 21
-0.166667
 31
0.0
  0
LINE
  5
7BCA
  8
0
  6
BYBLOCK
 62
     0
 10
0.0
 20
0.0
 30
0.0
 11
-1.0
 21
0.0
 31
0.0
  0
ENDBLK
  5
7BCB
  8
0
  0
BLOCK
  8
0
  2
*D1
 70
     1
 10
0.0
 20
0.0
 30
0.0
  3
*D1
  1

  0
LINE
  5
7EAF
  8
3
  6
CONTINUOUS
 62
     0
 10
466.45845999999989
 20
1789.6132580000001
 30
0.0
 11
466.45845999999989
 21
1605.8207580000001
 31
0.0
  0
LINE
  5
7EB0
  8
3
  6
CONTINUOUS
 62
     0
 10
1026.4584600000001
 20
1789.6132580000001
 30
0.0
 11
1026.4584600000001
 21
1605.8207580000001
 31
0.0
  0
LINE
  5
7EB1
  8
3
  6
CONTINUOUS
 62
     0
 10
486.45845999999989
 20
1615.8207580000001
 30
0.0
 11
1006.4584599999999
 21
1615.8207580000001
 31
0.0
  0
INSERT
  5
7EB2
  8
3
  6
CONTINUOUS
 62
     0
  2
_OPEN
 10
466.45845999999989
 20
1615.8207580000001
 30
0.0
 41
20.0
 42
20.0
 43
20.0
 50
180.0
  0
INSERT
  5
7EB3
  8
3
  6
CONTINUOUS
 62
     0
  2
_OPEN
 10
1026.4584600000001
 20
1615.8207580000001
 30
0.0
 41
20.0
 42
20.0
 43
20.0
  0
TEXT
  8
3
  40
30
  5
7F21
  62
0
  72
0
  71
0
 10
674.643
 20
1587.72
 30
0.000000
  1
560
  0
POINT
  5
7EB5
  8
DEFPOINTS
  6
CONTINUOUS
 62
     0
 10
466.45845999999989
 20
1794.6132580000001
 30
0.0
  0
POINT
  5
7EB6
  8
DEFPOINTS
  6
CONTINUOUS
 62
     0
 10
1026.4584600000001
 20
1794.6132580000001
 30
0.0
  0
POINT
  5
7EB7
  8
DEFPOINTS
  6
CONTINUOUS
 62
     0
 10
1026.4584600000001
 20
1615.8207580000001
 30
0.0
  0
ENDBLK
  5
7BDA
  8
0
  0
BLOCK
  8
0
  2
*D2
 70
     1
 10
0.0
 20
0.0
 30
0.0
  3
*D2
  1

  0
LINE
  5
7EB8
  8
3
  6
CONTINUOUS
 62
     0
 10
1031.4584600000001
 20
2018.613257999999
 30
0.0
 11
1154.5734110000001
 21
2018.613257999999
 31
0.0
  0
LINE
  5
7EB9
  8
3
  6
CONTINUOUS
 62
     0
 10
1031.4584600000001
 20
1794.6132580000001
 30
0.0
 11
1154.5734110000001
 21
1794.6132580000001
 31
0.0
  0
LINE
  5
7EBA
  8
3
  6
CONTINUOUS
 62
     0
 10
1144.5734110000001
 20
1998.613257999999
 30
0.0
 11
1144.5734110000001
 21
1814.613257999999
 31
0.0
  0
INSERT
  5
7EBB
  8
3
  6
CONTINUOUS
 62
     0
  2
_OPEN
 10
1144.5734110000001
 20
2018.613257999999
 30
0.0
 41
20.0
 42
20.0
 43
20.0
 50
90.0
  0
INSERT
  5
7EBC
  8
3
  6
CONTINUOUS
 62
     0
  2
_OPEN
 10
1144.5734110000001
 20
1794.6132580000001
 30
0.0
 41
20.0
 42
20.0
 43
20.0
 50
270.0
  0
TEXT
  8
3
  40
30
  5
7F22
  62
0
  72
0
  71
0
 10
1059.57
 20
1858.83
 30
0.000000
  1
224
  0
POINT
  5
7EBE
  8
DEFPOINTS
  6
CONTINUOUS
 62
     0
 10
1026.4584600000001
 20
2018.613257999999
 30
0.0
  0
POINT
  5
7EBF
  8
DEFPOINTS
  6
CONTINUOUS
 62
     0
 10
1026.4584600000001
 20
1794.6132580000001
 30
0.0
  0
POINT
  5
7EC0
  8
DEFPOINTS
  6
CONTINUOUS
 62
     0
 10
1144.5734110000001
 20
1794.6132580000001
 30
0.0
  0
ENDBLK
  5
7BE7
  8
0
  0
BLOCK
  8
0
  2
*D3
 70
     1
 10
0.0
 20
0.0
 30
0.0
  3
*D3
  1

  0
LINE
  5
7EC1
  8
3
  6
CONTINUOUS
 62
     0
 10
1026.4584600000001
 20
921.2509970000001
 30
0.0
 11
1026.4584600000001
 21
823.78194599999983
 31
0.0
  0
LINE
  5
7EC2
  8
3
  6
CONTINUOUS
 62
     0
 10
601.45845999999995
 20
861.89250700000014
 30
0.0
 11
601.45845999999995
 21
823.78194599999983
 31
0.0
  0
LINE
  5
7EC3
  8
3
  6
CONTINUOUS
 62
     0
 10
1006.4584599999999
 20
833.78194599999995
 30
0.0
 11
621.45845999999995
 21
833.78194599999995
 31
0.0
  0
INSERT
  5
7EC4
  8
3
  6
CONTINUOUS
 62
     0
  2
_OPEN
 10
1026.4584600000001
 20
833.78194599999995
 30
0.0
 41
20.0
 42
20.0
 43
20.0
  0
INSERT
  5
7EC5
  8
3
  6
CONTINUOUS
 62
     0
  2
_OPEN
 10
601.45845999999995
 20
833.78194599999995
 30
0.0
 41
20.0
 42
20.0
 43
20.0
 50
180.0
  0
TEXT
  8
3
  40
30
  5
7F23
  62
0
  72
0
  71
0
 10
747.168
 20
805.682
 30
0.000000
  1
425
  0
POINT
  5
7EC7
  8
DEFPOINTS
  6
CONTINUOUS
 62
     0
 10
1026.4584600000001
 20
926.2509970000001
 30
0.0
  0
POINT
  5
7EC8
  8
DEFPOINTS
  6
CONTINUOUS
 62
     0
 10
601.45845999999995
 20
866.89250700000002
 30
0.0
  0
POINT
  5
7EC9
  8
DEFPOINTS
  6
CONTINUOUS
 62
     0
 10
601.45845999999995
 20
833.78194599999995
 30
0.0
  0
ENDBLK
  5
7C1C
  8
0
  0
BLOCK
  8
0
  2
*D4
 70
     1
 10
0.0
 20
0.0
 30
0.0
  3
*D4
  1

  0
LINE
  5
7ECA
  8
3
  6
CONTINUOUS
 62
     0
 10
466.45845999999989
 20
921.2509970000001
 30
0.0
 11
466.45845999999989
 21
823.78194599999983
 31
0.0
  0
LINE
  5
7ECB
  8
3
  6
CONTINUOUS
 62
     0
 10
581.45845999999995
 20
833.78194599999995
 30
0.0
 11
486.45845999999989
 21
833.78194599999995
 31
0.0
  0
INSERT
  5
7ECC
  8
3
  6
CONTINUOUS
 62
     0
  2
_OPEN
 10
601.45845999999995
 20
833.78194599999995
 30
0.0
 41
20.0
 42
20.0
 43
20.0
  0
INSERT
  5
7ECD
  8
3
  6
CONTINUOUS
 62
     0
  2
_OPEN
 10
466.45845999999989
 20
833.78194599999995
 30
0.0
 41
20.0
 42
20.0
 43
20.0
 50
180.0
  0
TEXT
  8
3
  40
30
  5
7F24
  62
0
  72
0
  71
0
 10
473.958
 20
805.682
 30
0.000000
  1
135
  0
POINT
  5
7ECF
  8
DEFPOINTS
  6
CONTINUOUS
 62
     0
 10
601.45845999999995
 20
866.89250700000002
 30
0.0
  0
POINT
  5
7ED0
  8
DEFPOINTS
  6
CONTINUOUS
 62
     0
 10
466.45845999999989
 20
926.2509970000001
 30
0.0
  0
POINT
  5
7ED1
  8
DEFPOINTS
  6
CONTINUOUS
 62
     0
 10
466.45845999999989
 20
833.78194599999995
 30
0.0
  0
ENDBLK
  5
7C28
  8
0
  0
BLOCK
  8
0
  2
*D5
 70
     1
 10
0.0
 20
0.0
 30
0.0
  3
*D5
  1

  0
LINE
  5
7DA1
  8
0
  6
BYBLOCK
 62
     0
 10
471.45845999999989
 20
1188.2509970000001
 30
0.0
 11
471.45845999999989
 21
1353.6730189999989
 31
0.0
  0
LINE
  5
7DA2
  8
0
  6
BYBLOCK
 62
     0
 10
601.45845999999995
 20
1318.0283019999999
 30
0.0
 11
601.45845999999995
 21
1353.6730189999989
 31
0.0
  0
LINE
  5
7DA3
  8
0
  6
BYBLOCK
 62
     0
 10
491.45845999999989
 20
1343.6730189999989
 30
0.0
 11
581.45845999999995
 21
1343.6730189999989
 31
0.0
  0
TEXT
  5
7DA4
  8
3
 62
     0
 10
503.08561522507858
 20
1353.896806541745
 30
0.0
 40
30.0
  1
130
  0
INSERT
  5
7DA5
  8
0
  6
BYBLOCK
 62
     0
  2
_OPEN
 10
471.45845999999989
 20
1343.6730189999989
 30
0.0
 41
20.0
 42
20.0
 43
20.0
 50
180.0
  0
INSERT
  5
7DA6
  8
0
  6
BYBLOCK
 62
     0
  2
_OPEN
 10
601.45845999999995
 20
1343.6730189999989
 30
0.0
 41
20.0
 42
20.0
 43
20.0
  0
POINT
  5
7DA7
  8
DEFPOINTS
  6
BYBLOCK
 62
     0
 10
471.45845999999989
 20
1183.2509970000001
 30
0.0
  0
POINT
  5
7DA8
  8
DEFPOINTS
  6
BYBLOCK
 62
     0
 10
601.45845999999995
 20
1313.0283019999999
 30
0.0
  0
POINT
  5
7DA9
  8
DEFPOINTS
  6
BYBLOCK
 62
     0
 10
601.45845999999995
 20
1343.6730189999989
 30
0.0
  0
ENDBLK
  5
7DAA
  8
0
  0
BLOCK
  8
0
  2
*D6
 70
     1
 10
0.0
 20
0.0
 30
0.0
  3
*D6
  1

  0
LINE
  5
7ED2
  8
3
  6
CONTINUOUS
 62
     0
 10
746.45845999999995
 20
1153.2509970000001
 30
0.0
 11
746.45845999999995
 21
1353.6730189999989
 31
0.0
  0
LINE
  5
7ED3
  8
3
  6
CONTINUOUS
 62
     0
 10
621.45845999999995
 20
1343.6730189999989
 30
0.0
 11
726.45845999999995
 21
1343.6730189999989
 31
0.0
  0
INSERT
  5
7ED4
  8
3
  6
CONTINUOUS
 62
     0
  2
_OPEN
 10
601.45845999999995
 20
1343.6730189999989
 30
0.0
 41
20.0
 42
20.0
 43
20.0
 50
180.0
  0
INSERT
  5
7ED5
  8
3
  6
CONTINUOUS
 62
     0
  2
_OPEN
 10
746.45845999999995
 20
1343.6730189999989
 30
0.0
 41
20.0
 42
20.0
 43
20.0
  0
TEXT
  8
3
  40
30
  5
7F25
  62
0
  72
0
  71
0
 10
613.958
 20
1315.57
 30
0.000000
  1
145
  0
POINT
  5
7ED7
  8
DEFPOINTS
  6
CONTINUOUS
 62
     0
 10
601.45845999999995
 20
1313.0283019999999
 30
0.0
  0
POINT
  5
7ED8
  8
DEFPOINTS
  6
CONTINUOUS
 62
     0
 10
746.45845999999995
 20
1148.2509970000001
 30
0.0
  0
POINT
  5
7ED9
  8
DEFPOINTS
  6
CONTINUOUS
 62
     0
 10
746.45845999999995
 20
1343.6730189999989
 30
0.0
  0
ENDBLK
  5
7C43
  8
0
  0
BLOCK
  8
0
  2
*D7
 70
     1
 10
0.0
 20
0.0
 30
0.0
  3
*D7
  1

  0
LINE
  5
7DC2
  8
0
  6
BYBLOCK
 62
     0
 10
1576.2032979999999
 20
1277.2509970000001
 30
0.0
 11
1576.2032979999999
 21
1329.8073159999999
 31
0.0
  0
LINE
  5
7DC3
  8
0
  6
BYBLOCK
 62
     0
 10
1688.2032979999999
 20
1277.2509970000001
 30
0.0
 11
1688.2032979999999
 21
1329.8073159999999
 31
0.0
  0
LINE
  5
7DC4
  8
0
  6
BYBLOCK
 62
     0
 10
1596.2032979999999
 20
1319.8073159999999
 30
0.0
 11
1668.2032979999999
 21
1319.8073159999999
 31
0.0
  0
TEXT
  5
7DC5
  8
3
 62
     0
 10
1597.602868308742
 20
1328.7254427392979
 30
0.0
 40
30.0
  1
112
  0
INSERT
  5
7DC6
  8
0
  6
BYBLOCK
 62
     0
  2
_OPEN
 10
1576.2032979999999
 20
1319.8073159999999
 30
0.0
 41
20.0
 42
20.0
 43
20.0
 50
180.0
  0
INSERT
  5
7DC7
  8
0
  6
BYBLOCK
 62
     0
  2
_OPEN
 10
1688.2032979999999
 20
1319.8073159999999
 30
0.0
 41
20.0
 42
20.0
 43
20.0
  0
POINT
  5
7DC8
  8
DEFPOINTS
  6
BYBLOCK
 62
     0
 10
1576.2032979999999
 20
1272.2509970000001
 30
0.0
  0
POINT
  5
7DC9
  8
DEFPOINTS
  6
BYBLOCK
 62
     0
 10
1688.2032979999999
 20
1272.2509970000001
 30
0.0
  0
POINT
  5
7DCA
  8
DEFPOINTS
  6
BYBLOCK
 62
     0
 10
1688.2032979999999
 20
1319.8073159999999
 30
0.0
  0
ENDBLK
  5
7DCB
  8
0
  0
BLOCK
  8
0
  2
*D8
 70
     1
 10
0.0
 20
0.0
 30
0.0
  3
*D8
  1

  0
LINE
  5
7DCD
  8
0
  6
BYBLOCK
 62
     0
 10
1632.2032979999999
 20
1373.19731
 30
0.0
 11
1632.2032979999999
 21
1398.377508
 31
0.0
  0
LINE
  5
7DCE
  8
0
  6
BYBLOCK
 62
     0
 10
1696.2032979999999
 20
1266.2509970000001
 30
0.0
 11
1696.2032979999999
 21
1398.377508
 31
0.0
  0
LINE
  5
7DCF
  8
0
  6
BYBLOCK
 62
     0
 10
1652.2032979999999
 20
1388.377508
 30
0.0
 11
1676.2032979999999
 21
1388.377508
 31
0.0
  0
TEXT
  5
7DD0
  8
3
 62
     0
 10
1639.049547023425
 20
1402.141927364939
 30
0.0
 40
30.0
  1
64
  0
INSERT
  5
7DD1
  8
0
  6
BYBLOCK
 62
     0
  2
_OPEN
 10
1632.2032979999999
 20
1388.377508
 30
0.0
 41
20.0
 42
20.0
 43
20.0
 50
180.0
  0
INSERT
  5
7DD2
  8
0
  6
BYBLOCK
 62
     0
  2
_OPEN
 10
1696.2032979999999
 20
1388.377508
 30
0.0
 41
20.0
 42
20.0
 43
20.0
  0
POINT
  5
7DD3
  8
DEFPOINTS
  6
BYBLOCK
 62
     0
 10
1632.2032979999999
 20
1368.19731
 30
0.0
  0
POINT
  5
7DD4
  8
DEFPOINTS
  6
BYBLOCK
 62
     0
 10
1696.2032979999999
 20
1261.2509970000001
 30
0.0
  0
POINT
  5
7DD5
  8
DEFPOINTS
  6
BYBLOCK
 62
     0
 10
1696.2032979999999
 20
1388.377508
 30
0.0
  0
ENDBLK
  5
7DD6
  8
0
  0
BLOCK
  8
0
  2
*D9
 70
     1
 10
0.0
 20
0.0
 30
0.0
  3
*D9
  1

  0
LINE
  5
7EDA
  8
3
  6
CONTINUOUS
 62
     0
 10
1372.2032979999999
 20
1261.2509970000001
 30
0.0
 11
1372.2032979999999
 21
1398.377508
 31
0.0
  0
LINE
  5
7EDB
  8
3
  6
CONTINUOUS
 62
     0
 10
1612.2032979999999
 20
1388.377508
 30
0.0
 11
1392.2032979999999
 21
1388.377508
 31
0.0
  0
INSERT
  5
7EDC
  8
3
  6
CONTINUOUS
 62
     0
  2
_OPEN
 10
1632.2032979999999
 20
1388.377508
 30
0.0
 41
20.0
 42
20.0
 43
20.0
  0
INSERT
  5
7EDD
  8
3
  6
CONTINUOUS
 62
     0
  2
_OPEN
 10
1372.2032979999999
 20
1388.377508
 30
0.0
 41
20.0
 42
20.0
 43
20.0
 50
180.0
  0
TEXT
  8
3
  40
30
  5
7F26
  62
0
  72
0
  71
0
 10
1442.20
 20
1385.28
 30
0.000000
  1
MAX
  0
TEXT
  8
3
  40
30
  5
7F27
  62
0
  72
0
  71
0
 10
1442.20
 20
1346.28
 30
0.000000
  1
260
  0
POINT
  5
7EDF
  8
DEFPOINTS
  6
CONTINUOUS
 62
     0
 10
1632.2032979999999
 20
1368.19731
 30
0.0
  0
POINT
  5
7EE0
  8
DEFPOINTS
  6
CONTINUOUS
 62
     0
 10
1372.2032979999999
 20
1256.2509970000001
 30
0.0
  0
POINT
  5
7EE1
  8
DEFPOINTS
  6
CONTINUOUS
 62
     0
 10
1372.2032979999999
 20
1388.377508
 30
0.0
  0
ENDBLK
  5
7DED
  8
0
  0
BLOCK
  8
0
  2
*D10
 70
     1
 10
0.0
 20
0.0
 30
0.0
  3
*D10
  1

  0
LINE
  5
7DB7
  8
0
  6
BYBLOCK
 62
     0
 10
1701.2032979999999
 20
1241.2509970000001
 30
0.0
 11
1788.2055760000001
 21
1241.2509970000001
 31
0.0
  0
LINE
  5
7DB8
  8
0
  6
BYBLOCK
 62
     0
 10
1701.2032979999999
 20
1081.2509970000001
 30
0.0
 11
1788.2055760000001
 21
1081.2509970000001
 31
0.0
  0
LINE
  5
7DB9
  8
0
  6
BYBLOCK
 62
     0
 10
1778.2055760000001
 20
1221.2509970000001
 30
0.0
 11
1778.2055760000001
 21
1101.2509970000001
 31
0.0
  0
TEXT
  5
7DBA
  8
3
 62
     0
 10
1769.3214371881379
 20
1112.6163625019631
 30
0.0
 40
30.0
  1
φ160
 50
90.0
  0
INSERT
  5
7DBB
  8
0
  6
BYBLOCK
 62
     0
  2
_OPEN
 10
1778.2055760000001
 20
1241.2509970000001
 30
0.0
 41
20.0
 42
20.0
 43
20.0
 50
90.0
  0
INSERT
  5
7DBC
  8
0
  6
BYBLOCK
 62
     0
  2
_OPEN
 10
1778.2055760000001
 20
1081.2509970000001
 30
0.0
 41
20.0
 42
20.0
 43
20.0
 50
270.0
  0
POINT
  5
7DBD
  8
DEFPOINTS
  6
BYBLOCK
 62
     0
 10
1696.2032979999999
 20
1241.2509970000001
 30
0.0
  0
POINT
  5
7DBE
  8
DEFPOINTS
  6
BYBLOCK
 62
     0
 10
1696.2032979999999
 20
1081.2509970000001
 30
0.0
  0
POINT
  5
7DBF
  8
DEFPOINTS
  6
BYBLOCK
 62
     0
 10
1778.2055760000001
 20
1081.2509970000001
 30
0.0
  0
ENDBLK
  5
7DC0
  8
0
  0
BLOCK
  8
0
  2
*D11
 70
     1
 10
0.0
 20
0.0
 30
0.0
  3
*D11
  1

  0
LINE
  5
7EE2
  8
3
  6
CONTINUOUS
 62
     0
 10
1444.2032979999999
 20
921.2509970000001
 30
0.0
 11
1444.2032979999999
 21
828.52358300000014
 31
0.0
  0
LINE
  5
7EE3
  8
3
  6
CONTINUOUS
 62
     0
 10
1632.2032979999999
 20
991.87735499999997
 30
0.0
 11
1632.2032979999999
 21
828.52358300000014
 31
0.0
  0
LINE
  5
7EE4
  8
3
  6
CONTINUOUS
 62
     0
 10
1464.2032979999999
 20
838.52358300000003
 30
0.0
 11
1612.2032979999999
 21
838.52358300000003
 31
0.0
  0
INSERT
  5
7EE5
  8
3
  6
CONTINUOUS
 62
     0
  2
_OPEN
 10
1444.2032979999999
 20
838.52358300000003
 30
0.0
 41
20.0
 42
20.0
 43
20.0
 50
180.0
  0
INSERT
  5
7EE6
  8
3
  6
CONTINUOUS
 62
     0
  2
_OPEN
 10
1632.2032979999999
 20
838.52358300000003
 30
0.0
 41
20.0
 42
20.0
 43
20.0
  0
TEXT
  8
3
  40
30
  5
7F28
  62
0
  72
0
  71
0
 10
1480.23
 20
810.424
 30
0.000000
  1
188
  0
POINT
  5
7EE8
  8
DEFPOINTS
  6
CONTINUOUS
 62
     0
 10
1444.2032979999999
 20
926.2509970000001
 30
0.0
  0
POINT
  5
7EE9
  8
DEFPOINTS
  6
CONTINUOUS
 62
     0
 10
1632.2032979999999
 20
996.87735500000008
 30
0.0
  0
POINT
  5
7EEA
  8
DEFPOINTS
  6
CONTINUOUS
 62
     0
 10
1632.2032979999999
 20
838.52358300000003
 30
0.0
  0
ENDBLK
  5
7C88
  8
0
  0
BLOCK
  8
0
  2
*D12
 70
     1
 10
0.0
 20
0.0
 30
0.0
  3
*D12
  1

  0
LINE
  5
7EEB
  8
3
  6
CONTINUOUS
 62
     0
 10
1668.2032979999999
 20
921.2509970000001
 30
0.0
 11
1668.2032979999999
 21
828.52358300000014
 31
0.0
  0
LINE
  5
7EEC
  8
3
  6
CONTINUOUS
 62
     0
 10
1612.2032979999999
 20
838.52358300000003
 30
0.0
 11
1592.2032979999999
 21
838.52358300000003
 31
0.0
  0
LINE
  5
7EED
  8
3
  6
CONTINUOUS
 62
     0
 10
1688.2032979999999
 20
838.52358300000003
 30
0.0
 11
1708.2032979999999
 21
838.52358300000003
 31
0.0
  0
TEXT
  8
3
  40
30
  5
7F29
  62
0
  72
0
  71
0
 10
1641.15
 20
810.464
 30
0.000000
  1
36
  0
LINE
  5
7EEF
  8
3
  6
CONTINUOUS
 62
     0
 10
1632.2032979999999
 20
838.52358300000003
 30
0.0
 11
1668.2032979999999
 21
838.52358300000003
 31
0.0
  0
INSERT
  5
7EF0
  8
3
  6
CONTINUOUS
 62
     0
  2
_OPEN
 10
1632.2032979999999
 20
838.52358300000003
 30
0.0
 41
20.0
 42
20.0
 43
20.0
  0
INSERT
  5
7EF1
  8
3
  6
CONTINUOUS
 62
     0
  2
_OPEN
 10
1668.2032979999999
 20
838.52358300000003
 30
0.0
 41
20.0
 42
20.0
 43
20.0
 50
180.0
  0
POINT
  5
7EF2
  8
DEFPOINTS
  6
CONTINUOUS
 62
     0
 10
1632.2032979999999
 20
996.87735500000008
 30
0.0
  0
POINT
  5
7EF3
  8
DEFPOINTS
  6
CONTINUOUS
 62
     0
 10
1668.2032979999999
 20
926.2509970000001
 30
0.0
  0
POINT
  5
7EF4
  8
DEFPOINTS
  6
CONTINUOUS
 62
     0
 10
1668.2032979999999
 20
838.52358300000003
 30
0.0
  0
ENDBLK
  5
7CB8
  8
0
  0
BLOCK
  8
0
  2
*D13
 70
     1
 10
0.0
 20
0.0
 30
0.0
  3
*D13
  1

  0
LINE
  5
7EF5
  8
3
  6
CONTINUOUS
 62
     0
 10
466.45845999999989
 20
1161.2509970000001
 30
0.0
 11
420.19381700000008
 21
1161.2509970000001
 31
0.0
  0
LINE
  5
7EF6
  8
3
  6
CONTINUOUS
 62
     0
 10
466.45845999999989
 20
1001.250997
 30
0.0
 11
420.19381700000008
 21
1001.250997
 31
0.0
  0
LINE
  5
7EF7
  8
3
  6
CONTINUOUS
 62
     0
 10
430.19381700000008
 20
1141.250996999999
 30
0.0
 11
430.19381700000008
 21
1021.250997
 31
0.0
  0
INSERT
  5
7EF8
  8
3
  6
CONTINUOUS
 62
     0
  2
_OPEN
 10
430.19381700000019
 20
1161.2509970000001
 30
0.0
 41
20.0
 42
20.0
 43
20.0
 50
90.0
  0
INSERT
  5
7EF9
  8
3
  6
CONTINUOUS
 62
     0
  2
_OPEN
 10
430.19381700000008
 20
1001.250997
 30
0.0
 41
20.0
 42
20.0
 43
20.0
 50
270.0
  0
TEXT
  8
3
  40
30
  5
7F2A
  62
0
  72
0
  71
0
 10
345.194
 20
1030.17
 30
0.000000
  1
160
  0
POINT
  5
7EFB
  8
DEFPOINTS
  6
CONTINUOUS
 62
     0
 10
471.45845999999989
 20
1161.2509970000001
 30
0.0
  0
POINT
  5
7EFC
  8
DEFPOINTS
  6
CONTINUOUS
 62
     0
 10
471.45845999999989
 20
1001.250997
 30
0.0
  0
POINT
  5
7EFD
  8
DEFPOINTS
  6
CONTINUOUS
 62
     0
 10
430.19381700000008
 20
1001.250997
 30
0.0
  0
ENDBLK
  5
7CE1
  8
0
  0
BLOCK
  8
0
  2
*D14
 70
     1
 10
0.0
 20
0.0
 30
0.0
  3
*D14
  1

  0
LINE
  5
7DAC
  8
0
  6
BYBLOCK
 62
     0
 10
596.45845999999995
 20
1283.895178999999
 30
0.0
 11
303.757407
 21
1283.895178999999
 31
0.0
  0
LINE
  5
7DAD
  8
0
  6
BYBLOCK
 62
     0
 10
466.45845999999989
 20
1161.2509970000001
 30
0.0
 11
303.757407
 21
1161.2509970000001
 31
0.0
  0
LINE
  5
7DAE
  8
0
  6
BYBLOCK
 62
     0
 10
313.75740699999989
 20
1263.895178999999
 30
0.0
 11
313.75740699999989
 21
1181.2509970000001
 31
0.0
  0
TEXT
  5
7DAF
  8
3
 62
     0
 10
306.07703708537332
 20
1188.447165226381
 30
0.0
 40
30.0
  1
123
 50
90.0
  0
INSERT
  5
7DB0
  8
0
  6
BYBLOCK
 62
     0
  2
_OPEN
 10
313.75740699999989
 20
1283.895178999999
 30
0.0
 41
20.0
 42
20.0
 43
20.0
 50
90.0
  0
INSERT
  5
7DB1
  8
0
  6
BYBLOCK
 62
     0
  2
_OPEN
 10
313.75740699999989
 20
1161.2509970000001
 30
0.0
 41
20.0
 42
20.0
 43
20.0
 50
270.0
  0
POINT
  5
7DB2
  8
DEFPOINTS
  6
BYBLOCK
 62
     0
 10
601.45845999999995
 20
1283.895178999999
 30
0.0
  0
POINT
  5
7DB3
  8
DEFPOINTS
  6
BYBLOCK
 62
     0
 10
471.45845999999989
 20
1161.2509970000001
 30
0.0
  0
POINT
  5
7DB4
  8
DEFPOINTS
  6
BYBLOCK
 62
     0
 10
313.75740699999989
 20
1161.2509970000001
 30
0.0
  0
ENDBLK
  5
7DB5
  8
0
  0
BLOCK
  8
0
  2
*D15
 70
     1
 10
0.0
 20
0.0
 30
0.0
  3
*D15
  1

  0
LINE
  5
7EFE
  8
3
  6
CONTINUOUS
 62
     0
 10
461.45845999999989
 20
926.2509970000001
 30
0.0
 11
303.757407
 21
926.2509970000001
 31
0.0
  0
LINE
  5
7EFF
  8
3
  6
CONTINUOUS
 62
     0
 10
313.75740699999989
 20
1141.250996999999
 30
0.0
 11
313.75740699999989
 21
946.2509970000001
 31
0.0
  0
INSERT
  5
7F00
  8
3
  6
CONTINUOUS
 62
     0
  2
_OPEN
 10
313.757407
 20
1161.2509970000001
 30
0.0
 41
20.0
 42
20.0
 43
20.0
 50
90.0
  0
INSERT
  5
7F01
  8
3
  6
CONTINUOUS
 62
     0
  2
_OPEN
 10
313.75740699999989
 20
926.2509970000001
 30
0.0
 41
20.0
 42
20.0
 43
20.0
 50
270.0
  0
TEXT
  8
3
  40
30
  5
7F2B
  62
0
  72
0
  71
0
 10
228.757
 20
990.651
 30
0.000000
  1
235
  0
POINT
  5
7F03
  8
DEFPOINTS
  6
CONTINUOUS
 62
     0
 10
471.45845999999989
 20
1161.2509970000001
 30
0.0
  0
POINT
  5
7F04
  8
DEFPOINTS
  6
CONTINUOUS
 62
     0
 10
466.45845999999989
 20
926.2509970000001
 30
0.0
  0
POINT
  5
7F05
  8
DEFPOINTS
  6
CONTINUOUS
 62
     0
 10
313.75740699999989
 20
926.2509970000001
 30
0.0
  0
ENDBLK
  5
7D32
  8
0
  0
BLOCK
  8
0
  2
*D16
 70
     1
 10
0.0
 20
0.0
 30
0.0
  3
*D16
  1

  0
LINE
  5
7F06
  8
3
  6
CONTINUOUS
 62
     0
 10
596.45845999999995
 20
1283.895178999999
 30
0.0
 11
235.47420700000021
 21
1283.8951790000001
 31
0.0
  0
LINE
  5
7F07
  8
3
  6
CONTINUOUS
 62
     0
 10
461.45845999999989
 20
926.2509970000001
 30
0.0
 11
235.47420700000009
 21
926.2509970000001
 31
0.0
  0
LINE
  5
7F08
  8
3
  6
CONTINUOUS
 62
     0
 10
245.47420700000021
 20
1263.8951790000001
 30
0.0
 11
245.47420700000009
 21
946.25099700000021
 31
0.0
  0
INSERT
  5
7F09
  8
3
  6
CONTINUOUS
 62
     0
  2
_OPEN
 10
245.47420700000021
 20
1283.8951790000001
 30
0.0
 41
20.0
 42
20.0
 43
20.0
 50
90.0
  0
INSERT
  5
7F0A
  8
3
  6
CONTINUOUS
 62
     0
  2
_OPEN
 10
245.47420700000009
 20
926.2509970000001
 30
0.0
 41
20.0
 42
20.0
 43
20.0
 50
270.0
  0
TEXT
  8
3
  40
30
  5
7F2C
  62
0
  72
0
  71
0
 10
160.474
 20
1063.07
 30
0.000000
  1
358
  0
POINT
  5
7F0C
  8
DEFPOINTS
  6
CONTINUOUS
 62
     0
 10
601.45845999999995
 20
1283.895178999999
 30
0.0
  0
POINT
  5
7F0D
  8
DEFPOINTS
  6
CONTINUOUS
 62
     0
 10
466.45845999999989
 20
926.2509970000001
 30
0.0
  0
POINT
  5
7F0E
  8
DEFPOINTS
  6
CONTINUOUS
 62
     0
 10
245.47420700000009
 20
926.2509970000001
 30
0.0
  0
ENDBLK
  5
7D28
  8
0
  0
BLOCK
  8
0
  2
*D17
 70
     1
 10
0.0
 20
0.0
 30
0.0
  3
*D17
  1

  0
LINE
  5
7F0F
  8
3
  6
CONTINUOUS
 62
     0
 10
466.45845999999989
 20
1161.2509970000001
 30
0.0
 11
364.86881600000021
 21
1161.2509970000001
 31
0.0
  0
LINE
  5
7F10
  8
3
  6
CONTINUOUS
 62
     0
 10
481.45845999999989
 20
990.25099699999998
 30
0.0
 11
364.86881600000021
 21
990.25099699999998
 31
0.0
  0
LINE
  5
7F11
  8
3
  6
CONTINUOUS
 62
     0
 10
374.86881600000021
 20
1141.250996999999
 30
0.0
 11
374.86881600000021
 21
1010.250997
 31
0.0
  0
INSERT
  5
7F12
  8
3
  6
CONTINUOUS
 62
     0
  2
_OPEN
 10
374.86881600000021
 20
1161.2509970000001
 30
0.0
 41
20.0
 42
20.0
 43
20.0
 50
90.0
  0
INSERT
  5
7F13
  8
3
  6
CONTINUOUS
 62
     0
  2
_OPEN
 10
374.86881600000021
 20
990.25099699999998
 30
0.0
 41
20.0
 42
20.0
 43
20.0
 50
270.0
  0
TEXT
  8
3
  40
30
  5
7F2D
  62
0
  72
0
  71
0
 10
289.869
 20
1036.96
 30
0.000000
  1
171
  0
POINT
  5
7F15
  8
DEFPOINTS
  6
CONTINUOUS
 62
     0
 10
471.45845999999989
 20
1161.2509970000001
 30
0.0
  0
POINT
  5
7F16
  8
DEFPOINTS
  6
CONTINUOUS
 62
     0
 10
486.45845999999989
 20
990.25099699999998
 30
0.0
  0
POINT
  5
7F17
  8
DEFPOINTS
  6
CONTINUOUS
 62
     0
 10
374.86881600000021
 20
990.25099699999998
 30
0.0
  0
ENDBLK
  5
7D4B
  8
0
  0
BLOCK
  8
0
  2
*D18
 70
     1
 10
0.0
 20
0.0
 30
0.0
  3
*D18
  1

  0
LINE
  5
7F18
  8
3
 62
     0
 10
471.45845999999989
 20
1188.2509970000001
 30
0.0
 11
471.45845999999989
 21
1404.0681772126959
 31
0.0
  0
LINE
  5
7F19
  8
3
 62
     0
 10
1026.4584600000001
 20
981.25099699999998
 30
0.0
 11
1026.4584600000001
 21
1404.0681772126959
 31
0.0
  0
LINE
  5
7F1A
  8
3
 62
     0
 10
491.45845999999989
 20
1394.0681772126959
 30
0.0
 11
1006.4584599999999
 21
1394.0681772126959
 31
0.0
  0
INSERT
  5
7F1B
  8
3
 62
     0
  2
_OPEN
 10
471.45845999999989
 20
1394.0681772126959
 30
0.0
 41
20.0
 42
20.0
 43
20.0
 50
180.0
  0
INSERT
  5
7F1C
  8
3
 62
     0
  2
_OPEN
 10
1026.4584600000001
 20
1394.0681772126959
 30
0.0
 41
20.0
 42
20.0
 43
20.0
  0
TEXT
  8
3
  40
30
  5
7F2E
  62
0
  72
0
  71
0
 10
682.436
 20
1365.97
 30
0.000000
  1
555
  0
POINT
  5
7F1E
  8
DEFPOINTS
 62
     0
 10
471.45845999999989
 20
1183.2509970000001
 30
0.0
  0
POINT
  5
7F1F
  8
DEFPOINTS
 62
     0
 10
1026.4584600000001
 20
976.2509970000001
 30
0.0
  0
POINT
  5
7F20
  8
DEFPOINTS
 62
     0
 10
1026.4584600000001
 20
1394.0681772126959
 30
0.0
  0
ENDBLK
  5
7DE2
  8
0
  0
ENDSEC
  0
SECTION
  2
ENTITIES
  0
LINE
  5
7AD3
  8
1
  6
CONTINUOUS
 10
1026.4584600000001
 20
996.2509970000001
 30
0.0
 11
775.45845999999995
 21
996.2509970000001
 31
0.0
  0
LINE
  5
7AD4
  8
1
  6
CONTINUOUS
 10
1026.4584600000001
 20
926.2509970000001
 30
0.0
 11
466.45845999999989
 21
926.2509970000001
 31
0.0
  0
LINE
  5
7AD5
  8
1
  6
CONTINUOUS
 10
1026.4584600000001
 20
976.2509970000001
 30
0.0
 11
466.45845999999989
 21
976.2509970000001
 31
0.0
  0
LINE
  5
7AD6
  8
1
  6
CONTINUOUS
 10
504.15845999999999
 20
1256.2509970000001
 30
0.0
 11
984.15845999999999
 21
1256.2509970000001
 31
0.0
  0
LINE
  5
7AD7
  8
1
  6
CONTINUOUS
 10
1026.4584600000001
 20
1794.6132580000001
 30
0.0
 11
896.45845999999995
 21
1794.6132580000001
 31
0.0
  0
LINE
  5
7AD8
  8
1
  6
CONTINUOUS
 10
504.15845999999999
 20
1722.613257999999
 30
0.0
 11
984.15845999999999
 21
1722.613257999999
 31
0.0
  0
LINE
  5
7AD9
  8
1
  6
CONTINUOUS
 10
504.15845999999999
 20
1797.613257999999
 30
0.0
 11
984.15845999999999
 21
1797.613257999999
 31
0.0
  0
LINE
  5
7ADA
  8
1
  6
CONTINUOUS
 10
746.45845999999995
 20
2018.613257999999
 30
0.0
 11
1026.4584600000001
 21
2018.613257999999
 31
0.0
  0
CIRCLE
  5
7ADB
  8
1
  6
CONTINUOUS
 10
601.45845999999995
 20
1161.2509970000001
 30
0.0
 40
80.0
  0
LINE
  5
7ADC
  8
1
  6
CONTINUOUS
 10
491.45845999999989
 20
1203.350997
 30
0.0
 11
564.85845999999992
 21
1266.2509970000001
 31
0.0
  0
LINE
  5
7ADD
  8
1
  6
CONTINUOUS
 10
711.45845999999995
 20
1127.9509969999999
 30
0.0
 11
491.45845999999989
 21
1127.9509969999999
 31
0.0
  0
ARC
  5
7ADE
  8
1
  6
CONTINUOUS
 10
610.45845999999995
 20
1170.2509970000001
 30
0.0
 40
114.0
 50
89.500000000000014
 51
179.49999999999989
  0
LINE
  5
7ADF
  8
1
  6
CONTINUOUS
 10
486.45845999999989
 20
990.25099699999998
 30
0.0
 11
588.45845999999995
 21
990.25099699999998
 31
0.0
  0
CIRCLE
  5
7AE0
  8
1
  6
CONTINUOUS
 10
601.45845999999995
 20
1161.2509970000001
 30
0.0
 40
100.0
  0
LINE
  5
7AE1
  8
1
  6
CONTINUOUS
 10
504.15845999999999
 20
976.2509970000001
 30
0.0
 11
504.15845999999999
 21
1256.2509970000001
 31
0.0
  0
LINE
  5
7AE2
  8
1
  6
CONTINUOUS
 10
491.45845999999989
 20
976.2509970000001
 30
0.0
 11
491.45845999999989
 21
1203.350997
 31
0.0
  0
LINE
  5
7AE3
  8
1
  6
CONTINUOUS
 10
486.45845999999989
 20
1015.250997
 30
0.0
 11
486.45845999999989
 21
1147.2509970000001
 31
0.0
  0
LINE
  5
7AE4
  8
1
  6
CONTINUOUS
 10
471.45845999999989
 20
979.2509970000001
 30
0.0
 11
471.45845999999989
 21
1183.2509970000001
 31
0.0
  0
LINE
  5
7AE5
  8
1
  6
CONTINUOUS
 10
466.45845999999989
 20
926.2509970000001
 30
0.0
 11
466.45845999999989
 21
976.2509970000001
 31
0.0
  0
LINE
  5
7AE6
  8
1
  6
CONTINUOUS
 10
471.45845999999989
 20
1000.250997
 30
0.0
 11
486.45845999999989
 21
1015.250997
 31
0.0
  0
LINE
  5
7AE7
  8
1
  6
CONTINUOUS
 10
486.45845999999989
 20
990.25099699999998
 30
0.0
 11
486.45845999999989
 21
1001.250997
 31
0.0
  0
LINE
  5
7AE8
  8
1
  6
CONTINUOUS
 10
486.45845999999989
 20
1001.250997
 30
0.0
 11
471.45845999999989
 21
1001.250997
 31
0.0
  0
LINE
  5
7AE9
  8
1
  6
CONTINUOUS
 10
471.45845999999989
 20
1162.2509970000001
 30
0.0
 11
486.45845999999989
 21
1147.2509970000001
 31
0.0
  0
LINE
  5
7AEA
  8
1
  6
CONTINUOUS
 10
486.45845999999989
 20
1171.2509970000001
 30
0.0
 11
496.45845999999989
 21
1171.2509970000001
 31
0.0
  0
LINE
  5
7AEB
  8
1
  6
CONTINUOUS
 10
486.45845999999989
 20
1161.2509970000001
 30
0.0
 11
486.45845999999989
 21
1171.2509970000001
 31
0.0
  0
LINE
  5
7AEC
  8
1
  6
CONTINUOUS
 10
471.45845999999989
 20
1161.2509970000001
 30
0.0
 11
486.45845999999989
 21
1161.2509970000001
 31
0.0
  0
ARC
  5
7AED
  8
1
  6
CONTINUOUS
 10
886.95845999999995
 20
1076.2509970000001
 30
0.0
 40
85.0
 50
324.69999999999987
 51
215.30000000000001
  0
LINE
  5
7AEE
  8
1
  6
CONTINUOUS
 10
711.45845999999995
 20
1203.350997
 30
0.0
 11
711.45845999999995
 21
976.2509970000001
 31
0.0
  0
ARC
  5
7AEF
  8
1
  6
CONTINUOUS
 10
588.45845999999995
 20
1148.2509970000001
 30
0.0
 40
158.0
 50
270.0
 51
9.0999999999999996
  0
LINE
  5
7AF0
  8
1
  6
CONTINUOUS
 10
898.05845999999997
 20
1109.4509969999999
 30
0.0
 11
615.7584599999999
 21
1203.9509969999999
 31
0.0
  0
LINE
  5
7AF1
  8
2
  6
CENTER
 10
601.45845999999995
 20
866.89250700000002
 30
0.0
 11
601.45845999999995
 21
1313.0283019999999
 31
0.0
  0
CIRCLE
  5
7AF2
  8
1
  6
CONTINUOUS
 10
601.45845999999995
 20
1161.2509970000001
 30
0.0
 40
45.0
  0
LINE
  5
7AF3
  8
1
  6
CONTINUOUS
 10
878.05845999999985
 20
1042.350997
 30
0.0
 11
590.05845999999997
 21
1117.7509970000001
 31
0.0
  0
CIRCLE
  5
7AF4
  8
1
  6
CONTINUOUS
 10
886.95845999999995
 20
1076.2509970000001
 30
0.0
 40
35.0
  0
LINE
  5
7AF5
  8
2
  6
CENTER
 10
921.95845999999995
 20
1076.2509970000001
 30
0.0
 11
851.95845999999995
 21
1076.2509970000001
 31
0.0
  0
LINE
  5
7AF6
  8
1
  6
CONTINUOUS
 10
775.45845999999995
 20
996.2509970000001
 30
0.0
 11
775.45845999999995
 21
976.2509970000001
 31
0.0
  0
LINE
  5
7AF7
  8
1
  6
CONTINUOUS
 10
809.45845999999995
 20
1004.250997
 30
0.0
 11
817.65845999999988
 21
1027.0509970000001
 31
0.0
  0
LINE
  5
7AF8
  8
1
  6
CONTINUOUS
 10
809.45845999999995
 20
996.2509970000001
 30
0.0
 11
809.45845999999995
 21
1004.250997
 31
0.0
  0
LINE
  5
7AF9
  8
1
  6
CONTINUOUS
 10
964.45845999999995
 20
996.2509970000001
 30
0.0
 11
964.45845999999995
 21
1004.250997
 31
0.0
  0
LINE
  5
7AFA
  8
1
  6
CONTINUOUS
 10
964.45845999999995
 20
1004.250997
 30
0.0
 11
956.25846000000001
 21
1027.0509970000001
 31
0.0
  0
LINE
  5
7AFB
  8
2
  6
CENTER
 10
886.95845999999995
 20
1041.2509970000001
 30
0.0
 11
886.95845999999995
 21
1111.2509970000001
 31
0.0
  0
ARC
  5
7AFC
  8
1
  6
CONTINUOUS
 10
612.45845999999995
 20
1150.2509970000001
 30
0.0
 40
134.0
 50
9.9000000000000004
 51
90.5
  0
LINE
  5
7AFD
  8
1
  6
CONTINUOUS
 10
711.45845999999995
 20
1203.350997
 30
0.0
 11
638.05845999999985
 21
1266.2509970000001
 31
0.0
  0
LINE
  5
7AFE
  8
1
  6
CONTINUOUS
 10
564.85845999999992
 20
1266.2509970000001
 30
0.0
 11
638.05845999999985
 21
1266.2509970000001
 31
0.0
  0
LINE
  5
7AFF
  8
2
  6
CENTER
 10
1730.2208909999999
 20
1161.2509970000001
 30
0.0
 11
1340.6268580000001
 21
1161.2509970000001
 31
0.0
  0
LINE
  5
7B00
  8
1
  6
CONTINUOUS
 10
501.45845999999989
 20
2046.6132580000001
 30
0.0
 11
701.45845999999995
 21
2046.6132580000001
 31
0.0
  0
LINE
  5
7B01
  8
1
  6
CONTINUOUS
 10
738.45845999999995
 20
1926.6132580000001
 30
0.0
 11
471.45845999999989
 21
1926.6132580000001
 31
0.0
  0
LINE
  5
7B02
  8
1
  6
CONTINUOUS
 10
738.45845999999995
 20
2038.613257999999
 30
0.0
 11
471.45845999999989
 21
2038.613257999999
 31
0.0
  0
LINE
  5
7B03
  8
1
  6
CONTINUOUS
 10
491.45845999999989
 20
1919.013257999999
 30
0.0
 11
711.45845999999995
 21
1919.013257999999
 31
0.0
  0
LINE
  5
7B04
  8
1
  6
CONTINUOUS
 10
589.45845999999995
 20
1794.6132580000001
 30
0.0
 11
466.45845999999989
 21
1794.6132580000001
 31
0.0
  0
LINE
  5
7B05
  8
1
  6
CONTINUOUS
 10
466.45845999999989
 20
1794.6132580000001
 30
0.0
 11
466.45845999999989
 21
2018.613257999999
 31
0.0
  0
LINE
  5
7B06
  8
1
  6
CONTINUOUS
 10
491.45845999999989
 20
1794.6132580000001
 30
0.0
 11
491.45845999999989
 21
1919.013257999999
 31
0.0
  0
LINE
  5
7B07
  8
1
  6
CONTINUOUS
 10
504.15845999999999
 20
1722.613257999999
 30
0.0
 11
504.15845999999999
 21
1797.613257999999
 31
0.0
  0
LINE
  5
7B08
  8
1
  6
CONTINUOUS
 10
471.45845999999989
 20
1925.6132580000001
 30
0.0
 11
486.45845999999989
 21
1940.613257999999
 31
0.0
  0
LINE
  5
7B09
  8
1
  6
CONTINUOUS
 10
471.45845999999989
 20
2039.6132580000001
 30
0.0
 11
486.45845999999989
 21
2024.6132580000001
 31
0.0
  0
LINE
  5
7B0A
  8
1
  6
CONTINUOUS
 10
486.45845999999989
 20
2024.6132580000001
 30
0.0
 11
486.45845999999989
 21
1940.613257999999
 31
0.0
  0
LINE
  5
7B0B
  8
1
  6
CONTINUOUS
 10
471.45845999999989
 20
2059.6132579999999
 30
0.0
 11
471.45845999999989
 21
1905.613257999999
 31
0.0
  0
LINE
  5
7B0C
  8
1
  6
CONTINUOUS
 10
501.45845999999989
 20
1919.013257999999
 30
0.0
 11
501.45845999999989
 21
1926.6132580000001
 31
0.0
  0
LINE
  5
7B0D
  8
1
  6
CONTINUOUS
 10
501.45845999999989
 20
2046.6132580000001
 30
0.0
 11
501.45845999999989
 21
2038.613257999999
 31
0.0
  0
LINE
  5
7B0E
  8
1
  6
CONTINUOUS
 10
466.45845999999989
 20
2018.613257999999
 30
0.0
 11
471.45845999999989
 21
2018.613257999999
 31
0.0
  0
LINE
  5
7B0F
  8
1
  6
CONTINUOUS
 10
877.45845999999983
 20
1794.6132580000001
 30
0.0
 11
613.45845999999995
 21
1794.6132580000001
 31
0.0
  0
LINE
  5
7B10
  8
1
  6
CONTINUOUS
 10
711.45845999999995
 20
1919.013257999999
 30
0.0
 11
711.45845999999995
 21
1794.6132580000001
 31
0.0
  0
LINE
  5
7B11
  8
1
  6
CONTINUOUS
 10
613.45845999999995
 20
1919.013257999999
 30
0.0
 11
613.45845999999995
 21
1778.513258
 31
0.0
  0
LINE
  5
7B12
  8
1
  6
CONTINUOUS
 10
589.45845999999995
 20
1919.013257999999
 30
0.0
 11
589.45845999999995
 21
1778.513258
 31
0.0
  0
LINE
  5
7B13
  8
1
  6
CONTINUOUS
 10
646.45845999999995
 20
1778.513258
 30
0.0
 11
646.45845999999995
 21
1743.513257999999
 31
0.0
  0
LINE
  5
7B14
  8
1
  6
CONTINUOUS
 10
556.45845999999995
 20
1778.513258
 30
0.0
 11
556.45845999999995
 21
1743.513257999999
 31
0.0
  0
LINE
  5
7B15
  8
1
  6
CONTINUOUS
 10
556.45845999999995
 20
1743.513257999999
 30
0.0
 11
646.45845999999995
 21
1743.513257999999
 31
0.0
  0
LINE
  5
7B16
  8
1
  6
CONTINUOUS
 10
556.45845999999995
 20
1778.513258
 30
0.0
 11
646.45845999999995
 21
1778.513258
 31
0.0
  0
LINE
  5
7B17
  8
1
  6
CONTINUOUS
 10
746.45845999999995
 20
2030.6132580000001
 30
0.0
 11
746.45845999999995
 21
1934.613257999999
 31
0.0
  0
ARC
  5
7B18
  8
1
  6
CONTINUOUS
 10
738.45845999999995
 20
2030.6132580000001
 30
0.0
 40
8.0
 50
0.0
 51
90.0
  0
ARC
  5
7B19
  8
1
  6
CONTINUOUS
 10
738.45845999999995
 20
1934.613257999999
 30
0.0
 40
8.0
 50
270.0
 51
0.0
  0
LINE
  5
7B1A
  8
1
  6
CONTINUOUS
 10
701.45845999999995
 20
1919.013257999999
 30
0.0
 11
701.45845999999995
 21
1926.6132580000001
 31
0.0
  0
LINE
  5
7B1B
  8
1
  6
CONTINUOUS
 10
701.45845999999995
 20
2046.6132580000001
 30
0.0
 11
701.45845999999995
 21
2038.613257999999
 31
0.0
  0
LINE
  5
7B1C
  8
1
  6
CONTINUOUS
 10
971.95845999999995
 20
1808.3132579999999
 30
0.0
 11
971.95845999999995
 21
1999.113257999999
 31
0.0
  0
LINE
  5
7B1D
  8
1
  6
CONTINUOUS
 10
801.95845999999995
 20
1808.3132579999999
 30
0.0
 11
801.95845999999995
 21
1999.113257999999
 31
0.0
  0
LINE
  5
7B1E
  8
1
  6
CONTINUOUS
 10
801.95845999999995
 20
1808.3132579999999
 30
0.0
 11
971.95845999999995
 21
1808.3132579999999
 31
0.0
  0
LINE
  5
7B1F
  8
1
  6
CONTINUOUS
 10
851.95845999999995
 20
1778.513258
 30
0.0
 11
921.95845999999995
 21
1778.513258
 31
0.0
  0
LINE
  5
7B20
  8
1
  6
CONTINUOUS
 10
851.95845999999995
 20
1743.513257999999
 30
0.0
 11
921.95845999999995
 21
1743.513257999999
 31
0.0
  0
LINE
  5
7B21
  8
1
  6
CONTINUOUS
 10
851.95845999999995
 20
1778.513258
 30
0.0
 11
851.95845999999995
 21
1743.513257999999
 31
0.0
  0
LINE
  5
7B22
  8
1
  6
CONTINUOUS
 10
877.45845999999983
 20
1778.513258
 30
0.0
 11
877.45845999999983
 21
1808.3132579999999
 31
0.0
  0
LINE
  5
7B23
  8
1
  6
CONTINUOUS
 10
896.45845999999995
 20
1778.513258
 30
0.0
 11
896.45845999999995
 21
1808.3132579999999
 31
0.0
  0
LINE
  5
7B24
  8
1
  6
CONTINUOUS
 10
921.95845999999995
 20
1778.513258
 30
0.0
 11
921.95845999999995
 21
1743.513257999999
 31
0.0
  0
LINE
  5
7B25
  8
1
  6
CONTINUOUS
 10
801.95845999999995
 20
1999.113257999999
 30
0.0
 11
971.95845999999995
 21
1999.113257999999
 31
0.0
  0
LINE
  5
7B32
  8
1
  6
CONTINUOUS
 10
984.15845999999999
 20
1256.2509970000001
 30
0.0
 11
984.15845999999999
 21
976.2509970000001
 31
0.0
  0
LINE
  5
7B33
  8
1
  6
CONTINUOUS
 10
1026.4584600000001
 20
996.2509970000001
 30
0.0
 11
1026.4584600000001
 21
926.2509970000001
 31
0.0
  0
LINE
  5
7B53
  8
1
  6
CONTINUOUS
 10
1568.603298
 20
1203.350997
 30
0.0
 11
1469.2032979999999
 21
1127.9509969999999
 31
0.0
  0
LINE
  5
7B54
  8
1
  6
CONTINUOUS
 10
1688.2032979999999
 20
1001.250997
 30
0.0
 11
1576.2032979999999
 21
1161.2509970000001
 31
0.0
  0
LINE
  5
7B55
  8
1
  6
CONTINUOUS
 10
1688.2032979999999
 20
1161.2509970000001
 30
0.0
 11
1576.2032979999999
 21
1001.250997
 31
0.0
  0
LINE
  5
7B56
  8
1
  6
CONTINUOUS
 10
1576.2032979999999
 20
1001.250997
 30
0.0
 11
1576.2032979999999
 21
1272.2509970000001
 31
0.0
  0
LINE
  5
7B57
  8
1
  6
CONTINUOUS
 10
1688.2032979999999
 20
1272.2509970000001
 30
0.0
 11
1688.2032979999999
 21
1001.250997
 31
0.0
  0
LINE
  5
7B58
  8
1
  6
CONTINUOUS
 10
1568.603298
 20
1261.2509970000001
 30
0.0
 11
1568.603298
 21
976.2509970000001
 31
0.0
  0
LINE
  5
7B59
  8
1
  6
CONTINUOUS
 10
1372.2032979999999
 20
976.2509970000001
 30
0.0
 11
1372.2032979999999
 21
1256.2509970000001
 31
0.0
  0
LINE
  5
7B5A
  8
1
  6
CONTINUOUS
 10
1447.2032979999999
 20
976.2509970000001
 30
0.0
 11
1447.2032979999999
 21
1256.2509970000001
 31
0.0
  0
LINE
  5
7B5B
  8
1
  6
CONTINUOUS
 10
1392.2032979999999
 20
1116.2509970000001
 30
0.0
 11
1392.2032979999999
 21
1206.2509970000001
 31
0.0
  0
LINE
  5
7B5C
  8
1
  6
CONTINUOUS
 10
1427.2032979999999
 20
1116.2509970000001
 30
0.0
 11
1427.2032979999999
 21
1206.2509970000001
 31
0.0
  0
LINE
  5
7B5D
  8
1
  6
CONTINUOUS
 10
1696.2032979999999
 20
1061.2509970000001
 30
0.0
 11
1696.2032979999999
 21
1261.2509970000001
 31
0.0
  0
LINE
  5
7B5E
  8
1
  6
CONTINUOUS
 10
1372.2032979999999
 20
976.2509970000001
 30
0.0
 11
1668.2032979999999
 21
976.2509970000001
 31
0.0
  0
LINE
  5
7B5F
  8
1
  6
CONTINUOUS
 10
1444.2032979999999
 20
926.2509970000001
 30
0.0
 11
1668.2032979999999
 21
926.2509970000001
 31
0.0
  0
LINE
  5
7B60
  8
1
  6
CONTINUOUS
 10
1469.2032979999999
 20
1127.9509969999999
 30
0.0
 11
1469.2032979999999
 21
976.2509970000001
 31
0.0
  0
LINE
  5
7B61
  8
1
  6
CONTINUOUS
 10
1444.2032979999999
 20
976.2509970000001
 30
0.0
 11
1444.2032979999999
 21
926.2509970000001
 31
0.0
  0
LINE
  5
7B62
  8
1
  6
CONTINUOUS
 10
1427.2032979999999
 20
1066.7509970000001
 30
0.0
 11
1469.2032979999999
 21
1066.7509970000001
 31
0.0
  0
LINE
  5
7B63
  8
1
  6
CONTINUOUS
 10
1427.2032979999999
 20
1085.7509970000001
 30
0.0
 11
1469.2032979999999
 21
1085.7509970000001
 31
0.0
  0
LINE
  5
7B64
  8
1
  6
CONTINUOUS
 10
1427.2032979999999
 20
1041.2509970000001
 30
0.0
 11
1427.2032979999999
 21
1111.2509970000001
 31
0.0
  0
LINE
  5
7B65
  8
1
  6
CONTINUOUS
 10
1392.2032979999999
 20
1041.2509970000001
 30
0.0
 11
1392.2032979999999
 21
1111.2509970000001
 31
0.0
  0
LINE
  5
7B66
  8
1
  6
CONTINUOUS
 10
1427.2032979999999
 20
1041.2509970000001
 30
0.0
 11
1392.2032979999999
 21
1041.2509970000001
 31
0.0
  0
LINE
  5
7B67
  8
1
  6
CONTINUOUS
 10
1427.2032979999999
 20
1111.2509970000001
 30
0.0
 11
1392.2032979999999
 21
1111.2509970000001
 31
0.0
  0
LINE
  5
7B68
  8
1
  6
CONTINUOUS
 10
1427.2032979999999
 20
1116.2509970000001
 30
0.0
 11
1392.2032979999999
 21
1116.2509970000001
 31
0.0
  0
LINE
  5
7B69
  8
1
  6
CONTINUOUS
 10
1688.2032979999999
 20
1001.250997
 30
0.0
 11
1576.2032979999999
 21
1001.250997
 31
0.0
  0
LINE
  5
7B6A
  8
1
  6
CONTINUOUS
 10
1568.603298
 20
1061.2509970000001
 30
0.0
 11
1576.603298
 21
1061.2509970000001
 31
0.0
  0
LINE
  5
7B6B
  8
1
  6
CONTINUOUS
 10
1668.2032979999999
 20
976.2509970000001
 30
0.0
 11
1668.2032979999999
 21
926.2509970000001
 31
0.0
  0
LINE
  5
7B6C
  8
1
  6
CONTINUOUS
 10
1696.2032979999999
 20
1061.2509970000001
 30
0.0
 11
1687.803298
 21
1061.2509970000001
 31
0.0
  0
LINE
  5
7B6D
  8
1
  6
CONTINUOUS
 10
1528.9032979999999
 20
1173.2509970000001
 30
0.0
 11
1427.2032979999999
 21
1173.2509970000001
 31
0.0
  0
LINE
  5
7B6E
  8
1
  6
CONTINUOUS
 10
1497.303298
 20
1149.250996999999
 30
0.0
 11
1427.2032979999999
 21
1149.250996999999
 31
0.0
  0
LINE
  5
7B6F
  8
1
  6
CONTINUOUS
 10
1447.2032979999999
 20
1256.2509970000001
 30
0.0
 11
1372.2032979999999
 21
1256.2509970000001
 31
0.0
  0
LINE
  5
7B70
  8
1
  6
CONTINUOUS
 10
1427.2032979999999
 20
1206.2509970000001
 30
0.0
 11
1392.2032979999999
 21
1206.2509970000001
 31
0.0
  0
LINE
  5
7B71
  8
1
  6
CONTINUOUS
 10
1576.2032979999999
 20
1161.2509970000001
 30
0.0
 11
1688.2032979999999
 21
1161.2509970000001
 31
0.0
  0
LINE
  5
7B72
  8
1
  6
CONTINUOUS
 10
1588.2032979999999
 20
1284.2509970000001
 30
0.0
 11
1676.2032979999999
 21
1284.2509970000001
 31
0.0
  0
ARC
  5
7B73
  8
1
  6
CONTINUOUS
 10
1588.2032979999999
 20
1272.2509970000001
 30
0.0
 40
12.0
 50
90.0
 51
180.0
  0
LINE
  5
7B74
  8
1
  6
CONTINUOUS
 10
1568.603298
 20
1261.2509970000001
 30
0.0
 11
1576.603298
 21
1261.2509970000001
 31
0.0
  0
ARC
  5
7B75
  8
1
  6
CONTINUOUS
 10
1676.2032979999999
 20
1272.2509970000001
 30
0.0
 40
12.0
 50
0.0
 51
90.0
  0
LINE
  5
7B76
  8
1
  6
CONTINUOUS
 10
1696.2032979999999
 20
1261.2509970000001
 30
0.0
 11
1687.803298
 21
1261.2509970000001
 31
0.0
  0
LINE
  5
7B7F
  8
1
  6
CONTINUOUS
 10
1026.4584600000001
 20
2018.613257999999
 30
0.0
 11
1026.4584600000001
 21
1794.6132580000001
 31
0.0
  0
LINE
  5
7B80
  8
1
  6
CONTINUOUS
 10
984.15845999999999
 20
1797.613257999999
 30
0.0
 11
984.15845999999999
 21
1722.613257999999
 31
0.0
  0
LINE
  5
7BA5
  8
4
  6
CONTINUOUS
 10
1850.0
 20
500.0
 30
0.0
 11
1850.0
 21
300.0
 31
0.0
  0
LINE
  5
7BA6
  8
4
  6
CONTINUOUS
 10
1150.0
 20
500.0
 30
0.0
 11
1150.0
 21
300.0
 31
0.0
  0
LINE
  5
7BA7
  8
4
  6
CONTINUOUS
 10
650.0
 20
500.0
 30
0.0
 11
650.0
 21
300.0
 31
0.0
  0
LINE
  5
7BAA
  8
4
  6
CONTINUOUS
 10
650.0
 20
300.0
 30
0.0
 11
1850.0
 21
300.0
 31
0.0
  0
LINE
  5
7BAB
  8
4
  6
CONTINUOUS
 10
650.0
 20
400.0
 30
0.0
 11
1850.0
 21
400.0
 31
0.0
  0
TEXT
  5
7BAC
  8
4
  6
CONTINUOUS
 10
688.50208099999998
 20
431.543026
 30
0.0
 40
50.0
  1
機器名称
  0
TEXT
  5
7BAD
  8
4
  6
CONTINUOUS
 10
686.258106
 20
321.64515699999993
 30
0.0
 40
50.0
  1
機器型番
  0
TEXT
  5
7BAE
  8
4
  6
CONTINUOUS
 10
1177.153061999999
 20
422.33817699999992
 30
0.0
 40
45.0
  1
ミツヤニューマルチファン
  0
TEXT
  5
7BAF
  8
4
  6
CONTINUOUS
 10
1186.6544960000001
 20
317.159584
 30
0.0
 40
50.0
  1
NM#1-1
  0
TEXT
  5
7BB1
  8
4
  6
CONTINUOUS
 10
904.78576499999997
 20
2383.4288409999999
 30
0.0
 40
54.0
  1
床置ベット
  0
TEXT
  5
7BB2
  8
4
  6
CONTINUOUS
 10
316.16759300000001
 20
2533.8809759999999
 30
0.0
 40
72.0
  1
ベルト駆動式片吸込片持多翼ファン
  0
LINE
  5
7BB3
  8
4
  6
CONTINUOUS
 10
250.0
 20
2469.408754
 30
0.0
 11
1850.0
 21
2469.408754
 31
0.0
  0
LINE
  5
7BB4
  8
4
  6
CONTINUOUS
 10
250.0
 20
2669.408754
 30
0.0
 11
1850.0
 21
2669.408754
 31
0.0
  0
LINE
  5
7BB5
  8
4
  6
CONTINUOUS
 10
650.0
 20
500.0
 30
0.0
 11
1850.0
 21
500.0
 31
0.0
  0
LINE
  5
7BB6
  8
4
  6
CONTINUOUS
 10
250.0
 20
2669.408754
 30
0.0
 11
250.0
 21
2469.408754
 31
0.0
  0
TEXT
  5
7BB7
  8
4
  6
CONTINUOUS
 10
468.92693300000002
 20
2382.3194779999999
 30
0.0
 40
54.0
  1
右回転左横向
  0
TEXT
  5
7BB8
  8
4
  6
CONTINUOUS
 10
1468.9695589999999
 20
2706.0610809999998
 30
0.0
 40
56.0
  1
No.
  0
TEXT
  5
7BB9
  8
4
  6
CONTINUOUS
 10
1311.296063
 20
2383.4288409999999
 30
0.0
 40
54.0
  1
縮尺：1/10
  0
LINE
  5
7BBA
  8
4
  6
CONTINUOUS
 10
1850.0
 20
2669.408754
 30
0.0
 11
1850.0
 21
2469.408754
 31
0.0
  0
LINE
  5
7BBC
  8
4
  6
CONTINUOUS
 10
1440.617422
 20
2681.2635829999999
 30
0.0
 11
1440.617422
 21
2786.6522620000001
 31
0.0
  0
LINE
  5
7BBD
  8
4
  6
CONTINUOUS
 10
1440.617422
 20
2786.6522620000001
 30
0.0
 11
1850.0
 21
2786.6522620000001
 31
0.0
  0
LINE
  5
7BBE
  8
4
  6
CONTINUOUS
 10
1850.0
 20
2786.6522620000001
 30
0.0
 11
1850.0
 21
2681.2635829999999
 31
0.0
  0
LINE
  5
7BBF
  8
4
  6
CONTINUOUS
 10
1850.0
 20
2681.2635829999999
 30
0.0
 11
1440.617422
 21
2681.2635829999999
 31
0.0
  0
LINE
  5
7BC4
  8
2
  6
CENTER
 10
779.876666
 20
1982.613257999999
 30
0.0
 11
429.42388799999992
 21
1982.613257999999
 31
0.0
  0
LINE
  5
7BC5
  8
2
  6
CENTER
 10
1632.2032979999999
 20
1309.2528500000001
 30
0.0
 11
1632.2032979999999
 21
996.87735500000008
 31
0.0
  0
LINE
  5
7BCC
  8
2
  6
CENTER
 10
601.45845999999995
 20
1698.1981189999999
 30
0.0
 11
601.45845999999995
 21
2094.8689209999998
 31
0.0
  0
LINE
  5
7BCD
  8
2
  6
CENTER
 10
776.97318099999995
 20
1161.2509970000001
 30
0.0
 11
420.55777
 21
1161.2509970000001
 31
0.0
  0
DIMENSION
  5
7BDB
  8
3
  6
CONTINUOUS
  2
*D1
 10
1026.4584600000001
 20
1615.8207580000001
 30
0.0
 11
734.64346499999988
 21
1615.8207580000001
 31
0.0
 70
   128
 13
466.45845999999989
 23
1794.6132580000001
 33
0.0
 14
1026.4584600000001
 24
1794.6132580000001
 34
0.0
1001
ACAD
1000
DSTYLE
1002
{
1070
   287
1070
     3
1070
   287
1070
     3
1070
    40
1040
10.0
1070
   143
1040
0.039
1070
   172
1070
     1
1070
   271
1070
     0
1070
   279
1070
     0
1070
   288
1070
     1
1002
}
  0
DIMENSION
  5
7BE8
  8
3
  6
CONTINUOUS
  2
*D2
 10
1144.5734110000001
 20
1794.6132580000001
 30
0.0
 11
1144.5734109999989
 21
1911.9339640000001
 31
0.0
 70
   128
 13
1026.4584600000001
 23
2018.613257999999
 33
0.0
 14
1026.4584600000001
 24
1794.6132580000001
 34
0.0
 50
90.0
1001
ACAD
1000
DSTYLE
1002
{
1070
   287
1070
     3
1070
   287
1070
     3
1070
    40
1040
10.0
1070
   143
1040
0.039
1070
   172
1070
     1
1070
   271
1070
     0
1070
   279
1070
     0
1070
   288
1070
     1
1002
}
  0
DIMENSION
  5
7C1D
  8
3
  6
CONTINUOUS
  2
*D3
 10
601.45845999999995
 20
833.78194599999995
 30
0.0
 11
807.16771999999992
 21
833.78194599999995
 31
0.0
 70
   128
 13
1026.4584600000001
 23
926.2509970000001
 33
0.0
 14
601.45845999999995
 24
866.89250700000002
 34
0.0
1001
ACAD
1000
DSTYLE
1002
{
1070
   287
1070
     3
1070
   287
1070
     3
1070
    40
1040
10.0
1070
   143
1040
0.039
1070
   172
1070
     1
1070
   271
1070
     0
1070
   279
1070
     0
1070
   288
1070
     1
1002
}
  0
DIMENSION
  5
7C29
  8
3
  6
CONTINUOUS
  2
*D4
 10
466.45845999999989
 20
833.78194599999995
 30
0.0
 11
533.95845999999995
 21
858.78194599999995
 31
0.0
 70
     0
 13
601.45845999999995
 23
866.89250700000002
 33
0.0
 14
466.45845999999989
 24
926.2509970000001
 34
0.0
1001
ACAD
1000
DSTYLE
1002
{
1070
   287
1070
     4
1070
   287
1070
     4
1070
    40
1040
10.0
1070
    75
1070
     1
1070
   143
1040
0.039
1070
   172
1070
     1
1070
   271
1070
     0
1070
   279
1070
     1
1070
   288
1070
     1
1002
}
  0
DIMENSION
  5
7C38
  8
3
  6
CONTINUOUS
  2
*D5
 10
601.45845999999995
 20
1343.6730189999989
 30
0.0
 11
538.79990093936419
 21
1368.896806541745
 31
0.0
 70
   128
 13
471.45845999999989
 23
1183.2509970000001
 33
0.0
 14
601.45845999999995
 24
1313.0283019999999
 34
0.0
1001
ACAD
1000
DSTYLE
1002
{
1070
   288
1070
     1
1070
   172
1070
     1
1070
    40
1040
10.0
1070
   271
1070
     0
1070
   143
1040
0.039
1002
}
  0
DIMENSION
  5
7C44
  8
3
  6
CONTINUOUS
  2
*D6
 10
746.45845999999995
 20
1343.6730189999989
 30
0.0
 11
673.95845999999995
 21
1368.6730190000001
 31
0.0
 70
     0
 13
601.45845999999995
 23
1313.0283019999999
 33
0.0
 14
746.45845999999995
 24
1148.2509970000001
 34
0.0
1001
ACAD
1000
DSTYLE
1002
{
1070
   287
1070
     4
1070
   287
1070
     4
1070
    40
1040
10.0
1070
    75
1070
     1
1070
   143
1040
0.039
1070
   172
1070
     1
1070
   271
1070
     0
1070
   279
1070
     1
1070
   288
1070
     1
1002
}
  0
DIMENSION
  5
7C53
  8
3
  6
CONTINUOUS
  2
*D7
 10
1688.2032979999999
 20
1319.8073159999999
 30
0.0
 11
1630.4600111658849
 21
1343.7254427392979
 31
0.0
 70
   128
 13
1576.2032979999999
 23
1272.2509970000001
 33
0.0
 14
1688.2032979999999
 24
1272.2509970000001
 34
0.0
1001
ACAD
1000
DSTYLE
1002
{
1070
   288
1070
     1
1070
   172
1070
     1
1070
    40
1040
10.0
1070
   271
1070
     0
1070
   143
1040
0.039
1002
}
  0
DIMENSION
  5
7C61
  8
3
  6
CONTINUOUS
  2
*D8
 10
1696.2032979999999
 20
1388.377508
 30
0.0
 11
1664.049547023425
 21
1417.141927364939
 31
0.0
 70
   128
 13
1632.2032979999999
 23
1368.19731
 33
0.0
 14
1696.2032979999999
 24
1261.2509970000001
 34
0.0
1001
ACAD
1000
DSTYLE
1002
{
1070
   288
1070
     1
1070
   172
1070
     1
1070
    40
1040
10.0
1070
   271
1070
     0
1070
   143
1040
0.039
1002
}
  0
DIMENSION
  5
7C6D
  8
3
  6
CONTINUOUS
  2
*D9
 10
1372.2032979999999
 20
1388.377508
 30
0.0
 11
1502.2032979999999
 21
1438.377508
 31
0.0
 70
     0
  1
MAX\P260
 13
1632.2032979999999
 23
1368.19731
 33
0.0
 14
1372.2032979999999
 24
1256.2509970000001
 34
0.0
1001
ACAD
1000
DSTYLE
1002
{
1070
   287
1070
     4
1070
   287
1070
     4
1070
    40
1040
10.0
1070
    75
1070
     1
1070
   143
1040
0.039
1070
   172
1070
     1
1070
   271
1070
     0
1070
   279
1070
     1
1070
   288
1070
     1
1002
}
  0
DIMENSION
  5
7C7C
  8
3
  6
CONTINUOUS
  2
*D10
 10
1778.2055760000001
 20
1081.2509970000001
 30
0.0
 11
1754.3214371881379
 21
1163.3306482162479
 31
0.0
 70
   128
 13
1696.2032979999999
 23
1241.2509970000001
 33
0.0
 14
1696.2032979999999
 24
1081.2509970000001
 34
0.0
 50
90.0
1001
ACAD
1000
DSTYLE
1002
{
1070
   288
1070
     1
1070
   172
1070
     1
1070
    40
1040
10.0
1070
     3
1000
φ<>
1070
   271
1070
     0
1070
   143
1040
0.039
1002
}
  0
DIMENSION
  5
7C89
  8
3
  6
CONTINUOUS
  2
*D11
 10
1632.2032979999999
 20
838.52358300000003
 30
0.0
 11
1540.2270510000001
 21
838.52358300000003
 31
0.0
 70
   128
 13
1444.2032979999999
 23
926.2509970000001
 33
0.0
 14
1632.2032979999999
 24
996.87735500000008
 34
0.0
1001
ACAD
1000
DSTYLE
1002
{
1070
   287
1070
     3
1070
   287
1070
     3
1070
    40
1040
10.0
1070
   143
1040
0.039
1070
   172
1070
     1
1070
   271
1070
     0
1070
   279
1070
     0
1070
   288
1070
     1
1002
}
  0
DIMENSION
  5
7C99
  8
3
  6
CONTINUOUS
  2
*D12
 10
1668.2032979999999
 20
838.52358300000003
 30
0.0
 11
1701.1491920000001
 21
838.56370199999981
 31
0.0
 70
   128
 13
1632.2032979999999
 23
996.87735500000008
 33
0.0
 14
1668.2032979999999
 24
926.2509970000001
 34
0.0
1001
ACAD
1000
DSTYLE
1002
{
1070
   287
1070
     4
1070
   287
1070
     4
1070
    40
1040
10.0
1070
    75
1070
     1
1070
   143
1040
0.039
1070
   172
1070
     1
1070
   271
1070
     0
1070
   279
1070
     1
1070
   288
1070
     1
1002
}
  0
DIMENSION
  5
7CE2
  8
3
  6
CONTINUOUS
  2
*D13
 10
430.19381700000008
 20
1001.250997
 30
0.0
 11
430.19381699999991
 21
1083.2738349999991
 31
0.0
 70
   128
 13
471.45845999999989
 23
1161.2509970000001
 33
0.0
 14
471.45845999999989
 24
1001.250997
 34
0.0
 50
90.0
1001
ACAD
1000
DSTYLE
1002
{
1070
   287
1070
     3
1070
   287
1070
     3
1070
    40
1040
10.0
1070
   143
1040
0.039
1070
   172
1070
     1
1070
   271
1070
     0
1070
   279
1070
     0
1070
   288
1070
     1
1002
}
  0
DIMENSION
  5
7CF1
  8
3
  6
CONTINUOUS
  2
*D14
 10
313.75740699999989
 20
1161.2509970000001
 30
0.0
 11
291.07703708537332
 21
1224.161450940667
 31
0.0
 70
   128
 13
601.45845999999995
 23
1283.895178999999
 33
0.0
 14
471.45845999999989
 24
1161.2509970000001
 34
0.0
 50
90.0
1001
ACAD
1000
DSTYLE
1002
{
1070
   288
1070
     1
1070
   172
1070
     1
1070
    40
1040
10.0
1070
   271
1070
     0
1070
   143
1040
0.039
1002
}
  0
DIMENSION
  5
7CFD
  8
3
  6
CONTINUOUS
  2
*D15
 10
313.75740699999989
 20
926.2509970000001
 30
0.0
 11
288.75740699999977
 21
1043.7509970000001
 31
0.0
 70
     0
 13
471.45845999999989
 23
1161.2509970000001
 33
0.0
 14
466.45845999999989
 24
926.2509970000001
 34
0.0
 50
90.0
1001
ACAD
1000
DSTYLE
1002
{
1070
   287
1070
     4
1070
   287
1070
     4
1070
    40
1040
10.0
1070
    75
1070
     1
1070
   143
1040
0.039
1070
   172
1070
     1
1070
   271
1070
     0
1070
   279
1070
     1
1070
   288
1070
     1
1002
}
  0
DIMENSION
  5
7D18
  8
3
  6
CONTINUOUS
  2
*D16
 10
245.47420700000009
 20
926.2509970000001
 30
0.0
 11
245.47420699999989
 21
1116.1701499999999
 31
0.0
 70
   128
 13
601.45845999999995
 23
1283.895178999999
 33
0.0
 14
466.45845999999989
 24
926.2509970000001
 34
0.0
 50
90.0
1001
ACAD
1000
DSTYLE
1002
{
1070
   287
1070
     3
1070
   287
1070
     3
1070
    40
1040
10.0
1070
   143
1040
0.039
1070
   172
1070
     1
1070
   271
1070
     0
1070
   279
1070
     0
1070
   288
1070
     1
1002
}
  0
DIMENSION
  5
7D4C
  8
3
  6
CONTINUOUS
  2
*D17
 10
374.86881600000021
 20
990.25099699999998
 30
0.0
 11
374.86881599999998
 21
1090.06421
 31
0.0
 70
   128
 13
471.45845999999989
 23
1161.2509970000001
 33
0.0
 14
486.45845999999989
 24
990.25099699999998
 34
0.0
 50
90.0
1001
ACAD
1000
DSTYLE
1002
{
1070
   287
1070
     3
1070
   287
1070
     3
1070
    40
1040
10.0
1070
   143
1040
0.039
1070
   172
1070
     1
1070
   271
1070
     0
1070
   279
1070
     0
1070
   288
1070
     1
1002
}
  0
DIMENSION
  5
7DE3
  8
3
  2
*D18
 10
1026.4584600000001
 20
1394.0681772126959
 30
0.0
 11
742.43649971842751
 21
1394.0681772126959
 31
0.0
 70
   128
 13
471.45845999999989
 23
1183.2509970000001
 33
0.0
 14
1026.4584600000001
 24
976.2509970000001
 34
0.0
1001
ACAD
1000
DSTYLE
1002
{
1070
   287
1070
     3
1070
   287
1070
     3
1070
    40
1040
10.0
1070
   143
1040
0.039
1070
   172
1070
     1
1070
   271
1070
     0
1070
   279
1070
     0
1070
   288
1070
     1
1002
}
  0
ENDSEC
  0
EOF
