  0
SECTION
  2
HEADER
  9
$ACADVER
  1
AC1009
  9
$INSBASE
 10
0.0
 20
0.0
 30
0.0
  9
$EXTMIN
 10
250.0
 20
300.0
 30
0.0
  9
$EXTMAX
 10
1850.0
 20
2786.6522620000001
 30
0.0
  9
$LIMMIN
 10
0.0
 20
0.0
  9
$LIMMAX
 10
297.0
 20
210.0
  9
$ORTHOMODE
 70
     0
  9
$REGENMODE
 70
     1
  9
$FILLMODE
 70
     0
  9
$QTEXTMODE
 70
     0
  9
$MIRRTEXT
 70
     1
  9
$DRAGMODE
 70
     2
  9
$LTSCALE
 40
100.0
  9
$OSMODE
 70
    37
  9
$ATTMODE
 70
     1
  9
$TEXTSIZE
 40
180.0
  9
$TRACEWID
 40
0.05
  9
$TEXTSTYLE
  7
STANDARD
  9
$CLAYER
  8
3
  9
$CELTYPE
  6
BYLAYER
  9
$CECOLOR
 62
   256
  9
$DIMSCALE
 40
10.0
  9
$DIMASZ
 40
2.0
  9
$DIMEXO
 40
0.5
  9
$DIMDLI
 40
10.0
  9
$DIMRND
 40
0.0
  9
$DIMDLE
 40
0.0
  9
$DIMEXE
 40
1.0
  9
$DIMTP
 40
1.0
  9
$DIMTM
 40
1.0
  9
$DIMTXT
 40
3.0
  9
$DIMCEN
 40
0.0
  9
$DIMTSZ
 40
0.0
  9
$DIMTOL
 70
     0
  9
$DIMLIM
 70
     0
  9
$DIMTIH
 70
     0
  9
$DIMTOH
 70
     0
  9
$DIMSE1
 70
     0
  9
$DIMSE2
 70
     0
  9
$DIMTAD
 70
     1
  9
$DIMZIN
 70
     8
  9
$DIMBLK
  1

  9
$DIMASO
 70
     1
  9
$DIMSHO
 70
     1
  9
$DIMPOST
  1

  9
$DIMAPOST
  1

  9
$DIMALT
 70
     0
  9
$DIMALTD
 70
     2
  9
$DIMALTF
 40
0.039
  9
$DIMLFAC
 40
1.0
  9
$DIMTOFL
 70
     1
  9
$DIMTVP
 40
0.0
  9
$DIMTIX
 70
     0
  9
$DIMSOXD
 70
     0
  9
$DIMSAH
 70
     1
  9
$DIMBLK1
  1
OPEN
  9
$DIMBLK2
  1
OPEN
  9
$DIMSTYLE
  2
IGA
  9
$DIMCLRD
 70
     0
  9
$DIMCLRE
 70
     0
  9
$DIMCLRT
 70
     0
  9
$DIMTFAC
 40
10.0
  9
$DIMGAP
 40
1.0
  9
$LUNITS
 70
     2
  9
$LUPREC
 70
     3
  9
$SKETCHINC
 40
0.1
  9
$FILLETRAD
 40
50.0
  9
$AUNITS
 70
     0
  9
$AUPREC
 70
     0
  9
$MENU
  1
acad
  9
$ELEVATION
 40
0.0
  9
$PELEVATION
 40
0.0
  9
$THICKNESS
 40
0.0
  9
$LIMCHECK
 70
     0
  9
$BLIPMODE
 70
     0
  9
$CHAMFERA
 40
0.5
  9
$CHAMFERB
 40
0.5
  9
$SKPOLY
 70
     0
  9
$TDCREATE
 40
2450726.4015167821
  9
$TDUPDATE
 40
2454953.8594705202
  9
$TDINDWG
 40
0.0101423148
  9
$TDUSRTIMER
 40
0.0101423148
  9
$USRTIMER
 70
     1
  9
$ANGBASE
 50
0.0
  9
$ANGDIR
 70
     0
  9
$PDMODE
 70
     0
  9
$PDSIZE
 40
0.0
  9
$PLINEWID
 40
0.0
  9
$COORDS
 70
     1
  9
$SPLFRAME
 70
     0
  9
$SPLINETYPE
 70
     6
  9
$SPLINESEGS
 70
     8
  9
$ATTDIA
 70
     0
  9
$ATTREQ
 70
     1
  9
$HANDLING
 70
 10241
  9
$HANDSEED
  5
7ECD
  9
$SURFTAB1
 70
     6
  9
$SURFTAB2
 70
     6
  9
$SURFTYPE
 70
     6
  9
$SURFU
 70
     6
  9
$SURFV
 70
     6
  9
$UCSNAME
  2

  9
$UCSORG
 10
0.0
 20
0.0
 30
0.0
  9
$UCSXDIR
 10
1.0
 20
0.0
 30
0.0
  9
$UCSYDIR
 10
0.0
 20
1.0
 30
0.0
  9
$PUCSNAME
  2

  9
$PUCSORG
 10
0.0
 20
0.0
 30
0.0
  9
$PUCSXDIR
 10
1.0
 20
0.0
 30
0.0
  9
$PUCSYDIR
 10
0.0
 20
1.0
 30
0.0
  9
$USERI1
 70
     0
  9
$USERI2
 70
     0
  9
$USERI3
 70
     0
  9
$USERI4
 70
     0
  9
$USERI5
 70
     0
  9
$USERR1
 40
0.0
  9
$USERR2
 40
0.0
  9
$USERR3
 40
0.0
  9
$USERR4
 40
0.0
  9
$USERR5
 40
0.0
  9
$WORLDVIEW
 70
     1
  9
$SHADEDGE
 70
     3
  9
$SHADEDIF
 70
    70
  9
$TILEMODE
 70
     1
  9
$MAXACTVP
 70
    16
  9
$PLIMCHECK
 70
     0
  9
$PEXTMIN
 10
1.0000000000000000E+020
 20
1.0000000000000000E+020
 30
1.0000000000000000E+020
  9
$PEXTMAX
 10
-1.0000000000000000E+020
 20
-1.0000000000000000E+020
 30
-1.0000000000000000E+020
  9
$PLIMMIN
 10
0.0
 20
0.0
  9
$PLIMMAX
 10
12.0
 20
9.0
  9
$UNITMODE
 70
     0
  9
$VISRETAIN
 70
     0
  9
$PLINEGEN
 70
     0
  9
$PSLTSCALE
 70
     1
  0
ENDSEC
  0
SECTION
  2
TABLES
  0
TABLE
  2
VPORT
 70
     2
  0
VPORT
  2
*ACTIVE
 70
     0
 10
0.0
 20
0.0
 11
1.0
 21
1.0
 12
2619.7868570898199
 22
1740.589058831129
 13
0.0
 23
0.0
 14
10.0
 24
10.0
 15
10.0
 25
10.0
 16
0.0
 26
0.0
 36
1.0
 17
0.0
 27
0.0
 37
0.0
 40
3481.178117662258
 41
1.5051150895140659
 42
50.0
 43
0.0
 44
0.0
 50
0.0
 51
0.0
 71
     0
 72
   100
 73
     1
 74
     0
 75
     0
 76
     0
 77
     0
 78
     0
  0
ENDTAB
  0
TABLE
  2
LTYPE
 70
     2
  0
LTYPE
  2
CONTINUOUS
 70
     0
  3
Solid line
 72
    65
 73
     0
 40
0.0
  0
LTYPE
  2
CENTER
 70
     0
  3
____ _ ____ _ ____ _ ____ _ ____ _ ____ _ ____ 
 72
    65
 73
     4
 40
2.0
 49
1.25
 49
-0.25
 49
0.25
 49
-0.25
  0
ENDTAB
  0
TABLE
  2
LAYER
 70
     6
  0
LAYER
  2
0
 70
     0
 62
     7
  6
CONTINUOUS
  0
LAYER
  2
3
 70
     0
 62
     2
  6
CONTINUOUS
  0
LAYER
  2
2
 70
     0
 62
     3
  6
CENTER
  0
LAYER
  2
1
 70
     0
 62
     4
  6
CONTINUOUS
  0
LAYER
  2
4
 70
     0
 62
     7
  6
CONTINUOUS
  0
LAYER
  2
DEFPOINTS
 70
     0
 62
     7
  6
CONTINUOUS
  0
ENDTAB
  0
TABLE
  2
STYLE
 70
     1
  0
STYLE
  2
STANDARD
 70
     0
 40
0.0
 41
1.0
 50
0.0
 71
     0
 42
180.0
  3
simplex.shx
  4
extfont.shx
  0
ENDTAB
  0
TABLE
  2
VIEW
 70
     0
  0
ENDTAB
  0
TABLE
  2
UCS
 70
     0
  0
ENDTAB
  0
TABLE
  2
APPID
 70
     1
  0
APPID
  2
ACAD
 70
     0
  0
ENDTAB
  0
TABLE
  2
DIMSTYLE
 70
     1
  0
DIMSTYLE
  2
IGA
 70
     0
  3

  4

  5

  6
OPEN
  7
OPEN
 40
2.0
 41
2.0
 42
0.5
 43
10.0
 44
1.0
 45
0.0
 46
0.0
 47
1.0
 48
1.0
140
3.0
141
0.0
142
0.0
143
0.03937
144
1.0
145
0.0
146
10.0
147
1.0
 71
     0
 72
     0
 73
     0
 74
     0
 75
     0
 76
     0
 77
     1
 78
     8
170
     0
171
     2
172
     0
173
     1
174
     0
175
     0
176
     0
177
     0
178
     0
  0
ENDTAB
  0
ENDSEC
  0
SECTION
  2
BLOCKS
  0
BLOCK
  8
0
  2
$MODEL_SPACE
 70
     0
 10
0.0
 20
0.0
 30
0.0
  3
$MODEL_SPACE
  1

  0
ENDBLK
  5
1B
  8
0
  0
BLOCK
 67
     1
  8
0
  2
$PAPER_SPACE
 70
     0
 10
0.0
 20
0.0
 30
0.0
  3
$PAPER_SPACE
  1

  0
ENDBLK
  5
18
 67
     1
  8
0
  0
BLOCK
  8
0
  2
_OPEN
 70
     0
 10
0.0
 20
0.0
 30
0.0
  3
_OPEN
  1

  0
LINE
  5
7B1C
  8
0
  6
BYBLOCK
 62
     0
 10
-1.0
 20
0.166667
 30
0.0
 11
0.0
 21
0.0
 31
0.0
  0
LINE
  5
7B1D
  8
0
  6
BYBLOCK
 62
     0
 10
0.0
 20
0.0
 30
0.0
 11
-1.0
 21
-0.166667
 31
0.0
  0
LINE
  5
7B1E
  8
0
  6
BYBLOCK
 62
     0
 10
0.0
 20
0.0
 30
0.0
 11
-1.0
 21
0.0
 31
0.0
  0
ENDBLK
  5
7B1F
  8
0
  0
BLOCK
  8
0
  2
*D1
 70
     1
 10
0.0
 20
0.0
 30
0.0
  3
*D1
  1

  0
LINE
  5
7E4D
  8
3
  6
CONTINUOUS
 62
     0
 10
383.35128700000001
 20
1766.3344589999999
 30
0.0
 11
383.35128700000001
 21
1581.6504990000001
 31
0.0
  0
LINE
  5
7E4E
  8
3
  6
CONTINUOUS
 62
     0
 10
943.35128699999996
 20
1766.3344589999999
 30
0.0
 11
943.35128699999996
 21
1581.6504990000001
 31
0.0
  0
LINE
  5
7E4F
  8
3
  6
CONTINUOUS
 62
     0
 10
403.35128700000001
 20
1591.6504990000001
 30
0.0
 11
923.35128699999996
 21
1591.6504990000001
 31
0.0
  0
INSERT
  5
7E50
  8
3
  6
CONTINUOUS
 62
     0
  2
_OPEN
 10
383.35128700000001
 20
1591.6504990000001
 30
0.0
 41
20.0
 42
20.0
 43
20.0
 50
180.0
  0
INSERT
  5
7E51
  8
3
  6
CONTINUOUS
 62
     0
  2
_OPEN
 10
943.35128699999996
 20
1591.6504990000001
 30
0.0
 41
20.0
 42
20.0
 43
20.0
  0
TEXT
  8
3
  40
30
  5
7EBF
  62
0
  72
0
  71
0
 10
606.341
 20
1563.55
 30
0.000000
  1
560
  0
POINT
  5
7E53
  8
DEFPOINTS
  6
CONTINUOUS
 62
     0
 10
383.35128700000001
 20
1771.3344589999999
 30
0.0
  0
POINT
  5
7E54
  8
DEFPOINTS
  6
CONTINUOUS
 62
     0
 10
943.35128699999996
 20
1771.3344589999999
 30
0.0
  0
POINT
  5
7E55
  8
DEFPOINTS
  6
CONTINUOUS
 62
     0
 10
943.35128699999996
 20
1591.6504990000001
 30
0.0
  0
ENDBLK
  5
7B2C
  8
0
  0
BLOCK
  8
0
  2
*D2
 70
     1
 10
0.0
 20
0.0
 30
0.0
  3
*D2
  1

  0
LINE
  5
7E56
  8
3
  6
CONTINUOUS
 62
     0
 10
378.35128700000001
 20
1995.3344589999999
 30
0.0
 11
316.48426200000029
 21
1995.3344589999999
 31
0.0
  0
LINE
  5
7E57
  8
3
  6
CONTINUOUS
 62
     0
 10
378.35128700000001
 20
1771.3344589999999
 30
0.0
 11
316.48426200000029
 21
1771.3344589999999
 31
0.0
  0
LINE
  5
7E58
  8
3
  6
CONTINUOUS
 62
     0
 10
326.48426200000029
 20
1975.3344589999999
 30
0.0
 11
326.48426200000029
 21
1791.3344589999999
 31
0.0
  0
INSERT
  5
7E59
  8
3
  6
CONTINUOUS
 62
     0
  2
_OPEN
 10
326.48426200000029
 20
1995.3344589999999
 30
0.0
 41
20.0
 42
20.0
 43
20.0
 50
90.0
  0
INSERT
  5
7E5A
  8
3
  6
CONTINUOUS
 62
     0
  2
_OPEN
 10
326.48426200000029
 20
1771.3344589999999
 30
0.0
 41
20.0
 42
20.0
 43
20.0
 50
270.0
  0
TEXT
  8
3
  40
30
  5
7EC0
  62
0
  72
0
  71
0
 10
241.484
 20
1837.02
 30
0.000000
  1
224
  0
POINT
  5
7E5C
  8
DEFPOINTS
  6
CONTINUOUS
 62
     0
 10
383.35128700000001
 20
1995.3344589999999
 30
0.0
  0
POINT
  5
7E5D
  8
DEFPOINTS
  6
CONTINUOUS
 62
     0
 10
383.35128700000001
 20
1771.3344589999999
 30
0.0
  0
POINT
  5
7E5E
  8
DEFPOINTS
  6
CONTINUOUS
 62
     0
 10
326.48426200000029
 20
1771.3344589999999
 30
0.0
  0
ENDBLK
  5
7B39
  8
0
  0
BLOCK
  8
0
  2
*D3
 70
     1
 10
0.0
 20
0.0
 30
0.0
  3
*D3
  1

  0
LINE
  5
7E5F
  8
3
  6
CONTINUOUS
 62
     0
 10
383.35128700000001
 20
936.93445899999983
 30
0.0
 11
383.35128700000001
 21
848.35127799999987
 31
0.0
  0
LINE
  5
7E60
  8
3
  6
CONTINUOUS
 62
     0
 10
808.35128699999996
 20
918.78524900000002
 30
0.0
 11
808.35128699999996
 21
848.35127799999987
 31
0.0
  0
LINE
  5
7E61
  8
3
  6
CONTINUOUS
 62
     0
 10
403.35128700000001
 20
858.35127799999987
 30
0.0
 11
788.35128699999996
 21
858.35127799999987
 31
0.0
  0
INSERT
  5
7E62
  8
3
  6
CONTINUOUS
 62
     0
  2
_OPEN
 10
383.35128700000001
 20
858.35127799999987
 30
0.0
 41
20.0
 42
20.0
 43
20.0
 50
180.0
  0
INSERT
  5
7E63
  8
3
  6
CONTINUOUS
 62
     0
  2
_OPEN
 10
808.35128699999996
 20
858.35127799999987
 30
0.0
 41
20.0
 42
20.0
 43
20.0
  0
TEXT
  8
3
  40
30
  5
7EC1
  62
0
  72
0
  71
0
 10
531.676
 20
830.251
 30
0.000000
  1
425
  0
POINT
  5
7E65
  8
DEFPOINTS
  6
CONTINUOUS
 62
     0
 10
383.35128700000001
 20
941.93445899999995
 30
0.0
  0
POINT
  5
7E66
  8
DEFPOINTS
  6
CONTINUOUS
 62
     0
 10
808.35128699999996
 20
923.78524899999991
 30
0.0
  0
POINT
  5
7E67
  8
DEFPOINTS
  6
CONTINUOUS
 62
     0
 10
808.35128699999996
 20
858.35127799999987
 30
0.0
  0
ENDBLK
  5
7B85
  8
0
  0
BLOCK
  8
0
  2
*D4
 70
     1
 10
0.0
 20
0.0
 30
0.0
  3
*D4
  1

  0
LINE
  5
7E68
  8
3
  6
CONTINUOUS
 62
     0
 10
943.35128699999996
 20
936.93445899999983
 30
0.0
 11
943.35128699999996
 21
848.35127799999987
 31
0.0
  0
LINE
  5
7E69
  8
3
  6
CONTINUOUS
 62
     0
 10
828.35128699999996
 20
858.35127799999987
 30
0.0
 11
923.35128699999996
 21
858.35127799999987
 31
0.0
  0
INSERT
  5
7E6A
  8
3
  6
CONTINUOUS
 62
     0
  2
_OPEN
 10
808.35128699999996
 20
858.35127799999987
 30
0.0
 41
20.0
 42
20.0
 43
20.0
 50
180.0
  0
INSERT
  5
7E6B
  8
3
  6
CONTINUOUS
 62
     0
  2
_OPEN
 10
943.35128699999996
 20
858.35127799999987
 30
0.0
 41
20.0
 42
20.0
 43
20.0
  0
TEXT
  8
3
  40
30
  5
7EC2
  62
0
  72
0
  71
0
 10
815.851
 20
830.251
 30
0.000000
  1
135
  0
POINT
  5
7E6D
  8
DEFPOINTS
  6
CONTINUOUS
 62
     0
 10
808.35128699999996
 20
923.78524899999991
 30
0.0
  0
POINT
  5
7E6E
  8
DEFPOINTS
  6
CONTINUOUS
 62
     0
 10
943.35128699999996
 20
941.93445899999995
 30
0.0
  0
POINT
  5
7E6F
  8
DEFPOINTS
  6
CONTINUOUS
 62
     0
 10
943.35128699999996
 20
858.35127799999987
 30
0.0
  0
ENDBLK
  5
7B91
  8
0
  0
BLOCK
  8
0
  2
*D5
 70
     1
 10
0.0
 20
0.0
 30
0.0
  3
*D5
  1

  0
LINE
  5
7E70
  8
3
  6
CONTINUOUS
 62
     0
 10
1381.3633830000001
 20
936.93445899999983
 30
0.0
 11
1381.3633830000001
 21
848.35127799999987
 31
0.0
  0
LINE
  5
7E71
  8
3
  6
CONTINUOUS
 62
     0
 10
1569.3633830000001
 20
1019.8236000000001
 30
0.0
 11
1569.3633830000001
 21
848.35127799999987
 31
0.0
  0
LINE
  5
7E72
  8
3
  6
CONTINUOUS
 62
     0
 10
1401.3633830000001
 20
858.35127799999987
 30
0.0
 11
1549.3633830000001
 21
858.35127799999987
 31
0.0
  0
INSERT
  5
7E73
  8
3
  6
CONTINUOUS
 62
     0
  2
_OPEN
 10
1381.3633830000001
 20
858.35127799999987
 30
0.0
 41
20.0
 42
20.0
 43
20.0
 50
180.0
  0
INSERT
  5
7E74
  8
3
  6
CONTINUOUS
 62
     0
  2
_OPEN
 10
1569.3633830000001
 20
858.35127799999987
 30
0.0
 41
20.0
 42
20.0
 43
20.0
  0
TEXT
  8
3
  40
30
  5
7EC3
  62
0
  72
0
  71
0
 10
1415.33
 20
830.251
 30
0.000000
  1
188
  0
POINT
  5
7E76
  8
DEFPOINTS
  6
CONTINUOUS
 62
     0
 10
1381.3633830000001
 20
941.93445899999995
 30
0.0
  0
POINT
  5
7E77
  8
DEFPOINTS
  6
CONTINUOUS
 62
     0
 10
1569.3633830000001
 20
1024.8235999999999
 30
0.0
  0
POINT
  5
7E78
  8
DEFPOINTS
  6
CONTINUOUS
 62
     0
 10
1569.3633830000001
 20
858.35127799999987
 30
0.0
  0
ENDBLK
  5
7BBA
  8
0
  0
BLOCK
  8
0
  2
*D6
 70
     1
 10
0.0
 20
0.0
 30
0.0
  3
*D6
  1

  0
LINE
  5
7E79
  8
3
  6
CONTINUOUS
 62
     0
 10
1605.3633830000001
 20
936.93445899999983
 30
0.0
 11
1605.3633830000001
 21
848.35127799999987
 31
0.0
  0
LINE
  5
7E7A
  8
3
  6
CONTINUOUS
 62
     0
 10
1549.3633830000001
 20
858.35127799999987
 30
0.0
 11
1529.3633830000001
 21
858.35127799999987
 31
0.0
  0
LINE
  5
7E7B
  8
3
  6
CONTINUOUS
 62
     0
 10
1625.3633830000001
 20
858.35127799999987
 30
0.0
 11
1645.3633830000001
 21
858.35127799999987
 31
0.0
  0
TEXT
  8
3
  40
30
  5
7EC4
  62
0
  72
0
  71
0
 10
1586.47
 20
830.944
 30
0.000000
  1
36
  0
LINE
  5
7E7D
  8
3
  6
CONTINUOUS
 62
     0
 10
1569.3633830000001
 20
858.35127799999987
 30
0.0
 11
1605.3633830000001
 21
858.35127799999987
 31
0.0
  0
INSERT
  5
7E7E
  8
3
  6
CONTINUOUS
 62
     0
  2
_OPEN
 10
1569.3633830000001
 20
858.35127799999987
 30
0.0
 41
20.0
 42
20.0
 43
20.0
  0
INSERT
  5
7E7F
  8
3
  6
CONTINUOUS
 62
     0
  2
_OPEN
 10
1605.3633830000001
 20
858.35127799999987
 30
0.0
 41
20.0
 42
20.0
 43
20.0
 50
180.0
  0
POINT
  5
7E80
  8
DEFPOINTS
  6
CONTINUOUS
 62
     0
 10
1569.3633830000001
 20
1024.8235999999999
 30
0.0
  0
POINT
  5
7E81
  8
DEFPOINTS
  6
CONTINUOUS
 62
     0
 10
1605.3633830000001
 20
941.93445899999995
 30
0.0
  0
POINT
  5
7E82
  8
DEFPOINTS
  6
CONTINUOUS
 62
     0
 10
1605.3633830000001
 20
858.35127799999987
 30
0.0
  0
ENDBLK
  5
7C11
  8
0
  0
BLOCK
  8
0
  2
*D7
 70
     1
 10
0.0
 20
0.0
 30
0.0
  3
*D7
  1

  0
LINE
  5
7D28
  8
0
  6
BYBLOCK
 62
     0
 10
1513.3633830000001
 20
1341.9344590000001
 30
0.0
 11
1513.3633830000001
 21
1372.6553039999999
 31
0.0
  0
LINE
  5
7D29
  8
0
  6
BYBLOCK
 62
     0
 10
1625.3633830000001
 20
1341.9344590000001
 30
0.0
 11
1625.3633830000001
 21
1372.6553039999999
 31
0.0
  0
LINE
  5
7D2A
  8
0
  6
BYBLOCK
 62
     0
 10
1533.3633830000001
 20
1362.6553039999999
 30
0.0
 11
1605.3633830000001
 21
1362.6553039999999
 31
0.0
  0
TEXT
  5
7D2B
  8
3
 62
     0
 10
1536.506240142857
 20
1370.802524593897
 30
0.0
 40
30.0
  1
112
  0
INSERT
  5
7D2C
  8
0
  6
BYBLOCK
 62
     0
  2
_OPEN
 10
1513.3633830000001
 20
1362.6553039999999
 30
0.0
 41
20.0
 42
20.0
 43
20.0
 50
180.0
  0
INSERT
  5
7D2D
  8
0
  6
BYBLOCK
 62
     0
  2
_OPEN
 10
1625.3633830000001
 20
1362.6553039999999
 30
0.0
 41
20.0
 42
20.0
 43
20.0
  0
POINT
  5
7D2E
  8
DEFPOINTS
  6
BYBLOCK
 62
     0
 10
1513.3633830000001
 20
1336.9344590000001
 30
0.0
  0
POINT
  5
7D2F
  8
DEFPOINTS
  6
BYBLOCK
 62
     0
 10
1625.3633830000001
 20
1336.9344590000001
 30
0.0
  0
POINT
  5
7D30
  8
DEFPOINTS
  6
BYBLOCK
 62
     0
 10
1625.3633830000001
 20
1362.6553039999999
 30
0.0
  0
ENDBLK
  5
7D31
  8
0
  0
BLOCK
  8
0
  2
*D8
 70
     1
 10
0.0
 20
0.0
 30
0.0
  3
*D8
  1

  0
LINE
  5
7D3E
  8
0
  6
BYBLOCK
 62
     0
 10
1569.3633830000001
 20
1413.96894
 30
0.0
 11
1569.3633830000001
 21
1447.271716
 31
0.0
  0
LINE
  5
7D3F
  8
0
  6
BYBLOCK
 62
     0
 10
1633.3633830000001
 20
1281.9344590000001
 30
0.0
 11
1633.3633830000001
 21
1447.271716
 31
0.0
  0
LINE
  5
7D40
  8
0
  6
BYBLOCK
 62
     0
 10
1589.3633830000001
 20
1437.271716
 30
0.0
 11
1613.3633830000001
 21
1437.271716
 31
0.0
  0
TEXT
  5
7D41
  8
3
 62
     0
 10
1576.6013334430149
 20
1446.3638606031291
 30
0.0
 40
30.0
  1
64
  0
INSERT
  5
7D42
  8
0
  6
BYBLOCK
 62
     0
  2
_OPEN
 10
1569.3633830000001
 20
1437.271716
 30
0.0
 41
20.0
 42
20.0
 43
20.0
 50
180.0
  0
INSERT
  5
7D43
  8
0
  6
BYBLOCK
 62
     0
  2
_OPEN
 10
1633.3633830000001
 20
1437.271716
 30
0.0
 41
20.0
 42
20.0
 43
20.0
  0
POINT
  5
7D44
  8
DEFPOINTS
  6
BYBLOCK
 62
     0
 10
1569.3633830000001
 20
1408.96894
 30
0.0
  0
POINT
  5
7D45
  8
DEFPOINTS
  6
BYBLOCK
 62
     0
 10
1633.3633830000001
 20
1276.9344590000001
 30
0.0
  0
POINT
  5
7D46
  8
DEFPOINTS
  6
BYBLOCK
 62
     0
 10
1633.3633830000001
 20
1437.271716
 30
0.0
  0
ENDBLK
  5
7D47
  8
0
  0
BLOCK
  8
0
  2
*D9
 70
     1
 10
0.0
 20
0.0
 30
0.0
  3
*D9
  1

  0
LINE
  5
7E83
  8
3
  6
CONTINUOUS
 62
     0
 10
1309.3633830000001
 20
1276.9344590000001
 30
0.0
 11
1309.3633830000001
 21
1447.271716
 31
0.0
  0
LINE
  5
7E84
  8
3
  6
CONTINUOUS
 62
     0
 10
1549.3633830000001
 20
1437.271716
 30
0.0
 11
1329.3633830000001
 21
1437.271716
 31
0.0
  0
INSERT
  5
7E85
  8
3
  6
CONTINUOUS
 62
     0
  2
_OPEN
 10
1569.3633830000001
 20
1437.271716
 30
0.0
 41
20.0
 42
20.0
 43
20.0
  0
INSERT
  5
7E86
  8
3
  6
CONTINUOUS
 62
     0
  2
_OPEN
 10
1309.3633830000001
 20
1437.271716
 30
0.0
 41
20.0
 42
20.0
 43
20.0
 50
180.0
  0
TEXT
  8
3
  40
30
  5
7EC5
  62
0
  72
0
  71
0
 10
1379.36
 20
1434.17
 30
0.000000
  1
MAX
  0
TEXT
  8
3
  40
30
  5
7EC6
  62
0
  72
0
  71
0
 10
1379.36
 20
1395.17
 30
0.000000
  1
260
  0
POINT
  5
7E88
  8
DEFPOINTS
  6
CONTINUOUS
 62
     0
 10
1569.3633830000001
 20
1408.96894
 30
0.0
  0
POINT
  5
7E89
  8
DEFPOINTS
  6
CONTINUOUS
 62
     0
 10
1309.3633830000001
 20
1271.9344590000001
 30
0.0
  0
POINT
  5
7E8A
  8
DEFPOINTS
  6
CONTINUOUS
 62
     0
 10
1309.3633830000001
 20
1437.271716
 30
0.0
  0
ENDBLK
  5
7D81
  8
0
  0
BLOCK
  8
0
  2
*D10
 70
     1
 10
0.0
 20
0.0
 30
0.0
  3
*D10
  1

  0
LINE
  5
7D61
  8
0
  6
BYBLOCK
 62
     0
 10
1638.3633830000001
 20
1256.9344590000001
 30
0.0
 11
1726.8075799999999
 21
1256.9344590000001
 31
0.0
  0
LINE
  5
7D62
  8
0
  6
BYBLOCK
 62
     0
 10
1638.3633830000001
 20
1096.9344590000001
 30
0.0
 11
1726.8075799999999
 21
1096.9344590000001
 31
0.0
  0
LINE
  5
7D63
  8
0
  6
BYBLOCK
 62
     0
 10
1716.8075799999999
 20
1236.9344590000001
 30
0.0
 11
1716.8075799999999
 21
1116.9344590000001
 31
0.0
  0
TEXT
  5
7D64
  8
3
 62
     0
 10
1706.9809268671031
 20
1126.833816455098
 30
0.0
 40
30.0
  1
φ160
 50
90.0
  0
INSERT
  5
7D65
  8
0
  6
BYBLOCK
 62
     0
  2
_OPEN
 10
1716.8075799999999
 20
1256.9344590000001
 30
0.0
 41
20.0
 42
20.0
 43
20.0
 50
90.0
  0
INSERT
  5
7D66
  8
0
  6
BYBLOCK
 62
     0
  2
_OPEN
 10
1716.8075799999999
 20
1096.9344590000001
 30
0.0
 41
20.0
 42
20.0
 43
20.0
 50
270.0
  0
POINT
  5
7D67
  8
DEFPOINTS
  6
BYBLOCK
 62
     0
 10
1633.3633830000001
 20
1256.9344590000001
 30
0.0
  0
POINT
  5
7D68
  8
DEFPOINTS
  6
BYBLOCK
 62
     0
 10
1633.3633830000001
 20
1096.9344590000001
 30
0.0
  0
POINT
  5
7D69
  8
DEFPOINTS
  6
BYBLOCK
 62
     0
 10
1716.8075799999999
 20
1096.9344590000001
 30
0.0
  0
ENDBLK
  5
7D6A
  8
0
  0
BLOCK
  8
0
  2
*D11
 70
     1
 10
0.0
 20
0.0
 30
0.0
  3
*D11
  1

  0
LINE
  5
7E8B
  8
3
  6
CONTINUOUS
 62
     0
 10
943.35128699999996
 20
1336.9344590000001
 30
0.0
 11
1019.852144
 21
1336.9344590000001
 31
0.0
  0
LINE
  5
7E8C
  8
3
  6
CONTINUOUS
 62
     0
 10
942.35128699999996
 20
1176.9344590000001
 30
0.0
 11
1019.852144
 21
1176.9344590000001
 31
0.0
  0
LINE
  5
7E8D
  8
3
  6
CONTINUOUS
 62
     0
 10
1009.852144
 20
1316.9344590000001
 30
0.0
 11
1009.852144
 21
1196.9344590000001
 31
0.0
  0
INSERT
  5
7E8E
  8
3
  6
CONTINUOUS
 62
     0
  2
_OPEN
 10
1009.852144
 20
1336.9344590000001
 30
0.0
 41
20.0
 42
20.0
 43
20.0
 50
90.0
  0
INSERT
  5
7E8F
  8
3
  6
CONTINUOUS
 62
     0
  2
_OPEN
 10
1009.852144
 20
1176.9344590000001
 30
0.0
 41
20.0
 42
20.0
 43
20.0
 50
270.0
  0
TEXT
  8
3
  40
30
  5
7EC7
  62
0
  72
0
  71
0
 10
924.852
 20
1205.96
 30
0.000000
  1
160
  0
POINT
  5
7E91
  8
DEFPOINTS
  6
CONTINUOUS
 62
     0
 10
938.35128699999996
 20
1336.9344590000001
 30
0.0
  0
POINT
  5
7E92
  8
DEFPOINTS
  6
CONTINUOUS
 62
     0
 10
937.35128699999984
 20
1176.9344590000001
 30
0.0
  0
POINT
  5
7E93
  8
DEFPOINTS
  6
CONTINUOUS
 62
     0
 10
1009.852144
 20
1176.9344590000001
 30
0.0
  0
ENDBLK
  5
7C6A
  8
0
  0
BLOCK
  8
0
  2
*D12
 70
     1
 10
0.0
 20
0.0
 30
0.0
  3
*D12
  1

  0
LINE
  5
7E94
  8
3
  6
CONTINUOUS
 62
     0
 10
928.35128699999996
 20
1347.9344590000001
 30
0.0
 11
1087.8659130000001
 21
1347.9344590000001
 31
0.0
  0
LINE
  5
7E95
  8
3
  6
CONTINUOUS
 62
     0
 10
943.35128699999996
 20
1176.9344590000001
 30
0.0
 11
1087.8659130000001
 21
1176.9344590000001
 31
0.0
  0
LINE
  5
7E96
  8
3
  6
CONTINUOUS
 62
     0
 10
1077.8659130000001
 20
1327.9344590000001
 30
0.0
 11
1077.8659130000001
 21
1196.9344590000001
 31
0.0
  0
INSERT
  5
7E97
  8
3
  6
CONTINUOUS
 62
     0
  2
_OPEN
 10
1077.8659130000001
 20
1347.9344590000001
 30
0.0
 41
20.0
 42
20.0
 43
20.0
 50
90.0
  0
INSERT
  5
7E98
  8
3
  6
CONTINUOUS
 62
     0
  2
_OPEN
 10
1077.8659130000001
 20
1176.9344590000001
 30
0.0
 41
20.0
 42
20.0
 43
20.0
 50
270.0
  0
TEXT
  8
3
  40
30
  5
7EC8
  62
0
  72
0
  71
0
 10
992.866
 20
1212.70
 30
0.000000
  1
171
  0
POINT
  5
7E9A
  8
DEFPOINTS
  6
CONTINUOUS
 62
     0
 10
923.35128699999996
 20
1347.9344590000001
 30
0.0
  0
POINT
  5
7E9B
  8
DEFPOINTS
  6
CONTINUOUS
 62
     0
 10
938.35128699999996
 20
1176.9344590000001
 30
0.0
  0
POINT
  5
7E9C
  8
DEFPOINTS
  6
CONTINUOUS
 62
     0
 10
1077.8659130000001
 20
1176.9344590000001
 30
0.0
  0
ENDBLK
  5
7CBC
  8
0
  0
BLOCK
  8
0
  2
*D13
 70
     1
 10
0.0
 20
0.0
 30
0.0
  3
*D13
  1

  0
LINE
  5
7E9D
  8
3
  6
CONTINUOUS
 62
     0
 10
948.35128699999996
 20
941.93445899999995
 30
0.0
 11
1087.8659130000001
 21
941.93445899999995
 31
0.0
  0
LINE
  5
7E9E
  8
3
  6
CONTINUOUS
 62
     0
 10
1077.8659130000001
 20
1156.9344590000001
 30
0.0
 11
1077.8659130000001
 21
961.93445899999983
 31
0.0
  0
INSERT
  5
7E9F
  8
3
  6
CONTINUOUS
 62
     0
  2
_OPEN
 10
1077.8659130000001
 20
1176.9344590000001
 30
0.0
 41
20.0
 42
20.0
 43
20.0
 50
90.0
  0
INSERT
  5
7EA0
  8
3
  6
CONTINUOUS
 62
     0
  2
_OPEN
 10
1077.8659130000001
 20
941.93445899999995
 30
0.0
 41
20.0
 42
20.0
 43
20.0
 50
270.0
  0
TEXT
  8
3
  40
30
  5
7EC9
  62
0
  72
0
  71
0
 10
992.866
 20
1006.33
 30
0.000000
  1
235
  0
POINT
  5
7EA2
  8
DEFPOINTS
  6
CONTINUOUS
 62
     0
 10
938.35128699999996
 20
1176.9344590000001
 30
0.0
  0
POINT
  5
7EA3
  8
DEFPOINTS
  6
CONTINUOUS
 62
     0
 10
943.35128699999996
 20
941.93445899999995
 30
0.0
  0
POINT
  5
7EA4
  8
DEFPOINTS
  6
CONTINUOUS
 62
     0
 10
1077.8659130000001
 20
941.93445899999995
 30
0.0
  0
ENDBLK
  5
7CC8
  8
0
  0
BLOCK
  8
0
  2
*D14
 70
     1
 10
0.0
 20
0.0
 30
0.0
  3
*D14
  1

  0
LINE
  5
7EA5
  8
3
  6
CONTINUOUS
 62
     0
 10
943.35128699999996
 20
1358.9344590000001
 30
0.0
 11
1151.7066460000001
 21
1358.9344590000001
 31
0.0
  0
LINE
  5
7EA6
  8
3
  6
CONTINUOUS
 62
     0
 10
948.35128699999996
 20
941.93445899999995
 30
0.0
 11
1151.7066460000001
 21
941.93445899999995
 31
0.0
  0
LINE
  5
7EA7
  8
3
  6
CONTINUOUS
 62
     0
 10
1141.7066460000001
 20
1338.9344590000001
 30
0.0
 11
1141.7066460000001
 21
961.93445899999983
 31
0.0
  0
INSERT
  5
7EA8
  8
3
  6
CONTINUOUS
 62
     0
  2
_OPEN
 10
1141.7066460000001
 20
1358.9344590000001
 30
0.0
 41
20.0
 42
20.0
 43
20.0
 50
90.0
  0
INSERT
  5
7EA9
  8
3
  6
CONTINUOUS
 62
     0
  2
_OPEN
 10
1141.7066460000001
 20
941.93445899999995
 30
0.0
 41
20.0
 42
20.0
 43
20.0
 50
270.0
  0
TEXT
  8
3
  40
30
  5
7ECA
  62
0
  72
0
  71
0
 10
1056.71
 20
1084.99
 30
0.000000
  1
417
  0
POINT
  5
7EAB
  8
DEFPOINTS
  6
CONTINUOUS
 62
     0
 10
938.35128699999996
 20
1358.9344590000001
 30
0.0
  0
POINT
  5
7EAC
  8
DEFPOINTS
  6
CONTINUOUS
 62
     0
 10
943.35128699999996
 20
941.93445899999995
 30
0.0
  0
POINT
  5
7EAD
  8
DEFPOINTS
  6
CONTINUOUS
 62
     0
 10
1141.7066460000001
 20
941.93445899999995
 30
0.0
  0
ENDBLK
  5
7CDA
  8
0
  0
BLOCK
  8
0
  2
*D15
 70
     1
 10
0.0
 20
0.0
 30
0.0
  3
*D15
  1

  0
LINE
  5
7D12
  8
0
  6
BYBLOCK
 62
     0
 10
938.35128699999996
 20
1363.9344590000001
 30
0.0
 11
938.35128699999996
 21
1425.948965999999
 31
0.0
  0
LINE
  5
7D13
  8
0
  6
BYBLOCK
 62
     0
 10
808.35128699999996
 20
1383.0931800000001
 30
0.0
 11
808.35128699999996
 21
1425.948965999999
 31
0.0
  0
LINE
  5
7D14
  8
0
  6
BYBLOCK
 62
     0
 10
918.35128699999996
 20
1415.9489659999999
 30
0.0
 11
828.35128699999996
 21
1415.9489659999999
 31
0.0
  0
TEXT
  5
7D15
  8
3
 62
     0
 10
837.63700128571418
 20
1427.934268511764
 30
0.0
 40
30.0
  1
130
  0
INSERT
  5
7D16
  8
0
  6
BYBLOCK
 62
     0
  2
_OPEN
 10
938.35128699999996
 20
1415.9489659999999
 30
0.0
 41
20.0
 42
20.0
 43
20.0
  0
INSERT
  5
7D17
  8
0
  6
BYBLOCK
 62
     0
  2
_OPEN
 10
808.35128699999996
 20
1415.9489659999999
 30
0.0
 41
20.0
 42
20.0
 43
20.0
 50
180.0
  0
POINT
  5
7D18
  8
DEFPOINTS
  6
BYBLOCK
 62
     0
 10
938.35128699999996
 20
1358.9344590000001
 30
0.0
  0
POINT
  5
7D19
  8
DEFPOINTS
  6
BYBLOCK
 62
     0
 10
808.35128699999996
 20
1378.0931800000001
 30
0.0
  0
POINT
  5
7D1A
  8
DEFPOINTS
  6
BYBLOCK
 62
     0
 10
808.35128699999996
 20
1415.9489659999999
 30
0.0
  0
ENDBLK
  5
7D1B
  8
0
  0
BLOCK
  8
0
  2
*D16
 70
     1
 10
0.0
 20
0.0
 30
0.0
  3
*D16
  1

  0
LINE
  5
7EAE
  8
3
  6
CONTINUOUS
 62
     0
 10
663.35128699999996
 20
1194.9344590000001
 30
0.0
 11
663.35128699999996
 21
1425.948965999999
 31
0.0
  0
LINE
  5
7EAF
  8
3
  6
CONTINUOUS
 62
     0
 10
788.35128699999996
 20
1415.9489659999999
 30
0.0
 11
683.35128699999996
 21
1415.9489659999999
 31
0.0
  0
INSERT
  5
7EB0
  8
3
  6
CONTINUOUS
 62
     0
  2
_OPEN
 10
808.35128699999996
 20
1415.9489659999999
 30
0.0
 41
20.0
 42
20.0
 43
20.0
  0
INSERT
  5
7EB1
  8
3
  6
CONTINUOUS
 62
     0
  2
_OPEN
 10
663.35128699999996
 20
1415.9489659999999
 30
0.0
 41
20.0
 42
20.0
 43
20.0
 50
180.0
  0
TEXT
  8
3
  40
30
  5
7ECB
  62
0
  72
0
  71
0
 10
675.851
 20
1387.85
 30
0.000000
  1
145
  0
POINT
  5
7EB3
  8
DEFPOINTS
  6
CONTINUOUS
 62
     0
 10
808.35128699999996
 20
1378.0931800000001
 30
0.0
  0
POINT
  5
7EB4
  8
DEFPOINTS
  6
CONTINUOUS
 62
     0
 10
663.35128699999996
 20
1189.9344590000001
 30
0.0
  0
POINT
  5
7EB5
  8
DEFPOINTS
  6
CONTINUOUS
 62
     0
 10
663.35128699999996
 20
1415.9489659999999
 30
0.0
  0
ENDBLK
  5
7CF5
  8
0
  0
BLOCK
  8
0
  2
*D17
 70
     1
 10
0.0
 20
0.0
 30
0.0
  3
*D17
  1

  0
LINE
  5
7EB6
  8
3
 62
     0
 10
938.35128699999996
 20
1363.9344590000001
 30
0.0
 11
938.35128699999996
 21
1478.7356987373121
 31
0.0
  0
LINE
  5
7EB7
  8
3
 62
     0
 10
383.35128700000001
 20
996.93445899999995
 30
0.0
 11
383.35128700000001
 21
1478.7356987373121
 31
0.0
  0
LINE
  5
7EB8
  8
3
 62
     0
 10
918.35128699999996
 20
1468.7356987373121
 30
0.0
 11
403.35128700000001
 21
1468.7356987373121
 31
0.0
  0
INSERT
  5
7EB9
  8
3
 62
     0
  2
_OPEN
 10
938.35128699999996
 20
1468.7356987373121
 30
0.0
 41
20.0
 42
20.0
 43
20.0
  0
INSERT
  5
7EBA
  8
3
 62
     0
  2
_OPEN
 10
383.35128700000001
 20
1468.7356987373121
 30
0.0
 41
20.0
 42
20.0
 43
20.0
 50
180.0
  0
TEXT
  8
3
  40
30
  5
7ECC
  62
0
  72
0
  71
0
 10
599.071
 20
1440.64
 30
0.000000
  1
555
  0
POINT
  5
7EBC
  8
DEFPOINTS
 62
     0
 10
938.35128699999996
 20
1358.9344590000001
 30
0.0
  0
POINT
  5
7EBD
  8
DEFPOINTS
 62
     0
 10
383.35128700000001
 20
991.93445899999995
 30
0.0
  0
POINT
  5
7EBE
  8
DEFPOINTS
 62
     0
 10
383.35128700000001
 20
1468.7356987373121
 30
0.0
  0
ENDBLK
  5
7D76
  8
0
  0
ENDSEC
  0
SECTION
  2
ENTITIES
  0
LINE
  5
7A7C
  8
1
  6
CONTINUOUS
 10
531.75128700000005
 20
1058.0344589999991
 30
0.0
 11
819.75128700000005
 21
1133.4344590000001
 31
0.0
  0
LINE
  5
7A7D
  8
1
  6
CONTINUOUS
 10
511.75128699999988
 20
1125.134458999999
 30
0.0
 11
794.051287
 21
1219.634458999999
 31
0.0
  0
LINE
  5
7A7E
  8
1
  6
CONTINUOUS
 10
905.6512869999998
 20
1271.9344590000001
 30
0.0
 11
425.65128699999991
 21
1271.9344590000001
 31
0.0
  0
LINE
  5
7A7F
  8
1
  6
CONTINUOUS
 10
383.35128700000001
 20
991.93445899999995
 30
0.0
 11
943.35128699999996
 21
991.93445899999995
 31
0.0
  0
LINE
  5
7A80
  8
1
  6
CONTINUOUS
 10
383.35128700000001
 20
941.93445899999995
 30
0.0
 11
943.35128699999996
 21
941.93445899999995
 31
0.0
  0
ARC
  5
7A81
  8
1
  6
CONTINUOUS
 10
522.85128699999996
 20
1091.9344590000001
 30
0.0
 40
85.0
 50
324.69999999999987
 51
215.30000000000001
  0
LINE
  5
7A82
  8
1
  6
CONTINUOUS
 10
383.35128700000001
 20
1011.934458999999
 30
0.0
 11
634.35128699999996
 21
1011.934458999999
 31
0.0
  0
LINE
  5
7A83
  8
1
  6
CONTINUOUS
 10
425.65128699999991
 20
1271.9344590000001
 30
0.0
 11
425.65128699999991
 21
991.93445899999995
 31
0.0
  0
LINE
  5
7A84
  8
1
  6
CONTINUOUS
 10
383.35128700000001
 20
1011.934458999999
 30
0.0
 11
383.35128700000001
 21
941.93445899999995
 31
0.0
  0
LINE
  5
7A85
  8
1
  6
CONTINUOUS
 10
445.3512869999999
 20
1019.934458999999
 30
0.0
 11
453.55128699999989
 21
1042.734459
 31
0.0
  0
LINE
  5
7A86
  8
1
  6
CONTINUOUS
 10
445.3512869999999
 20
1011.934458999999
 30
0.0
 11
445.3512869999999
 21
1019.934458999999
 31
0.0
  0
CIRCLE
  5
7A87
  8
1
  6
CONTINUOUS
 10
522.85128699999996
 20
1091.9344590000001
 30
0.0
 40
35.0
  0
LINE
  5
7A88
  8
2
  6
CENTER
 10
522.85128699999996
 20
1056.9344590000001
 30
0.0
 11
522.85128699999996
 21
1126.9344590000001
 31
0.0
  0
LINE
  5
7A89
  8
2
  6
CENTER
 10
487.85128700000001
 20
1091.9344590000001
 30
0.0
 11
557.85128699999996
 21
1091.9344590000001
 31
0.0
  0
CIRCLE
  5
7A8A
  8
1
  6
CONTINUOUS
 10
808.35128699999996
 20
1176.9344590000001
 30
0.0
 40
80.0
  0
CIRCLE
  5
7A8B
  8
1
  6
CONTINUOUS
 10
808.35128699999996
 20
1176.9344590000001
 30
0.0
 40
100.0
  0
LINE
  5
7A8C
  8
2
  6
CENTER
 10
808.35128699999996
 20
923.78524899999991
 30
0.0
 11
808.35128699999996
 21
1378.0931800000001
 31
0.0
  0
ARC
  5
7A8D
  8
1
  6
CONTINUOUS
 10
797.35128699999996
 20
1187.9344590000001
 30
0.0
 40
134.0
 50
189.90000000000001
 51
270.5
  0
ARC
  5
7A8E
  8
1
  6
CONTINUOUS
 10
799.35128699999996
 20
1167.9344590000001
 30
0.0
 40
114.0
 50
269.5
 51
359.5
  0
LINE
  5
7A8F
  8
1
  6
CONTINUOUS
 10
938.35128699999996
 20
1358.9344590000001
 30
0.0
 11
938.35128699999996
 21
1154.9344590000001
 31
0.0
  0
LINE
  5
7A90
  8
1
  6
CONTINUOUS
 10
698.35128699999996
 20
1219.034459
 30
0.0
 11
698.35128699999996
 21
991.93445899999995
 31
0.0
  0
LINE
  5
7A91
  8
1
  6
CONTINUOUS
 10
918.35128699999996
 20
991.93445899999995
 30
0.0
 11
918.35128699999996
 21
1219.034459
 31
0.0
  0
CIRCLE
  5
7A92
  8
1
  6
CONTINUOUS
 10
808.35128699999996
 20
1176.9344590000001
 30
0.0
 40
45.0
  0
LINE
  5
7A93
  8
1
  6
CONTINUOUS
 10
905.6512869999998
 20
991.93445899999995
 30
0.0
 11
905.6512869999998
 21
1271.9344590000001
 31
0.0
  0
LINE
  5
7A94
  8
1
  6
CONTINUOUS
 10
698.35128699999996
 20
1143.6344590000001
 30
0.0
 11
918.35128699999996
 21
1143.6344590000001
 31
0.0
  0
LINE
  5
7A95
  8
1
  6
CONTINUOUS
 10
634.35128699999996
 20
1011.934458999999
 30
0.0
 11
634.35128699999996
 21
991.93445899999995
 31
0.0
  0
LINE
  5
7A96
  8
1
  6
CONTINUOUS
 10
600.35128699999996
 20
1011.934458999999
 30
0.0
 11
600.35128699999996
 21
1019.934458999999
 31
0.0
  0
LINE
  5
7A97
  8
1
  6
CONTINUOUS
 10
600.35128699999996
 20
1019.934458999999
 30
0.0
 11
592.15128699999991
 21
1042.734459
 31
0.0
  0
LINE
  5
7A98
  8
1
  6
CONTINUOUS
 10
943.35128699999996
 20
941.93445899999995
 30
0.0
 11
943.35128699999996
 21
991.93445899999995
 31
0.0
  0
LINE
  5
7A99
  8
2
  6
CENTER
 10
619.16960900000004
 20
1176.9344590000001
 30
0.0
 11
972.72713499999998
 21
1176.9344590000001
 31
0.0
  0
ARC
  5
7A9A
  8
1
  6
CONTINUOUS
 10
821.35128699999984
 20
1189.9344590000001
 30
0.0
 40
158.0
 50
90.0
 51
189.09999999999999
  0
LINE
  5
7A9B
  8
1
  6
CONTINUOUS
 10
844.95128699999987
 20
1281.9344590000001
 30
0.0
 11
771.75128700000005
 21
1281.9344590000001
 31
0.0
  0
LINE
  5
7A9C
  8
1
  6
CONTINUOUS
 10
698.35128699999996
 20
1219.034459
 30
0.0
 11
771.75128700000005
 21
1281.9344590000001
 31
0.0
  0
LINE
  5
7A9D
  8
1
  6
CONTINUOUS
 10
923.35128699999996
 20
1347.9344590000001
 30
0.0
 11
821.35128699999984
 21
1347.9344590000001
 31
0.0
  0
LINE
  5
7A9E
  8
1
  6
CONTINUOUS
 10
918.35128699999996
 20
1219.034459
 30
0.0
 11
844.95128699999987
 21
1281.9344590000001
 31
0.0
  0
LINE
  5
7A9F
  8
1
  6
CONTINUOUS
 10
923.35128699999996
 20
1176.9344590000001
 30
0.0
 11
923.35128699999996
 21
1166.9344590000001
 31
0.0
  0
LINE
  5
7AA0
  8
1
  6
CONTINUOUS
 10
923.35128699999996
 20
1347.9344590000001
 30
0.0
 11
923.35128699999996
 21
1336.9344590000001
 31
0.0
  0
LINE
  5
7AA1
  8
1
  6
CONTINUOUS
 10
923.35128699999996
 20
1176.9344590000001
 30
0.0
 11
938.35128699999996
 21
1176.9344590000001
 31
0.0
  0
LINE
  5
7AA2
  8
1
  6
CONTINUOUS
 10
923.35128699999996
 20
1336.9344590000001
 30
0.0
 11
938.35128699999996
 21
1336.9344590000001
 31
0.0
  0
LINE
  5
7AA3
  8
1
  6
CONTINUOUS
 10
938.35128699999996
 20
1175.9344590000001
 30
0.0
 11
923.35128699999996
 21
1190.9344590000001
 31
0.0
  0
LINE
  5
7AA4
  8
1
  6
CONTINUOUS
 10
923.35128699999996
 20
1322.9344590000001
 30
0.0
 11
923.35128699999996
 21
1190.9344590000001
 31
0.0
  0
LINE
  5
7AA5
  8
1
  6
CONTINUOUS
 10
938.35128699999996
 20
1337.9344590000001
 30
0.0
 11
923.35128699999996
 21
1322.9344590000001
 31
0.0
  0
LINE
  5
7AA6
  8
1
  6
CONTINUOUS
 10
923.35128699999996
 20
1166.9344590000001
 30
0.0
 11
913.35128699999996
 21
1166.9344590000001
 31
0.0
  0
LINE
  5
7AA7
  8
1
  6
CONTINUOUS
 10
1434.463383
 20
1164.9344590000001
 30
0.0
 11
1364.3633830000001
 21
1164.9344590000001
 31
0.0
  0
LINE
  5
7AA8
  8
1
  6
CONTINUOUS
 10
1466.0633829999999
 20
1188.9344590000001
 30
0.0
 11
1364.3633830000001
 21
1188.9344590000001
 31
0.0
  0
LINE
  5
7AA9
  8
1
  6
CONTINUOUS
 10
1381.3633830000001
 20
941.93445899999995
 30
0.0
 11
1605.3633830000001
 21
941.93445899999995
 31
0.0
  0
LINE
  5
7AAA
  8
1
  6
CONTINUOUS
 10
1309.3633830000001
 20
991.93445899999995
 30
0.0
 11
1605.3633830000001
 21
991.93445899999995
 31
0.0
  0
LINE
  5
7AAB
  8
1
  6
CONTINUOUS
 10
1505.763383
 20
1219.034459
 30
0.0
 11
1406.3633830000001
 21
1143.6344590000001
 31
0.0
  0
LINE
  5
7AAC
  8
1
  6
CONTINUOUS
 10
1364.3633830000001
 20
1131.9344590000001
 30
0.0
 11
1364.3633830000001
 21
1221.9344590000001
 31
0.0
  0
LINE
  5
7AAD
  8
1
  6
CONTINUOUS
 10
1329.3633830000001
 20
1131.9344590000001
 30
0.0
 11
1329.3633830000001
 21
1221.9344590000001
 31
0.0
  0
LINE
  5
7AAE
  8
1
  6
CONTINUOUS
 10
1384.3633830000001
 20
991.93445899999995
 30
0.0
 11
1384.3633830000001
 21
1271.9344590000001
 31
0.0
  0
LINE
  5
7AAF
  8
1
  6
CONTINUOUS
 10
1309.3633830000001
 20
991.93445899999995
 30
0.0
 11
1309.3633830000001
 21
1271.9344590000001
 31
0.0
  0
LINE
  5
7AB0
  8
1
  6
CONTINUOUS
 10
1364.3633830000001
 20
1131.9344590000001
 30
0.0
 11
1329.3633830000001
 21
1131.9344590000001
 31
0.0
  0
LINE
  5
7AB1
  8
1
  6
CONTINUOUS
 10
1364.3633830000001
 20
1126.9344590000001
 30
0.0
 11
1329.3633830000001
 21
1126.9344590000001
 31
0.0
  0
LINE
  5
7AB2
  8
1
  6
CONTINUOUS
 10
1364.3633830000001
 20
1056.9344590000001
 30
0.0
 11
1329.3633830000001
 21
1056.9344590000001
 31
0.0
  0
LINE
  5
7AB3
  8
1
  6
CONTINUOUS
 10
1329.3633830000001
 20
1056.9344590000001
 30
0.0
 11
1329.3633830000001
 21
1126.9344590000001
 31
0.0
  0
LINE
  5
7AB4
  8
1
  6
CONTINUOUS
 10
1364.3633830000001
 20
1056.9344590000001
 30
0.0
 11
1364.3633830000001
 21
1126.9344590000001
 31
0.0
  0
LINE
  5
7AB5
  8
1
  6
CONTINUOUS
 10
1364.3633830000001
 20
1101.4344590000001
 30
0.0
 11
1406.3633830000001
 21
1101.4344590000001
 31
0.0
  0
LINE
  5
7AB6
  8
1
  6
CONTINUOUS
 10
1364.3633830000001
 20
1082.4344590000001
 30
0.0
 11
1406.3633830000001
 21
1082.4344590000001
 31
0.0
  0
LINE
  5
7AB7
  8
1
  6
CONTINUOUS
 10
1381.3633830000001
 20
991.93445899999995
 30
0.0
 11
1381.3633830000001
 21
941.93445899999995
 31
0.0
  0
LINE
  5
7AB8
  8
1
  6
CONTINUOUS
 10
1406.3633830000001
 20
1143.6344590000001
 30
0.0
 11
1406.3633830000001
 21
991.93445899999995
 31
0.0
  0
LINE
  5
7AB9
  8
1
  6
CONTINUOUS
 10
1364.3633830000001
 20
1221.9344590000001
 30
0.0
 11
1329.3633830000001
 21
1221.9344590000001
 31
0.0
  0
LINE
  5
7ABA
  8
1
  6
CONTINUOUS
 10
1384.3633830000001
 20
1271.9344590000001
 30
0.0
 11
1309.3633830000001
 21
1271.9344590000001
 31
0.0
  0
LINE
  5
7ABB
  8
1
  6
CONTINUOUS
 10
1633.3633830000001
 20
1276.9344590000001
 30
0.0
 11
1633.3633830000001
 21
1076.9344590000001
 31
0.0
  0
LINE
  5
7ABC
  8
1
  6
CONTINUOUS
 10
1505.763383
 20
1276.9344590000001
 30
0.0
 11
1505.763383
 21
991.93445899999995
 31
0.0
  0
LINE
  5
7ABD
  8
1
  6
CONTINUOUS
 10
1625.3633830000001
 20
1054.8344589999999
 30
0.0
 11
1625.3633830000001
 21
1336.9344590000001
 31
0.0
  0
LINE
  5
7ABE
  8
1
  6
CONTINUOUS
 10
1513.3633830000001
 20
1336.9344590000001
 30
0.0
 11
1513.3633830000001
 21
1054.8344589999999
 31
0.0
  0
LINE
  5
7ABF
  8
1
  6
CONTINUOUS
 10
1633.3633830000001
 20
1076.9344590000001
 30
0.0
 11
1624.963383
 21
1076.9344590000001
 31
0.0
  0
ARC
  5
7AC0
  8
1
  6
CONTINUOUS
 10
1613.3633830000001
 20
1054.8344589999999
 30
0.0
 40
12.0
 50
270.0
 51
0.0
  0
ARC
  5
7AC1
  8
1
  6
CONTINUOUS
 10
1525.3633830000001
 20
1054.8344589999999
 30
0.0
 40
12.0
 50
180.0
 51
270.0
  0
LINE
  5
7AC2
  8
1
  6
CONTINUOUS
 10
1505.763383
 20
1076.9344590000001
 30
0.0
 11
1513.763383
 21
1076.9344590000001
 31
0.0
  0
LINE
  5
7AC3
  8
1
  6
CONTINUOUS
 10
1525.3633830000001
 20
1042.8344589999999
 30
0.0
 11
1613.3633830000001
 21
1042.8344589999999
 31
0.0
  0
LINE
  5
7AC4
  8
1
  6
CONTINUOUS
 10
1605.3633830000001
 20
991.93445899999995
 30
0.0
 11
1605.3633830000001
 21
941.93445899999995
 31
0.0
  0
LINE
  5
7AC5
  8
1
  6
CONTINUOUS
 10
1633.3633830000001
 20
1276.9344590000001
 30
0.0
 11
1624.963383
 21
1276.9344590000001
 31
0.0
  0
LINE
  5
7AC6
  8
1
  6
CONTINUOUS
 10
1513.3633830000001
 20
1176.9344590000001
 30
0.0
 11
1625.3633830000001
 21
1176.9344590000001
 31
0.0
  0
LINE
  5
7AC7
  8
1
  6
CONTINUOUS
 10
1625.3633830000001
 20
1336.9344590000001
 30
0.0
 11
1513.3633830000001
 21
1336.9344590000001
 31
0.0
  0
LINE
  5
7AC8
  8
1
  6
CONTINUOUS
 10
1625.3633830000001
 20
1176.9344590000001
 30
0.0
 11
1513.3633830000001
 21
1336.9344590000001
 31
0.0
  0
LINE
  5
7AC9
  8
1
  6
CONTINUOUS
 10
1625.3633830000001
 20
1336.9344590000001
 30
0.0
 11
1513.3633830000001
 21
1176.9344590000001
 31
0.0
  0
LINE
  5
7ACA
  8
1
  6
CONTINUOUS
 10
1505.763383
 20
1276.9344590000001
 30
0.0
 11
1513.763383
 21
1276.9344590000001
 31
0.0
  0
LINE
  5
7ACB
  8
1
  6
CONTINUOUS
 10
607.85128699999996
 20
1785.034459
 30
0.0
 11
437.85128700000001
 21
1785.034459
 31
0.0
  0
LINE
  5
7ACC
  8
1
  6
CONTINUOUS
 10
607.85128699999996
 20
1975.8344589999999
 30
0.0
 11
437.85128700000001
 21
1975.8344589999999
 31
0.0
  0
LINE
  5
7ACD
  8
1
  6
CONTINUOUS
 10
905.6512869999998
 20
1699.3344589999999
 30
0.0
 11
425.65128699999991
 21
1699.3344589999999
 31
0.0
  0
LINE
  5
7ACE
  8
1
  6
CONTINUOUS
 10
905.6512869999998
 20
1774.3344589999999
 30
0.0
 11
425.65128699999991
 21
1774.3344589999999
 31
0.0
  0
LINE
  5
7ACF
  8
1
  6
CONTINUOUS
 10
674.25128700000005
 20
1995.3344589999999
 30
0.0
 11
383.35128700000001
 21
1995.3344589999999
 31
0.0
  0
LINE
  5
7AD0
  8
1
  6
CONTINUOUS
 10
532.35128699999996
 20
1771.3344589999999
 30
0.0
 11
796.35128699999996
 21
1771.3344589999999
 31
0.0
  0
LINE
  5
7AD1
  8
1
  6
CONTINUOUS
 10
383.35128700000001
 20
1995.3344589999999
 30
0.0
 11
383.35128700000001
 21
1771.3344589999999
 31
0.0
  0
LINE
  5
7AD2
  8
1
  6
CONTINUOUS
 10
437.85128700000001
 20
1785.034459
 30
0.0
 11
437.85128700000001
 21
1975.8344589999999
 31
0.0
  0
LINE
  5
7AD3
  8
1
  6
CONTINUOUS
 10
383.35128700000001
 20
1771.3344589999999
 30
0.0
 11
513.35128699999996
 21
1771.3344589999999
 31
0.0
  0
LINE
  5
7AD4
  8
1
  6
CONTINUOUS
 10
425.65128699999991
 20
1774.3344589999999
 30
0.0
 11
425.65128699999991
 21
1699.3344589999999
 31
0.0
  0
LINE
  5
7AD5
  8
1
  6
CONTINUOUS
 10
532.35128699999996
 20
1755.234459
 30
0.0
 11
532.35128699999996
 21
1785.034459
 31
0.0
  0
LINE
  5
7AD6
  8
1
  6
CONTINUOUS
 10
513.35128699999996
 20
1755.234459
 30
0.0
 11
513.35128699999996
 21
1785.034459
 31
0.0
  0
LINE
  5
7AD7
  8
1
  6
CONTINUOUS
 10
557.85128699999996
 20
1755.234459
 30
0.0
 11
487.85128700000001
 21
1755.234459
 31
0.0
  0
LINE
  5
7AD8
  8
1
  6
CONTINUOUS
 10
557.85128699999996
 20
1720.234459
 30
0.0
 11
487.85128700000001
 21
1720.234459
 31
0.0
  0
LINE
  5
7AD9
  8
1
  6
CONTINUOUS
 10
557.85128699999996
 20
1755.234459
 30
0.0
 11
557.85128699999996
 21
1720.234459
 31
0.0
  0
LINE
  5
7ADA
  8
1
  6
CONTINUOUS
 10
487.85128700000001
 20
1755.234459
 30
0.0
 11
487.85128700000001
 21
1720.234459
 31
0.0
  0
LINE
  5
7ADB
  8
1
  6
CONTINUOUS
 10
908.35128699999996
 20
2023.334458999999
 30
0.0
 11
708.35128699999996
 21
2023.334458999999
 31
0.0
  0
LINE
  5
7ADC
  8
1
  6
CONTINUOUS
 10
682.25128700000005
 20
1903.334458999999
 30
0.0
 11
938.35128699999996
 21
1903.334458999999
 31
0.0
  0
LINE
  5
7ADD
  8
1
  6
CONTINUOUS
 10
682.25128700000005
 20
2015.334458999999
 30
0.0
 11
938.35128699999996
 21
2015.334458999999
 31
0.0
  0
LINE
  5
7ADE
  8
1
  6
CONTINUOUS
 10
918.35128699999996
 20
1895.734459
 30
0.0
 11
698.35128699999996
 21
1895.734459
 31
0.0
  0
LINE
  5
7ADF
  8
1
  6
CONTINUOUS
 10
853.35128699999996
 20
1720.234459
 30
0.0
 11
763.35128699999996
 21
1720.234459
 31
0.0
  0
LINE
  5
7AE0
  8
1
  6
CONTINUOUS
 10
853.35128699999996
 20
1755.234459
 30
0.0
 11
763.35128699999996
 21
1755.234459
 31
0.0
  0
LINE
  5
7AE1
  8
1
  6
CONTINUOUS
 10
698.35128699999996
 20
1895.734459
 30
0.0
 11
698.35128699999996
 21
1771.3344589999999
 31
0.0
  0
LINE
  5
7AE2
  8
1
  6
CONTINUOUS
 10
607.85128699999996
 20
1785.034459
 30
0.0
 11
607.85128699999996
 21
1975.8344589999999
 31
0.0
  0
LINE
  5
7AE3
  8
1
  6
CONTINUOUS
 10
763.35128699999996
 20
1755.234459
 30
0.0
 11
763.35128699999996
 21
1720.234459
 31
0.0
  0
LINE
  5
7AE4
  8
1
  6
CONTINUOUS
 10
674.25128700000005
 20
2007.3344589999999
 30
0.0
 11
674.25128700000005
 21
1911.3344589999999
 31
0.0
  0
ARC
  5
7AE5
  8
1
  6
CONTINUOUS
 10
682.25128700000005
 20
2007.3344589999999
 30
0.0
 40
8.0
 50
90.0
 51
180.0
  0
ARC
  5
7AE6
  8
1
  6
CONTINUOUS
 10
682.25128700000005
 20
1911.3344589999999
 30
0.0
 40
8.0
 50
180.0
 51
270.0
  0
LINE
  5
7AE7
  8
1
  6
CONTINUOUS
 10
708.35128699999996
 20
1895.734459
 30
0.0
 11
708.35128699999996
 21
1903.334458999999
 31
0.0
  0
LINE
  5
7AE8
  8
1
  6
CONTINUOUS
 10
708.35128699999996
 20
2023.334458999999
 30
0.0
 11
708.35128699999996
 21
2015.334458999999
 31
0.0
  0
LINE
  5
7AE9
  8
1
  6
CONTINUOUS
 10
943.35128699999996
 20
1771.3344589999999
 30
0.0
 11
943.35128699999996
 21
1995.3344589999999
 31
0.0
  0
LINE
  5
7AEA
  8
1
  6
CONTINUOUS
 10
918.35128699999996
 20
1771.3344589999999
 30
0.0
 11
918.35128699999996
 21
1895.734459
 31
0.0
  0
LINE
  5
7AEB
  8
1
  6
CONTINUOUS
 10
796.35128699999996
 20
1895.734459
 30
0.0
 11
796.35128699999996
 21
1755.234459
 31
0.0
  0
LINE
  5
7AEC
  8
1
  6
CONTINUOUS
 10
820.35128699999996
 20
1895.734459
 30
0.0
 11
820.35128699999996
 21
1755.234459
 31
0.0
  0
LINE
  5
7AED
  8
1
  6
CONTINUOUS
 10
820.35128699999996
 20
1771.3344589999999
 30
0.0
 11
943.35128699999996
 21
1771.3344589999999
 31
0.0
  0
LINE
  5
7AEE
  8
1
  6
CONTINUOUS
 10
853.35128699999996
 20
1755.234459
 30
0.0
 11
853.35128699999996
 21
1720.234459
 31
0.0
  0
LINE
  5
7AEF
  8
1
  6
CONTINUOUS
 10
905.6512869999998
 20
1699.3344589999999
 30
0.0
 11
905.6512869999998
 21
1774.3344589999999
 31
0.0
  0
LINE
  5
7AF0
  8
1
  6
CONTINUOUS
 10
938.35128699999996
 20
1902.3344589999999
 30
0.0
 11
923.35128699999996
 21
1917.3344589999999
 31
0.0
  0
LINE
  5
7AF1
  8
1
  6
CONTINUOUS
 10
938.35128699999996
 20
2016.3344589999999
 30
0.0
 11
923.35128699999996
 21
2001.3344589999999
 31
0.0
  0
LINE
  5
7AF2
  8
1
  6
CONTINUOUS
 10
923.35128699999996
 20
2001.3344589999999
 30
0.0
 11
923.35128699999996
 21
1917.3344589999999
 31
0.0
  0
LINE
  5
7AF3
  8
1
  6
CONTINUOUS
 10
938.35128699999996
 20
2036.3344589999999
 30
0.0
 11
938.35128699999996
 21
1882.3344589999999
 31
0.0
  0
LINE
  5
7AF4
  8
1
  6
CONTINUOUS
 10
908.35128699999996
 20
1895.734459
 30
0.0
 11
908.35128699999996
 21
1903.334458999999
 31
0.0
  0
LINE
  5
7AF5
  8
1
  6
CONTINUOUS
 10
908.35128699999996
 20
2023.334458999999
 30
0.0
 11
908.35128699999996
 21
2015.334458999999
 31
0.0
  0
LINE
  5
7AF6
  8
1
  6
CONTINUOUS
 10
943.35128699999996
 20
1995.3344589999999
 30
0.0
 11
938.35128699999996
 21
1995.3344589999999
 31
0.0
  0
LINE
  5
7AF7
  8
4
  6
CONTINUOUS
 10
1850.0
 20
500.0
 30
0.0
 11
1850.0
 21
300.0
 31
0.0
  0
LINE
  5
7AF8
  8
4
  6
CONTINUOUS
 10
1150.0
 20
500.0
 30
0.0
 11
1150.0
 21
300.0
 31
0.0
  0
LINE
  5
7AF9
  8
4
  6
CONTINUOUS
 10
650.0
 20
500.0
 30
0.0
 11
650.0
 21
300.0
 31
0.0
  0
LINE
  5
7AFC
  8
4
  6
CONTINUOUS
 10
650.0
 20
300.0
 30
0.0
 11
1850.0
 21
300.0
 31
0.0
  0
LINE
  5
7AFD
  8
4
  6
CONTINUOUS
 10
650.0
 20
400.0
 30
0.0
 11
1850.0
 21
400.0
 31
0.0
  0
TEXT
  5
7AFE
  8
4
  6
CONTINUOUS
 10
688.50208099999998
 20
431.543026
 30
0.0
 40
50.0
  1
機器名称
  0
TEXT
  5
7AFF
  8
4
  6
CONTINUOUS
 10
686.258106
 20
321.64515699999993
 30
0.0
 40
50.0
  1
機器型番
  0
TEXT
  5
7B00
  8
4
  6
CONTINUOUS
 10
1175.482152999999
 20
422.89477999999991
 30
0.0
 40
45.0
  1
ミツヤニューマルチファン
  0
TEXT
  5
7B01
  8
4
  6
CONTINUOUS
 10
1186.6544960000001
 20
317.159584
 30
0.0
 40
50.0
  1
NM#1-1
  0
TEXT
  5
7B03
  8
4
  6
CONTINUOUS
 10
904.78576499999997
 20
2383.4288409999999
 30
0.0
 40
54.0
  1
床置ベット
  0
TEXT
  5
7B04
  8
4
  6
CONTINUOUS
 10
316.16759300000001
 20
2533.8809759999999
 30
0.0
 40
72.0
  1
ベルト駆動式片吸込片持多翼ファン
  0
LINE
  5
7B05
  8
4
  6
CONTINUOUS
 10
250.0
 20
2469.408754
 30
0.0
 11
1850.0
 21
2469.408754
 31
0.0
  0
LINE
  5
7B06
  8
4
  6
CONTINUOUS
 10
250.0
 20
2669.408754
 30
0.0
 11
1850.0
 21
2669.408754
 31
0.0
  0
LINE
  5
7B07
  8
4
  6
CONTINUOUS
 10
650.0
 20
500.0
 30
0.0
 11
1850.0
 21
500.0
 31
0.0
  0
LINE
  5
7B08
  8
4
  6
CONTINUOUS
 10
250.0
 20
2669.408754
 30
0.0
 11
250.0
 21
2469.408754
 31
0.0
  0
TEXT
  5
7B09
  8
4
  6
CONTINUOUS
 10
468.92693300000002
 20
2382.3194779999999
 30
0.0
 40
54.0
  1
右回転右横向
  0
TEXT
  5
7B0A
  8
4
  6
CONTINUOUS
 10
1468.9695589999999
 20
2706.0610809999998
 30
0.0
 40
56.0
  1
No.
  0
TEXT
  5
7B0B
  8
4
  6
CONTINUOUS
 10
1311.296063
 20
2383.4288409999999
 30
0.0
 40
54.0
  1
縮尺：1/10
  0
LINE
  5
7B0C
  8
4
  6
CONTINUOUS
 10
1850.0
 20
2669.408754
 30
0.0
 11
1850.0
 21
2469.408754
 31
0.0
  0
LINE
  5
7B0E
  8
4
  6
CONTINUOUS
 10
1440.617422
 20
2681.2635829999999
 30
0.0
 11
1440.617422
 21
2786.6522620000001
 31
0.0
  0
LINE
  5
7B0F
  8
4
  6
CONTINUOUS
 10
1440.617422
 20
2786.6522620000001
 30
0.0
 11
1850.0
 21
2786.6522620000001
 31
0.0
  0
LINE
  5
7B10
  8
4
  6
CONTINUOUS
 10
1850.0
 20
2786.6522620000001
 30
0.0
 11
1850.0
 21
2681.2635829999999
 31
0.0
  0
LINE
  5
7B11
  8
4
  6
CONTINUOUS
 10
1850.0
 20
2681.2635829999999
 30
0.0
 11
1440.617422
 21
2681.2635829999999
 31
0.0
  0
LINE
  5
7B16
  8
2
  6
CENTER
 10
808.35128699999996
 20
1668.839893999999
 30
0.0
 11
808.35128699999996
 21
2042.714993
 31
0.0
  0
LINE
  5
7B17
  8
2
  6
CENTER
 10
1279.1132050000001
 20
1176.9344590000001
 30
0.0
 11
1648.685254
 21
1176.9344590000001
 31
0.0
  0
LINE
  5
7B18
  8
2
  6
CENTER
 10
961.52335099999993
 20
1959.3344589999999
 30
0.0
 11
643.16903200000002
 21
1959.3344589999999
 31
0.0
  0
LINE
  5
7B19
  8
2
  6
CENTER
 10
1569.3633830000001
 20
1024.8235999999999
 30
0.0
 11
1569.3633830000001
 21
1366.553613
 31
0.0
  0
DIMENSION
  5
7B2D
  8
3
  6
CONTINUOUS
  2
*D1
 10
943.35128699999996
 20
1591.6504990000001
 30
0.0
 11
666.34107500000005
 21
1591.6504990000001
 31
0.0
 70
   128
 13
383.35128700000001
 23
1771.3344589999999
 33
0.0
 14
943.35128699999996
 24
1771.3344589999999
 34
0.0
1001
ACAD
1000
DSTYLE
1002
{
1070
   287
1070
     3
1070
   287
1070
     3
1070
    40
1040
10.0
1070
   143
1040
0.039
1070
   172
1070
     1
1070
   271
1070
     0
1070
   279
1070
     0
1070
   288
1070
     1
1002
}
  0
DIMENSION
  5
7B3A
  8
3
  6
CONTINUOUS
  2
*D2
 10
326.48426200000029
 20
1771.3344589999999
 30
0.0
 11
326.484262
 21
1890.1161480000001
 31
0.0
 70
   128
 13
383.35128700000001
 23
1995.3344589999999
 33
0.0
 14
383.35128700000001
 24
1771.3344589999999
 34
0.0
 50
90.0
1001
ACAD
1000
DSTYLE
1002
{
1070
   287
1070
     3
1070
   287
1070
     3
1070
    40
1040
10.0
1070
   143
1040
0.039
1070
   172
1070
     1
1070
   271
1070
     0
1070
   279
1070
     0
1070
   288
1070
     1
1002
}
  0
DIMENSION
  5
7B86
  8
3
  6
CONTINUOUS
  2
*D3
 10
808.35128699999996
 20
858.35127799999987
 30
0.0
 11
591.67556599999989
 21
858.35127799999987
 31
0.0
 70
   128
 13
383.35128700000001
 23
941.93445899999995
 33
0.0
 14
808.35128699999996
 24
923.78524899999991
 34
0.0
1001
ACAD
1000
DSTYLE
1002
{
1070
   287
1070
     3
1070
   287
1070
     3
1070
    40
1040
10.0
1070
   143
1040
0.039
1070
   172
1070
     1
1070
   271
1070
     0
1070
   279
1070
     0
1070
   288
1070
     1
1002
}
  0
DIMENSION
  5
7B92
  8
3
  6
CONTINUOUS
  2
*D4
 10
943.35128699999996
 20
858.35127799999987
 30
0.0
 11
875.85128699999996
 21
883.35127799999987
 31
0.0
 70
     0
 13
808.35128699999996
 23
923.78524899999991
 33
0.0
 14
943.35128699999996
 24
941.93445899999995
 34
0.0
1001
ACAD
1000
DSTYLE
1002
{
1070
   287
1070
     4
1070
   287
1070
     4
1070
    40
1040
10.0
1070
    75
1070
     1
1070
   143
1040
0.039
1070
   172
1070
     1
1070
   271
1070
     0
1070
   279
1070
     1
1070
   288
1070
     1
1002
}
  0
DIMENSION
  5
7B9F
  8
3
  6
CONTINUOUS
  2
*D5
 10
1569.3633830000001
 20
858.35127799999987
 30
0.0
 11
1475.3276949999999
 21
858.35127799999987
 31
0.0
 70
   128
 13
1381.3633830000001
 23
941.93445899999995
 33
0.0
 14
1569.3633830000001
 24
1024.8235999999999
 34
0.0
1001
ACAD
1000
DSTYLE
1002
{
1070
   287
1070
     3
1070
   287
1070
     3
1070
    40
1040
10.0
1070
   143
1040
0.039
1070
   172
1070
     1
1070
   271
1070
     0
1070
   279
1070
     0
1070
   288
1070
     1
1002
}
  0
DIMENSION
  5
7BAF
  8
3
  6
CONTINUOUS
  2
*D6
 10
1605.3633830000001
 20
858.35127799999987
 30
0.0
 11
1646.471851
 21
859.04413899999997
 31
0.0
 70
   128
 13
1569.3633830000001
 23
1024.8235999999999
 33
0.0
 14
1605.3633830000001
 24
941.93445899999995
 34
0.0
1001
ACAD
1000
DSTYLE
1002
{
1070
   287
1070
     4
1070
   287
1070
     4
1070
    40
1040
10.0
1070
    75
1070
     1
1070
   143
1040
0.039
1070
   172
1070
     1
1070
   271
1070
     0
1070
   279
1070
     1
1070
   288
1070
     1
1002
}
  0
DIMENSION
  5
7BC9
  8
3
  6
CONTINUOUS
  2
*D7
 10
1625.3633830000001
 20
1362.6553039999999
 30
0.0
 11
1569.3633830000001
 21
1385.802524593897
 31
0.0
 70
   128
 13
1513.3633830000001
 23
1336.9344590000001
 33
0.0
 14
1625.3633830000001
 24
1336.9344590000001
 34
0.0
1001
ACAD
1000
DSTYLE
1002
{
1070
   288
1070
     1
1070
   172
1070
     1
1070
    40
1040
10.0
1070
   271
1070
     0
1070
   143
1040
0.039
1002
}
  0
DIMENSION
  5
7BD7
  8
3
  6
CONTINUOUS
  2
*D8
 10
1633.3633830000001
 20
1437.271716
 30
0.0
 11
1601.6013334430149
 21
1461.36386060313
 31
0.0
 70
   128
 13
1569.3633830000001
 23
1408.96894
 33
0.0
 14
1633.3633830000001
 24
1276.9344590000001
 34
0.0
1001
ACAD
1000
DSTYLE
1002
{
1070
   288
1070
     1
1070
   172
1070
     1
1070
    40
1040
10.0
1070
   271
1070
     0
1070
   143
1040
0.039
1002
}
  0
DIMENSION
  5
7BE3
  8
3
  6
CONTINUOUS
  2
*D9
 10
1309.3633830000001
 20
1437.271716
 30
0.0
 11
1439.3633830000001
 21
1487.271716
 31
0.0
 70
     0
  1
MAX\P260
 13
1569.3633830000001
 23
1408.96894
 33
0.0
 14
1309.3633830000001
 24
1271.9344590000001
 34
0.0
1001
ACAD
1000
DSTYLE
1002
{
1070
   287
1070
     4
1070
   287
1070
     4
1070
    40
1040
10.0
1070
    75
1070
     1
1070
   143
1040
0.039
1070
   172
1070
     1
1070
   271
1070
     0
1070
   279
1070
     1
1070
   288
1070
     1
1002
}
  0
DIMENSION
  5
7BF2
  8
3
  6
CONTINUOUS
  2
*D10
 10
1716.8075799999999
 20
1096.9344590000001
 30
0.0
 11
1691.9809268671031
 21
1177.548102169384
 31
0.0
 70
   128
 13
1633.3633830000001
 23
1256.9344590000001
 33
0.0
 14
1633.3633830000001
 24
1096.9344590000001
 34
0.0
 50
90.0
1001
ACAD
1000
DSTYLE
1002
{
1070
   288
1070
     1
1070
   172
1070
     1
1070
    40
1040
10.0
1070
     3
1000
φ<>
1070
   271
1070
     0
1070
   143
1040
0.039
1002
}
  0
DIMENSION
  5
7C6B
  8
3
  6
CONTINUOUS
  2
*D11
 10
1009.852144
 20
1176.9344590000001
 30
0.0
 11
1009.852143999999
 21
1259.056934
 31
0.0
 70
   128
 13
938.35128699999996
 23
1336.9344590000001
 33
0.0
 14
937.35128699999984
 24
1176.9344590000001
 34
0.0
 50
90.0
1001
ACAD
1000
DSTYLE
1002
{
1070
   287
1070
     3
1070
   287
1070
     3
1070
    40
1040
10.0
1070
   143
1040
0.039
1070
   172
1070
     1
1070
   271
1070
     0
1070
   279
1070
     0
1070
   288
1070
     1
1002
}
  0
DIMENSION
  5
7CBD
  8
3
  6
CONTINUOUS
  2
*D12
 10
1077.8659130000001
 20
1176.9344590000001
 30
0.0
 11
1077.8659130000001
 21
1265.800845
 31
0.0
 70
   128
 13
923.35128699999996
 23
1347.9344590000001
 33
0.0
 14
938.35128699999996
 24
1176.9344590000001
 34
0.0
 50
90.0
1001
ACAD
1000
DSTYLE
1002
{
1070
   287
1070
     3
1070
   287
1070
     3
1070
    40
1040
10.0
1070
   143
1040
0.039
1070
   172
1070
     1
1070
   271
1070
     0
1070
   279
1070
     0
1070
   288
1070
     1
1002
}
  0
DIMENSION
  5
7CC9
  8
3
  6
CONTINUOUS
  2
*D13
 10
1077.8659130000001
 20
941.93445899999995
 30
0.0
 11
1052.865912999999
 21
1059.4344590000001
 31
0.0
 70
     0
 13
938.35128699999996
 23
1176.9344590000001
 33
0.0
 14
943.35128699999996
 24
941.93445899999995
 34
0.0
 50
90.0
1001
ACAD
1000
DSTYLE
1002
{
1070
   287
1070
     4
1070
   287
1070
     4
1070
    40
1040
10.0
1070
    75
1070
     1
1070
   143
1040
0.039
1070
   172
1070
     1
1070
   271
1070
     0
1070
   279
1070
     1
1070
   288
1070
     1
1002
}
  0
DIMENSION
  5
7CDB
  8
3
  6
CONTINUOUS
  2
*D14
 10
1141.7066460000001
 20
941.93445899999995
 30
0.0
 11
1141.7066460000001
 21
1138.09094
 31
0.0
 70
   128
 13
938.35128699999996
 23
1358.9344590000001
 33
0.0
 14
943.35128699999996
 24
941.93445899999995
 34
0.0
 50
90.0
1001
ACAD
1000
DSTYLE
1002
{
1070
   287
1070
     3
1070
   287
1070
     3
1070
    40
1040
10.0
1070
   143
1040
0.039
1070
   172
1070
     1
1070
   271
1070
     0
1070
   279
1070
     0
1070
   288
1070
     1
1002
}
  0
DIMENSION
  5
7CEA
  8
3
  6
CONTINUOUS
  2
*D15
 10
808.35128699999996
 20
1415.9489659999999
 30
0.0
 11
873.35128699999996
 21
1442.934268511764
 31
0.0
 70
   128
 13
938.35128699999996
 23
1358.9344590000001
 33
0.0
 14
808.35128699999996
 24
1378.0931800000001
 34
0.0
1001
ACAD
1000
DSTYLE
1002
{
1070
   288
1070
     1
1070
   172
1070
     1
1070
    40
1040
10.0
1070
   271
1070
     0
1070
   143
1040
0.039
1002
}
  0
DIMENSION
  5
7CF6
  8
3
  6
CONTINUOUS
  2
*D16
 10
663.35128699999996
 20
1415.9489659999999
 30
0.0
 11
735.85128699999996
 21
1440.9489659999999
 31
0.0
 70
     0
 13
808.35128699999996
 23
1378.0931800000001
 33
0.0
 14
663.35128699999996
 24
1189.9344590000001
 34
0.0
1001
ACAD
1000
DSTYLE
1002
{
1070
   287
1070
     4
1070
   287
1070
     4
1070
    40
1040
10.0
1070
    75
1070
     1
1070
   143
1040
0.039
1070
   172
1070
     1
1070
   271
1070
     0
1070
   279
1070
     1
1070
   288
1070
     1
1002
}
  0
DIMENSION
  5
7D77
  8
3
  2
*D17
 10
383.35128700000001
 20
1468.7356987373121
 30
0.0
 11
659.07123992510606
 21
1468.7356987373121
 31
0.0
 70
   128
 13
938.35128699999996
 23
1358.9344590000001
 33
0.0
 14
383.35128700000001
 24
991.93445899999995
 34
0.0
1001
ACAD
1000
DSTYLE
1002
{
1070
   287
1070
     3
1070
   287
1070
     3
1070
    40
1040
10.0
1070
   143
1040
0.039
1070
   172
1070
     1
1070
   271
1070
     0
1070
   279
1070
     0
1070
   288
1070
     1
1002
}
  0
ENDSEC
  0
EOF
