  0
SECTION
  2
HEADER
  9
$ACADVER
  1
AC1009
  9
$INSBASE
 10
0.0
 20
0.0
 30
0.0
  9
$EXTMIN
 10
233.78191699999991
 20
300.0
 30
0.0
  9
$EXTMAX
 10
1850.0
 20
2786.6522620000001
 30
0.0
  9
$LIMMIN
 10
0.0
 20
0.0
  9
$LIMMAX
 10
297.0
 20
210.0
  9
$ORTHOMODE
 70
     0
  9
$REGENMODE
 70
     1
  9
$FILLMODE
 70
     0
  9
$QTEXTMODE
 70
     0
  9
$MIRRTEXT
 70
     1
  9
$DRAGMODE
 70
     2
  9
$LTSCALE
 40
100.0
  9
$OSMODE
 70
    37
  9
$ATTMODE
 70
     1
  9
$TEXTSIZE
 40
180.0
  9
$TRACEWID
 40
0.05
  9
$TEXTSTYLE
  7
STANDARD
  9
$CLAYER
  8
3
  9
$CELTYPE
  6
BYLAYER
  9
$CECOLOR
 62
   256
  9
$DIMSCALE
 40
10.0
  9
$DIMASZ
 40
2.0
  9
$DIMEXO
 40
0.5
  9
$DIMDLI
 40
10.0
  9
$DIMRND
 40
0.0
  9
$DIMDLE
 40
0.0
  9
$DIMEXE
 40
1.0
  9
$DIMTP
 40
1.0
  9
$DIMTM
 40
1.0
  9
$DIMTXT
 40
3.0
  9
$DIMCEN
 40
0.0
  9
$DIMTSZ
 40
0.0
  9
$DIMTOL
 70
     0
  9
$DIMLIM
 70
     0
  9
$DIMTIH
 70
     0
  9
$DIMTOH
 70
     0
  9
$DIMSE1
 70
     0
  9
$DIMSE2
 70
     0
  9
$DIMTAD
 70
     1
  9
$DIMZIN
 70
     8
  9
$DIMBLK
  1

  9
$DIMASO
 70
     1
  9
$DIMSHO
 70
     1
  9
$DIMPOST
  1

  9
$DIMAPOST
  1

  9
$DIMALT
 70
     0
  9
$DIMALTD
 70
     2
  9
$DIMALTF
 40
0.039
  9
$DIMLFAC
 40
1.0
  9
$DIMTOFL
 70
     1
  9
$DIMTVP
 40
0.0
  9
$DIMTIX
 70
     0
  9
$DIMSOXD
 70
     0
  9
$DIMSAH
 70
     1
  9
$DIMBLK1
  1
OPEN
  9
$DIMBLK2
  1
OPEN
  9
$DIMSTYLE
  2
IGA
  9
$DIMCLRD
 70
     0
  9
$DIMCLRE
 70
     0
  9
$DIMCLRT
 70
     0
  9
$DIMTFAC
 40
10.0
  9
$DIMGAP
 40
1.0
  9
$LUNITS
 70
     2
  9
$LUPREC
 70
     3
  9
$SKETCHINC
 40
0.1
  9
$FILLETRAD
 40
50.0
  9
$AUNITS
 70
     0
  9
$AUPREC
 70
     0
  9
$MENU
  1
acad
  9
$ELEVATION
 40
0.0
  9
$PELEVATION
 40
0.0
  9
$THICKNESS
 40
0.0
  9
$LIMCHECK
 70
     0
  9
$BLIPMODE
 70
     0
  9
$CHAMFERA
 40
0.5
  9
$CHAMFERB
 40
0.5
  9
$SKPOLY
 70
     0
  9
$TDCREATE
 40
2450726.480324653
  9
$TDUPDATE
 40
2454953.8593516308
  9
$TDINDWG
 40
0.0029663542
  9
$TDUSRTIMER
 40
0.0029663542
  9
$USRTIMER
 70
     1
  9
$ANGBASE
 50
0.0
  9
$ANGDIR
 70
     0
  9
$PDMODE
 70
     0
  9
$PDSIZE
 40
0.0
  9
$PLINEWID
 40
0.0
  9
$COORDS
 70
     1
  9
$SPLFRAME
 70
     0
  9
$SPLINETYPE
 70
     6
  9
$SPLINESEGS
 70
     8
  9
$ATTDIA
 70
     0
  9
$ATTREQ
 70
     1
  9
$HANDLING
 70
 10241
  9
$HANDSEED
  5
7F37
  9
$SURFTAB1
 70
     6
  9
$SURFTAB2
 70
     6
  9
$SURFTYPE
 70
     6
  9
$SURFU
 70
     6
  9
$SURFV
 70
     6
  9
$UCSNAME
  2

  9
$UCSORG
 10
0.0
 20
0.0
 30
0.0
  9
$UCSXDIR
 10
1.0
 20
0.0
 30
0.0
  9
$UCSYDIR
 10
0.0
 20
1.0
 30
0.0
  9
$PUCSNAME
  2

  9
$PUCSORG
 10
0.0
 20
0.0
 30
0.0
  9
$PUCSXDIR
 10
1.0
 20
0.0
 30
0.0
  9
$PUCSYDIR
 10
0.0
 20
1.0
 30
0.0
  9
$USERI1
 70
     0
  9
$USERI2
 70
     0
  9
$USERI3
 70
     0
  9
$USERI4
 70
     0
  9
$USERI5
 70
     0
  9
$USERR1
 40
0.0
  9
$USERR2
 40
0.0
  9
$USERR3
 40
0.0
  9
$USERR4
 40
0.0
  9
$USERR5
 40
0.0
  9
$WORLDVIEW
 70
     1
  9
$SHADEDGE
 70
     3
  9
$SHADEDIF
 70
    70
  9
$TILEMODE
 70
     1
  9
$MAXACTVP
 70
    16
  9
$PLIMCHECK
 70
     0
  9
$PEXTMIN
 10
1.0000000000000000E+020
 20
1.0000000000000000E+020
 30
1.0000000000000000E+020
  9
$PEXTMAX
 10
-1.0000000000000000E+020
 20
-1.0000000000000000E+020
 30
-1.0000000000000000E+020
  9
$PLIMMIN
 10
0.0
 20
0.0
  9
$PLIMMAX
 10
12.0
 20
9.0
  9
$UNITMODE
 70
     0
  9
$VISRETAIN
 70
     0
  9
$PLINEGEN
 70
     0
  9
$PSLTSCALE
 70
     1
  0
ENDSEC
  0
SECTION
  2
TABLES
  0
TABLE
  2
VPORT
 70
     2
  0
VPORT
  2
*ACTIVE
 70
     0
 10
0.0
 20
0.0
 11
1.0
 21
1.0
 12
2773.3532996260369
 22
1842.618752942167
 13
0.0
 23
0.0
 14
10.0
 24
10.0
 15
10.0
 25
10.0
 16
0.0
 26
0.0
 36
1.0
 17
0.0
 27
0.0
 37
0.0
 40
3685.237518247654
 41
1.5051150895140659
 42
50.0
 43
0.0
 44
0.0
 50
0.0
 51
0.0
 71
     0
 72
   100
 73
     1
 74
     0
 75
     0
 76
     0
 77
     0
 78
     0
  0
ENDTAB
  0
TABLE
  2
LTYPE
 70
     2
  0
LTYPE
  2
CONTINUOUS
 70
     0
  3
Solid line
 72
    65
 73
     0
 40
0.0
  0
LTYPE
  2
CENTER
 70
     0
  3
____ _ ____ _ ____ _ ____ _ ____ _ ____ _ ____ 
 72
    65
 73
     4
 40
2.0
 49
1.25
 49
-0.25
 49
0.25
 49
-0.25
  0
ENDTAB
  0
TABLE
  2
LAYER
 70
     6
  0
LAYER
  2
0
 70
     0
 62
     7
  6
CONTINUOUS
  0
LAYER
  2
3
 70
     0
 62
     2
  6
CONTINUOUS
  0
LAYER
  2
2
 70
     0
 62
     3
  6
CENTER
  0
LAYER
  2
1
 70
     0
 62
     4
  6
CONTINUOUS
  0
LAYER
  2
4
 70
     0
 62
     7
  6
CONTINUOUS
  0
LAYER
  2
DEFPOINTS
 70
     0
 62
     7
  6
CONTINUOUS
  0
ENDTAB
  0
TABLE
  2
STYLE
 70
     1
  0
STYLE
  2
STANDARD
 70
     0
 40
0.0
 41
1.0
 50
0.0
 71
     0
 42
180.0
  3
simplex.shx
  4
extfont.shx
  0
ENDTAB
  0
TABLE
  2
VIEW
 70
     0
  0
ENDTAB
  0
TABLE
  2
UCS
 70
     0
  0
ENDTAB
  0
TABLE
  2
APPID
 70
     1
  0
APPID
  2
ACAD
 70
     0
  0
ENDTAB
  0
TABLE
  2
DIMSTYLE
 70
     1
  0
DIMSTYLE
  2
IGA
 70
     0
  3

  4

  5

  6
OPEN
  7
OPEN
 40
2.0
 41
2.0
 42
0.5
 43
10.0
 44
1.0
 45
0.0
 46
0.0
 47
1.0
 48
1.0
140
3.0
141
0.0
142
0.0
143
0.03937
144
1.0
145
0.0
146
10.0
147
1.0
 71
     0
 72
     0
 73
     0
 74
     0
 75
     0
 76
     0
 77
     1
 78
     8
170
     0
171
     2
172
     0
173
     1
174
     0
175
     0
176
     0
177
     0
178
     0
  0
ENDTAB
  0
ENDSEC
  0
SECTION
  2
BLOCKS
  0
BLOCK
  8
0
  2
$MODEL_SPACE
 70
     0
 10
0.0
 20
0.0
 30
0.0
  3
$MODEL_SPACE
  1

  0
ENDBLK
  5
1B
  8
0
  0
BLOCK
 67
     1
  8
0
  2
$PAPER_SPACE
 70
     0
 10
0.0
 20
0.0
 30
0.0
  3
$PAPER_SPACE
  1

  0
ENDBLK
  5
18
 67
     1
  8
0
  0
BLOCK
  8
0
  2
_OPEN
 70
     0
 10
0.0
 20
0.0
 30
0.0
  3
_OPEN
  1

  0
LINE
  5
7BD0
  8
0
  6
BYBLOCK
 62
     0
 10
-1.0
 20
0.166667
 30
0.0
 11
0.0
 21
0.0
 31
0.0
  0
LINE
  5
7BD1
  8
0
  6
BYBLOCK
 62
     0
 10
0.0
 20
0.0
 30
0.0
 11
-1.0
 21
-0.166667
 31
0.0
  0
LINE
  5
7BD2
  8
0
  6
BYBLOCK
 62
     0
 10
0.0
 20
0.0
 30
0.0
 11
-1.0
 21
0.0
 31
0.0
  0
ENDBLK
  5
7BD3
  8
0
  0
BLOCK
  8
0
  2
*D1
 70
     1
 10
0.0
 20
0.0
 30
0.0
  3
*D1
  1

  0
LINE
  5
7EA3
  8
3
  6
CONTINUOUS
 62
     0
 10
385.245813
 20
1692.1000939999999
 30
0.0
 11
385.245813
 21
1526.4154530000001
 31
0.0
  0
LINE
  5
7EA4
  8
3
  6
CONTINUOUS
 62
     0
 10
945.24581300000011
 20
1692.1000939999999
 30
0.0
 11
945.24581300000011
 21
1526.4154530000001
 31
0.0
  0
LINE
  5
7EA5
  8
3
  6
CONTINUOUS
 62
     0
 10
405.24581299999988
 20
1536.4154530000001
 30
0.0
 11
925.245813
 21
1536.4154530000001
 31
0.0
  0
INSERT
  5
7EA6
  8
3
  6
CONTINUOUS
 62
     0
  2
_OPEN
 10
385.245813
 20
1536.4154530000001
 30
0.0
 41
20.0
 42
20.0
 43
20.0
 50
180.0
  0
INSERT
  5
7EA7
  8
3
  6
CONTINUOUS
 62
     0
  2
_OPEN
 10
945.24581300000011
 20
1536.4154530000001
 30
0.0
 41
20.0
 42
20.0
 43
20.0
  0
TEXT
  8
3
  40
30
  5
7F27
  62
0
  72
0
  71
0
 10
578.098
 20
1508.32
 30
0.000000
  1
560
  0
POINT
  5
7EA9
  8
DEFPOINTS
  6
CONTINUOUS
 62
     0
 10
385.245813
 20
1697.1000939999999
 30
0.0
  0
POINT
  5
7EAA
  8
DEFPOINTS
  6
CONTINUOUS
 62
     0
 10
945.24581300000011
 20
1697.1000939999999
 30
0.0
  0
POINT
  5
7EAB
  8
DEFPOINTS
  6
CONTINUOUS
 62
     0
 10
945.24581300000011
 20
1536.4154530000001
 30
0.0
  0
ENDBLK
  5
7BEC
  8
0
  0
BLOCK
  8
0
  2
*D2
 70
     1
 10
0.0
 20
0.0
 30
0.0
  3
*D2
  1

  0
LINE
  5
7EAC
  8
3
  6
CONTINUOUS
 62
     0
 10
950.245813
 20
1921.1000939999999
 30
0.0
 11
1043.147872
 21
1921.1000939999999
 31
0.0
  0
LINE
  5
7EAD
  8
3
  6
CONTINUOUS
 62
     0
 10
950.245813
 20
1697.1000939999999
 30
0.0
 11
1043.147872
 21
1697.1000939999999
 31
0.0
  0
LINE
  5
7EAE
  8
3
  6
CONTINUOUS
 62
     0
 10
1033.147872
 20
1901.1000939999999
 30
0.0
 11
1033.147872
 21
1717.1000939999999
 31
0.0
  0
INSERT
  5
7EAF
  8
3
  6
CONTINUOUS
 62
     0
  2
_OPEN
 10
1033.147872
 20
1921.1000939999999
 30
0.0
 41
20.0
 42
20.0
 43
20.0
 50
90.0
  0
INSERT
  5
7EB0
  8
3
  6
CONTINUOUS
 62
     0
  2
_OPEN
 10
1033.147872
 20
1697.1000939999999
 30
0.0
 41
20.0
 42
20.0
 43
20.0
 50
270.0
  0
TEXT
  8
3
  40
30
  5
7F28
  62
0
  72
0
  71
0
 10
948.148
 20
1763.40
 30
0.000000
  1
224
  0
POINT
  5
7EB2
  8
DEFPOINTS
  6
CONTINUOUS
 62
     0
 10
945.24581300000011
 20
1921.1000939999999
 30
0.0
  0
POINT
  5
7EB3
  8
DEFPOINTS
  6
CONTINUOUS
 62
     0
 10
945.24581300000011
 20
1697.1000939999999
 30
0.0
  0
POINT
  5
7EB4
  8
DEFPOINTS
  6
CONTINUOUS
 62
     0
 10
1033.147872
 20
1697.1000939999999
 30
0.0
  0
ENDBLK
  5
7BF8
  8
0
  0
BLOCK
  8
0
  2
*D3
 70
     1
 10
0.0
 20
0.0
 30
0.0
  3
*D3
  1

  0
LINE
  5
7EB5
  8
3
  6
CONTINUOUS
 62
     0
 10
945.24581300000011
 20
862.70009400000004
 30
0.0
 11
945.24581300000011
 21
771.51370199999997
 31
0.0
  0
LINE
  5
7EB6
  8
3
  6
CONTINUOUS
 62
     0
 10
520.245813
 20
847.30279900000005
 30
0.0
 11
520.245813
 21
771.51370199999997
 31
0.0
  0
LINE
  5
7EB7
  8
3
  6
CONTINUOUS
 62
     0
 10
925.245813
 20
781.51370199999985
 30
0.0
 11
540.245813
 21
781.51370199999985
 31
0.0
  0
INSERT
  5
7EB8
  8
3
  6
CONTINUOUS
 62
     0
  2
_OPEN
 10
945.24581300000011
 20
781.51370199999985
 30
0.0
 41
20.0
 42
20.0
 43
20.0
  0
INSERT
  5
7EB9
  8
3
  6
CONTINUOUS
 62
     0
  2
_OPEN
 10
520.245813
 20
781.51370199999985
 30
0.0
 41
20.0
 42
20.0
 43
20.0
 50
180.0
  0
TEXT
  8
3
  40
30
  5
7F29
  62
0
  72
0
  71
0
 10
658.176
 20
753.414
 30
0.000000
  1
425
  0
POINT
  5
7EBB
  8
DEFPOINTS
  6
CONTINUOUS
 62
     0
 10
945.24581300000011
 20
867.70009399999992
 30
0.0
  0
POINT
  5
7EBC
  8
DEFPOINTS
  6
CONTINUOUS
 62
     0
 10
520.245813
 20
852.30279900000005
 30
0.0
  0
POINT
  5
7EBD
  8
DEFPOINTS
  6
CONTINUOUS
 62
     0
 10
520.245813
 20
781.51370199999985
 30
0.0
  0
ENDBLK
  5
7C05
  8
0
  0
BLOCK
  8
0
  2
*D4
 70
     1
 10
0.0
 20
0.0
 30
0.0
  3
*D4
  1

  0
LINE
  5
7EBE
  8
3
  6
CONTINUOUS
 62
     0
 10
385.245813
 20
862.70009400000004
 30
0.0
 11
385.245813
 21
771.51370199999997
 31
0.0
  0
LINE
  5
7EBF
  8
3
  6
CONTINUOUS
 62
     0
 10
500.24581299999988
 20
781.51370199999985
 30
0.0
 11
405.24581299999988
 21
781.51370199999985
 31
0.0
  0
INSERT
  5
7EC0
  8
3
  6
CONTINUOUS
 62
     0
  2
_OPEN
 10
520.245813
 20
781.51370199999985
 30
0.0
 41
20.0
 42
20.0
 43
20.0
  0
INSERT
  5
7EC1
  8
3
  6
CONTINUOUS
 62
     0
  2
_OPEN
 10
385.245813
 20
781.51370199999985
 30
0.0
 41
20.0
 42
20.0
 43
20.0
 50
180.0
  0
TEXT
  8
3
  40
30
  5
7F2A
  62
0
  72
0
  71
0
 10
392.746
 20
753.414
 30
0.000000
  1
135
  0
POINT
  5
7EC3
  8
DEFPOINTS
  6
CONTINUOUS
 62
     0
 10
520.245813
 20
852.30279900000005
 30
0.0
  0
POINT
  5
7EC4
  8
DEFPOINTS
  6
CONTINUOUS
 62
     0
 10
385.245813
 20
867.70009399999992
 30
0.0
  0
POINT
  5
7EC5
  8
DEFPOINTS
  6
CONTINUOUS
 62
     0
 10
385.245813
 20
781.51370199999985
 30
0.0
  0
ENDBLK
  5
7C11
  8
0
  0
BLOCK
  8
0
  2
*D5
 70
     1
 10
0.0
 20
0.0
 30
0.0
  3
*D5
  1

  0
LINE
  5
7EC6
  8
3
  6
CONTINUOUS
 62
     0
 10
380.245813
 20
867.70009399999992
 30
0.0
 11
329.14219100000008
 21
867.70009399999992
 31
0.0
  0
LINE
  5
7EC7
  8
3
  6
CONTINUOUS
 62
     0
 10
371.48346499999991
 20
1102.700094
 30
0.0
 11
329.1421910000002
 21
1102.700094
 31
0.0
  0
LINE
  5
7EC8
  8
3
  6
CONTINUOUS
 62
     0
 10
339.14219100000008
 20
887.70009400000004
 30
0.0
 11
339.14219100000008
 21
1082.700094
 31
0.0
  0
INSERT
  5
7EC9
  8
3
  6
CONTINUOUS
 62
     0
  2
_OPEN
 10
339.14219100000008
 20
867.70009399999992
 30
0.0
 41
20.0
 42
20.0
 43
20.0
 50
270.0
  0
INSERT
  5
7ECA
  8
3
  6
CONTINUOUS
 62
     0
  2
_OPEN
 10
339.14219100000008
 20
1102.700094
 30
0.0
 41
20.0
 42
20.0
 43
20.0
 50
90.0
  0
TEXT
  8
3
  40
30
  5
7F2B
  62
0
  72
0
  71
0
 10
254.142
 20
931.143
 30
0.000000
  1
235
  0
POINT
  5
7ECC
  8
DEFPOINTS
  6
CONTINUOUS
 62
     0
 10
385.245813
 20
867.70009399999992
 30
0.0
  0
POINT
  5
7ECD
  8
DEFPOINTS
  6
CONTINUOUS
 62
     0
 10
376.48346499999991
 20
1102.700094
 30
0.0
  0
POINT
  5
7ECE
  8
DEFPOINTS
  6
CONTINUOUS
 62
     0
 10
339.14219100000008
 20
1102.700094
 30
0.0
  0
ENDBLK
  5
7C1E
  8
0
  0
BLOCK
  8
0
  2
*D6
 70
     1
 10
0.0
 20
0.0
 30
0.0
  3
*D6
  1

  0
LINE
  5
7ECF
  8
3
  6
CONTINUOUS
 62
     0
 10
493.24581299999988
 20
1232.700094
 30
0.0
 11
329.14219100000003
 21
1232.700094
 31
0.0
  0
LINE
  5
7ED0
  8
3
  6
CONTINUOUS
 62
     0
 10
339.14219099999991
 20
1122.700094
 30
0.0
 11
339.14219100000003
 21
1212.700094
 31
0.0
  0
TEXT
  8
3
  40
30
  5
7F2C
  62
0
  72
0
  71
0
 10
253.610
 20
1109.61
 30
0.000000
  1
130
  0
INSERT
  5
7ED2
  8
3
  6
CONTINUOUS
 62
     0
  2
_OPEN
 10
339.14219099999991
 20
1102.700094
 30
0.0
 41
20.0
 42
20.0
 43
20.0
 50
270.0
  0
INSERT
  5
7ED3
  8
3
  6
CONTINUOUS
 62
     0
  2
_OPEN
 10
339.14219100000003
 20
1232.700094
 30
0.0
 41
20.0
 42
20.0
 43
20.0
 50
90.0
  0
POINT
  5
7ED4
  8
DEFPOINTS
  6
CONTINUOUS
 62
     0
 10
376.48346499999991
 20
1102.700094
 30
0.0
  0
POINT
  5
7ED5
  8
DEFPOINTS
  6
CONTINUOUS
 62
     0
 10
498.245813
 20
1232.700094
 30
0.0
  0
POINT
  5
7ED6
  8
DEFPOINTS
  6
CONTINUOUS
 62
     0
 10
339.14219100000003
 20
1232.700094
 30
0.0
  0
ENDBLK
  5
7CB8
  8
0
  0
BLOCK
  8
0
  2
*D7
 70
     1
 10
0.0
 20
0.0
 30
0.0
  3
*D7
  1

  0
LINE
  5
7DA3
  8
0
  6
BYBLOCK
 62
     0
 10
1560.827064999999
 20
1237.700094
 30
0.0
 11
1560.827064999999
 21
1272.357782
 31
0.0
  0
LINE
  5
7DA4
  8
0
  6
BYBLOCK
 62
     0
 10
1673.8270649999999
 20
1237.700094
 30
0.0
 11
1673.8270649999999
 21
1272.357782
 31
0.0
  0
LINE
  5
7DA5
  8
0
  6
BYBLOCK
 62
     0
 10
1580.8270649999999
 20
1262.357782
 30
0.0
 11
1653.8270649999999
 21
1262.357782
 31
0.0
  0
TEXT
  5
7DA6
  8
3
 62
     0
 10
1584.4699221428571
 20
1266.6226068095
 30
0.0
 40
30.0
  1
113
  0
INSERT
  5
7DA7
  8
0
  6
BYBLOCK
 62
     0
  2
_OPEN
 10
1560.827064999999
 20
1262.357782
 30
0.0
 41
20.0
 42
20.0
 43
20.0
 50
180.0
  0
INSERT
  5
7DA8
  8
0
  6
BYBLOCK
 62
     0
  2
_OPEN
 10
1673.8270649999999
 20
1262.357782
 30
0.0
 41
20.0
 42
20.0
 43
20.0
  0
POINT
  5
7DA9
  8
DEFPOINTS
  6
BYBLOCK
 62
     0
 10
1560.827064999999
 20
1232.700094
 30
0.0
  0
POINT
  5
7DAA
  8
DEFPOINTS
  6
BYBLOCK
 62
     0
 10
1673.8270649999999
 20
1232.700094
 30
0.0
  0
POINT
  5
7DAB
  8
DEFPOINTS
  6
BYBLOCK
 62
     0
 10
1673.8270649999999
 20
1262.357782
 30
0.0
  0
ENDBLK
  5
7DAC
  8
0
  0
BLOCK
  8
0
  2
*D8
 70
     1
 10
0.0
 20
0.0
 30
0.0
  3
*D8
  1

  0
LINE
  5
7ED7
  8
3
  6
CONTINUOUS
 62
     0
 10
1357.8270649999999
 20
1202.700094
 30
0.0
 11
1357.8270649999999
 21
1333.0156629999999
 31
0.0
  0
LINE
  5
7ED8
  8
3
  6
CONTINUOUS
 62
     0
 10
1617.827064999999
 20
1304.0081809999999
 30
0.0
 11
1617.827064999999
 21
1333.0156629999999
 31
0.0
  0
LINE
  5
7ED9
  8
3
  6
CONTINUOUS
 62
     0
 10
1377.827064999999
 20
1323.0156629999999
 30
0.0
 11
1597.8270649999999
 21
1323.0156629999999
 31
0.0
  0
INSERT
  5
7EDA
  8
3
  6
CONTINUOUS
 62
     0
  2
_OPEN
 10
1357.8270649999999
 20
1323.0156629999999
 30
0.0
 41
20.0
 42
20.0
 43
20.0
 50
180.0
  0
INSERT
  5
7EDB
  8
3
  6
CONTINUOUS
 62
     0
  2
_OPEN
 10
1617.827064999999
 20
1323.0156629999999
 30
0.0
 41
20.0
 42
20.0
 43
20.0
  0
TEXT
  8
3
  40
30
  5
7F2D
  62
0
  72
0
  71
0
 10
1421.58
 20
1319.92
 30
0.000000
  1
MAX
  0
TEXT
  8
3
  40
30
  5
7F2E
  62
0
  72
0
  71
0
 10
1421.58
 20
1280.92
 30
0.000000
  1
260
  0
POINT
  5
7EDD
  8
DEFPOINTS
  6
CONTINUOUS
 62
     0
 10
1357.8270649999999
 20
1197.7000939999989
 30
0.0
  0
POINT
  5
7EDE
  8
DEFPOINTS
  6
CONTINUOUS
 62
     0
 10
1617.827064999999
 20
1299.0081809999999
 30
0.0
  0
POINT
  5
7EDF
  8
DEFPOINTS
  6
CONTINUOUS
 62
     0
 10
1617.827064999999
 20
1323.0156629999999
 30
0.0
  0
ENDBLK
  5
7DCF
  8
0
  0
BLOCK
  8
0
  2
*D9
 70
     1
 10
0.0
 20
0.0
 30
0.0
  3
*D9
  1

  0
LINE
  5
7EE0
  8
3
  6
CONTINUOUS
 62
     0
 10
1681.8270649999999
 20
1207.700094
 30
0.0
 11
1681.8270649999999
 21
1333.0156629999999
 31
0.0
  0
LINE
  5
7EE1
  8
3
  6
CONTINUOUS
 62
     0
 10
1637.8270649999999
 20
1323.0156629999999
 30
0.0
 11
1661.827064999999
 21
1323.0156629999999
 31
0.0
  0
TEXT
  8
3
  40
30
  5
7F2F
  62
0
  72
0
  71
0
 10
1590.44
 20
1295.27
 30
0.000000
  1
64
  0
INSERT
  5
7EE3
  8
3
  6
CONTINUOUS
 62
     0
  2
_OPEN
 10
1617.827064999999
 20
1323.0156629999999
 30
0.0
 41
20.0
 42
20.0
 43
20.0
 50
180.0
  0
INSERT
  5
7EE4
  8
3
  6
CONTINUOUS
 62
     0
  2
_OPEN
 10
1681.8270649999999
 20
1323.0156629999999
 30
0.0
 41
20.0
 42
20.0
 43
20.0
  0
POINT
  5
7EE5
  8
DEFPOINTS
  6
CONTINUOUS
 62
     0
 10
1617.827064999999
 20
1299.0081809999999
 30
0.0
  0
POINT
  5
7EE6
  8
DEFPOINTS
  6
CONTINUOUS
 62
     0
 10
1681.8270649999999
 20
1202.700094
 30
0.0
  0
POINT
  5
7EE7
  8
DEFPOINTS
  6
CONTINUOUS
 62
     0
 10
1681.8270649999999
 20
1323.0156629999999
 30
0.0
  0
ENDBLK
  5
7CF1
  8
0
  0
BLOCK
  8
0
  2
*D10
 70
     1
 10
0.0
 20
0.0
 30
0.0
  3
*D10
  1

  0
LINE
  5
7EE8
  8
3
  6
CONTINUOUS
 62
     0
 10
1429.8270649999999
 20
862.70009400000004
 30
0.0
 11
1429.8270649999999
 21
771.51370199999997
 31
0.0
  0
LINE
  5
7EE9
  8
3
  6
CONTINUOUS
 62
     0
 10
1617.827064999999
 20
926.255132
 30
0.0
 11
1617.827064999999
 21
771.51370199999997
 31
0.0
  0
LINE
  5
7EEA
  8
3
  6
CONTINUOUS
 62
     0
 10
1449.8270649999999
 20
781.51370199999985
 30
0.0
 11
1597.8270649999999
 21
781.51370199999985
 31
0.0
  0
INSERT
  5
7EEB
  8
3
  6
CONTINUOUS
 62
     0
  2
_OPEN
 10
1429.8270649999999
 20
781.51370199999985
 30
0.0
 41
20.0
 42
20.0
 43
20.0
 50
180.0
  0
INSERT
  5
7EEC
  8
3
  6
CONTINUOUS
 62
     0
  2
_OPEN
 10
1617.827064999999
 20
781.51370199999985
 30
0.0
 41
20.0
 42
20.0
 43
20.0
  0
TEXT
  8
3
  40
30
  5
7F30
  62
0
  72
0
  71
0
 10
1472.30
 20
753.414
 30
0.000000
  1
188
  0
POINT
  5
7EEE
  8
DEFPOINTS
  6
CONTINUOUS
 62
     0
 10
1429.8270649999999
 20
867.70009399999992
 30
0.0
  0
POINT
  5
7EEF
  8
DEFPOINTS
  6
CONTINUOUS
 62
     0
 10
1617.827064999999
 20
931.255132
 30
0.0
  0
POINT
  5
7EF0
  8
DEFPOINTS
  6
CONTINUOUS
 62
     0
 10
1617.827064999999
 20
781.51370199999985
 30
0.0
  0
ENDBLK
  5
7C7E
  8
0
  0
BLOCK
  8
0
  2
*D11
 70
     1
 10
0.0
 20
0.0
 30
0.0
  3
*D11
  1

  0
LINE
  5
7EF1
  8
3
  6
CONTINUOUS
 62
     0
 10
1653.8270649999999
 20
862.70009400000004
 30
0.0
 11
1653.8270649999999
 21
771.51370199999997
 31
0.0
  0
LINE
  5
7EF2
  8
3
  6
CONTINUOUS
 62
     0
 10
1597.8270649999999
 20
781.51370199999985
 30
0.0
 11
1577.8270649999999
 21
781.51370199999985
 31
0.0
  0
LINE
  5
7EF3
  8
3
  6
CONTINUOUS
 62
     0
 10
1673.8270649999999
 20
781.51370199999985
 30
0.0
 11
1693.827064999999
 21
781.51370199999985
 31
0.0
  0
TEXT
  8
3
  40
30
  5
7F31
  62
0
  72
0
  71
0
 10
1638.13
 20
752.994
 30
0.000000
  1
36
  0
LINE
  5
7EF5
  8
3
  6
CONTINUOUS
 62
     0
 10
1617.827064999999
 20
781.51370199999985
 30
0.0
 11
1653.8270649999999
 21
781.51370199999985
 31
0.0
  0
INSERT
  5
7EF6
  8
3
  6
CONTINUOUS
 62
     0
  2
_OPEN
 10
1617.827064999999
 20
781.51370199999985
 30
0.0
 41
20.0
 42
20.0
 43
20.0
  0
INSERT
  5
7EF7
  8
3
  6
CONTINUOUS
 62
     0
  2
_OPEN
 10
1653.8270649999999
 20
781.51370199999985
 30
0.0
 41
20.0
 42
20.0
 43
20.0
 50
180.0
  0
POINT
  5
7EF8
  8
DEFPOINTS
  6
CONTINUOUS
 62
     0
 10
1617.827064999999
 20
931.255132
 30
0.0
  0
POINT
  5
7EF9
  8
DEFPOINTS
  6
CONTINUOUS
 62
     0
 10
1653.8270649999999
 20
867.70009399999992
 30
0.0
  0
POINT
  5
7EFA
  8
DEFPOINTS
  6
CONTINUOUS
 62
     0
 10
1653.8270649999999
 20
781.51370199999985
 30
0.0
  0
ENDBLK
  5
7D0B
  8
0
  0
BLOCK
  8
0
  2
*D12
 70
     1
 10
0.0
 20
0.0
 30
0.0
  3
*D12
  1

  0
LINE
  5
7EFB
  8
3
  6
CONTINUOUS
 62
     0
 10
488.24581299999988
 20
1232.700094
 30
0.0
 11
263.78191700000008
 21
1232.700094
 31
0.0
  0
LINE
  5
7EFC
  8
3
  6
CONTINUOUS
 62
     0
 10
380.245813
 20
867.70009399999992
 30
0.0
 11
263.78191700000002
 21
867.70009399999992
 31
0.0
  0
LINE
  5
7EFD
  8
3
  6
CONTINUOUS
 62
     0
 10
273.78191700000019
 20
1212.700094
 30
0.0
 11
273.78191700000002
 21
887.70009400000004
 31
0.0
  0
INSERT
  5
7EFE
  8
3
  6
CONTINUOUS
 62
     0
  2
_OPEN
 10
273.78191700000019
 20
1232.700094
 30
0.0
 41
20.0
 42
20.0
 43
20.0
 50
90.0
  0
INSERT
  5
7EFF
  8
3
  6
CONTINUOUS
 62
     0
  2
_OPEN
 10
273.78191700000002
 20
867.70009399999992
 30
0.0
 41
20.0
 42
20.0
 43
20.0
 50
270.0
  0
TEXT
  8
3
  40
30
  5
7F32
  62
0
  72
0
  71
0
 10
188.782
 20
994.247
 30
0.000000
  1
365
  0
POINT
  5
7F01
  8
DEFPOINTS
  6
CONTINUOUS
 62
     0
 10
493.24581299999988
 20
1232.700094
 30
0.0
  0
POINT
  5
7F02
  8
DEFPOINTS
  6
CONTINUOUS
 62
     0
 10
385.245813
 20
867.70009399999992
 30
0.0
  0
POINT
  5
7F03
  8
DEFPOINTS
  6
CONTINUOUS
 62
     0
 10
273.78191700000002
 20
867.70009399999992
 30
0.0
  0
ENDBLK
  5
7D1C
  8
0
  0
BLOCK
  8
0
  2
*D13
 70
     1
 10
0.0
 20
0.0
 30
0.0
  3
*D13
  1

  0
LINE
  5
7F04
  8
3
  6
CONTINUOUS
 62
     0
 10
520.245813
 20
1237.700094
 30
0.0
 11
520.245813
 21
1285.98146
 31
0.0
  0
LINE
  5
7F05
  8
3
  6
CONTINUOUS
 62
     0
 10
680.24581299999988
 20
1236.700094
 30
0.0
 11
680.24581299999988
 21
1285.98146
 31
0.0
  0
LINE
  5
7F06
  8
3
  6
CONTINUOUS
 62
     0
 10
540.245813
 20
1275.98146
 30
0.0
 11
660.245813
 21
1275.98146
 31
0.0
  0
INSERT
  5
7F07
  8
3
  6
CONTINUOUS
 62
     0
  2
_OPEN
 10
520.245813
 20
1275.98146
 30
0.0
 41
20.0
 42
20.0
 43
20.0
 50
180.0
  0
INSERT
  5
7F08
  8
3
  6
CONTINUOUS
 62
     0
  2
_OPEN
 10
680.24581299999988
 20
1275.98146
 30
0.0
 41
20.0
 42
20.0
 43
20.0
  0
TEXT
  8
3
  40
30
  5
7F33
  62
0
  72
0
  71
0
 10
537.512
 20
1247.88
 30
0.000000
  1
160
  0
POINT
  5
7F0A
  8
DEFPOINTS
  6
CONTINUOUS
 62
     0
 10
520.245813
 20
1232.700094
 30
0.0
  0
POINT
  5
7F0B
  8
DEFPOINTS
  6
CONTINUOUS
 62
     0
 10
680.24581299999988
 20
1231.700094
 30
0.0
  0
POINT
  5
7F0C
  8
DEFPOINTS
  6
CONTINUOUS
 62
     0
 10
680.24581299999988
 20
1275.98146
 30
0.0
  0
ENDBLK
  5
7D29
  8
0
  0
BLOCK
  8
0
  2
*D14
 70
     1
 10
0.0
 20
0.0
 30
0.0
  3
*D14
  1

  0
LINE
  5
7F0D
  8
3
  6
CONTINUOUS
 62
     0
 10
691.245813
 20
1222.700094
 30
0.0
 11
691.245813
 21
1337.059399
 31
0.0
  0
LINE
  5
7F0E
  8
3
  6
CONTINUOUS
 62
     0
 10
520.245813
 20
1237.700094
 30
0.0
 11
520.245813
 21
1337.059399
 31
0.0
  0
LINE
  5
7F0F
  8
3
  6
CONTINUOUS
 62
     0
 10
671.24581299999988
 20
1327.059399
 30
0.0
 11
540.245813
 21
1327.059399
 31
0.0
  0
INSERT
  5
7F10
  8
3
  6
CONTINUOUS
 62
     0
  2
_OPEN
 10
691.245813
 20
1327.059399
 30
0.0
 41
20.0
 42
20.0
 43
20.0
  0
INSERT
  5
7F11
  8
3
  6
CONTINUOUS
 62
     0
  2
_OPEN
 10
520.245813
 20
1327.059399
 30
0.0
 41
20.0
 42
20.0
 43
20.0
 50
180.0
  0
TEXT
  8
3
  40
30
  5
7F34
  62
0
  72
0
  71
0
 10
536.295
 20
1298.96
 30
0.000000
  1
171
  0
POINT
  5
7F13
  8
DEFPOINTS
  6
CONTINUOUS
 62
     0
 10
691.245813
 20
1217.700094
 30
0.0
  0
POINT
  5
7F14
  8
DEFPOINTS
  6
CONTINUOUS
 62
     0
 10
520.245813
 20
1232.700094
 30
0.0
  0
POINT
  5
7F15
  8
DEFPOINTS
  6
CONTINUOUS
 62
     0
 10
520.245813
 20
1327.059399
 30
0.0
  0
ENDBLK
  5
7D36
  8
0
  0
BLOCK
  8
0
  2
*D15
 70
     1
 10
0.0
 20
0.0
 30
0.0
  3
*D15
  1

  0
LINE
  5
7F16
  8
3
  6
CONTINUOUS
 62
     0
 10
397.60163099999988
 20
1107.700094
 30
0.0
 11
397.60163099999988
 21
1337.059399
 31
0.0
  0
LINE
  5
7F17
  8
3
  6
CONTINUOUS
 62
     0
 10
500.24581299999988
 20
1327.059399
 30
0.0
 11
417.60163099999988
 21
1327.059399
 31
0.0
  0
TEXT
  8
3
  40
30
  5
7F35
  62
0
  72
0
  71
0
 10
402.422
 20
1298.96
 30
0.000000
  1
123
  0
INSERT
  5
7F19
  8
3
  6
CONTINUOUS
 62
     0
  2
_OPEN
 10
520.245813
 20
1327.059399
 30
0.0
 41
20.0
 42
20.0
 43
20.0
  0
INSERT
  5
7F1A
  8
3
  6
CONTINUOUS
 62
     0
  2
_OPEN
 10
397.60163099999988
 20
1327.059399
 30
0.0
 41
20.0
 42
20.0
 43
20.0
 50
180.0
  0
POINT
  5
7F1B
  8
DEFPOINTS
  6
CONTINUOUS
 62
     0
 10
520.245813
 20
1232.700094
 30
0.0
  0
POINT
  5
7F1C
  8
DEFPOINTS
  6
CONTINUOUS
 62
     0
 10
397.60163099999988
 20
1102.700094
 30
0.0
  0
POINT
  5
7F1D
  8
DEFPOINTS
  6
CONTINUOUS
 62
     0
 10
397.60163099999988
 20
1327.059399
 30
0.0
  0
ENDBLK
  5
7D5B
  8
0
  0
BLOCK
  8
0
  2
*D16
 70
     1
 10
0.0
 20
0.0
 30
0.0
  3
*D16
  1

  0
LINE
  5
7DAE
  8
0
  6
BYBLOCK
 62
     0
 10
1686.8270649999999
 20
1182.700094
 30
0.0
 11
1766.2033280000001
 21
1182.700094
 31
0.0
  0
LINE
  5
7DAF
  8
0
  6
BYBLOCK
 62
     0
 10
1686.8270649999999
 20
1022.700093999999
 30
0.0
 11
1766.2033280000001
 21
1022.700093999999
 31
0.0
  0
LINE
  5
7DB0
  8
0
  6
BYBLOCK
 62
     0
 10
1756.2033280000001
 20
1162.700094
 30
0.0
 11
1756.2033280000001
 21
1042.7000939999989
 31
0.0
  0
TEXT
  5
7DB1
  8
3
 62
     0
 10
1748.905509718641
 20
1051.985808285714
 30
0.0
 40
30.0
  1
φ160
 50
90.0
  0
INSERT
  5
7DB2
  8
0
  6
BYBLOCK
 62
     0
  2
_OPEN
 10
1756.2033280000001
 20
1182.700094
 30
0.0
 41
20.0
 42
20.0
 43
20.0
 50
90.0
  0
INSERT
  5
7DB3
  8
0
  6
BYBLOCK
 62
     0
  2
_OPEN
 10
1756.2033280000001
 20
1022.700093999999
 30
0.0
 41
20.0
 42
20.0
 43
20.0
 50
270.0
  0
POINT
  5
7DB4
  8
DEFPOINTS
  6
BYBLOCK
 62
     0
 10
1681.8270649999999
 20
1182.700094
 30
0.0
  0
POINT
  5
7DB5
  8
DEFPOINTS
  6
BYBLOCK
 62
     0
 10
1681.8270649999999
 20
1022.700093999999
 30
0.0
  0
POINT
  5
7DB6
  8
DEFPOINTS
  6
BYBLOCK
 62
     0
 10
1756.2033280000001
 20
1022.700093999999
 30
0.0
  0
ENDBLK
  5
7DB7
  8
0
  0
BLOCK
  8
0
  2
*D17
 70
     1
 10
0.0
 20
0.0
 30
0.0
  3
*D17
  1

  0
LINE
  5
7F1E
  8
3
 62
     0
 10
397.60163099999988
 20
1112.700094
 30
0.0
 11
397.60163099999988
 21
1396.1496231797901
 31
0.0
  0
LINE
  5
7F1F
  8
3
 62
     0
 10
945.24581300000011
 20
922.70009399999992
 30
0.0
 11
945.24581300000011
 21
1396.1496231797901
 31
0.0
  0
LINE
  5
7F20
  8
3
 62
     0
 10
417.60163099999988
 20
1386.1496231797901
 30
0.0
 11
925.245813
 21
1386.1496231797901
 31
0.0
  0
INSERT
  5
7F21
  8
3
 62
     0
  2
_OPEN
 10
397.60163099999988
 20
1386.1496231797901
 30
0.0
 41
20.0
 42
20.0
 43
20.0
 50
180.0
  0
INSERT
  5
7F22
  8
3
 62
     0
  2
_OPEN
 10
945.24581300000011
 20
1386.1496231797901
 30
0.0
 41
20.0
 42
20.0
 43
20.0
  0
TEXT
  8
3
  40
30
  5
7F36
  62
0
  72
0
  71
0
 10
583.664
 20
1358.05
 30
0.000000
  1
548
  0
POINT
  5
7F24
  8
DEFPOINTS
 62
     0
 10
397.60163099999988
 20
1107.700094
 30
0.0
  0
POINT
  5
7F25
  8
DEFPOINTS
 62
     0
 10
945.24581300000011
 20
917.70009399999992
 30
0.0
  0
POINT
  5
7F26
  8
DEFPOINTS
 62
     0
 10
945.24581300000011
 20
1386.1496231797901
 30
0.0
  0
ENDBLK
  5
7DC3
  8
0
  0
ENDSEC
  0
SECTION
  2
ENTITIES
  0
CIRCLE
  5
7AD6
  8
1
  6
CONTINUOUS
 10
520.245813
 20
1102.700094
 30
0.0
 40
80.0
  0
LINE
  5
7AD7
  8
1
  6
CONTINUOUS
 10
422.94581299999999
 20
1197.7000939999989
 30
0.0
 11
902.94581300000004
 21
1197.7000939999989
 31
0.0
  0
LINE
  5
7AD8
  8
1
  6
CONTINUOUS
 10
945.24581300000011
 20
917.70009399999992
 30
0.0
 11
385.245813
 21
917.70009399999992
 31
0.0
  0
LINE
  5
7AD9
  8
1
  6
CONTINUOUS
 10
945.24581300000011
 20
867.70009399999992
 30
0.0
 11
385.245813
 21
867.70009399999992
 31
0.0
  0
LINE
  5
7ADA
  8
1
  6
CONTINUOUS
 10
630.24581299999988
 20
1069.4000939999989
 30
0.0
 11
410.245813
 21
1069.4000939999989
 31
0.0
  0
LINE
  5
7ADB
  8
1
  6
CONTINUOUS
 10
630.24581299999988
 20
1144.8000939999999
 30
0.0
 11
556.84581300000002
 21
1207.700094
 31
0.0
  0
LINE
  5
7ADC
  8
1
  6
CONTINUOUS
 10
680.24581299999988
 20
1829.1000939999999
 30
0.0
 11
520.245813
 21
1941.1000939999999
 31
0.0
  0
LINE
  5
7ADD
  8
1
  6
CONTINUOUS
 10
520.245813
 20
1829.1000939999999
 30
0.0
 11
680.24581299999988
 21
1941.1000939999999
 31
0.0
  0
LINE
  5
7ADE
  8
1
  6
CONTINUOUS
 10
680.24581299999988
 20
1941.1000939999999
 30
0.0
 11
409.24581299999988
 21
1941.1000939999999
 31
0.0
  0
LINE
  5
7ADF
  8
1
  6
CONTINUOUS
 10
409.24581299999988
 20
1829.1000939999999
 30
0.0
 11
680.24581299999988
 21
1829.1000939999999
 31
0.0
  0
LINE
  5
7AE0
  8
1
  6
CONTINUOUS
 10
620.245813
 20
1947.7000939999989
 30
0.0
 11
420.245813
 21
1947.7000939999989
 31
0.0
  0
LINE
  5
7AE1
  8
1
  6
CONTINUOUS
 10
630.24581299999988
 20
1821.500094
 30
0.0
 11
410.245813
 21
1821.500094
 31
0.0
  0
LINE
  5
7AE2
  8
1
  6
CONTINUOUS
 10
422.94581299999999
 20
1625.1000939999999
 30
0.0
 11
902.94581300000004
 21
1625.1000939999999
 31
0.0
  0
LINE
  5
7AE3
  8
1
  6
CONTINUOUS
 10
422.94581299999999
 20
1700.1000939999999
 30
0.0
 11
902.94581300000004
 21
1700.1000939999999
 31
0.0
  0
LINE
  5
7AE4
  8
1
  6
CONTINUOUS
 10
796.24581299999988
 20
1697.1000939999999
 30
0.0
 11
532.245813
 21
1697.1000939999999
 31
0.0
  0
LINE
  5
7AE5
  8
1
  6
CONTINUOUS
 10
796.84581300000002
 20
983.80009399999983
 30
0.0
 11
508.84581299999991
 21
1059.200094
 31
0.0
  0
LINE
  5
7AE6
  8
1
  6
CONTINUOUS
 10
816.84581300000013
 20
1050.9000939999989
 30
0.0
 11
534.54581299999995
 21
1145.4000939999989
 31
0.0
  0
CIRCLE
  5
7AE7
  8
1
  6
CONTINUOUS
 10
520.245813
 20
1102.700094
 30
0.0
 40
100.0
  0
ARC
  5
7AE8
  8
1
  6
CONTINUOUS
 10
533.245813
 20
1115.700094
 30
0.0
 40
158.0
 50
260.89999999999992
 51
0.0
  0
LINE
  5
7AE9
  8
1
  6
CONTINUOUS
 10
666.245813
 20
1217.700094
 30
0.0
 11
534.24581299999988
 21
1217.700094
 31
0.0
  0
LINE
  5
7AEA
  8
1
  6
CONTINUOUS
 10
702.245813
 20
1232.700094
 30
0.0
 11
498.245813
 21
1232.700094
 31
0.0
  0
LINE
  5
7AEB
  8
1
  6
CONTINUOUS
 10
422.94581299999999
 20
917.70009399999992
 30
0.0
 11
422.94581299999999
 21
1197.7000939999989
 31
0.0
  0
LINE
  5
7AEC
  8
1
  6
CONTINUOUS
 10
410.245813
 20
917.70009399999992
 30
0.0
 11
410.245813
 21
1144.8000939999999
 31
0.0
  0
LINE
  5
7AED
  8
2
  6
CENTER
 10
520.245813
 20
852.30279900000005
 30
0.0
 11
520.245813
 21
1272.3332129999999
 31
0.0
  0
CIRCLE
  5
7AEE
  8
1
  6
CONTINUOUS
 10
520.245813
 20
1102.700094
 30
0.0
 40
45.0
  0
ARC
  5
7AEF
  8
1
  6
CONTINUOUS
 10
531.245813
 20
1091.700094
 30
0.0
 40
134.0
 50
179.49999999999989
 51
260.10000000000002
  0
LINE
  5
7AF0
  8
1
  6
CONTINUOUS
 10
385.245813
 20
867.70009399999992
 30
0.0
 11
385.245813
 21
917.70009399999992
 31
0.0
  0
LINE
  5
7AF1
  8
1
  6
CONTINUOUS
 10
410.245813
 20
1144.8000939999999
 30
0.0
 11
483.64581299999992
 21
1207.700094
 31
0.0
  0
ARC
  5
7AF2
  8
1
  6
CONTINUOUS
 10
511.245813
 20
1093.700094
 30
0.0
 40
114.0
 50
90.5
 51
180.49999999999989
  0
LINE
  5
7AF3
  8
1
  6
CONTINUOUS
 10
483.64581299999992
 20
1207.700094
 30
0.0
 11
556.84581300000002
 21
1207.700094
 31
0.0
  0
LINE
  5
7AF4
  8
2
  6
CENTER
 10
1691.401325
 20
1102.700094
 30
0.0
 11
1329.434917
 21
1102.700094
 31
0.0
  0
LINE
  5
7AF5
  8
1
  6
CONTINUOUS
 10
520.245813
 20
1217.700094
 30
0.0
 11
510.245813
 21
1217.700094
 31
0.0
  0
LINE
  5
7AF6
  8
1
  6
CONTINUOUS
 10
520.245813
 20
1217.700094
 30
0.0
 11
520.245813
 21
1232.700094
 31
0.0
  0
LINE
  5
7AF7
  8
1
  6
CONTINUOUS
 10
519.245813
 20
1232.700094
 30
0.0
 11
534.24581299999988
 21
1217.700094
 31
0.0
  0
LINE
  5
7AF8
  8
1
  6
CONTINUOUS
 10
510.245813
 20
1217.700094
 30
0.0
 11
510.245813
 21
1207.700094
 31
0.0
  0
LINE
  5
7AF9
  8
1
  6
CONTINUOUS
 10
385.245813
 20
1697.1000939999999
 30
0.0
 11
385.245813
 21
1921.1000939999999
 31
0.0
  0
LINE
  5
7AFA
  8
1
  6
CONTINUOUS
 10
410.245813
 20
1697.1000939999999
 30
0.0
 11
410.245813
 21
1821.500094
 31
0.0
  0
LINE
  5
7AFB
  8
1
  6
CONTINUOUS
 10
532.245813
 20
1821.500094
 30
0.0
 11
532.245813
 21
1681.000094
 31
0.0
  0
LINE
  5
7AFC
  8
1
  6
CONTINUOUS
 10
508.245813
 20
1821.500094
 30
0.0
 11
508.245813
 21
1681.000094
 31
0.0
  0
LINE
  5
7AFD
  8
1
  6
CONTINUOUS
 10
508.245813
 20
1697.1000939999999
 30
0.0
 11
385.245813
 21
1697.1000939999999
 31
0.0
  0
LINE
  5
7AFE
  8
1
  6
CONTINUOUS
 10
422.94581299999999
 20
1625.1000939999999
 30
0.0
 11
422.94581299999999
 21
1700.1000939999999
 31
0.0
  0
LINE
  5
7AFF
  8
1
  6
CONTINUOUS
 10
565.245813
 20
1681.000094
 30
0.0
 11
565.245813
 21
1646.000094
 31
0.0
  0
LINE
  5
7B00
  8
1
  6
CONTINUOUS
 10
475.24581299999988
 20
1681.000094
 30
0.0
 11
475.24581299999988
 21
1646.000094
 31
0.0
  0
LINE
  5
7B01
  8
1
  6
CONTINUOUS
 10
475.24581299999988
 20
1646.000094
 30
0.0
 11
565.245813
 21
1646.000094
 31
0.0
  0
LINE
  5
7B02
  8
1
  6
CONTINUOUS
 10
475.24581299999988
 20
1681.000094
 30
0.0
 11
565.245813
 21
1681.000094
 31
0.0
  0
ARC
  5
7B03
  8
1
  6
CONTINUOUS
 10
409.24581299999988
 20
1929.100093999999
 30
0.0
 40
12.0
 50
90.0
 51
180.0
  0
ARC
  5
7B04
  8
1
  6
CONTINUOUS
 10
409.24581299999988
 20
1841.1000939999999
 30
0.0
 40
12.0
 50
180.0
 51
270.0
  0
LINE
  5
7B05
  8
1
  6
CONTINUOUS
 10
420.245813
 20
1947.7000939999989
 30
0.0
 11
420.245813
 21
1940.700094
 31
0.0
  0
LINE
  5
7B06
  8
1
  6
CONTINUOUS
 10
420.245813
 20
1821.500094
 30
0.0
 11
420.245813
 21
1829.500094
 31
0.0
  0
LINE
  5
7B07
  8
1
  6
CONTINUOUS
 10
397.245813
 20
1929.100093999999
 30
0.0
 11
397.245813
 21
1841.1000939999999
 31
0.0
  0
LINE
  5
7B08
  8
1
  6
CONTINUOUS
 10
396.34581299999991
 20
1921.1000939999999
 30
0.0
 11
397.245813
 21
1921.1000939999999
 31
0.0
  0
LINE
  5
7B09
  8
1
  6
CONTINUOUS
 10
385.245813
 20
1921.1000939999999
 30
0.0
 11
397.245813
 21
1921.1000939999999
 31
0.0
  0
LINE
  5
7B0A
  8
1
  6
CONTINUOUS
 10
520.245813
 20
1941.1000939999999
 30
0.0
 11
520.245813
 21
1829.1000939999999
 31
0.0
  0
LINE
  5
7B10
  8
1
  6
CONTINUOUS
 10
902.94581300000004
 20
1197.7000939999989
 30
0.0
 11
902.94581300000004
 21
917.70009399999992
 31
0.0
  0
ARC
  5
7B11
  8
1
  6
CONTINUOUS
 10
805.745813
 20
1017.700094
 30
0.0
 40
85.0
 50
324.69999999999987
 51
215.30000000000001
  0
LINE
  5
7B12
  8
1
  6
CONTINUOUS
 10
630.24581299999988
 20
1144.8000939999999
 30
0.0
 11
630.24581299999988
 21
917.70009399999992
 31
0.0
  0
LINE
  5
7B13
  8
1
  6
CONTINUOUS
 10
945.24581300000011
 20
937.70009400000004
 30
0.0
 11
694.245813
 21
937.70009400000004
 31
0.0
  0
CIRCLE
  5
7B14
  8
1
  6
CONTINUOUS
 10
805.745813
 20
1017.700094
 30
0.0
 40
35.0
  0
LINE
  5
7B15
  8
2
  6
CENTER
 10
840.74581300000011
 20
1017.700094
 30
0.0
 11
770.745813
 21
1017.700094
 31
0.0
  0
LINE
  5
7B16
  8
1
  6
CONTINUOUS
 10
728.245813
 20
937.70009400000004
 30
0.0
 11
728.245813
 21
945.70009399999981
 31
0.0
  0
LINE
  5
7B17
  8
1
  6
CONTINUOUS
 10
728.245813
 20
945.70009399999981
 30
0.0
 11
736.44581300000004
 21
968.50009399999999
 31
0.0
  0
LINE
  5
7B18
  8
1
  6
CONTINUOUS
 10
694.245813
 20
937.70009400000004
 30
0.0
 11
694.245813
 21
917.70009399999992
 31
0.0
  0
LINE
  5
7B19
  8
1
  6
CONTINUOUS
 10
883.245813
 20
945.70009399999981
 30
0.0
 11
875.04581299999995
 21
968.50009399999999
 31
0.0
  0
LINE
  5
7B1A
  8
1
  6
CONTINUOUS
 10
883.245813
 20
937.70009400000004
 30
0.0
 11
883.245813
 21
945.70009399999981
 31
0.0
  0
LINE
  5
7B1B
  8
2
  6
CENTER
 10
805.745813
 20
982.70009399999992
 30
0.0
 11
805.745813
 21
1052.700094
 31
0.0
  0
LINE
  5
7B1C
  8
1
  6
CONTINUOUS
 10
945.24581300000011
 20
937.70009400000004
 30
0.0
 11
945.24581300000011
 21
867.70009399999992
 31
0.0
  0
LINE
  5
7B1D
  8
1
  6
CONTINUOUS
 10
681.245813
 20
1232.700094
 30
0.0
 11
666.245813
 21
1217.700094
 31
0.0
  0
LINE
  5
7B1E
  8
1
  6
CONTINUOUS
 10
691.245813
 20
1217.700094
 30
0.0
 11
691.245813
 21
1115.700094
 31
0.0
  0
LINE
  5
7B1F
  8
1
  6
CONTINUOUS
 10
691.245813
 20
1217.700094
 30
0.0
 11
680.24581299999988
 21
1217.700094
 31
0.0
  0
LINE
  5
7B20
  8
1
  6
CONTINUOUS
 10
680.24581299999988
 20
1217.700094
 30
0.0
 11
680.24581299999988
 21
1232.700094
 31
0.0
  0
LINE
  5
7B47
  8
1
  6
CONTINUOUS
 10
1554.227065
 20
1144.8000939999999
 30
0.0
 11
1454.827064999999
 21
1069.4000939999989
 31
0.0
  0
LINE
  5
7B48
  8
1
  6
CONTINUOUS
 10
1357.8270649999999
 20
917.70009399999992
 30
0.0
 11
1357.8270649999999
 21
1197.7000939999989
 31
0.0
  0
LINE
  5
7B49
  8
1
  6
CONTINUOUS
 10
1432.8270649999999
 20
917.70009399999992
 30
0.0
 11
1432.8270649999999
 21
1197.7000939999989
 31
0.0
  0
LINE
  5
7B4A
  8
1
  6
CONTINUOUS
 10
1377.827064999999
 20
1057.700094
 30
0.0
 11
1377.827064999999
 21
1147.7000939999989
 31
0.0
  0
LINE
  5
7B4B
  8
1
  6
CONTINUOUS
 10
1412.8270649999999
 20
1057.700094
 30
0.0
 11
1412.8270649999999
 21
1147.7000939999989
 31
0.0
  0
LINE
  5
7B4C
  8
1
  6
CONTINUOUS
 10
1554.227065
 20
1202.700094
 30
0.0
 11
1554.227065
 21
917.70009399999992
 31
0.0
  0
LINE
  5
7B4D
  8
1
  6
CONTINUOUS
 10
1681.8270649999999
 20
1202.700094
 30
0.0
 11
1681.8270649999999
 21
1002.700093999999
 31
0.0
  0
LINE
  5
7B4E
  8
1
  6
CONTINUOUS
 10
1561.8270649999999
 20
976.6000939999999
 30
0.0
 11
1561.8270649999999
 21
1232.700094
 31
0.0
  0
LINE
  5
7B4F
  8
1
  6
CONTINUOUS
 10
1673.8270649999999
 20
976.6000939999999
 30
0.0
 11
1673.8270649999999
 21
1232.700094
 31
0.0
  0
LINE
  5
7B50
  8
1
  6
CONTINUOUS
 10
1357.8270649999999
 20
917.70009399999992
 30
0.0
 11
1653.8270649999999
 21
917.70009399999992
 31
0.0
  0
LINE
  5
7B51
  8
1
  6
CONTINUOUS
 10
1429.8270649999999
 20
867.70009399999992
 30
0.0
 11
1653.8270649999999
 21
867.70009399999992
 31
0.0
  0
LINE
  5
7B52
  8
1
  6
CONTINUOUS
 10
1569.8270649999999
 20
968.6000939999999
 30
0.0
 11
1665.8270649999999
 21
968.6000939999999
 31
0.0
  0
LINE
  5
7B53
  8
1
  6
CONTINUOUS
 10
1454.827064999999
 20
1069.4000939999989
 30
0.0
 11
1454.827064999999
 21
917.70009399999992
 31
0.0
  0
LINE
  5
7B54
  8
1
  6
CONTINUOUS
 10
1429.8270649999999
 20
917.70009399999992
 30
0.0
 11
1429.8270649999999
 21
867.70009399999992
 31
0.0
  0
LINE
  5
7B55
  8
1
  6
CONTINUOUS
 10
1412.8270649999999
 20
1008.200093999999
 30
0.0
 11
1454.827064999999
 21
1008.200093999999
 31
0.0
  0
LINE
  5
7B56
  8
1
  6
CONTINUOUS
 10
1412.8270649999999
 20
1027.200094
 30
0.0
 11
1454.827064999999
 21
1027.200094
 31
0.0
  0
LINE
  5
7B57
  8
1
  6
CONTINUOUS
 10
1412.8270649999999
 20
982.70009399999992
 30
0.0
 11
1412.8270649999999
 21
1052.700094
 31
0.0
  0
LINE
  5
7B58
  8
1
  6
CONTINUOUS
 10
1377.827064999999
 20
982.70009399999992
 30
0.0
 11
1377.827064999999
 21
1052.700094
 31
0.0
  0
LINE
  5
7B59
  8
1
  6
CONTINUOUS
 10
1412.8270649999999
 20
982.70009399999992
 30
0.0
 11
1377.827064999999
 21
982.70009399999992
 31
0.0
  0
LINE
  5
7B5A
  8
1
  6
CONTINUOUS
 10
1412.8270649999999
 20
1052.700094
 30
0.0
 11
1377.827064999999
 21
1052.700094
 31
0.0
  0
LINE
  5
7B5B
  8
1
  6
CONTINUOUS
 10
1412.8270649999999
 20
1057.700094
 30
0.0
 11
1377.827064999999
 21
1057.700094
 31
0.0
  0
LINE
  5
7B5C
  8
1
  6
CONTINUOUS
 10
1554.227065
 20
1002.700093999999
 30
0.0
 11
1561.8270649999999
 21
1002.700093999999
 31
0.0
  0
ARC
  5
7B5D
  8
1
  6
CONTINUOUS
 10
1569.8270649999999
 20
976.6000939999999
 30
0.0
 40
8.0
 50
180.0
 51
270.0
  0
LINE
  5
7B5E
  8
1
  6
CONTINUOUS
 10
1681.8270649999999
 20
1002.700093999999
 30
0.0
 11
1673.8270649999999
 21
1002.700093999999
 31
0.0
  0
LINE
  5
7B5F
  8
1
  6
CONTINUOUS
 10
1653.8270649999999
 20
917.70009399999992
 30
0.0
 11
1653.8270649999999
 21
867.70009399999992
 31
0.0
  0
ARC
  5
7B60
  8
1
  6
CONTINUOUS
 10
1665.8270649999999
 20
976.6000939999999
 30
0.0
 40
8.0
 50
270.0
 51
0.0
  0
LINE
  5
7B61
  8
1
  6
CONTINUOUS
 10
1540.8270649999999
 20
1232.700094
 30
0.0
 11
1694.8270649999999
 21
1232.700094
 31
0.0
  0
LINE
  5
7B62
  8
1
  6
CONTINUOUS
 10
1560.827064999999
 20
1232.700094
 30
0.0
 11
1575.8270649999999
 21
1217.700094
 31
0.0
  0
LINE
  5
7B63
  8
1
  6
CONTINUOUS
 10
1514.527065
 20
1114.700094
 30
0.0
 11
1412.8270649999999
 21
1114.700094
 31
0.0
  0
LINE
  5
7B64
  8
1
  6
CONTINUOUS
 10
1482.9270650000001
 20
1090.700094
 30
0.0
 11
1412.8270649999999
 21
1090.700094
 31
0.0
  0
LINE
  5
7B65
  8
1
  6
CONTINUOUS
 10
1432.8270649999999
 20
1197.7000939999989
 30
0.0
 11
1357.8270649999999
 21
1197.7000939999989
 31
0.0
  0
LINE
  5
7B66
  8
1
  6
CONTINUOUS
 10
1412.8270649999999
 20
1147.7000939999989
 30
0.0
 11
1377.827064999999
 21
1147.7000939999989
 31
0.0
  0
LINE
  5
7B67
  8
1
  6
CONTINUOUS
 10
1554.227065
 20
1202.700094
 30
0.0
 11
1561.8270649999999
 21
1202.700094
 31
0.0
  0
LINE
  5
7B68
  8
1
  6
CONTINUOUS
 10
1681.8270649999999
 20
1202.700094
 30
0.0
 11
1673.8270649999999
 21
1202.700094
 31
0.0
  0
LINE
  5
7B69
  8
1
  6
CONTINUOUS
 10
1617.827064999999
 20
1217.700094
 30
0.0
 11
1659.827064999999
 21
1217.700094
 31
0.0
  0
LINE
  5
7B6A
  8
1
  6
CONTINUOUS
 10
1617.827064999999
 20
1217.700094
 30
0.0
 11
1575.8270649999999
 21
1217.700094
 31
0.0
  0
LINE
  5
7B6B
  8
1
  6
CONTINUOUS
 10
1675.4270650000001
 20
1232.700094
 30
0.0
 11
1659.827064999999
 21
1217.700094
 31
0.0
  0
LINE
  5
7B72
  8
1
  6
CONTINUOUS
 10
720.745813
 20
1710.8000939999999
 30
0.0
 11
890.74581300000011
 21
1710.8000939999999
 31
0.0
  0
LINE
  5
7B73
  8
1
  6
CONTINUOUS
 10
770.745813
 20
1681.000094
 30
0.0
 11
840.74581300000011
 21
1681.000094
 31
0.0
  0
LINE
  5
7B74
  8
1
  6
CONTINUOUS
 10
770.745813
 20
1646.000094
 30
0.0
 11
840.74581300000011
 21
1646.000094
 31
0.0
  0
LINE
  5
7B75
  8
1
  6
CONTINUOUS
 10
720.745813
 20
1901.6000939999999
 30
0.0
 11
890.74581300000011
 21
1901.6000939999999
 31
0.0
  0
LINE
  5
7B76
  8
1
  6
CONTINUOUS
 10
680.24581299999988
 20
1921.1000939999999
 30
0.0
 11
945.24581300000011
 21
1921.1000939999999
 31
0.0
  0
LINE
  5
7B77
  8
1
  6
CONTINUOUS
 10
630.24581299999988
 20
1821.500094
 30
0.0
 11
630.24581299999988
 21
1697.1000939999999
 31
0.0
  0
LINE
  5
7B78
  8
1
  6
CONTINUOUS
 10
720.745813
 20
1710.8000939999999
 30
0.0
 11
720.745813
 21
1901.6000939999999
 31
0.0
  0
LINE
  5
7B79
  8
1
  6
CONTINUOUS
 10
770.745813
 20
1681.000094
 30
0.0
 11
770.745813
 21
1646.000094
 31
0.0
  0
LINE
  5
7B7A
  8
1
  6
CONTINUOUS
 10
620.245813
 20
1947.7000939999989
 30
0.0
 11
620.245813
 21
1940.700094
 31
0.0
  0
LINE
  5
7B7B
  8
1
  6
CONTINUOUS
 10
620.245813
 20
1821.500094
 30
0.0
 11
620.245813
 21
1829.500094
 31
0.0
  0
LINE
  5
7B7C
  8
1
  6
CONTINUOUS
 10
680.24581299999988
 20
1829.1000939999999
 30
0.0
 11
680.24581299999988
 21
1941.1000939999999
 31
0.0
  0
LINE
  5
7B7D
  8
1
  6
CONTINUOUS
 10
945.24581300000011
 20
1921.1000939999999
 30
0.0
 11
945.24581300000011
 21
1697.1000939999999
 31
0.0
  0
LINE
  5
7B7E
  8
1
  6
CONTINUOUS
 10
890.74581300000011
 20
1710.8000939999999
 30
0.0
 11
890.74581300000011
 21
1901.6000939999999
 31
0.0
  0
LINE
  5
7B7F
  8
1
  6
CONTINUOUS
 10
945.24581300000011
 20
1697.1000939999999
 30
0.0
 11
815.24581299999988
 21
1697.1000939999999
 31
0.0
  0
LINE
  5
7B80
  8
1
  6
CONTINUOUS
 10
796.24581299999988
 20
1681.000094
 30
0.0
 11
796.24581299999988
 21
1710.8000939999999
 31
0.0
  0
LINE
  5
7B81
  8
1
  6
CONTINUOUS
 10
815.24581299999988
 20
1681.000094
 30
0.0
 11
815.24581299999988
 21
1710.8000939999999
 31
0.0
  0
LINE
  5
7B82
  8
1
  6
CONTINUOUS
 10
840.74581300000011
 20
1681.000094
 30
0.0
 11
840.74581300000011
 21
1646.000094
 31
0.0
  0
LINE
  5
7B83
  8
1
  6
CONTINUOUS
 10
902.94581300000004
 20
1700.1000939999999
 30
0.0
 11
902.94581300000004
 21
1625.1000939999999
 31
0.0
  0
LINE
  5
7BAB
  8
4
  6
CONTINUOUS
 10
1850.0
 20
500.0
 30
0.0
 11
1850.0
 21
300.0
 31
0.0
  0
LINE
  5
7BAC
  8
4
  6
CONTINUOUS
 10
1150.0
 20
500.0
 30
0.0
 11
1150.0
 21
300.0
 31
0.0
  0
LINE
  5
7BAD
  8
4
  6
CONTINUOUS
 10
650.0
 20
500.0
 30
0.0
 11
650.0
 21
300.0
 31
0.0
  0
LINE
  5
7BB0
  8
4
  6
CONTINUOUS
 10
650.0
 20
300.0
 30
0.0
 11
1850.0
 21
300.0
 31
0.0
  0
LINE
  5
7BB1
  8
4
  6
CONTINUOUS
 10
650.0
 20
400.0
 30
0.0
 11
1850.0
 21
400.0
 31
0.0
  0
TEXT
  5
7BB2
  8
4
  6
CONTINUOUS
 10
688.50208099999998
 20
431.543026
 30
0.0
 40
50.0
  1
機器名称
  0
TEXT
  5
7BB3
  8
4
  6
CONTINUOUS
 10
686.258106
 20
321.64515699999993
 30
0.0
 40
50.0
  1
機器型番
  0
TEXT
  5
7BB4
  8
4
  6
CONTINUOUS
 10
1176.596092
 20
422.33817699999992
 30
0.0
 40
45.0
  1
ミツヤニューマルチファン
  0
TEXT
  5
7BB5
  8
4
  6
CONTINUOUS
 10
1186.6544960000001
 20
317.159584
 30
0.0
 40
50.0
  1
NM#1-1
  0
TEXT
  5
7BB7
  8
4
  6
CONTINUOUS
 10
904.78576499999997
 20
2383.4288409999999
 30
0.0
 40
54.0
  1
床置ベット
  0
TEXT
  5
7BB8
  8
4
  6
CONTINUOUS
 10
316.16759300000001
 20
2533.8809759999999
 30
0.0
 40
72.0
  1
ベルト駆動式片吸込片持多翼ファン
  0
LINE
  5
7BB9
  8
4
  6
CONTINUOUS
 10
250.0
 20
2469.408754
 30
0.0
 11
1850.0
 21
2469.408754
 31
0.0
  0
LINE
  5
7BBA
  8
4
  6
CONTINUOUS
 10
250.0
 20
2669.408754
 30
0.0
 11
1850.0
 21
2669.408754
 31
0.0
  0
LINE
  5
7BBB
  8
4
  6
CONTINUOUS
 10
650.0
 20
500.0
 30
0.0
 11
1850.0
 21
500.0
 31
0.0
  0
LINE
  5
7BBC
  8
4
  6
CONTINUOUS
 10
250.0
 20
2669.408754
 30
0.0
 11
250.0
 21
2469.408754
 31
0.0
  0
TEXT
  5
7BBD
  8
4
  6
CONTINUOUS
 10
468.92693300000002
 20
2382.3194779999999
 30
0.0
 40
54.0
  1
左回転上向
  0
TEXT
  5
7BBE
  8
4
  6
CONTINUOUS
 10
1468.9695589999999
 20
2706.0610809999998
 30
0.0
 40
56.0
  1
No.
  0
TEXT
  5
7BBF
  8
4
  6
CONTINUOUS
 10
1311.296063
 20
2383.4288409999999
 30
0.0
 40
54.0
  1
縮尺：1/10
  0
LINE
  5
7BC0
  8
4
  6
CONTINUOUS
 10
1850.0
 20
2669.408754
 30
0.0
 11
1850.0
 21
2469.408754
 31
0.0
  0
LINE
  5
7BC2
  8
4
  6
CONTINUOUS
 10
1440.617422
 20
2681.2635829999999
 30
0.0
 11
1440.617422
 21
2786.6522620000001
 31
0.0
  0
LINE
  5
7BC3
  8
4
  6
CONTINUOUS
 10
1440.617422
 20
2786.6522620000001
 30
0.0
 11
1850.0
 21
2786.6522620000001
 31
0.0
  0
LINE
  5
7BC4
  8
4
  6
CONTINUOUS
 10
1850.0
 20
2786.6522620000001
 30
0.0
 11
1850.0
 21
2681.2635829999999
 31
0.0
  0
LINE
  5
7BC5
  8
4
  6
CONTINUOUS
 10
1850.0
 20
2681.2635829999999
 30
0.0
 11
1440.617422
 21
2681.2635829999999
 31
0.0
  0
LINE
  5
7BCA
  8
2
  6
CENTER
 10
357.207019
 20
1885.1000939999999
 30
0.0
 11
712.83755800000006
 21
1885.1000939999999
 31
0.0
  0
LINE
  5
7BCB
  8
2
  6
CENTER
 10
1617.827064999999
 20
931.255132
 30
0.0
 11
1617.827064999999
 21
1253.9828439999999
 31
0.0
  0
LINE
  5
7BCC
  8
2
  6
CENTER
 10
520.245813
 20
1597.767891
 30
0.0
 11
520.245813
 21
1964.216001
 31
0.0
  0
LINE
  5
7BCD
  8
2
  6
CENTER
 10
723.51457100000005
 20
1102.700094
 30
0.0
 11
376.48346499999991
 21
1102.700094
 31
0.0
  0
DIMENSION
  5
7BE1
  8
3
  6
CONTINUOUS
  2
*D1
 10
945.24581300000011
 20
1536.4154530000001
 30
0.0
 11
638.09849099999985
 21
1536.4154530000001
 31
0.0
 70
   128
 13
385.245813
 23
1697.1000939999999
 33
0.0
 14
945.24581300000011
 24
1697.1000939999999
 34
0.0
1001
ACAD
1000
DSTYLE
1002
{
1070
   287
1070
     3
1070
   287
1070
     3
1070
    40
1040
10.0
1070
   143
1040
0.039
1070
   172
1070
     1
1070
   271
1070
     0
1070
   279
1070
     0
1070
   288
1070
     1
1002
}
  0
DIMENSION
  5
7BF9
  8
3
  6
CONTINUOUS
  2
*D2
 10
1033.147872
 20
1697.1000939999999
 30
0.0
 11
1033.147872
 21
1816.502674999999
 31
0.0
 70
   128
 13
945.24581300000011
 23
1921.1000939999999
 33
0.0
 14
945.24581300000011
 24
1697.1000939999999
 34
0.0
 50
90.0
1001
ACAD
1000
DSTYLE
1002
{
1070
   287
1070
     3
1070
   287
1070
     3
1070
    40
1040
10.0
1070
   143
1040
0.039
1070
   172
1070
     1
1070
   271
1070
     0
1070
   279
1070
     0
1070
   288
1070
     1
1002
}
  0
DIMENSION
  5
7C06
  8
3
  6
CONTINUOUS
  2
*D3
 10
520.245813
 20
781.51370199999985
 30
0.0
 11
718.17606899999998
 21
781.51370199999985
 31
0.0
 70
   128
 13
945.24581300000011
 23
867.70009399999992
 33
0.0
 14
520.245813
 24
852.30279900000005
 34
0.0
1001
ACAD
1000
DSTYLE
1002
{
1070
   287
1070
     3
1070
   287
1070
     3
1070
    40
1040
10.0
1070
   143
1040
0.039
1070
   172
1070
     1
1070
   271
1070
     0
1070
   279
1070
     0
1070
   288
1070
     1
1002
}
  0
DIMENSION
  5
7C12
  8
3
  6
CONTINUOUS
  2
*D4
 10
385.245813
 20
781.51370199999985
 30
0.0
 11
452.745813
 21
806.51370199999985
 31
0.0
 70
     0
 13
520.245813
 23
852.30279900000005
 33
0.0
 14
385.245813
 24
867.70009399999992
 34
0.0
1001
ACAD
1000
DSTYLE
1002
{
1070
   287
1070
     4
1070
   287
1070
     4
1070
    40
1040
10.0
1070
    75
1070
     1
1070
   143
1040
0.039
1070
   172
1070
     1
1070
   271
1070
     0
1070
   279
1070
     1
1070
   288
1070
     1
1002
}
  0
DIMENSION
  5
7C1F
  8
3
  6
CONTINUOUS
  2
*D5
 10
339.14219100000008
 20
1102.700094
 30
0.0
 11
339.14219100000003
 21
984.24349700000005
 31
0.0
 70
   128
 13
385.245813
 23
867.70009399999992
 33
0.0
 14
376.48346499999991
 24
1102.700094
 34
0.0
 50
90.0
1001
ACAD
1000
DSTYLE
1002
{
1070
   287
1070
     3
1070
   287
1070
     3
1070
    40
1040
10.0
1070
   143
1040
0.039
1070
   172
1070
     1
1070
   271
1070
     0
1070
   279
1070
     0
1070
   288
1070
     1
1002
}
  0
DIMENSION
  5
7C2D
  8
3
  6
CONTINUOUS
  2
*D6
 10
339.14219100000003
 20
1232.700094
 30
0.0
 11
338.610142
 21
1162.713702
 31
0.0
 70
   128
 13
376.48346499999991
 23
1102.700094
 33
0.0
 14
498.245813
 24
1232.700094
 34
0.0
 50
90.0
1001
ACAD
1000
DSTYLE
1002
{
1070
   287
1070
     4
1070
   287
1070
     4
1070
    40
1040
10.0
1070
    75
1070
     1
1070
   143
1040
0.039
1070
   172
1070
     1
1070
   271
1070
     0
1070
   279
1070
     1
1070
   288
1070
     1
1002
}
  0
DIMENSION
  5
7C57
  8
3
  6
CONTINUOUS
  2
*D7
 10
1673.8270649999999
 20
1262.357782
 30
0.0
 11
1617.3270649999999
 21
1281.6226068095
 31
0.0
 70
   128
 13
1560.827064999999
 23
1232.700094
 33
0.0
 14
1673.8270649999999
 24
1232.700094
 34
0.0
1001
ACAD
1000
DSTYLE
1002
{
1070
   288
1070
     1
1070
   172
1070
     1
1070
    40
1040
10.0
1070
   271
1070
     0
1070
   143
1040
0.039
1002
}
  0
DIMENSION
  5
7C64
  8
3
  6
CONTINUOUS
  2
*D8
 10
1617.827064999999
 20
1323.0156629999999
 30
0.0
 11
1481.5823170000001
 21
1323.0156629999999
 31
0.0
 70
   128
  1
MAX\P260
 13
1357.8270649999999
 23
1197.7000939999989
 33
0.0
 14
1617.827064999999
 24
1299.0081809999999
 34
0.0
1001
ACAD
1000
DSTYLE
1002
{
1070
   287
1070
     3
1070
   287
1070
     3
1070
    40
1040
10.0
1070
   143
1040
0.039
1070
   172
1070
     1
1070
   271
1070
     0
1070
   279
1070
     0
1070
   288
1070
     1
1002
}
  0
DIMENSION
  5
7C72
  8
3
  6
CONTINUOUS
  2
*D9
 10
1681.8270649999999
 20
1323.0156629999999
 30
0.0
 11
1650.438533
 21
1323.3665559999999
 31
0.0
 70
   128
 13
1617.827064999999
 23
1299.0081809999999
 33
0.0
 14
1681.8270649999999
 24
1202.700094
 34
0.0
1001
ACAD
1000
DSTYLE
1002
{
1070
   287
1070
     4
1070
   287
1070
     4
1070
    40
1040
10.0
1070
    75
1070
     1
1070
   143
1040
0.039
1070
   172
1070
     1
1070
   271
1070
     0
1070
   279
1070
     1
1070
   288
1070
     1
1002
}
  0
DIMENSION
  5
7C7F
  8
3
  6
CONTINUOUS
  2
*D10
 10
1617.827064999999
 20
781.51370199999985
 30
0.0
 11
1532.2981139999999
 21
781.51370199999985
 31
0.0
 70
   128
 13
1429.8270649999999
 23
867.70009399999992
 33
0.0
 14
1617.827064999999
 24
931.255132
 34
0.0
1001
ACAD
1000
DSTYLE
1002
{
1070
   287
1070
     3
1070
   287
1070
     3
1070
    40
1040
10.0
1070
   143
1040
0.039
1070
   172
1070
     1
1070
   271
1070
     0
1070
   279
1070
     0
1070
   288
1070
     1
1002
}
  0
DIMENSION
  5
7C8F
  8
3
  6
CONTINUOUS
  2
*D11
 10
1653.8270649999999
 20
781.51370199999985
 30
0.0
 11
1698.1335019999999
 21
781.09423600000002
 31
0.0
 70
   128
 13
1617.827064999999
 23
931.255132
 33
0.0
 14
1653.8270649999999
 24
867.70009399999992
 34
0.0
1001
ACAD
1000
DSTYLE
1002
{
1070
   287
1070
     4
1070
   287
1070
     4
1070
    40
1040
10.0
1070
    75
1070
     1
1070
   143
1040
0.039
1070
   172
1070
     1
1070
   271
1070
     0
1070
   279
1070
     1
1070
   288
1070
     1
1002
}
  0
DIMENSION
  5
7D1D
  8
3
  6
CONTINUOUS
  2
*D12
 10
273.78191700000002
 20
867.70009399999992
 30
0.0
 11
273.78191699999991
 21
1047.3468889999999
 31
0.0
 70
   128
 13
493.24581299999988
 23
1232.700094
 33
0.0
 14
385.245813
 24
867.70009399999992
 34
0.0
 50
90.0
1001
ACAD
1000
DSTYLE
1002
{
1070
   287
1070
     3
1070
   287
1070
     3
1070
    40
1040
10.0
1070
   143
1040
0.039
1070
   172
1070
     1
1070
   271
1070
     0
1070
   279
1070
     0
1070
   288
1070
     1
1002
}
  0
DIMENSION
  5
7D2A
  8
3
  6
CONTINUOUS
  2
*D13
 10
680.24581299999988
 20
1275.98146
 30
0.0
 11
597.51196399999992
 21
1275.98146
 31
0.0
 70
   128
 13
520.245813
 23
1232.700094
 33
0.0
 14
680.24581299999988
 24
1231.700094
 34
0.0
1001
ACAD
1000
DSTYLE
1002
{
1070
   287
1070
     3
1070
   287
1070
     3
1070
    40
1040
10.0
1070
   143
1040
0.039
1070
   172
1070
     1
1070
   271
1070
     0
1070
   279
1070
     0
1070
   288
1070
     1
1002
}
  0
DIMENSION
  5
7D37
  8
3
  6
CONTINUOUS
  2
*D14
 10
520.245813
 20
1327.059399
 30
0.0
 11
596.29493400000001
 21
1327.059399
 31
0.0
 70
   128
 13
691.245813
 23
1217.700094
 33
0.0
 14
520.245813
 24
1232.700094
 34
0.0
1001
ACAD
1000
DSTYLE
1002
{
1070
   287
1070
     3
1070
   287
1070
     3
1070
    40
1040
10.0
1070
   143
1040
0.039
1070
   172
1070
     1
1070
   271
1070
     0
1070
   279
1070
     0
1070
   288
1070
     1
1002
}
  0
DIMENSION
  5
7D45
  8
3
  6
CONTINUOUS
  2
*D15
 10
397.60163099999988
 20
1327.059399
 30
0.0
 11
462.42160999999987
 21
1327.059399
 31
0.0
 70
   128
 13
520.245813
 23
1232.700094
 33
0.0
 14
397.60163099999988
 24
1102.700094
 34
0.0
1001
ACAD
1000
DSTYLE
1002
{
1070
   287
1070
     4
1070
   287
1070
     4
1070
    40
1040
10.0
1070
    75
1070
     1
1070
   143
1040
0.039
1070
   172
1070
     1
1070
   271
1070
     0
1070
   279
1070
     1
1070
   288
1070
     1
1002
}
  0
DIMENSION
  5
7D6F
  8
3
  6
CONTINUOUS
  2
*D16
 10
1756.2033280000001
 20
1022.700093999999
 30
0.0
 11
1733.905509718641
 21
1102.700094
 31
0.0
 70
   128
 13
1681.8270649999999
 23
1182.700094
 33
0.0
 14
1681.8270649999999
 24
1022.700093999999
 34
0.0
 50
90.0
1001
ACAD
1000
DSTYLE
1002
{
1070
   288
1070
     1
1070
   172
1070
     1
1070
    40
1040
10.0
1070
     3
1000
φ<>
1070
   271
1070
     0
1070
   143
1040
0.039
1002
}
  0
DIMENSION
  5
7DC4
  8
3
  2
*D17
 10
945.24581300000011
 20
1386.1496231797901
 30
0.0
 11
643.66350585095824
 21
1386.1496231797901
 31
0.0
 70
   128
 13
397.60163099999988
 23
1107.700094
 33
0.0
 14
945.24581300000011
 24
917.70009399999992
 34
0.0
1001
ACAD
1000
DSTYLE
1002
{
1070
   287
1070
     3
1070
   287
1070
     3
1070
    40
1040
10.0
1070
   143
1040
0.039
1070
   172
1070
     1
1070
   271
1070
     0
1070
   279
1070
     0
1070
   288
1070
     1
1002
}
  0
ENDSEC
  0
EOF
