  0
SECTION
  2
HEADER
  9
$ACADVER
  1
AC1009
  9
$INSBASE
 10
0.0
 20
0.0
 30
0.0
  9
$EXTMIN
 10
-1806.6875640000001
 20
-1088.2110439999999
 30
0.0
  9
$EXTMAX
 10
-192.35711499999991
 20
1398.4412170000001
 30
0.0
  9
$LIMMIN
 10
0.0
 20
0.0
  9
$LIMMAX
 10
297.0
 20
210.0
  9
$ORTHOMODE
 70
     0
  9
$REGENMODE
 70
     1
  9
$FILLMODE
 70
     0
  9
$QTEXTMODE
 70
     0
  9
$MIRRTEXT
 70
     1
  9
$DRAGMODE
 70
     2
  9
$LTSCALE
 40
100.0
  9
$OSMODE
 70
    37
  9
$ATTMODE
 70
     1
  9
$TEXTSIZE
 40
180.0
  9
$TRACEWID
 40
0.05
  9
$TEXTSTYLE
  7
STANDARD
  9
$CLAYER
  8
3
  9
$CELTYPE
  6
CONTINUOUS
  9
$CECOLOR
 62
   256
  9
$DIMSCALE
 40
10.0
  9
$DIMASZ
 40
2.0
  9
$DIMEXO
 40
0.5
  9
$DIMDLI
 40
10.0
  9
$DIMRND
 40
0.0
  9
$DIMDLE
 40
0.0
  9
$DIMEXE
 40
1.0
  9
$DIMTP
 40
1.0
  9
$DIMTM
 40
1.0
  9
$DIMTXT
 40
3.0
  9
$DIMCEN
 40
0.0
  9
$DIMTSZ
 40
0.0
  9
$DIMTOL
 70
     0
  9
$DIMLIM
 70
     0
  9
$DIMTIH
 70
     0
  9
$DIMTOH
 70
     0
  9
$DIMSE1
 70
     0
  9
$DIMSE2
 70
     0
  9
$DIMTAD
 70
     1
  9
$DIMZIN
 70
     8
  9
$DIMBLK
  1

  9
$DIMASO
 70
     1
  9
$DIMSHO
 70
     1
  9
$DIMPOST
  1

  9
$DIMAPOST
  1

  9
$DIMALT
 70
     0
  9
$DIMALTD
 70
     2
  9
$DIMALTF
 40
0.039
  9
$DIMLFAC
 40
1.0
  9
$DIMTOFL
 70
     1
  9
$DIMTVP
 40
0.0
  9
$DIMTIX
 70
     0
  9
$DIMSOXD
 70
     0
  9
$DIMSAH
 70
     1
  9
$DIMBLK1
  1
OPEN
  9
$DIMBLK2
  1
OPEN
  9
$DIMSTYLE
  2
IGA
  9
$DIMCLRD
 70
     0
  9
$DIMCLRE
 70
     0
  9
$DIMCLRT
 70
     0
  9
$DIMTFAC
 40
10.0
  9
$DIMGAP
 40
1.0
  9
$LUNITS
 70
     2
  9
$LUPREC
 70
     3
  9
$SKETCHINC
 40
0.1
  9
$FILLETRAD
 40
50.0
  9
$AUNITS
 70
     0
  9
$AUPREC
 70
     0
  9
$MENU
  1
acad
  9
$ELEVATION
 40
0.0
  9
$PELEVATION
 40
0.0
  9
$THICKNESS
 40
0.0
  9
$LIMCHECK
 70
     0
  9
$BLIPMODE
 70
     0
  9
$CHAMFERA
 40
0.5
  9
$CHAMFERB
 40
0.5
  9
$SKPOLY
 70
     0
  9
$TDCREATE
 40
2450724.4978594901
  9
$TDUPDATE
 40
2454953.8592923721
  9
$TDINDWG
 40
0.0048582755
  9
$TDUSRTIMER
 40
0.0048582755
  9
$USRTIMER
 70
     1
  9
$ANGBASE
 50
0.0
  9
$ANGDIR
 70
     0
  9
$PDMODE
 70
     0
  9
$PDSIZE
 40
0.0
  9
$PLINEWID
 40
0.0
  9
$COORDS
 70
     1
  9
$SPLFRAME
 70
     0
  9
$SPLINETYPE
 70
     6
  9
$SPLINESEGS
 70
     8
  9
$ATTDIA
 70
     0
  9
$ATTREQ
 70
     1
  9
$HANDLING
 70
 10241
  9
$HANDSEED
  5
7F8D
  9
$SURFTAB1
 70
     6
  9
$SURFTAB2
 70
     6
  9
$SURFTYPE
 70
     6
  9
$SURFU
 70
     6
  9
$SURFV
 70
     6
  9
$UCSNAME
  2

  9
$UCSORG
 10
0.0
 20
0.0
 30
0.0
  9
$UCSXDIR
 10
1.0
 20
0.0
 30
0.0
  9
$UCSYDIR
 10
0.0
 20
1.0
 30
0.0
  9
$PUCSNAME
  2

  9
$PUCSORG
 10
0.0
 20
0.0
 30
0.0
  9
$PUCSXDIR
 10
1.0
 20
0.0
 30
0.0
  9
$PUCSYDIR
 10
0.0
 20
1.0
 30
0.0
  9
$USERI1
 70
     0
  9
$USERI2
 70
     0
  9
$USERI3
 70
     0
  9
$USERI4
 70
     0
  9
$USERI5
 70
     0
  9
$USERR1
 40
0.0
  9
$USERR2
 40
0.0
  9
$USERR3
 40
0.0
  9
$USERR4
 40
0.0
  9
$USERR5
 40
0.0
  9
$WORLDVIEW
 70
     1
  9
$SHADEDGE
 70
     3
  9
$SHADEDIF
 70
    70
  9
$TILEMODE
 70
     1
  9
$MAXACTVP
 70
    16
  9
$PLIMCHECK
 70
     0
  9
$PEXTMIN
 10
1.0000000000000000E+020
 20
1.0000000000000000E+020
 30
1.0000000000000000E+020
  9
$PEXTMAX
 10
-1.0000000000000000E+020
 20
-1.0000000000000000E+020
 30
-1.0000000000000000E+020
  9
$PLIMMIN
 10
0.0
 20
0.0
  9
$PLIMMAX
 10
12.0
 20
9.0
  9
$UNITMODE
 70
     0
  9
$VISRETAIN
 70
     0
  9
$PLINEGEN
 70
     0
  9
$PSLTSCALE
 70
     1
  0
ENDSEC
  0
SECTION
  2
TABLES
  0
TABLE
  2
VPORT
 70
     2
  0
VPORT
  2
*ACTIVE
 70
     0
 10
0.0
 20
0.0
 11
1.0
 21
1.0
 12
688.62315044496563
 22
524.34757755840201
 13
0.0
 23
0.0
 14
10.0
 24
10.0
 15
10.0
 25
10.0
 16
0.0
 26
0.0
 36
1.0
 17
0.0
 27
0.0
 37
0.0
 40
3552.212855078647
 41
1.5051150895140659
 42
50.0
 43
0.0
 44
0.0
 50
0.0
 51
0.0
 71
     0
 72
   100
 73
     1
 74
     0
 75
     0
 76
     0
 77
     0
 78
     0
  0
ENDTAB
  0
TABLE
  2
LTYPE
 70
     2
  0
LTYPE
  2
CONTINUOUS
 70
     0
  3
Solid line
 72
    65
 73
     0
 40
0.0
  0
LTYPE
  2
CENTER
 70
     0
  3
____ _ ____ _ ____ _ ____ _ ____ _ ____ _ ____ 
 72
    65
 73
     4
 40
2.0
 49
1.25
 49
-0.25
 49
0.25
 49
-0.25
  0
ENDTAB
  0
TABLE
  2
LAYER
 70
     6
  0
LAYER
  2
0
 70
     0
 62
     7
  6
CONTINUOUS
  0
LAYER
  2
3
 70
     0
 62
     2
  6
CONTINUOUS
  0
LAYER
  2
2
 70
     0
 62
     3
  6
CENTER
  0
LAYER
  2
1
 70
     0
 62
     4
  6
CONTINUOUS
  0
LAYER
  2
4
 70
     0
 62
     7
  6
CONTINUOUS
  0
LAYER
  2
DEFPOINTS
 70
     0
 62
     7
  6
CONTINUOUS
  0
ENDTAB
  0
TABLE
  2
STYLE
 70
     1
  0
STYLE
  2
STANDARD
 70
     0
 40
0.0
 41
1.0
 50
0.0
 71
     0
 42
180.0
  3
simplex.shx
  4
extfont.shx
  0
ENDTAB
  0
TABLE
  2
VIEW
 70
     0
  0
ENDTAB
  0
TABLE
  2
UCS
 70
     0
  0
ENDTAB
  0
TABLE
  2
APPID
 70
     1
  0
APPID
  2
ACAD
 70
     0
  0
ENDTAB
  0
TABLE
  2
DIMSTYLE
 70
     1
  0
DIMSTYLE
  2
IGA
 70
     0
  3

  4

  5

  6
OPEN
  7
OPEN
 40
2.0
 41
2.0
 42
0.5
 43
10.0
 44
1.0
 45
0.0
 46
0.0
 47
1.0
 48
1.0
140
3.0
141
0.0
142
0.0
143
0.03937
144
1.0
145
0.0
146
10.0
147
1.0
 71
     0
 72
     0
 73
     0
 74
     0
 75
     0
 76
     0
 77
     1
 78
     8
170
     0
171
     2
172
     0
173
     1
174
     0
175
     0
176
     0
177
     0
178
     0
  0
ENDTAB
  0
ENDSEC
  0
SECTION
  2
BLOCKS
  0
BLOCK
  8
0
  2
$MODEL_SPACE
 70
     0
 10
0.0
 20
0.0
 30
0.0
  3
$MODEL_SPACE
  1

  0
ENDBLK
  5
1B
  8
0
  0
BLOCK
 67
     1
  8
0
  2
$PAPER_SPACE
 70
     0
 10
0.0
 20
0.0
 30
0.0
  3
$PAPER_SPACE
  1

  0
ENDBLK
  5
18
 67
     1
  8
0
  0
BLOCK
  8
0
  2
_OPEN
 70
     0
 10
0.0
 20
0.0
 30
0.0
  3
_OPEN
  1

  0
LINE
  5
7B1D
  8
0
  6
BYBLOCK
 62
     0
 10
-1.0
 20
0.166667
 30
0.0
 11
0.0
 21
0.0
 31
0.0
  0
LINE
  5
7B1E
  8
0
  6
BYBLOCK
 62
     0
 10
0.0
 20
0.0
 30
0.0
 11
-1.0
 21
-0.166667
 31
0.0
  0
LINE
  5
7B1F
  8
0
  6
BYBLOCK
 62
     0
 10
0.0
 20
0.0
 30
0.0
 11
-1.0
 21
0.0
 31
0.0
  0
ENDBLK
  5
7B20
  8
0
  0
BLOCK
  8
0
  2
*D1
 70
     1
 10
0.0
 20
0.0
 30
0.0
  3
*D1
  1

  0
LINE
  5
7F04
  8
3
  6
CONTINUOUS
 62
     0
 10
-1584.413669
 20
-472.22052500000001
 30
0.0
 11
-1584.413669
 21
-557.53459000000009
 31
0.0
  0
LINE
  5
7F05
  8
3
  6
CONTINUOUS
 62
     0
 10
-1449.413669
 20
-480.13419800000003
 30
0.0
 11
-1449.413669
 21
-557.53459000000009
 31
0.0
  0
LINE
  5
7F06
  8
3
  6
CONTINUOUS
 62
     0
 10
-1564.413669
 20
-547.53458999999998
 30
0.0
 11
-1469.413669
 21
-547.53458999999998
 31
0.0
  0
INSERT
  5
7F07
  8
3
  6
CONTINUOUS
 62
     0
  2
_OPEN
 10
-1584.413669
 20
-547.53458999999998
 30
0.0
 41
20.0
 42
20.0
 43
20.0
 50
180.0
  0
INSERT
  5
7F08
  8
3
  6
CONTINUOUS
 62
     0
  2
_OPEN
 10
-1449.413669
 20
-547.53458999999998
 30
0.0
 41
20.0
 42
20.0
 43
20.0
  0
TEXT
  8
3
  40
30
  5
7F7E
  62
0
  72
0
  71
0
 10
-1575.13
 20
-575.635
 30
0.000000
  1
135
  0
POINT
  5
7F0A
  8
DEFPOINTS
  6
CONTINUOUS
 62
     0
 10
-1584.413669
 20
-467.22052500000001
 30
0.0
  0
POINT
  5
7F0B
  8
DEFPOINTS
  6
CONTINUOUS
 62
     0
 10
-1449.413669
 20
-475.13419800000003
 30
0.0
  0
POINT
  5
7F0C
  8
DEFPOINTS
  6
CONTINUOUS
 62
     0
 10
-1449.413669
 20
-547.53458999999998
 30
0.0
  0
ENDBLK
  5
7B2D
  8
0
  0
BLOCK
  8
0
  2
*D2
 70
     1
 10
0.0
 20
0.0
 30
0.0
  3
*D2
  1

  0
LINE
  5
7F0D
  8
3
  6
CONTINUOUS
 62
     0
 10
-1024.413669
 20
-472.22052500000001
 30
0.0
 11
-1024.413669
 21
-557.53459000000009
 31
0.0
  0
LINE
  5
7F0E
  8
3
  6
CONTINUOUS
 62
     0
 10
-1429.413669
 20
-547.53458999999998
 30
0.0
 11
-1044.413669
 21
-547.53458999999998
 31
0.0
  0
INSERT
  5
7F0F
  8
3
  6
CONTINUOUS
 62
     0
  2
_OPEN
 10
-1449.413669
 20
-547.53458999999998
 30
0.0
 41
20.0
 42
20.0
 43
20.0
 50
180.0
  0
INSERT
  5
7F10
  8
3
  6
CONTINUOUS
 62
     0
  2
_OPEN
 10
-1024.413669
 20
-547.53458999999998
 30
0.0
 41
20.0
 42
20.0
 43
20.0
  0
TEXT
  8
3
  40
30
  5
7F7F
  62
0
  72
0
  71
0
 10
-1296.91
 20
-575.635
 30
0.000000
  1
425
  0
POINT
  5
7F12
  8
DEFPOINTS
  6
CONTINUOUS
 62
     0
 10
-1449.413669
 20
-475.13419800000003
 30
0.0
  0
POINT
  5
7F13
  8
DEFPOINTS
  6
CONTINUOUS
 62
     0
 10
-1024.413669
 20
-467.22052500000001
 30
0.0
  0
POINT
  5
7F14
  8
DEFPOINTS
  6
CONTINUOUS
 62
     0
 10
-1024.413669
 20
-547.53458999999998
 30
0.0
  0
ENDBLK
  5
7B39
  8
0
  0
BLOCK
  8
0
  2
*D3
 70
     1
 10
0.0
 20
0.0
 30
0.0
  3
*D3
  1

  0
LINE
  5
7F15
  8
3
  6
CONTINUOUS
 62
     0
 10
-676.80195300000003
 20
-472.22052500000001
 30
0.0
 11
-676.80195300000003
 21
-547.22767199999987
 31
0.0
  0
LINE
  5
7F16
  8
3
  6
CONTINUOUS
 62
     0
 10
-488.80195300000003
 20
-478.95083699999998
 30
0.0
 11
-488.80195300000003
 21
-547.22767199999987
 31
0.0
  0
LINE
  5
7F17
  8
3
  6
CONTINUOUS
 62
     0
 10
-656.80195300000003
 20
-537.22767199999998
 30
0.0
 11
-508.80195300000003
 21
-537.22767199999998
 31
0.0
  0
INSERT
  5
7F18
  8
3
  6
CONTINUOUS
 62
     0
  2
_OPEN
 10
-676.80195300000003
 20
-537.22767199999998
 30
0.0
 41
20.0
 42
20.0
 43
20.0
 50
180.0
  0
INSERT
  5
7F19
  8
3
  6
CONTINUOUS
 62
     0
  2
_OPEN
 10
-488.80195300000003
 20
-537.22767199999998
 30
0.0
 41
20.0
 42
20.0
 43
20.0
  0
TEXT
  8
3
  40
30
  5
7F80
  62
0
  72
0
  71
0
 10
-647.432
 20
-565.328
 30
0.000000
  1
188
  0
POINT
  5
7F1B
  8
DEFPOINTS
  6
CONTINUOUS
 62
     0
 10
-676.80195300000003
 20
-467.22052500000001
 30
0.0
  0
POINT
  5
7F1C
  8
DEFPOINTS
  6
CONTINUOUS
 62
     0
 10
-488.80195300000003
 20
-473.95083699999998
 30
0.0
  0
POINT
  5
7F1D
  8
DEFPOINTS
  6
CONTINUOUS
 62
     0
 10
-488.80195300000003
 20
-537.22767199999998
 30
0.0
  0
ENDBLK
  5
7B95
  8
0
  0
BLOCK
  8
0
  2
*D4
 70
     1
 10
0.0
 20
0.0
 30
0.0
  3
*D4
  1

  0
LINE
  5
7F1E
  8
3
  6
CONTINUOUS
 62
     0
 10
-452.80195300000003
 20
-472.22052500000001
 30
0.0
 11
-452.80195300000003
 21
-547.22767199999987
 31
0.0
  0
LINE
  5
7F1F
  8
3
  6
CONTINUOUS
 62
     0
 10
-508.80195300000003
 20
-537.22767199999998
 30
0.0
 11
-528.80195300000003
 21
-537.22767199999998
 31
0.0
  0
LINE
  5
7F20
  8
3
  6
CONTINUOUS
 62
     0
 10
-432.80195300000003
 20
-537.22767199999998
 30
0.0
 11
-412.80195300000003
 21
-537.22767199999998
 31
0.0
  0
TEXT
  8
3
  40
30
  5
7F81
  62
0
  72
0
  71
0
 10
-472.907
 20
-565.666
 30
0.000000
  1
36
  0
LINE
  5
7F22
  8
3
  6
CONTINUOUS
 62
     0
 10
-488.80195300000003
 20
-537.22767199999998
 30
0.0
 11
-452.80195300000003
 21
-537.22767199999998
 31
0.0
  0
INSERT
  5
7F23
  8
3
  6
CONTINUOUS
 62
     0
  2
_OPEN
 10
-488.80195300000003
 20
-537.22767199999998
 30
0.0
 41
20.0
 42
20.0
 43
20.0
  0
INSERT
  5
7F24
  8
3
  6
CONTINUOUS
 62
     0
  2
_OPEN
 10
-452.80195300000003
 20
-537.22767199999998
 30
0.0
 41
20.0
 42
20.0
 43
20.0
 50
180.0
  0
POINT
  5
7F25
  8
DEFPOINTS
  6
CONTINUOUS
 62
     0
 10
-488.80195300000003
 20
-473.95083699999998
 30
0.0
  0
POINT
  5
7F26
  8
DEFPOINTS
  6
CONTINUOUS
 62
     0
 10
-452.80195300000003
 20
-467.22052500000001
 30
0.0
  0
POINT
  5
7F27
  8
DEFPOINTS
  6
CONTINUOUS
 62
     0
 10
-452.80195300000003
 20
-537.22767199999998
 30
0.0
  0
ENDBLK
  5
7D58
  8
0
  0
BLOCK
  8
0
  2
*D5
 70
     1
 10
0.0
 20
0.0
 30
0.0
  3
*D5
  1

  0
LINE
  5
7E19
  8
0
  6
BYBLOCK
 62
     0
 10
-544.80195300000003
 20
-67.220524999999995
 30
0.0
 11
-544.80195300000003
 21
-9.1485529999999997
 31
0.0
  0
LINE
  5
7E1A
  8
0
  6
BYBLOCK
 62
     0
 10
-432.80195300000003
 20
-67.220524999999995
 30
0.0
 11
-432.80195300000003
 21
-9.1485529999999997
 31
0.0
  0
LINE
  5
7E1B
  8
0
  6
BYBLOCK
 62
     0
 10
-524.80195300000003
 20
-19.148553
 30
0.0
 11
-452.80195300000003
 21
-19.148553
 31
0.0
  0
TEXT
  5
7E1C
  8
3
  6
CONTINUOUS
 62
     0
 10
-521.65909585714292
 20
-14.24204366490903
 30
0.0
 40
30.0
  1
112
  0
INSERT
  5
7E1D
  8
0
  6
BYBLOCK
 62
     0
  2
_OPEN
 10
-544.80195300000003
 20
-19.148553
 30
0.0
 41
20.0
 42
20.0
 43
20.0
 50
180.0
  0
INSERT
  5
7E1E
  8
0
  6
BYBLOCK
 62
     0
  2
_OPEN
 10
-432.80195300000003
 20
-19.148553
 30
0.0
 41
20.0
 42
20.0
 43
20.0
  0
POINT
  5
7E1F
  8
DEFPOINTS
  6
BYBLOCK
 62
     0
 10
-544.80195300000003
 20
-72.220524999999995
 30
0.0
  0
POINT
  5
7E20
  8
DEFPOINTS
  6
BYBLOCK
 62
     0
 10
-432.80195300000003
 20
-72.220524999999995
 30
0.0
  0
POINT
  5
7E21
  8
DEFPOINTS
  6
BYBLOCK
 62
     0
 10
-432.80195300000003
 20
-19.148553
 30
0.0
  0
ENDBLK
  5
7E22
  8
0
  0
BLOCK
  8
0
  2
*D6
 70
     1
 10
0.0
 20
0.0
 30
0.0
  3
*D6
  1

  0
LINE
  5
7F28
  8
3
  6
CONTINUOUS
 62
     0
 10
-748.80195300000003
 20
-132.22052500000001
 30
0.0
 11
-748.80195300000003
 21
59.401350000000008
 31
0.0
  0
LINE
  5
7F29
  8
3
  6
CONTINUOUS
 62
     0
 10
-488.80195300000003
 20
30.678495000000002
 30
0.0
 11
-488.80195300000003
 21
59.401349999999987
 31
0.0
  0
LINE
  5
7F2A
  8
3
  6
CONTINUOUS
 62
     0
 10
-728.80195300000003
 20
49.401350000000001
 30
0.0
 11
-508.80195300000003
 21
49.401350000000001
 31
0.0
  0
INSERT
  5
7F2B
  8
3
  6
CONTINUOUS
 62
     0
  2
_OPEN
 10
-748.80195300000003
 20
49.401350000000001
 30
0.0
 41
20.0
 42
20.0
 43
20.0
 50
180.0
  0
INSERT
  5
7F2C
  8
3
  6
CONTINUOUS
 62
     0
  2
_OPEN
 10
-488.80195300000003
 20
49.401350000000001
 30
0.0
 41
20.0
 42
20.0
 43
20.0
  0
TEXT
  8
3
  40
30
  5
7F82
  62
0
  72
0
  71
0
 10
-676.446
 20
46.3014
 30
0.000000
  1
MAX
  0
TEXT
  8
3
  40
30
  5
7F83
  62
0
  72
0
  71
0
 10
-676.446
 20
7.30135
 30
0.000000
  1
260
  0
POINT
  5
7F2E
  8
DEFPOINTS
  6
CONTINUOUS
 62
     0
 10
-748.80195300000003
 20
-137.22052500000001
 30
0.0
  0
POINT
  5
7F2F
  8
DEFPOINTS
  6
CONTINUOUS
 62
     0
 10
-488.80195300000003
 20
25.678495000000002
 30
0.0
  0
POINT
  5
7F30
  8
DEFPOINTS
  6
CONTINUOUS
 62
     0
 10
-488.80195300000003
 20
49.401350000000001
 30
0.0
  0
ENDBLK
  5
7E2D
  8
0
  0
BLOCK
  8
0
  2
*D7
 70
     1
 10
0.0
 20
0.0
 30
0.0
  3
*D7
  1

  0
LINE
  5
7F31
  8
3
  6
CONTINUOUS
 62
     0
 10
-1019.413669
 20
684.00965799999994
 30
0.0
 11
-906.3490539999998
 21
684.00965799999994
 31
0.0
  0
LINE
  5
7F32
  8
3
  6
CONTINUOUS
 62
     0
 10
-1019.413668999999
 20
460.00965799999989
 30
0.0
 11
-906.3490539999998
 21
460.00965799999989
 31
0.0
  0
LINE
  5
7F33
  8
3
  6
CONTINUOUS
 62
     0
 10
-916.34905399999968
 20
664.00965799999994
 30
0.0
 11
-916.34905399999968
 21
480.00965799999989
 31
0.0
  0
INSERT
  5
7F34
  8
3
  6
CONTINUOUS
 62
     0
  2
_OPEN
 10
-916.34905399999968
 20
684.00965799999994
 30
0.0
 41
20.0
 42
20.0
 43
20.0
 50
90.0
  0
INSERT
  5
7F35
  8
3
  6
CONTINUOUS
 62
     0
  2
_OPEN
 10
-916.34905399999968
 20
460.00965799999989
 30
0.0
 41
20.0
 42
20.0
 43
20.0
 50
270.0
  0
TEXT
  8
3
  40
30
  5
7F84
  62
0
  72
0
  71
0
 10
-1001.35
 20
519.130
 30
0.000000
  1
224
  0
POINT
  5
7F37
  8
DEFPOINTS
  6
CONTINUOUS
 62
     0
 10
-1024.413669
 20
684.00965799999994
 30
0.0
  0
POINT
  5
7F38
  8
DEFPOINTS
  6
CONTINUOUS
 62
     0
 10
-1024.413669
 20
460.00965799999989
 30
0.0
  0
POINT
  5
7F39
  8
DEFPOINTS
  6
CONTINUOUS
 62
     0
 10
-916.34905399999968
 20
460.00965799999989
 30
0.0
  0
ENDBLK
  5
7C5D
  8
0
  0
BLOCK
  8
0
  2
*D8
 70
     1
 10
0.0
 20
0.0
 30
0.0
  3
*D8
  1

  0
LINE
  5
7F3A
  8
3
  6
CONTINUOUS
 62
     0
 10
-1584.413669
 20
455.00965799999989
 30
0.0
 11
-1584.413669
 21
272.75994100000003
 31
0.0
  0
LINE
  5
7F3B
  8
3
  6
CONTINUOUS
 62
     0
 10
-1024.413669
 20
455.00965799999989
 30
0.0
 11
-1024.413669
 21
272.75994100000003
 31
0.0
  0
LINE
  5
7F3C
  8
3
  6
CONTINUOUS
 62
     0
 10
-1564.413669
 20
282.75994100000003
 30
0.0
 11
-1044.413669
 21
282.75994100000003
 31
0.0
  0
INSERT
  5
7F3D
  8
3
  6
CONTINUOUS
 62
     0
  2
_OPEN
 10
-1584.413669
 20
282.75994100000003
 30
0.0
 41
20.0
 42
20.0
 43
20.0
 50
180.0
  0
INSERT
  5
7F3E
  8
3
  6
CONTINUOUS
 62
     0
  2
_OPEN
 10
-1024.413669
 20
282.75994100000003
 30
0.0
 41
20.0
 42
20.0
 43
20.0
  0
TEXT
  8
3
  40
30
  5
7F85
  62
0
  72
0
  71
0
 10
-1374.63
 20
254.660
 30
0.000000
  1
560
  0
POINT
  5
7F40
  8
DEFPOINTS
  6
CONTINUOUS
 62
     0
 10
-1584.413669
 20
460.00965799999989
 30
0.0
  0
POINT
  5
7F41
  8
DEFPOINTS
  6
CONTINUOUS
 62
     0
 10
-1024.413669
 20
460.00965799999989
 30
0.0
  0
POINT
  5
7F42
  8
DEFPOINTS
  6
CONTINUOUS
 62
     0
 10
-1024.413669
 20
282.75994100000003
 30
0.0
  0
ENDBLK
  5
7C6A
  8
0
  0
BLOCK
  8
0
  2
*D9
 70
     1
 10
0.0
 20
0.0
 30
0.0
  3
*D9
  1

  0
LINE
  5
7F43
  8
3
  6
CONTINUOUS
 62
     0
 10
-1584.413669
 20
-72.220524999999995
 30
0.0
 11
-1654.663831999999
 21
-72.220524999999981
 31
0.0
  0
LINE
  5
7F44
  8
3
  6
CONTINUOUS
 62
     0
 10
-1644.663831999999
 20
-212.2205249999999
 30
0.0
 11
-1644.663831999999
 21
-92.220524999999981
 31
0.0
  0
INSERT
  5
7F45
  8
3
  6
CONTINUOUS
 62
     0
  2
_OPEN
 10
-1644.663831999999
 20
-232.2205249999999
 30
0.0
 41
20.0
 42
20.0
 43
20.0
 50
270.0
  0
INSERT
  5
7F46
  8
3
  6
CONTINUOUS
 62
     0
  2
_OPEN
 10
-1644.663831999999
 20
-72.220524999999981
 30
0.0
 41
20.0
 42
20.0
 43
20.0
 50
90.0
  0
TEXT
  8
3
  40
30
  5
7F86
  62
0
  72
0
  71
0
 10
-1729.66
 20
-205.321
 30
0.000000
  1
160
  0
POINT
  5
7F48
  8
DEFPOINTS
  6
CONTINUOUS
 62
     0
 10
-1578.413669
 20
-232.22052500000001
 30
0.0
  0
POINT
  5
7F49
  8
DEFPOINTS
  6
CONTINUOUS
 62
     0
 10
-1579.413669
 20
-72.220524999999995
 30
0.0
  0
POINT
  5
7F4A
  8
DEFPOINTS
  6
CONTINUOUS
 62
     0
 10
-1644.663831999999
 20
-72.220524999999981
 30
0.0
  0
ENDBLK
  5
7C80
  8
0
  0
BLOCK
  8
0
  2
*D10
 70
     1
 10
0.0
 20
0.0
 30
0.0
  3
*D10
  1

  0
LINE
  5
7E03
  8
0
  6
BYBLOCK
 62
     0
 10
-1579.413669
 20
-45.220525000000002
 30
0.0
 11
-1579.413669
 21
34.77979599999999
 31
0.0
  0
LINE
  5
7E04
  8
0
  6
BYBLOCK
 62
     0
 10
-1449.413669
 20
-23.94222199999999
 30
0.0
 11
-1449.413669
 21
34.77979599999999
 31
0.0
  0
LINE
  5
7E05
  8
0
  6
BYBLOCK
 62
     0
 10
-1559.413669
 20
24.77979599999999
 30
0.0
 11
-1469.413669
 21
24.77979599999999
 31
0.0
  0
TEXT
  5
7E06
  8
3
  6
CONTINUOUS
 62
     0
 10
-1550.127954714286
 20
33.18023544164771
 30
0.0
 40
30.0
  1
130
  0
INSERT
  5
7E07
  8
0
  6
BYBLOCK
 62
     0
  2
_OPEN
 10
-1579.413669
 20
24.77979599999999
 30
0.0
 41
20.0
 42
20.0
 43
20.0
 50
180.0
  0
INSERT
  5
7E08
  8
0
  6
BYBLOCK
 62
     0
  2
_OPEN
 10
-1449.413669
 20
24.77979599999999
 30
0.0
 41
20.0
 42
20.0
 43
20.0
  0
POINT
  5
7E09
  8
DEFPOINTS
  6
BYBLOCK
 62
     0
 10
-1579.413669
 20
-50.220525000000002
 30
0.0
  0
POINT
  5
7E0A
  8
DEFPOINTS
  6
BYBLOCK
 62
     0
 10
-1449.413669
 20
-28.94222199999999
 30
0.0
  0
POINT
  5
7E0B
  8
DEFPOINTS
  6
BYBLOCK
 62
     0
 10
-1449.413669
 20
24.77979599999999
 30
0.0
  0
ENDBLK
  5
7E0C
  8
0
  0
BLOCK
  8
0
  2
*D11
 70
     1
 10
0.0
 20
0.0
 30
0.0
  3
*D11
  1

  0
LINE
  5
7F4B
  8
3
  6
CONTINUOUS
 62
     0
 10
-1304.413669
 20
-214.2205249999999
 30
0.0
 11
-1304.413669
 21
34.779795999999997
 31
0.0
  0
LINE
  5
7F4C
  8
3
  6
CONTINUOUS
 62
     0
 10
-1429.413669
 20
24.77979599999999
 30
0.0
 11
-1324.413669
 21
24.77979599999999
 31
0.0
  0
INSERT
  5
7F4D
  8
3
  6
CONTINUOUS
 62
     0
  2
_OPEN
 10
-1449.413669
 20
24.77979599999999
 30
0.0
 41
20.0
 42
20.0
 43
20.0
 50
180.0
  0
INSERT
  5
7F4E
  8
3
  6
CONTINUOUS
 62
     0
  2
_OPEN
 10
-1304.413669
 20
24.77979599999999
 30
0.0
 41
20.0
 42
20.0
 43
20.0
  0
TEXT
  8
3
  40
30
  5
7F87
  62
0
  72
0
  71
0
 10
-1436.91
 20
-3.32020
 30
0.000000
  1
145
  0
POINT
  5
7F50
  8
DEFPOINTS
  6
CONTINUOUS
 62
     0
 10
-1449.413669
 20
-28.94222199999999
 30
0.0
  0
POINT
  5
7F51
  8
DEFPOINTS
  6
CONTINUOUS
 62
     0
 10
-1304.413669
 20
-219.22052500000001
 30
0.0
  0
POINT
  5
7F52
  8
DEFPOINTS
  6
CONTINUOUS
 62
     0
 10
-1304.413669
 20
24.77979599999999
 30
0.0
  0
ENDBLK
  5
7CB5
  8
0
  0
BLOCK
  8
0
  2
*D12
 70
     1
 10
0.0
 20
0.0
 30
0.0
  3
*D12
  1

  0
LINE
  5
7F53
  8
3
  6
CONTINUOUS
 62
     0
 10
-424.80195300000003
 20
-127.22052499999999
 30
0.0
 11
-424.80195300000003
 21
59.401350000000008
 31
0.0
  0
LINE
  5
7F54
  8
3
  6
CONTINUOUS
 62
     0
 10
-468.80195300000003
 20
49.401350000000001
 30
0.0
 11
-444.80195300000003
 21
49.401350000000001
 31
0.0
  0
TEXT
  8
3
  40
30
  5
7F88
  62
0
  72
0
  71
0
 10
-514.775
 20
24.5204
 30
0.000000
  1
64
  0
INSERT
  5
7F56
  8
3
  6
CONTINUOUS
 62
     0
  2
_OPEN
 10
-488.80195300000003
 20
49.401350000000001
 30
0.0
 41
20.0
 42
20.0
 43
20.0
 50
180.0
  0
INSERT
  5
7F57
  8
3
  6
CONTINUOUS
 62
     0
  2
_OPEN
 10
-424.80195300000003
 20
49.401350000000001
 30
0.0
 41
20.0
 42
20.0
 43
20.0
  0
POINT
  5
7F58
  8
DEFPOINTS
  6
CONTINUOUS
 62
     0
 10
-488.80195300000003
 20
25.678495000000002
 30
0.0
  0
POINT
  5
7F59
  8
DEFPOINTS
  6
CONTINUOUS
 62
     0
 10
-424.80195300000003
 20
-132.22052500000001
 30
0.0
  0
POINT
  5
7F5A
  8
DEFPOINTS
  6
CONTINUOUS
 62
     0
 10
-424.80195300000003
 20
49.401350000000001
 30
0.0
  0
ENDBLK
  5
7D2A
  8
0
  0
BLOCK
  8
0
  2
*D13
 70
     1
 10
0.0
 20
0.0
 30
0.0
  3
*D13
  1

  0
LINE
  5
7E0E
  8
0
  6
BYBLOCK
 62
     0
 10
-419.80195300000003
 20
-152.22052500000001
 30
0.0
 11
-336.59761400000002
 21
-152.22052500000001
 31
0.0
  0
LINE
  5
7E0F
  8
0
  6
BYBLOCK
 62
     0
 10
-419.80195300000003
 20
-312.22052500000001
 30
0.0
 11
-336.59761400000002
 21
-312.22052500000001
 31
0.0
  0
LINE
  5
7E10
  8
0
  6
BYBLOCK
 62
     0
 10
-346.59761400000002
 20
-172.22052500000001
 30
0.0
 11
-346.59761400000002
 21
-292.22052500000001
 31
0.0
  0
TEXT
  5
7E11
  8
3
  6
CONTINUOUS
 62
     0
 10
-354.04715880843469
 20
-282.93481071428567
 30
0.0
 40
30.0
  1
φ160
 50
90.0
  0
INSERT
  5
7E12
  8
0
  6
BYBLOCK
 62
     0
  2
_OPEN
 10
-346.59761400000002
 20
-152.22052500000001
 30
0.0
 41
20.0
 42
20.0
 43
20.0
 50
90.0
  0
INSERT
  5
7E13
  8
0
  6
BYBLOCK
 62
     0
  2
_OPEN
 10
-346.59761400000002
 20
-312.22052500000001
 30
0.0
 41
20.0
 42
20.0
 43
20.0
 50
270.0
  0
POINT
  5
7E14
  8
DEFPOINTS
  6
BYBLOCK
 62
     0
 10
-424.80195300000003
 20
-152.22052500000001
 30
0.0
  0
POINT
  5
7E15
  8
DEFPOINTS
  6
BYBLOCK
 62
     0
 10
-424.80195300000003
 20
-312.22052500000001
 30
0.0
  0
POINT
  5
7E16
  8
DEFPOINTS
  6
BYBLOCK
 62
     0
 10
-346.59761400000002
 20
-312.22052500000001
 30
0.0
  0
ENDBLK
  5
7E17
  8
0
  0
BLOCK
  8
0
  2
*D14
 70
     1
 10
0.0
 20
0.0
 30
0.0
  3
*D14
  1

  0
LINE
  5
7F5B
  8
3
  6
CONTINUOUS
 62
     0
 10
-1569.413669
 20
-61.220525000000002
 30
0.0
 11
-1711.6457289999989
 21
-61.220524999999967
 31
0.0
  0
LINE
  5
7F5C
  8
3
  6
CONTINUOUS
 62
     0
 10
-1584.413669
 20
-232.22052500000001
 30
0.0
 11
-1711.6457289999989
 21
-232.2205249999999
 31
0.0
  0
LINE
  5
7F5D
  8
3
  6
CONTINUOUS
 62
     0
 10
-1701.6457289999989
 20
-81.220524999999967
 30
0.0
 11
-1701.6457289999989
 21
-212.2205249999999
 31
0.0
  0
INSERT
  5
7F5E
  8
3
  6
CONTINUOUS
 62
     0
  2
_OPEN
 10
-1701.6457289999989
 20
-61.220524999999967
 30
0.0
 41
20.0
 42
20.0
 43
20.0
 50
90.0
  0
INSERT
  5
7F5F
  8
3
  6
CONTINUOUS
 62
     0
  2
_OPEN
 10
-1701.6457289999989
 20
-232.2205249999999
 30
0.0
 41
20.0
 42
20.0
 43
20.0
 50
270.0
  0
TEXT
  8
3
  40
30
  5
7F89
  62
0
  72
0
  71
0
 10
-1786.65
 20
-204.161
 30
0.000000
  1
171
  0
POINT
  5
7F61
  8
DEFPOINTS
  6
CONTINUOUS
 62
     0
 10
-1564.413669
 20
-61.220525000000002
 30
0.0
  0
POINT
  5
7F62
  8
DEFPOINTS
  6
CONTINUOUS
 62
     0
 10
-1579.413669
 20
-232.22052500000001
 30
0.0
  0
POINT
  5
7F63
  8
DEFPOINTS
  6
CONTINUOUS
 62
     0
 10
-1701.6457289999989
 20
-232.2205249999999
 30
0.0
  0
ENDBLK
  5
7DB7
  8
0
  0
BLOCK
  8
0
  2
*D15
 70
     1
 10
0.0
 20
0.0
 30
0.0
  3
*D15
  1

  0
LINE
  5
7F64
  8
3
  6
CONTINUOUS
 62
     0
 10
-1589.4136689999989
 20
-467.22052500000001
 30
0.0
 11
-1711.6457289999989
 21
-467.2205249999999
 31
0.0
  0
LINE
  5
7F65
  8
3
  6
CONTINUOUS
 62
     0
 10
-1701.6457289999989
 20
-252.2205249999999
 30
0.0
 11
-1701.6457289999989
 21
-447.22052500000001
 31
0.0
  0
INSERT
  5
7F66
  8
3
  6
CONTINUOUS
 62
     0
  2
_OPEN
 10
-1701.6457289999989
 20
-232.2205249999999
 30
0.0
 41
20.0
 42
20.0
 43
20.0
 50
90.0
  0
INSERT
  5
7F67
  8
3
  6
CONTINUOUS
 62
     0
  2
_OPEN
 10
-1701.6457289999989
 20
-467.2205249999999
 30
0.0
 41
20.0
 42
20.0
 43
20.0
 50
270.0
  0
TEXT
  8
3
  40
30
  5
7F8A
  62
0
  72
0
  71
0
 10
-1786.65
 20
-402.821
 30
0.000000
  1
235
  0
POINT
  5
7F69
  8
DEFPOINTS
  6
CONTINUOUS
 62
     0
 10
-1579.413669
 20
-232.22052500000001
 30
0.0
  0
POINT
  5
7F6A
  8
DEFPOINTS
  6
CONTINUOUS
 62
     0
 10
-1584.413669
 20
-467.22052500000001
 30
0.0
  0
POINT
  5
7F6B
  8
DEFPOINTS
  6
CONTINUOUS
 62
     0
 10
-1701.6457289999989
 20
-467.2205249999999
 30
0.0
  0
ENDBLK
  5
7DAC
  8
0
  0
BLOCK
  8
0
  2
*D16
 70
     1
 10
0.0
 20
0.0
 30
0.0
  3
*D16
  1

  0
LINE
  5
7F6C
  8
3
  6
CONTINUOUS
 62
     0
 10
-1584.413669
 20
-50.220525000000002
 30
0.0
 11
-1776.6875640000001
 21
-50.220524999999931
 31
0.0
  0
LINE
  5
7F6D
  8
3
  6
CONTINUOUS
 62
     0
 10
-1589.4136689999989
 20
-467.22052500000001
 30
0.0
 11
-1776.6875640000001
 21
-467.2205249999999
 31
0.0
  0
LINE
  5
7F6E
  8
3
  6
CONTINUOUS
 62
     0
 10
-1766.6875640000001
 20
-70.220524999999924
 30
0.0
 11
-1766.6875640000001
 21
-447.22052500000001
 31
0.0
  0
INSERT
  5
7F6F
  8
3
  6
CONTINUOUS
 62
     0
  2
_OPEN
 10
-1766.6875640000001
 20
-50.220524999999938
 30
0.0
 41
20.0
 42
20.0
 43
20.0
 50
90.0
  0
INSERT
  5
7F70
  8
3
  6
CONTINUOUS
 62
     0
  2
_OPEN
 10
-1766.6875640000001
 20
-467.2205249999999
 30
0.0
 41
20.0
 42
20.0
 43
20.0
 50
270.0
  0
TEXT
  8
3
  40
30
  5
7F8B
  62
0
  72
0
  71
0
 10
-1851.69
 20
-315.954
 30
0.000000
  1
417
  0
POINT
  5
7F72
  8
DEFPOINTS
  6
CONTINUOUS
 62
     0
 10
-1579.413669
 20
-50.220525000000002
 30
0.0
  0
POINT
  5
7F73
  8
DEFPOINTS
  6
CONTINUOUS
 62
     0
 10
-1584.413669
 20
-467.22052500000001
 30
0.0
  0
POINT
  5
7F74
  8
DEFPOINTS
  6
CONTINUOUS
 62
     0
 10
-1766.6875640000001
 20
-467.2205249999999
 30
0.0
  0
ENDBLK
  5
7DC8
  8
0
  0
BLOCK
  8
0
  2
*D17
 70
     1
 10
0.0
 20
0.0
 30
0.0
  3
*D17
  1

  0
LINE
  5
7F75
  8
3
  6
CONTINUOUS
 62
     0
 10
-1579.413669
 20
-45.220525000000002
 30
0.0
 11
-1579.413669
 21
89.107810343102756
 31
0.0
  0
LINE
  5
7F76
  8
3
  6
CONTINUOUS
 62
     0
 10
-1024.413669
 20
-412.22052500000001
 30
0.0
 11
-1024.413669
 21
89.107810343102756
 31
0.0
  0
LINE
  5
7F77
  8
3
  6
CONTINUOUS
 62
     0
 10
-1559.413669
 20
79.107810343102756
 30
0.0
 11
-1044.413669
 21
79.107810343102756
 31
0.0
  0
INSERT
  5
7F78
  8
3
  6
CONTINUOUS
 62
     0
  2
_OPEN
 10
-1579.413669
 20
79.107810343102756
 30
0.0
 41
20.0
 42
20.0
 43
20.0
 50
180.0
  0
INSERT
  5
7F79
  8
3
  6
CONTINUOUS
 62
     0
  2
_OPEN
 10
-1024.413669
 20
79.107810343102756
 30
0.0
 41
20.0
 42
20.0
 43
20.0
  0
TEXT
  8
3
  40
30
  5
7F8C
  62
0
  72
0
  71
0
 10
-1355.58
 20
51.0078
 30
0.000000
  1
555
  0
POINT
  5
7F7B
  8
DEFPOINTS
  6
CONTINUOUS
 62
     0
 10
-1579.413669
 20
-50.220525000000002
 30
0.0
  0
POINT
  5
7F7C
  8
DEFPOINTS
  6
CONTINUOUS
 62
     0
 10
-1024.413669
 20
-417.22052500000001
 30
0.0
  0
POINT
  5
7F7D
  8
DEFPOINTS
  6
CONTINUOUS
 62
     0
 10
-1024.413669
 20
79.107810343102756
 30
0.0
  0
ENDBLK
  5
7E39
  8
0
  0
ENDSEC
  0
SECTION
  2
ENTITIES
  0
LINE
  5
7A7C
  8
1
  6
CONTINUOUS
 10
-1024.413669
 20
-467.22052500000001
 30
0.0
 11
-1584.413669
 21
-467.22052500000001
 31
0.0
  0
LINE
  5
7A7D
  8
1
  6
CONTINUOUS
 10
-1024.413669
 20
-417.22052500000001
 30
0.0
 11
-1584.413669
 21
-417.22052500000001
 31
0.0
  0
LINE
  5
7A7E
  8
1
  6
CONTINUOUS
 10
-1546.713669
 20
-137.22052500000001
 30
0.0
 11
-1066.713669
 21
-137.22052500000001
 31
0.0
  0
ARC
  5
7A7F
  8
1
  6
CONTINUOUS
 10
-1462.413669
 20
-219.22052500000001
 30
0.0
 40
158.0
 50
350.89999999999992
 51
90.0
  0
ARC
  5
7A80
  8
1
  6
CONTINUOUS
 10
-1438.413669
 20
-221.22052500000001
 30
0.0
 40
134.0
 50
269.5
 51
350.10000000000002
  0
LINE
  5
7A81
  8
1
  6
CONTINUOUS
 10
-1152.813668999999
 20
-284.02052500000002
 30
0.0
 11
-1435.1136689999989
 21
-189.52052499999999
 31
0.0
  0
LINE
  5
7A82
  8
1
  6
CONTINUOUS
 10
-1172.813668999999
 20
-351.12052499999987
 30
0.0
 11
-1460.8136689999999
 21
-275.72052500000001
 31
0.0
  0
CIRCLE
  5
7A83
  8
1
  6
CONTINUOUS
 10
-1449.413669
 20
-232.22052500000001
 30
0.0
 40
80.0
  0
LINE
  5
7A84
  8
1
  6
CONTINUOUS
 10
-1546.713669
 20
-417.22052500000001
 30
0.0
 11
-1546.713669
 21
-137.22052500000001
 31
0.0
  0
CIRCLE
  5
7A85
  8
1
  6
CONTINUOUS
 10
-1449.413669
 20
-232.22052500000001
 30
0.0
 40
45.0
  0
LINE
  5
7A86
  8
1
  6
CONTINUOUS
 10
-1559.413669
 20
-417.22052500000001
 30
0.0
 11
-1559.413669
 21
-190.1205249999999
 31
0.0
  0
LINE
  5
7A87
  8
1
  6
CONTINUOUS
 10
-1339.413669
 20
-190.1205249999999
 30
0.0
 11
-1339.413669
 21
-417.22052500000001
 31
0.0
  0
LINE
  5
7A88
  8
1
  6
CONTINUOUS
 10
-1579.413669
 20
-50.220525000000002
 30
0.0
 11
-1579.413669
 21
-254.22052500000001
 31
0.0
  0
ARC
  5
7A89
  8
1
  6
CONTINUOUS
 10
-1440.413669
 20
-241.2205249999999
 30
0.0
 40
114.0
 50
180.49999999999989
 51
270.5
  0
LINE
  5
7A8A
  8
2
  6
CENTER
 10
-1449.413669
 20
-506.002523
 30
0.0
 11
-1449.413669
 21
-28.94222199999999
 31
0.0
  0
CIRCLE
  5
7A8B
  8
1
  6
CONTINUOUS
 10
-1449.413669
 20
-232.22052500000001
 30
0.0
 40
100.0
  0
LINE
  5
7A8C
  8
1
  6
CONTINUOUS
 10
-1339.413669
 20
-265.52052500000002
 30
0.0
 11
-1559.413669
 21
-265.52052500000002
 31
0.0
  0
LINE
  5
7A8D
  8
1
  6
CONTINUOUS
 10
-1584.413669
 20
-467.22052500000001
 30
0.0
 11
-1584.413669
 21
-417.22052500000001
 31
0.0
  0
LINE
  5
7A8E
  8
1
  6
CONTINUOUS
 10
-1559.413669
 20
-190.1205249999999
 30
0.0
 11
-1486.0136689999999
 21
-127.22052499999999
 31
0.0
  0
LINE
  5
7A8F
  8
1
  6
CONTINUOUS
 10
-1564.413669
 20
-61.220525000000002
 30
0.0
 11
-1462.413669
 21
-61.220525000000002
 31
0.0
  0
LINE
  5
7A90
  8
1
  6
CONTINUOUS
 10
-1564.413669
 20
-242.22052500000001
 30
0.0
 11
-1554.413669
 21
-242.22052500000001
 31
0.0
  0
LINE
  5
7A91
  8
1
  6
CONTINUOUS
 10
-1579.413669
 20
-71.220524999999995
 30
0.0
 11
-1564.413669
 21
-86.220524999999995
 31
0.0
  0
LINE
  5
7A92
  8
1
  6
CONTINUOUS
 10
-1564.413669
 20
-86.220524999999995
 30
0.0
 11
-1564.413669
 21
-218.2205249999999
 31
0.0
  0
LINE
  5
7A93
  8
1
  6
CONTINUOUS
 10
-1579.413669
 20
-233.22052500000001
 30
0.0
 11
-1564.413669
 21
-218.2205249999999
 31
0.0
  0
LINE
  5
7A94
  8
1
  6
CONTINUOUS
 10
-1564.413669
 20
-72.220524999999995
 30
0.0
 11
-1579.413669
 21
-72.220524999999995
 31
0.0
  0
LINE
  5
7A95
  8
1
  6
CONTINUOUS
 10
-1564.413669
 20
-232.22052500000001
 30
0.0
 11
-1579.413669
 21
-232.22052500000001
 31
0.0
  0
LINE
  5
7A96
  8
1
  6
CONTINUOUS
 10
-1564.413669
 20
-61.220525000000002
 30
0.0
 11
-1564.413669
 21
-72.220524999999995
 31
0.0
  0
LINE
  5
7A97
  8
1
  6
CONTINUOUS
 10
-1564.413669
 20
-232.22052500000001
 30
0.0
 11
-1564.413669
 21
-242.22052500000001
 31
0.0
  0
LINE
  5
7A98
  8
1
  6
CONTINUOUS
 10
-1339.413669
 20
-190.1205249999999
 30
0.0
 11
-1412.8136689999999
 21
-127.22052499999999
 31
0.0
  0
LINE
  5
7A99
  8
2
  6
CENTER
 10
-410.91466700000001
 20
-232.22052500000001
 30
0.0
 11
-785.09684900000002
 21
-232.22052500000001
 31
0.0
  0
LINE
  5
7A9A
  8
1
  6
CONTINUOUS
 10
-1486.0136689999999
 20
-127.22052499999999
 30
0.0
 11
-1412.8136689999999
 21
-127.22052499999999
 31
0.0
  0
ARC
  5
7A9B
  8
1
  6
CONTINUOUS
 10
-1163.913669
 20
-317.22052500000001
 30
0.0
 40
85.0
 50
324.69999999999987
 51
215.30000000000001
  0
LINE
  5
7A9C
  8
1
  6
CONTINUOUS
 10
-1066.713669
 20
-137.22052500000001
 30
0.0
 11
-1066.713669
 21
-417.22052500000001
 31
0.0
  0
LINE
  5
7A9D
  8
1
  6
CONTINUOUS
 10
-1024.413669
 20
-397.22052500000001
 30
0.0
 11
-1275.413669
 21
-397.22052500000001
 31
0.0
  0
LINE
  5
7A9E
  8
2
  6
CENTER
 10
-1128.913669
 20
-317.22052500000001
 30
0.0
 11
-1198.913669
 21
-317.22052500000001
 31
0.0
  0
CIRCLE
  5
7A9F
  8
1
  6
CONTINUOUS
 10
-1163.913669
 20
-317.22052500000001
 30
0.0
 40
35.0
  0
LINE
  5
7AA0
  8
1
  6
CONTINUOUS
 10
-1241.413669
 20
-389.22052500000001
 30
0.0
 11
-1233.213669
 21
-366.420525
 31
0.0
  0
LINE
  5
7AA1
  8
1
  6
CONTINUOUS
 10
-1241.413669
 20
-397.22052500000001
 30
0.0
 11
-1241.413669
 21
-389.22052500000001
 31
0.0
  0
LINE
  5
7AA2
  8
1
  6
CONTINUOUS
 10
-1275.413669
 20
-397.22052500000001
 30
0.0
 11
-1275.413669
 21
-417.22052500000001
 31
0.0
  0
LINE
  5
7AA3
  8
2
  6
CENTER
 10
-1163.913669
 20
-352.22052500000001
 30
0.0
 11
-1163.913669
 21
-282.22052500000001
 31
0.0
  0
LINE
  5
7AA4
  8
1
  6
CONTINUOUS
 10
-1086.413669
 20
-397.22052500000001
 30
0.0
 11
-1086.413669
 21
-389.22052500000001
 31
0.0
  0
LINE
  5
7AA5
  8
1
  6
CONTINUOUS
 10
-1086.413669
 20
-389.22052500000001
 30
0.0
 11
-1094.6136689999989
 21
-366.420525
 31
0.0
  0
LINE
  5
7AA6
  8
1
  6
CONTINUOUS
 10
-1024.413669
 20
-397.22052500000001
 30
0.0
 11
-1024.413669
 21
-467.22052500000001
 31
0.0
  0
LINE
  5
7AA7
  8
1
  6
CONTINUOUS
 10
-1173.413669
 20
460.00965799999989
 30
0.0
 11
-1437.413669
 21
460.00965799999989
 31
0.0
  0
LINE
  5
7AA8
  8
1
  6
CONTINUOUS
 10
-1315.3136689999999
 20
684.00965799999994
 30
0.0
 11
-1024.413669
 21
684.00965799999994
 31
0.0
  0
LINE
  5
7AA9
  8
1
  6
CONTINUOUS
 10
-1546.713669
 20
463.009658
 30
0.0
 11
-1066.713669
 21
463.009658
 31
0.0
  0
LINE
  5
7AAA
  8
1
  6
CONTINUOUS
 10
-1546.713669
 20
388.009658
 30
0.0
 11
-1066.713669
 21
388.009658
 31
0.0
  0
LINE
  5
7AAB
  8
1
  6
CONTINUOUS
 10
-1461.413669
 20
460.00965799999989
 30
0.0
 11
-1584.413669
 21
460.00965799999989
 31
0.0
  0
LINE
  5
7AAC
  8
1
  6
CONTINUOUS
 10
-1559.413669
 20
584.40965800000004
 30
0.0
 11
-1339.413669
 21
584.40965800000004
 31
0.0
  0
LINE
  5
7AAD
  8
1
  6
CONTINUOUS
 10
-1323.3136689999999
 20
704.00965800000006
 30
0.0
 11
-1579.413669
 21
704.00965800000006
 31
0.0
  0
LINE
  5
7AAE
  8
1
  6
CONTINUOUS
 10
-1323.3136689999999
 20
592.00965799999994
 30
0.0
 11
-1579.413669
 21
592.00965799999994
 31
0.0
  0
LINE
  5
7AAF
  8
1
  6
CONTINUOUS
 10
-1549.413669
 20
712.00965800000006
 30
0.0
 11
-1349.413669
 21
712.00965800000006
 31
0.0
  0
LINE
  5
7AB0
  8
1
  6
CONTINUOUS
 10
-1559.413669
 20
460.00965799999989
 30
0.0
 11
-1559.413669
 21
584.40965800000004
 31
0.0
  0
LINE
  5
7AB1
  8
1
  6
CONTINUOUS
 10
-1584.413669
 20
460.00965799999989
 30
0.0
 11
-1584.413669
 21
684.00965799999994
 31
0.0
  0
LINE
  5
7AB2
  8
1
  6
CONTINUOUS
 10
-1546.713669
 20
388.009658
 30
0.0
 11
-1546.713669
 21
463.009658
 31
0.0
  0
LINE
  5
7AB3
  8
1
  6
CONTINUOUS
 10
-1584.413669
 20
684.00965799999994
 30
0.0
 11
-1579.413669
 21
684.00965799999994
 31
0.0
  0
LINE
  5
7AB4
  8
1
  6
CONTINUOUS
 10
-1549.413669
 20
712.00965800000006
 30
0.0
 11
-1549.413669
 21
704.00965800000006
 31
0.0
  0
LINE
  5
7AB5
  8
1
  6
CONTINUOUS
 10
-1549.413669
 20
584.40965800000004
 30
0.0
 11
-1549.413669
 21
592.00965799999994
 31
0.0
  0
LINE
  5
7AB6
  8
1
  6
CONTINUOUS
 10
-1579.413669
 20
725.00965800000006
 30
0.0
 11
-1579.413669
 21
571.00965799999994
 31
0.0
  0
LINE
  5
7AB7
  8
1
  6
CONTINUOUS
 10
-1564.413669
 20
690.00965799999994
 30
0.0
 11
-1564.413669
 21
606.00965799999994
 31
0.0
  0
LINE
  5
7AB8
  8
1
  6
CONTINUOUS
 10
-1579.413669
 20
705.00965799999994
 30
0.0
 11
-1564.413669
 21
690.00965799999994
 31
0.0
  0
LINE
  5
7AB9
  8
1
  6
CONTINUOUS
 10
-1579.413669
 20
591.00965799999994
 30
0.0
 11
-1564.413669
 21
606.00965799999994
 31
0.0
  0
LINE
  5
7ABA
  8
1
  6
CONTINUOUS
 10
-1461.413669
 20
584.40965800000004
 30
0.0
 11
-1461.413669
 21
443.90965799999998
 31
0.0
  0
LINE
  5
7ABB
  8
1
  6
CONTINUOUS
 10
-1437.413669
 20
584.40965800000004
 30
0.0
 11
-1437.413669
 21
443.90965799999998
 31
0.0
  0
LINE
  5
7ABC
  8
1
  6
CONTINUOUS
 10
-1339.413669
 20
584.40965800000004
 30
0.0
 11
-1339.413669
 21
460.00965799999989
 31
0.0
  0
LINE
  5
7ABD
  8
1
  6
CONTINUOUS
 10
-1494.413669
 20
443.90965799999998
 30
0.0
 11
-1404.413669
 21
443.90965799999998
 31
0.0
  0
LINE
  5
7ABE
  8
1
  6
CONTINUOUS
 10
-1494.413669
 20
408.90965799999998
 30
0.0
 11
-1404.413669
 21
408.90965799999998
 31
0.0
  0
LINE
  5
7ABF
  8
1
  6
CONTINUOUS
 10
-1494.413669
 20
443.90965799999998
 30
0.0
 11
-1494.413669
 21
408.90965799999998
 31
0.0
  0
LINE
  5
7AC0
  8
1
  6
CONTINUOUS
 10
-1404.413669
 20
443.90965799999998
 30
0.0
 11
-1404.413669
 21
408.90965799999998
 31
0.0
  0
LINE
  5
7AC1
  8
1
  6
CONTINUOUS
 10
-1349.413669
 20
712.00965800000006
 30
0.0
 11
-1349.413669
 21
704.00965800000006
 31
0.0
  0
LINE
  5
7AC2
  8
1
  6
CONTINUOUS
 10
-1349.413669
 20
584.40965800000004
 30
0.0
 11
-1349.413669
 21
592.00965799999994
 31
0.0
  0
ARC
  5
7AC3
  8
1
  6
CONTINUOUS
 10
-1323.3136689999999
 20
600.00965800000006
 30
0.0
 40
8.0
 50
270.0
 51
0.0
  0
ARC
  5
7AC4
  8
1
  6
CONTINUOUS
 10
-1323.3136689999999
 20
696.00965799999994
 30
0.0
 40
8.0
 50
0.0
 51
90.0
  0
LINE
  5
7AC5
  8
1
  6
CONTINUOUS
 10
-1315.3136689999999
 20
696.00965799999994
 30
0.0
 11
-1315.3136689999999
 21
600.00965800000006
 31
0.0
  0
LINE
  5
7AC6
  8
1
  6
CONTINUOUS
 10
-1248.913669
 20
664.50965799999994
 30
0.0
 11
-1078.913669
 21
664.50965799999994
 31
0.0
  0
LINE
  5
7AC7
  8
1
  6
CONTINUOUS
 10
-1248.913669
 20
473.70965799999999
 30
0.0
 11
-1078.913669
 21
473.70965799999999
 31
0.0
  0
LINE
  5
7AC8
  8
1
  6
CONTINUOUS
 10
-1024.413669
 20
460.00965799999989
 30
0.0
 11
-1154.4136689999989
 21
460.00965799999989
 31
0.0
  0
LINE
  5
7AC9
  8
1
  6
CONTINUOUS
 10
-1248.913669
 20
473.70965799999999
 30
0.0
 11
-1248.913669
 21
664.50965799999994
 31
0.0
  0
LINE
  5
7ACA
  8
1
  6
CONTINUOUS
 10
-1198.913669
 20
408.90965799999998
 30
0.0
 11
-1128.913669
 21
408.90965799999998
 31
0.0
  0
LINE
  5
7ACB
  8
1
  6
CONTINUOUS
 10
-1198.913669
 20
443.90965799999998
 30
0.0
 11
-1128.913669
 21
443.90965799999998
 31
0.0
  0
LINE
  5
7ACC
  8
1
  6
CONTINUOUS
 10
-1198.913669
 20
443.90965799999998
 30
0.0
 11
-1198.913669
 21
408.90965799999998
 31
0.0
  0
LINE
  5
7ACD
  8
1
  6
CONTINUOUS
 10
-1128.913669
 20
443.90965799999998
 30
0.0
 11
-1128.913669
 21
408.90965799999998
 31
0.0
  0
LINE
  5
7ACE
  8
1
  6
CONTINUOUS
 10
-1154.4136689999989
 20
443.90965799999998
 30
0.0
 11
-1154.4136689999989
 21
473.70965799999999
 31
0.0
  0
LINE
  5
7ACF
  8
1
  6
CONTINUOUS
 10
-1173.413669
 20
443.90965799999998
 30
0.0
 11
-1173.413669
 21
473.70965799999999
 31
0.0
  0
LINE
  5
7AD0
  8
1
  6
CONTINUOUS
 10
-1078.913669
 20
473.70965799999999
 30
0.0
 11
-1078.913669
 21
664.50965799999994
 31
0.0
  0
LINE
  5
7AD1
  8
1
  6
CONTINUOUS
 10
-1024.413669
 20
684.00965799999994
 30
0.0
 11
-1024.413669
 21
460.00965799999989
 31
0.0
  0
LINE
  5
7AD2
  8
1
  6
CONTINUOUS
 10
-1066.713669
 20
463.009658
 30
0.0
 11
-1066.713669
 21
388.009658
 31
0.0
  0
LINE
  5
7AD3
  8
1
  6
CONTINUOUS
 10
-623.701953
 20
-244.22052500000001
 30
0.0
 11
-693.80195300000003
 21
-244.22052500000001
 31
0.0
  0
LINE
  5
7AD4
  8
1
  6
CONTINUOUS
 10
-592.10195299999987
 20
-220.22052500000001
 30
0.0
 11
-693.80195300000003
 21
-220.22052500000001
 31
0.0
  0
LINE
  5
7AD5
  8
1
  6
CONTINUOUS
 10
-676.80195300000003
 20
-467.22052500000001
 30
0.0
 11
-452.80195300000003
 21
-467.22052500000001
 31
0.0
  0
LINE
  5
7AD6
  8
1
  6
CONTINUOUS
 10
-748.80195300000003
 20
-417.22052500000001
 30
0.0
 11
-452.80195300000003
 21
-417.22052500000001
 31
0.0
  0
LINE
  5
7AD7
  8
1
  6
CONTINUOUS
 10
-552.40195300000005
 20
-190.1205249999999
 30
0.0
 11
-651.80195300000003
 21
-265.52052500000002
 31
0.0
  0
LINE
  5
7AD8
  8
1
  6
CONTINUOUS
 10
-693.80195300000003
 20
-277.22052500000001
 30
0.0
 11
-693.80195300000003
 21
-187.22052500000001
 31
0.0
  0
LINE
  5
7AD9
  8
1
  6
CONTINUOUS
 10
-728.80195300000003
 20
-277.22052500000001
 30
0.0
 11
-728.80195300000003
 21
-187.22052500000001
 31
0.0
  0
LINE
  5
7ADA
  8
1
  6
CONTINUOUS
 10
-673.80195300000003
 20
-417.22052500000001
 30
0.0
 11
-673.80195300000003
 21
-137.22052500000001
 31
0.0
  0
LINE
  5
7ADB
  8
1
  6
CONTINUOUS
 10
-748.80195300000003
 20
-417.22052500000001
 30
0.0
 11
-748.80195300000003
 21
-137.22052500000001
 31
0.0
  0
LINE
  5
7ADC
  8
1
  6
CONTINUOUS
 10
-693.80195300000003
 20
-277.22052500000001
 30
0.0
 11
-728.80195300000003
 21
-277.22052500000001
 31
0.0
  0
LINE
  5
7ADD
  8
1
  6
CONTINUOUS
 10
-693.80195300000003
 20
-282.22052500000001
 30
0.0
 11
-728.80195300000003
 21
-282.22052500000001
 31
0.0
  0
LINE
  5
7ADE
  8
1
  6
CONTINUOUS
 10
-693.80195300000003
 20
-352.22052500000001
 30
0.0
 11
-728.80195300000003
 21
-352.22052500000001
 31
0.0
  0
LINE
  5
7ADF
  8
1
  6
CONTINUOUS
 10
-728.80195300000003
 20
-352.22052500000001
 30
0.0
 11
-728.80195300000003
 21
-282.22052500000001
 31
0.0
  0
LINE
  5
7AE0
  8
1
  6
CONTINUOUS
 10
-693.80195300000003
 20
-352.22052500000001
 30
0.0
 11
-693.80195300000003
 21
-282.22052500000001
 31
0.0
  0
LINE
  5
7AE1
  8
1
  6
CONTINUOUS
 10
-693.80195300000003
 20
-307.72052500000001
 30
0.0
 11
-651.80195300000003
 21
-307.72052500000001
 31
0.0
  0
LINE
  5
7AE2
  8
1
  6
CONTINUOUS
 10
-693.80195300000003
 20
-326.7205249999999
 30
0.0
 11
-651.80195300000003
 21
-326.7205249999999
 31
0.0
  0
LINE
  5
7AE3
  8
1
  6
CONTINUOUS
 10
-676.80195300000003
 20
-417.22052500000001
 30
0.0
 11
-676.80195300000003
 21
-467.22052500000001
 31
0.0
  0
LINE
  5
7AE4
  8
1
  6
CONTINUOUS
 10
-651.80195300000003
 20
-265.52052500000002
 30
0.0
 11
-651.80195300000003
 21
-417.22052500000001
 31
0.0
  0
LINE
  5
7AE5
  8
1
  6
CONTINUOUS
 10
-693.80195300000003
 20
-187.22052500000001
 30
0.0
 11
-728.80195300000003
 21
-187.22052500000001
 31
0.0
  0
LINE
  5
7AE6
  8
1
  6
CONTINUOUS
 10
-673.80195300000003
 20
-137.22052500000001
 30
0.0
 11
-748.80195300000003
 21
-137.22052500000001
 31
0.0
  0
LINE
  5
7AE7
  8
1
  6
CONTINUOUS
 10
-424.80195300000003
 20
-132.22052500000001
 30
0.0
 11
-424.80195300000003
 21
-332.22052500000001
 31
0.0
  0
LINE
  5
7AE8
  8
1
  6
CONTINUOUS
 10
-552.40195300000005
 20
-132.22052500000001
 30
0.0
 11
-552.40195300000005
 21
-417.22052500000001
 31
0.0
  0
LINE
  5
7AE9
  8
1
  6
CONTINUOUS
 10
-432.80195300000003
 20
-354.32052499999992
 30
0.0
 11
-432.80195300000003
 21
-72.220524999999995
 31
0.0
  0
LINE
  5
7AEA
  8
1
  6
CONTINUOUS
 10
-544.80195300000003
 20
-72.220524999999995
 30
0.0
 11
-544.80195300000003
 21
-354.32052499999992
 31
0.0
  0
LINE
  5
7AEB
  8
1
  6
CONTINUOUS
 10
-424.80195300000003
 20
-332.22052500000001
 30
0.0
 11
-433.201953
 21
-332.22052500000001
 31
0.0
  0
ARC
  5
7AEC
  8
1
  6
CONTINUOUS
 10
-444.80195300000003
 20
-354.32052499999992
 30
0.0
 40
12.0
 50
270.0
 51
0.0
  0
ARC
  5
7AED
  8
1
  6
CONTINUOUS
 10
-532.80195300000003
 20
-354.32052499999992
 30
0.0
 40
12.0
 50
180.0
 51
270.0
  0
LINE
  5
7AEE
  8
1
  6
CONTINUOUS
 10
-552.40195300000005
 20
-332.22052500000001
 30
0.0
 11
-544.40195300000005
 21
-332.22052500000001
 31
0.0
  0
LINE
  5
7AEF
  8
1
  6
CONTINUOUS
 10
-532.80195300000003
 20
-366.32052499999992
 30
0.0
 11
-444.80195300000003
 21
-366.32052499999992
 31
0.0
  0
LINE
  5
7AF0
  8
1
  6
CONTINUOUS
 10
-452.80195300000003
 20
-417.22052500000001
 30
0.0
 11
-452.80195300000003
 21
-467.22052500000001
 31
0.0
  0
LINE
  5
7AF1
  8
1
  6
CONTINUOUS
 10
-424.80195300000003
 20
-132.22052500000001
 30
0.0
 11
-433.201953
 21
-132.22052500000001
 31
0.0
  0
LINE
  5
7AF2
  8
1
  6
CONTINUOUS
 10
-544.80195300000003
 20
-232.22052500000001
 30
0.0
 11
-432.80195300000003
 21
-232.22052500000001
 31
0.0
  0
LINE
  5
7AF3
  8
1
  6
CONTINUOUS
 10
-432.80195300000003
 20
-72.220524999999995
 30
0.0
 11
-544.80195300000003
 21
-72.220524999999995
 31
0.0
  0
LINE
  5
7AF4
  8
1
  6
CONTINUOUS
 10
-432.80195300000003
 20
-232.22052500000001
 30
0.0
 11
-544.80195300000003
 21
-72.220524999999995
 31
0.0
  0
LINE
  5
7AF5
  8
1
  6
CONTINUOUS
 10
-432.80195300000003
 20
-72.220524999999995
 30
0.0
 11
-544.80195300000003
 21
-232.22052500000001
 31
0.0
  0
LINE
  5
7AF6
  8
1
  6
CONTINUOUS
 10
-552.40195300000005
 20
-132.22052500000001
 30
0.0
 11
-544.40195300000005
 21
-132.22052500000001
 31
0.0
  0
LINE
  5
7AF7
  8
2
  6
CENTER
 10
-993.701457
 20
572.00965799999994
 30
0.0
 11
-1627.3327999999999
 21
572.00965799999994
 31
0.0
  0
LINE
  5
7AF8
  8
2
  6
CENTER
 10
-488.80195300000003
 20
-16.687553000000001
 30
0.0
 11
-488.80195300000003
 21
-521.59678399999984
 31
0.0
  0
LINE
  5
7AF9
  8
2
  6
CENTER
 10
-1449.413669
 20
353.48261899999989
 30
0.0
 11
-1449.413669
 21
741.63498800000002
 31
0.0
  0
LINE
  5
7AFA
  8
2
  6
CENTER
 10
-1247.193176
 20
-232.22052500000001
 30
0.0
 11
-1645.426277
 21
-232.22052500000001
 31
0.0
  0
LINE
  5
7AFB
  8
4
  6
CONTINUOUS
 10
-192.35711499999991
 20
-888.2110439999999
 30
0.0
 11
-192.35711499999999
 21
-1088.2110439999999
 31
0.0
  0
LINE
  5
7AFC
  8
4
  6
CONTINUOUS
 10
-892.35711500000002
 20
-888.2110439999999
 30
0.0
 11
-892.35711499999991
 21
-1088.2110439999999
 31
0.0
  0
LINE
  5
7AFD
  8
4
  6
CONTINUOUS
 10
-1392.357115
 20
-888.2110439999999
 30
0.0
 11
-1392.357115
 21
-1088.2110439999999
 31
0.0
  0
LINE
  5
7B00
  8
4
  6
CONTINUOUS
 10
-1392.357115
 20
-1088.2110439999999
 30
0.0
 11
-192.35711499999991
 21
-1088.2110439999999
 31
0.0
  0
LINE
  5
7B01
  8
4
  6
CONTINUOUS
 10
-1392.357115
 20
-988.2110439999999
 30
0.0
 11
-192.35711499999991
 21
-988.2110439999999
 31
0.0
  0
TEXT
  5
7B02
  8
4
  6
CONTINUOUS
 10
-1353.8550339999999
 20
-956.66801899999984
 30
0.0
 40
50.0
  1
機器名称
  0
TEXT
  5
7B03
  8
4
  6
CONTINUOUS
 10
-1356.099009
 20
-1066.5658880000001
 30
0.0
 40
50.0
  1
機器型番
  0
TEXT
  5
7B04
  8
4
  6
CONTINUOUS
 10
-863.79771500000015
 20
-966.45387300000004
 30
0.0
 40
45.0
  1
ミツヤニューマルチファン
  0
TEXT
  5
7B05
  8
4
  6
CONTINUOUS
 10
-855.70261900000003
 20
-1071.0514599999999
 30
0.0
 40
50.0
  1
NM#1-1
  0
TEXT
  5
7B07
  8
4
  6
CONTINUOUS
 10
-1137.5713490000001
 20
995.21779700000013
 30
0.0
 40
54.0
  1
床置ベット
  0
TEXT
  5
7B08
  8
4
  6
CONTINUOUS
 10
-1726.189521
 20
1145.669932
 30
0.0
 40
72.0
  1
ベルト駆動式片吸込片持多翼ファン
  0
LINE
  5
7B09
  8
4
  6
CONTINUOUS
 10
-1792.3571149999991
 20
1081.1977099999999
 30
0.0
 11
-192.35711499999991
 21
1081.1977099999999
 31
0.0
  0
LINE
  5
7B0A
  8
4
  6
CONTINUOUS
 10
-1792.3571149999991
 20
1281.1977099999999
 30
0.0
 11
-192.35711499999991
 21
1281.1977099999999
 31
0.0
  0
LINE
  5
7B0B
  8
4
  6
CONTINUOUS
 10
-1392.357115
 20
-888.2110439999999
 30
0.0
 11
-192.35711499999991
 21
-888.2110439999999
 31
0.0
  0
LINE
  5
7B0C
  8
4
  6
CONTINUOUS
 10
-1792.3571149999991
 20
1281.1977099999999
 30
0.0
 11
-1792.3571149999991
 21
1081.1977099999999
 31
0.0
  0
TEXT
  5
7B0D
  8
4
  6
CONTINUOUS
 10
-1573.4301820000001
 20
994.10843299999999
 30
0.0
 40
54.0
  1
左回転左横向
  0
TEXT
  5
7B0E
  8
4
  6
CONTINUOUS
 10
-573.38755500000002
 20
1317.8500369999999
 30
0.0
 40
56.0
  1
No.
  0
TEXT
  5
7B0F
  8
4
  6
CONTINUOUS
 10
-731.0610519999999
 20
995.21779700000013
 30
0.0
 40
54.0
  1
縮尺：1/10
  0
LINE
  5
7B10
  8
4
  6
CONTINUOUS
 10
-192.35711499999991
 20
1281.1977099999999
 30
0.0
 11
-192.35711499999991
 21
1081.1977099999999
 31
0.0
  0
LINE
  5
7B12
  8
4
  6
CONTINUOUS
 10
-601.73969199999999
 20
1293.052539
 30
0.0
 11
-601.73969199999999
 21
1398.4412170000001
 31
0.0
  0
LINE
  5
7B13
  8
4
  6
CONTINUOUS
 10
-601.73969199999999
 20
1398.4412170000001
 30
0.0
 11
-192.35711499999991
 21
1398.4412170000001
 31
0.0
  0
LINE
  5
7B14
  8
4
  6
CONTINUOUS
 10
-192.35711499999991
 20
1398.4412170000001
 30
0.0
 11
-192.35711499999991
 21
1293.052539
 31
0.0
  0
LINE
  5
7B15
  8
4
  6
CONTINUOUS
 10
-192.35711499999991
 20
1293.052539
 30
0.0
 11
-601.73969199999999
 21
1293.052539
 31
0.0
  0
DIMENSION
  5
7B2E
  8
3
  6
CONTINUOUS
  2
*D1
 10
-1449.413669
 20
-547.53458999999998
 30
0.0
 11
-1515.1279549999999
 21
-547.53458999999998
 31
0.0
 70
   128
 13
-1584.413669
 23
-467.22052500000001
 33
0.0
 14
-1449.413669
 24
-475.13419800000003
 34
0.0
1001
ACAD
1000
DSTYLE
1002
{
1070
   287
1070
     3
1070
   287
1070
     3
1070
    40
1040
10.0
1070
   143
1040
0.039
1070
   172
1070
     1
1070
   271
1070
     0
1070
   279
1070
     0
1070
   288
1070
     1
1002
}
  0
DIMENSION
  5
7B3A
  8
3
  6
CONTINUOUS
  2
*D2
 10
-1024.413669
 20
-547.53458999999998
 30
0.0
 11
-1236.913669
 21
-522.53458999999998
 31
0.0
 70
     0
 13
-1449.413669
 23
-475.13419800000003
 33
0.0
 14
-1024.413669
 24
-467.22052500000001
 34
0.0
1001
ACAD
1000
DSTYLE
1002
{
1070
   287
1070
     4
1070
   287
1070
     4
1070
    40
1040
10.0
1070
    75
1070
     1
1070
   143
1040
0.039
1070
   172
1070
     1
1070
   271
1070
     0
1070
   279
1070
     1
1070
   288
1070
     1
1002
}
  0
DIMENSION
  5
7B96
  8
3
  6
CONTINUOUS
  2
*D3
 10
-488.80195300000003
 20
-537.22767199999998
 30
0.0
 11
-587.43184099999985
 21
-537.22767199999998
 31
0.0
 70
   128
 13
-676.80195300000003
 23
-467.22052500000001
 33
0.0
 14
-488.80195300000003
 24
-473.95083699999998
 34
0.0
1001
ACAD
1000
DSTYLE
1002
{
1070
   287
1070
     3
1070
   287
1070
     3
1070
    40
1040
10.0
1070
   143
1040
0.039
1070
   172
1070
     1
1070
   271
1070
     0
1070
   279
1070
     0
1070
   288
1070
     1
1002
}
  0
DIMENSION
  5
7BA6
  8
3
  6
CONTINUOUS
  2
*D4
 10
-452.80195300000003
 20
-537.22767199999998
 30
0.0
 11
-412.90734099999997
 21
-537.56623699999989
 31
0.0
 70
   128
 13
-488.80195300000003
 23
-473.95083699999998
 33
0.0
 14
-452.80195300000003
 24
-467.22052500000001
 34
0.0
1001
ACAD
1000
DSTYLE
1002
{
1070
   287
1070
     4
1070
   287
1070
     4
1070
    40
1040
10.0
1070
    75
1070
     1
1070
   143
1040
0.039
1070
   172
1070
     1
1070
   271
1070
     0
1070
   279
1070
     1
1070
   288
1070
     1
1002
}
  0
DIMENSION
  5
7BE1
  8
3
  6
CONTINUOUS
  2
*D5
 10
-432.80195300000003
 20
-19.148553
 30
0.0
 11
-488.80195300000003
 21
0.7579563350909666
 31
0.0
 70
   128
 13
-544.80195300000003
 23
-72.220524999999995
 33
0.0
 14
-432.80195300000003
 24
-72.220524999999995
 34
0.0
1001
ACAD
1000
DSTYLE
1002
{
1070
   288
1070
     1
1070
   172
1070
     1
1070
    40
1040
10.0
1070
   271
1070
     0
1070
   143
1040
0.039
1002
}
  0
DIMENSION
  5
7BEE
  8
3
  6
CONTINUOUS
  2
*D6
 10
-488.80195300000003
 20
49.401350000000001
 30
0.0
 11
-616.44609400000002
 21
49.401350000000001
 31
0.0
 70
   128
  1
MAX\P260
 13
-748.80195300000003
 23
-137.22052500000001
 33
0.0
 14
-488.80195300000003
 24
25.678495000000002
 34
0.0
1001
ACAD
1000
DSTYLE
1002
{
1070
   287
1070
     3
1070
   287
1070
     3
1070
    40
1040
10.0
1070
   143
1040
0.039
1070
   172
1070
     1
1070
   271
1070
     0
1070
   279
1070
     0
1070
   288
1070
     1
1002
}
  0
DIMENSION
  5
7C5E
  8
3
  6
CONTINUOUS
  2
*D7
 10
-916.34905399999968
 20
460.00965799999989
 30
0.0
 11
-916.34905399999991
 21
572.22950400000002
 31
0.0
 70
   128
 13
-1024.413669
 23
684.00965799999994
 33
0.0
 14
-1024.413669
 24
460.00965799999989
 34
0.0
 50
90.0
1001
ACAD
1000
DSTYLE
1002
{
1070
   287
1070
     3
1070
   287
1070
     3
1070
    40
1040
10.0
1070
   143
1040
0.039
1070
   172
1070
     1
1070
   271
1070
     0
1070
   279
1070
     0
1070
   288
1070
     1
1002
}
  0
DIMENSION
  5
7C6B
  8
3
  6
CONTINUOUS
  2
*D8
 10
-1024.413669
 20
282.75994100000003
 30
0.0
 11
-1314.631623
 21
282.75994100000003
 31
0.0
 70
   128
 13
-1584.413669
 23
460.00965799999989
 33
0.0
 14
-1024.413669
 24
460.00965799999989
 34
0.0
1001
ACAD
1000
DSTYLE
1002
{
1070
   287
1070
     3
1070
   287
1070
     3
1070
    40
1040
10.0
1070
   143
1040
0.039
1070
   172
1070
     1
1070
   271
1070
     0
1070
   279
1070
     0
1070
   288
1070
     1
1002
}
  0
DIMENSION
  5
7C81
  8
3
  6
CONTINUOUS
  2
*D9
 10
-1644.663831999999
 20
-72.220524999999981
 30
0.0
 11
-1669.663831999999
 21
-152.22052500000021
 31
0.0
 70
     0
 13
-1578.413669
 23
-232.22052500000001
 33
0.0
 14
-1579.413669
 24
-72.220524999999995
 34
0.0
 50
90.0
1001
ACAD
1000
DSTYLE
1002
{
1070
   287
1070
     4
1070
   287
1070
     4
1070
    40
1040
10.0
1070
    75
1070
     1
1070
   143
1040
0.039
1070
   172
1070
     1
1070
   271
1070
     0
1070
   279
1070
     1
1070
   288
1070
     1
1002
}
  0
DIMENSION
  5
7C90
  8
3
  6
CONTINUOUS
  2
*D10
 10
-1449.413669
 20
24.77979599999999
 30
0.0
 11
-1514.413669
 21
48.18023544164771
 31
0.0
 70
   128
 13
-1579.413669
 23
-50.220525000000002
 33
0.0
 14
-1449.413669
 24
-28.94222199999999
 34
0.0
1001
ACAD
1000
DSTYLE
1002
{
1070
   288
1070
     1
1070
   172
1070
     1
1070
    40
1040
10.0
1070
   271
1070
     0
1070
   143
1040
0.039
1002
}
  0
DIMENSION
  5
7CB6
  8
3
  6
CONTINUOUS
  2
*D11
 10
-1304.413669
 20
24.77979599999999
 30
0.0
 11
-1376.913669
 21
49.779795999999997
 31
0.0
 70
     0
 13
-1449.413669
 23
-28.94222199999999
 33
0.0
 14
-1304.413669
 24
-219.22052500000001
 34
0.0
1001
ACAD
1000
DSTYLE
1002
{
1070
   287
1070
     4
1070
   287
1070
     4
1070
    40
1040
10.0
1070
    75
1070
     1
1070
   143
1040
0.039
1070
   172
1070
     1
1070
   271
1070
     0
1070
   279
1070
     1
1070
   288
1070
     1
1002
}
  0
DIMENSION
  5
7D20
  8
3
  6
CONTINUOUS
  2
*D12
 10
-424.80195300000003
 20
49.401350000000001
 30
0.0
 11
-454.775082
 21
52.620414000000011
 31
0.0
 70
   128
 13
-488.80195300000003
 23
25.678495000000002
 33
0.0
 14
-424.80195300000003
 24
-132.22052500000001
 34
0.0
1001
ACAD
1000
DSTYLE
1002
{
1070
   287
1070
     4
1070
   287
1070
     4
1070
    40
1040
10.0
1070
    75
1070
     1
1070
   143
1040
0.039
1070
   172
1070
     1
1070
   271
1070
     0
1070
   279
1070
     1
1070
   288
1070
     1
1002
}
  0
DIMENSION
  5
7D39
  8
3
  6
CONTINUOUS
  2
*D13
 10
-346.59761400000002
 20
-312.22052500000001
 30
0.0
 11
-369.04715880843469
 21
-232.22052500000001
 31
0.0
 70
   128
 13
-424.80195300000003
 23
-152.22052500000001
 33
0.0
 14
-424.80195300000003
 24
-312.22052500000001
 34
0.0
 50
90.0
1001
ACAD
1000
DSTYLE
1002
{
1070
   288
1070
     1
1070
   172
1070
     1
1070
    40
1040
10.0
1070
     3
1000
φ<>
1070
   271
1070
     0
1070
   143
1040
0.039
1002
}
  0
DIMENSION
  5
7D6A
  8
3
  6
CONTINUOUS
  2
*D14
 10
-1701.6457289999989
 20
-232.2205249999999
 30
0.0
 11
-1701.6457289999989
 21
-151.06115600000001
 31
0.0
 70
   128
 13
-1564.413669
 23
-61.220525000000002
 33
0.0
 14
-1579.413669
 24
-232.22052500000001
 34
0.0
 50
90.0
1001
ACAD
1000
DSTYLE
1002
{
1070
   287
1070
     3
1070
   287
1070
     3
1070
    40
1040
10.0
1070
   143
1040
0.039
1070
   172
1070
     1
1070
   271
1070
     0
1070
   279
1070
     0
1070
   288
1070
     1
1002
}
  0
DIMENSION
  5
7D76
  8
3
  6
CONTINUOUS
  2
*D15
 10
-1701.6457289999989
 20
-467.2205249999999
 30
0.0
 11
-1726.6457289999989
 21
-349.72052500000018
 31
0.0
 70
     0
 13
-1579.413669
 23
-232.22052500000001
 33
0.0
 14
-1584.413669
 24
-467.22052500000001
 34
0.0
 50
90.0
1001
ACAD
1000
DSTYLE
1002
{
1070
   287
1070
     4
1070
   287
1070
     4
1070
    40
1040
10.0
1070
    75
1070
     1
1070
   143
1040
0.039
1070
   172
1070
     1
1070
   271
1070
     0
1070
   279
1070
     1
1070
   288
1070
     1
1002
}
  0
DIMENSION
  5
7DC9
  8
3
  6
CONTINUOUS
  2
*D16
 10
-1766.6875640000001
 20
-467.2205249999999
 30
0.0
 11
-1766.6875640000001
 21
-262.85352899999992
 31
0.0
 70
   128
 13
-1579.413669
 23
-50.220525000000002
 33
0.0
 14
-1584.413669
 24
-467.22052500000001
 34
0.0
 50
90.0
1001
ACAD
1000
DSTYLE
1002
{
1070
   287
1070
     3
1070
   287
1070
     3
1070
    40
1040
10.0
1070
   143
1040
0.039
1070
   172
1070
     1
1070
   271
1070
     0
1070
   279
1070
     0
1070
   288
1070
     1
1002
}
  0
DIMENSION
  5
7E3A
  8
3
  6
CONTINUOUS
  2
*D17
 10
-1024.413669
 20
79.107810343102756
 30
0.0
 11
-1295.577142023488
 21
79.107810343102756
 31
0.0
 70
   128
 13
-1579.413669
 23
-50.220525000000002
 33
0.0
 14
-1024.413669
 24
-417.22052500000001
 34
0.0
1001
ACAD
1000
DSTYLE
1002
{
1070
   287
1070
     3
1070
   287
1070
     3
1070
    40
1040
10.0
1070
   143
1040
0.039
1070
   172
1070
     1
1070
   271
1070
     0
1070
   279
1070
     0
1070
   288
1070
     1
1002
}
  0
ENDSEC
  0
EOF
