  0
SECTION
  2
HEADER
  9
$ACADVER
  1
AC1027
  9
$ACADMAINTVER
 70
    81
  9
$DWGCODEPAGE
  3
ANSI_932
  9
$LASTSAVEDBY
  1
reiko.miyawaki
  9
$REQUIREDVERSIONS
160
                 0
  9
$INSBASE
 10
0.0
 20
0.0
 30
0.0
  9
$EXTMIN
 10
-4037.658269417891
 20
-2577.266633
 30
0.0
  9
$EXTMAX
 10
-2424.653248
 20
-90.61437099999999
 30
0.0
  9
$LIMMIN
 10
0.0
 20
0.0
  9
$LIMMAX
 10
297.0
 20
210.0
  9
$ORTHOMODE
 70
     0
  9
$REGENMODE
 70
     1
  9
$FILLMODE
 70
     0
  9
$QTEXTMODE
 70
     0
  9
$MIRRTEXT
 70
     1
  9
$LTSCALE
 40
100.0
  9
$ATTMODE
 70
     1
  9
$TEXTSIZE
 40
180.0
  9
$TRACEWID
 40
0.05
  9
$TEXTSTYLE
  7
STANDARD
  9
$CLAYER
  8
3
  9
$CELTYPE
  6
BYLAYER
  9
$CECOLOR
 62
   256
  9
$CELTSCALE
 40
1.0
  9
$DISPSILH
 70
     0
  9
$DIMSCALE
 40
10.0
  9
$DIMASZ
 40
2.0
  9
$DIMEXO
 40
0.5
  9
$DIMDLI
 40
10.0
  9
$DIMRND
 40
0.0
  9
$DIMDLE
 40
0.0
  9
$DIMEXE
 40
1.0
  9
$DIMTP
 40
1.0
  9
$DIMTM
 40
1.0
  9
$DIMTXT
 40
3.0
  9
$DIMCEN
 40
0.0
  9
$DIMTSZ
 40
0.0
  9
$DIMTOL
 70
     0
  9
$DIMLIM
 70
     0
  9
$DIMTIH
 70
     0
  9
$DIMTOH
 70
     0
  9
$DIMSE1
 70
     0
  9
$DIMSE2
 70
     0
  9
$DIMTAD
 70
     1
  9
$DIMZIN
 70
     8
  9
$DIMBLK
  1

  9
$DIMASO
 70
     1
  9
$DIMSHO
 70
     1
  9
$DIMPOST
  1
(<>)
  9
$DIMAPOST
  1

  9
$DIMALT
 70
     0
  9
$DIMALTD
 70
     2
  9
$DIMALTF
 40
0.039
  9
$DIMLFAC
 40
1.0
  9
$DIMTOFL
 70
     1
  9
$DIMTVP
 40
0.0
  9
$DIMTIX
 70
     0
  9
$DIMSOXD
 70
     0
  9
$DIMSAH
 70
     1
  9
$DIMBLK1
  1
OPEN
  9
$DIMBLK2
  1
OPEN
  9
$DIMSTYLE
  2
IGA
  9
$DIMCLRD
 70
     0
  9
$DIMCLRE
 70
     0
  9
$DIMCLRT
 70
     0
  9
$DIMTFAC
 40
10.0
  9
$DIMGAP
 40
1.0
  9
$DIMJUST
 70
     0
  9
$DIMSD1
 70
     0
  9
$DIMSD2
 70
     0
  9
$DIMTOLJ
 70
     1
  9
$DIMTZIN
 70
     8
  9
$DIMALTZ
 70
     0
  9
$DIMALTTZ
 70
     0
  9
$DIMUPT
 70
     0
  9
$DIMDEC
 70
     0
  9
$DIMTDEC
 70
     0
  9
$DIMALTU
 70
     2
  9
$DIMALTTD
 70
     2
  9
$DIMTXSTY
  7
STANDARD
  9
$DIMAUNIT
 70
     0
  9
$DIMADEC
 70
     0
  9
$DIMALTRND
 40
0.0
  9
$DIMAZIN
 70
     0
  9
$DIMDSEP
 70
    46
  9
$DIMATFIT
 70
     3
  9
$DIMFRAC
 70
     0
  9
$DIMLDRBLK
  1
OPEN
  9
$DIMLUNIT
 70
     2
  9
$DIMLWD
 70
    -2
  9
$DIMLWE
 70
    -2
  9
$DIMTMOVE
 70
     0
  9
$DIMFXL
 40
1.0
  9
$DIMFXLON
 70
     0
  9
$DIMJOGANG
 40
0.7853981633974483
  9
$DIMTFILL
 70
     0
  9
$DIMTFILLCLR
 70
     0
  9
$DIMARCSYM
 70
     0
  9
$DIMLTYPE
  6

  9
$DIMLTEX1
  6

  9
$DIMLTEX2
  6

  9
$DIMTXTDIRECTION
 70
     0
  9
$LUNITS
 70
     2
  9
$LUPREC
 70
     3
  9
$SKETCHINC
 40
0.1
  9
$FILLETRAD
 40
50.0
  9
$AUNITS
 70
     0
  9
$AUPREC
 70
     0
  9
$MENU
  1
acad
  9
$ELEVATION
 40
0.0
  9
$PELEVATION
 40
0.0
  9
$THICKNESS
 40
0.0
  9
$LIMCHECK
 70
     0
  9
$CHAMFERA
 40
0.5
  9
$CHAMFERB
 40
0.5
  9
$CHAMFERC
 40
20.0
  9
$CHAMFERD
 40
0.0
  9
$SKPOLY
 70
     0
  9
$TDCREATE
 40
2450737.343071296
  9
$TDUCREATE
 40
2450736.968071296
  9
$TDUPDATE
 40
2459024.535647569
  9
$TDUUPDATE
 40
2459024.160647569
  9
$TDINDWG
 40
0.0348978819
  9
$TDUSRTIMER
 40
0.0348978819
  9
$USRTIMER
 70
     1
  9
$ANGBASE
 50
0.0
  9
$ANGDIR
 70
     0
  9
$PDMODE
 70
     0
  9
$PDSIZE
 40
0.0
  9
$PLINEWID
 40
0.0
  9
$SPLFRAME
 70
     0
  9
$SPLINETYPE
 70
     6
  9
$SPLINESEGS
 70
     8
  9
$HANDSEED
  5
82DC
  9
$SURFTAB1
 70
     6
  9
$SURFTAB2
 70
     6
  9
$SURFTYPE
 70
     6
  9
$SURFU
 70
     6
  9
$SURFV
 70
     6
  9
$UCSBASE
  2

  9
$UCSNAME
  2

  9
$UCSORG
 10
0.0
 20
0.0
 30
0.0
  9
$UCSXDIR
 10
1.0
 20
0.0
 30
0.0
  9
$UCSYDIR
 10
0.0
 20
1.0
 30
0.0
  9
$UCSORTHOREF
  2

  9
$UCSORTHOVIEW
 70
     0
  9
$UCSORGTOP
 10
0.0
 20
0.0
 30
0.0
  9
$UCSORGBOTTOM
 10
0.0
 20
0.0
 30
0.0
  9
$UCSORGLEFT
 10
0.0
 20
0.0
 30
0.0
  9
$UCSORGRIGHT
 10
0.0
 20
0.0
 30
0.0
  9
$UCSORGFRONT
 10
0.0
 20
0.0
 30
0.0
  9
$UCSORGBACK
 10
0.0
 20
0.0
 30
0.0
  9
$PUCSBASE
  2

  9
$PUCSNAME
  2

  9
$PUCSORG
 10
0.0
 20
0.0
 30
0.0
  9
$PUCSXDIR
 10
1.0
 20
0.0
 30
0.0
  9
$PUCSYDIR
 10
0.0
 20
1.0
 30
0.0
  9
$PUCSORTHOREF
  2

  9
$PUCSORTHOVIEW
 70
     0
  9
$PUCSORGTOP
 10
0.0
 20
0.0
 30
0.0
  9
$PUCSORGBOTTOM
 10
0.0
 20
0.0
 30
0.0
  9
$PUCSORGLEFT
 10
0.0
 20
0.0
 30
0.0
  9
$PUCSORGRIGHT
 10
0.0
 20
0.0
 30
0.0
  9
$PUCSORGFRONT
 10
0.0
 20
0.0
 30
0.0
  9
$PUCSORGBACK
 10
0.0
 20
0.0
 30
0.0
  9
$USERI1
 70
     0
  9
$USERI2
 70
     0
  9
$USERI3
 70
     0
  9
$USERI4
 70
     0
  9
$USERI5
 70
     0
  9
$USERR1
 40
0.0
  9
$USERR2
 40
0.0
  9
$USERR3
 40
0.0
  9
$USERR4
 40
0.0
  9
$USERR5
 40
0.0
  9
$WORLDVIEW
 70
     1
  9
$SHADEDGE
 70
     3
  9
$SHADEDIF
 70
    70
  9
$TILEMODE
 70
     1
  9
$MAXACTVP
 70
    16
  9
$PINSBASE
 10
0.0
 20
0.0
 30
0.0
  9
$PLIMCHECK
 70
     0
  9
$PEXTMIN
 10
1.000000000000000E+20
 20
1.000000000000000E+20
 30
1.000000000000000E+20
  9
$PEXTMAX
 10
-1.000000000000000E+20
 20
-1.000000000000000E+20
 30
-1.000000000000000E+20
  9
$PLIMMIN
 10
0.0
 20
0.0
  9
$PLIMMAX
 10
12.0
 20
9.0
  9
$UNITMODE
 70
     0
  9
$VISRETAIN
 70
     0
  9
$PLINEGEN
 70
     0
  9
$PSLTSCALE
 70
     1
  9
$TREEDEPTH
 70
  3020
  9
$CMLSTYLE
  2
STANDARD
  9
$CMLJUST
 70
     0
  9
$CMLSCALE
 40
20.0
  9
$PROXYGRAPHICS
 70
     1
  9
$MEASUREMENT
 70
     0
  9
$CELWEIGHT
370
    -1
  9
$ENDCAPS
280
     0
  9
$JOINSTYLE
280
     0
  9
$LWDISPLAY
290
     0
  9
$INSUNITS
 70
     0
  9
$HYPERLINKBASE
  1

  9
$STYLESHEET
  1

  9
$XEDIT
290
     1
  9
$CEPSNTYPE
380
     0
  9
$PSTYLEMODE
290
     1
  9
$FINGERPRINTGUID
  2
{FD711D80-760F-445A-B49F-D98FA0E6F757}
  9
$VERSIONGUID
  2
{2C0A65FB-B7A6-41B5-A680-9B855D087F53}
  9
$EXTNAMES
290
     1
  9
$PSVPSCALE
 40
0.0
  9
$OLESTARTUP
290
     0
  9
$SORTENTS
280
   127
  9
$INDEXCTL
280
     0
  9
$HIDETEXT
280
     0
  9
$XCLIPFRAME
280
     2
  9
$HALOGAP
280
     0
  9
$OBSCOLOR
 70
   257
  9
$OBSLTYPE
280
     0
  9
$INTERSECTIONDISPLAY
280
     0
  9
$INTERSECTIONCOLOR
 70
   257
  9
$DIMASSOC
280
     1
  9
$PROJECTNAME
  1

  9
$CAMERADISPLAY
290
     0
  9
$LENSLENGTH
 40
50.0
  9
$CAMERAHEIGHT
 40
0.0
  9
$STEPSPERSEC
 40
2.0
  9
$STEPSIZE
 40
6.0
  9
$3DDWFPREC
 40
2.0
  9
$PSOLWIDTH
 40
0.25
  9
$PSOLHEIGHT
 40
4.0
  9
$LOFTANG1
 40
1.570796326794896
  9
$LOFTANG2
 40
1.570796326794896
  9
$LOFTMAG1
 40
0.0
  9
$LOFTMAG2
 40
0.0
  9
$LOFTPARAM
 70
     7
  9
$LOFTNORMALS
280
     1
  9
$LATITUDE
 40
37.795
  9
$LONGITUDE
 40
-122.394
  9
$NORTHDIRECTION
 40
0.0
  9
$TIMEZONE
 70
 -8000
  9
$LIGHTGLYPHDISPLAY
280
     1
  9
$TILEMODELIGHTSYNCH
280
     1
  9
$CMATERIAL
347
7F29
  9
$SOLIDHIST
280
     0
  9
$SHOWHIST
280
     1
  9
$DWFFRAME
280
     2
  9
$DGNFRAME
280
     0
  9
$REALWORLDSCALE
290
     1
  9
$INTERFERECOLOR
 62
     1
  9
$INTERFEREOBJVS
345
7F4B
  9
$INTERFEREVPVS
346
7F48
  9
$CSHADOW
280
     0
  9
$SHADOWPLANELOCATION
 40
0.0
  0
ENDSEC
  0
SECTION
  2
CLASSES
  0
CLASS
  1
ACDBDICTIONARYWDFLT
  2
AcDbDictionaryWithDefault
  3
ObjectDBX Classes
 90
        0
 91
        1
280
     0
281
     0
  0
CLASS
  1
DICTIONARYVAR
  2
AcDbDictionaryVar
  3
ObjectDBX Classes
 90
        0
 91
       10
280
     0
281
     0
  0
CLASS
  1
MATERIAL
  2
AcDbMaterial
  3
ObjectDBX Classes
 90
     1153
 91
        3
280
     0
281
     0
  0
CLASS
  1
VISUALSTYLE
  2
AcDbVisualStyle
  3
ObjectDBX Classes
 90
     4095
 91
       24
280
     0
281
     0
  0
CLASS
  1
TABLESTYLE
  2
AcDbTableStyle
  3
ObjectDBX Classes
 90
     4095
 91
        1
280
     0
281
     0
  0
CLASS
  1
SCALE
  2
AcDbScale
  3
ObjectDBX Classes
 90
     1153
 91
       17
280
     0
281
     0
  0
CLASS
  1
MLEADERSTYLE
  2
AcDbMLeaderStyle
  3
ACDB_MLEADERSTYLE_CLASS
 90
     4095
 91
        1
280
     0
281
     0
  0
CLASS
  1
ACDBSECTIONVIEWSTYLE
  2
AcDbSectionViewStyle
  3
ObjectDBX Classes
 90
     1025
 91
        1
280
     0
281
     0
  0
CLASS
  1
ACDBDETAILVIEWSTYLE
  2
AcDbDetailViewStyle
  3
ObjectDBX Classes
 90
     1025
 91
        1
280
     0
281
     0
  0
CLASS
  1
SORTENTSTABLE
  2
AcDbSortentsTable
  3
ObjectDBX Classes
 90
        0
 91
        2
280
     0
281
     0
  0
CLASS
  1
CELLSTYLEMAP
  2
AcDbCellStyleMap
  3
ObjectDBX Classes
 90
     1152
 91
        1
280
     0
281
     0
  0
ENDSEC
  0
SECTION
  2
TABLES
  0
TABLE
  2
VPORT
  5
8
330
0
100
AcDbSymbolTable
 70
     1
  0
VPORT
  5
7F26
330
8
100
AcDbSymbolTableRecord
100
AcDbViewportTableRecord
  2
*Active
 70
     0
 10
0.0
 20
0.0
 11
1.0
 21
1.0
 12
-3231.135595395342
 22
-1274.464987521366
 13
0.0
 23
0.0
 14
10.0
 24
10.0
 15
10.0
 25
10.0
 16
0.0
 26
0.0
 36
1.0
 17
0.0
 27
0.0
 37
0.0
 40
2623.056384898913
 41
1.957107843137254
 42
50.0
 43
0.0
 44
0.0
 50
0.0
 51
0.0
 71
     0
 72
   100
 73
     1
 74
     0
 75
     0
 76
     0
 77
     0
 78
     0
281
     0
 65
     1
110
0.0
120
0.0
130
0.0
111
1.0
121
0.0
131
0.0
112
0.0
122
1.0
132
0.0
 79
     0
146
0.0
348
7F47
 60
     3
 61
     5
292
     1
282
     1
141
0.0
142
0.0
 63
   250
421
  3355443
1001
ACAD_NAV_VCDISPLAY
1070
     3
  0
ENDTAB
  0
TABLE
  2
LTYPE
  5
5
330
0
100
AcDbSymbolTable
 70
     2
  0
LTYPE
  5
13
330
5
100
AcDbSymbolTableRecord
100
AcDbLinetypeTableRecord
  2
BYBLOCK
 70
     0
  3

 72
    65
 73
     0
 40
0.0
  0
LTYPE
  5
14
330
5
100
AcDbSymbolTableRecord
100
AcDbLinetypeTableRecord
  2
BYLAYER
 70
     0
  3

 72
    65
 73
     0
 40
0.0
  0
LTYPE
  5
15
330
5
100
AcDbSymbolTableRecord
100
AcDbLinetypeTableRecord
  2
CONTINUOUS
 70
     0
  3
Solid line
 72
    65
 73
     0
 40
0.0
  0
LTYPE
  5
1F
330
5
100
AcDbSymbolTableRecord
100
AcDbLinetypeTableRecord
  2
CENTER
 70
     0
  3
____ _ ____ _ ____ _ ____ _ ____ _ ____ _ ____ 
 72
    65
 73
     4
 40
2.0
 49
1.25
 74
     0
 49
-0.25
 74
     0
 49
0.25
 74
     0
 49
-0.25
 74
     0
  0
ENDTAB
  0
TABLE
  2
LAYER
  5
2
102
{ACAD_XDICTIONARY
360
7FD0
102
}
330
0
100
AcDbSymbolTable
 70
     6
  0
LAYER
  5
F
102
{ACAD_XDICTIONARY
360
7FC3
102
}
330
2
100
AcDbSymbolTableRecord
100
AcDbLayerTableRecord
  2
0
 70
     0
 62
     7
  6
CONTINUOUS
370
    -3
390
7E67
347
7F39
348
0
  0
LAYER
  5
31
102
{ACAD_XDICTIONARY
360
7FC5
102
}
330
2
100
AcDbSymbolTableRecord
100
AcDbLayerTableRecord
  2
3
 70
     0
 62
     2
  6
CONTINUOUS
370
    -3
390
7E67
347
7F39
348
0
  0
LAYER
  5
76D0
102
{ACAD_XDICTIONARY
360
7FC7
102
}
330
2
100
AcDbSymbolTableRecord
100
AcDbLayerTableRecord
  2
2
 70
     0
 62
     3
  6
CENTER
370
    -3
390
7E67
347
7F39
348
0
  0
LAYER
  5
76D1
102
{ACAD_XDICTIONARY
360
7FC9
102
}
330
2
100
AcDbSymbolTableRecord
100
AcDbLayerTableRecord
  2
1
 70
     0
 62
     4
  6
CONTINUOUS
370
    -3
390
7E67
347
7F39
348
0
  0
LAYER
  5
76D2
102
{ACAD_XDICTIONARY
360
7FCB
102
}
330
2
100
AcDbSymbolTableRecord
100
AcDbLayerTableRecord
  2
4
 70
     0
 62
     7
  6
CONTINUOUS
370
    -3
390
7E67
347
7F39
348
0
  0
LAYER
  5
7B5E
330
2
100
AcDbSymbolTableRecord
100
AcDbLayerTableRecord
  2
DEFPOINTS
 70
     0
 62
     7
  6
CONTINUOUS
290
     0
370
    -3
390
7E67
347
7F39
348
0
  0
ENDTAB
  0
TABLE
  2
STYLE
  5
3
330
0
100
AcDbSymbolTable
 70
     1
  0
STYLE
  5
10
330
3
100
AcDbSymbolTableRecord
100
AcDbTextStyleTableRecord
  2
STANDARD
 70
     0
 40
0.0
 41
1.0
 50
0.0
 71
     0
 42
180.0
  3
simplex.shx
  4
extfont.shx
  0
ENDTAB
  0
TABLE
  2
VIEW
  5
6
330
0
100
AcDbSymbolTable
 70
     0
  0
ENDTAB
  0
TABLE
  2
UCS
  5
7
330
0
100
AcDbSymbolTable
 70
     0
  0
ENDTAB
  0
TABLE
  2
APPID
  5
9
330
0
100
AcDbSymbolTable
 70
     4
  0
APPID
  5
11
330
9
100
AcDbSymbolTableRecord
100
AcDbRegAppTableRecord
  2
ACAD
 70
     0
  0
APPID
  5
7F7A
330
9
100
AcDbSymbolTableRecord
100
AcDbRegAppTableRecord
  2
ACAD_NAV_VCDISPLAY
 70
     0
  0
APPID
  5
828A
330
9
100
AcDbSymbolTableRecord
100
AcDbRegAppTableRecord
  2
AcadAnnoMonitorAlertIconDisabled
 70
     0
  0
APPID
  5
828B
330
9
100
AcDbSymbolTableRecord
100
AcDbRegAppTableRecord
  2
ACAD_EXEMPT_FROM_CAD_STANDARDS
 70
     0
  0
ENDTAB
  0
TABLE
  2
DIMSTYLE
  5
A
330
0
100
AcDbSymbolTable
 70
     1
100
AcDbDimStyleTable
 71
     0
  0
DIMSTYLE
105
1D
102
{ACAD_REACTORS
330
7B63
330
7B70
330
7B7D
330
7B8C
330
7BB4
330
7BC0
330
7C2E
330
7C3B
330
7C48
330
7C54
330
7C63
330
7C70
330
7C7E
330
7CB2
330
7CFB
330
7D17
330
7E45
330
7E52
330
7E5F
102
}
330
A
100
AcDbSymbolTableRecord
100
AcDbDimStyleTableRecord
  2
IGA
 70
     0
 40
2.0
 41
2.0
 42
0.5
 43
10.0
 44
1.0
 47
1.0
 48
1.0
 73
     0
 74
     0
 77
     1
 78
     8
140
3.0
141
0.0
143
0.03937
146
10.0
147
1.0
173
     1
271
     1
272
     0
279
     2
284
     8
340
10
341
7B4F
343
7B4F
344
7B4F
  0
ENDTAB
  0
TABLE
  2
BLOCK_RECORD
  5
1
330
0
100
AcDbSymbolTable
 70
    25
  0
BLOCK_RECORD
  5
19
102
{ACAD_XDICTIONARY
360
7E95
102
}
330
1
100
AcDbSymbolTableRecord
100
AcDbBlockTableRecord
  2
*MODEL_SPACE
340
7E6A
 70
     0
280
     1
281
     0
  0
BLOCK_RECORD
  5
16
102
{ACAD_XDICTIONARY
360
7E93
102
}
330
1
100
AcDbSymbolTableRecord
100
AcDbBlockTableRecord
  2
*PAPER_SPACE
340
7E6B
 70
     0
280
     1
281
     0
  0
BLOCK_RECORD
  5
7B4F
330
1
100
AcDbSymbolTableRecord
100
AcDbBlockTableRecord
  2
_OPEN
340
0
102
{BLKREFS
331
7F86
331
7F87
331
7FA3
331
7FA4
331
7FAC
331
7FAD
331
7FB4
331
7FB5
331
8025
331
8256
331
8278
331
82AB
331
82AC
331
7D7E
331
7D7F
331
7DA1
331
7DA2
331
7DB7
331
7DB8
331
7DCD
331
7DCE
331
7EAF
331
7EB0
331
7EB7
331
7EB8
331
7EC0
331
7EC1
331
7EC9
331
7ECA
331
7EEC
331
7EED
331
7EF4
331
7EF5
331
7EFC
331
7EFD
331
7F7E
331
7F7F
102
}
 70
     0
280
     1
281
     0
  0
BLOCK_RECORD
  5
7B56
330
1
100
AcDbSymbolTableRecord
100
AcDbBlockTableRecord
  2
*D1
340
0
 70
     0
280
     1
281
     0
  0
BLOCK_RECORD
  5
7B65
330
1
100
AcDbSymbolTableRecord
100
AcDbBlockTableRecord
  2
*D2
340
0
 70
     0
280
     1
281
     0
  0
BLOCK_RECORD
  5
7B71
330
1
100
AcDbSymbolTableRecord
100
AcDbBlockTableRecord
  2
*D3
340
0
 70
     0
280
     1
281
     0
  0
BLOCK_RECORD
  5
7B7E
330
1
100
AcDbSymbolTableRecord
100
AcDbBlockTableRecord
  2
*D4
340
0
 70
     0
280
     1
281
     0
  0
BLOCK_RECORD
  5
7BA6
330
1
100
AcDbSymbolTableRecord
100
AcDbBlockTableRecord
  2
*D5
340
0
 70
     0
280
     1
281
     0
  0
BLOCK_RECORD
  5
7BB5
330
1
100
AcDbSymbolTableRecord
100
AcDbBlockTableRecord
  2
*D6
340
0
 70
     0
280
     1
281
     0
  0
BLOCK_RECORD
  5
7C22
330
1
100
AcDbSymbolTableRecord
100
AcDbBlockTableRecord
  2
*D7
340
0
 70
     0
280
     1
281
     0
  0
BLOCK_RECORD
  5
7C2F
330
1
100
AcDbSymbolTableRecord
100
AcDbBlockTableRecord
  2
*D8
340
0
 70
     0
280
     1
281
     0
  0
BLOCK_RECORD
  5
7C3C
330
1
100
AcDbSymbolTableRecord
100
AcDbBlockTableRecord
  2
*D9
340
0
 70
     0
280
     1
281
     0
  0
BLOCK_RECORD
  5
7C49
330
1
100
AcDbSymbolTableRecord
100
AcDbBlockTableRecord
  2
*D10
340
0
 70
     0
280
     1
281
     0
  0
BLOCK_RECORD
  5
7C55
330
1
100
AcDbSymbolTableRecord
100
AcDbBlockTableRecord
  2
*D11
340
0
 70
     0
280
     1
281
     0
  0
BLOCK_RECORD
  5
7C64
330
1
100
AcDbSymbolTableRecord
100
AcDbBlockTableRecord
  2
*D12
340
0
 70
     0
280
     1
281
     0
  0
BLOCK_RECORD
  5
7C71
330
1
100
AcDbSymbolTableRecord
100
AcDbBlockTableRecord
  2
*D13
340
0
 70
     0
280
     1
281
     0
  0
BLOCK_RECORD
  5
7CA6
330
1
100
AcDbSymbolTableRecord
100
AcDbBlockTableRecord
  2
*D14
340
0
 70
     0
280
     1
281
     0
  0
BLOCK_RECORD
  5
7CEF
330
1
100
AcDbSymbolTableRecord
100
AcDbBlockTableRecord
  2
*D15
340
0
 70
     0
280
     1
281
     0
  0
BLOCK_RECORD
  5
7D0C
330
1
100
AcDbSymbolTableRecord
100
AcDbBlockTableRecord
  2
*D16
340
0
 70
     0
280
     1
281
     0
  0
BLOCK_RECORD
  5
7DED
330
1
100
AcDbSymbolTableRecord
100
AcDbBlockTableRecord
  2
_DOT
340
0
102
{BLKREFS
331
8024
331
8277
102
}
 70
     0
280
     1
281
     0
  0
BLOCK_RECORD
  5
7E37
330
1
100
AcDbSymbolTableRecord
100
AcDbBlockTableRecord
  2
*D18
340
0
 70
     0
280
     1
281
     0
  0
BLOCK_RECORD
  5
7E46
330
1
100
AcDbSymbolTableRecord
100
AcDbBlockTableRecord
  2
*D19
340
0
 70
     0
280
     1
281
     0
  0
BLOCK_RECORD
  5
7E53
330
1
100
AcDbSymbolTableRecord
100
AcDbBlockTableRecord
  2
*D20
340
0
 70
     0
280
     1
281
     0
  0
BLOCK_RECORD
  5
7FF2
330
1
100
AcDbSymbolTableRecord
100
AcDbBlockTableRecord
  2
_DotSmall
340
0
 70
     0
280
     1
281
     0
  0
BLOCK_RECORD
  5
801E
330
1
100
AcDbSymbolTableRecord
100
AcDbBlockTableRecord
  2
*D22
340
0
 70
     0
280
     1
281
     0
  0
BLOCK_RECORD
  5
802A
102
{ACAD_XDICTIONARY
360
802C
102
}
330
1
100
AcDbSymbolTableRecord
100
AcDbBlockTableRecord
  2
A$C7BE51AB1
340
0
 70
     0
280
     1
281
     0
  0
BLOCK_RECORD
  5
81F2
330
1
100
AcDbSymbolTableRecord
100
AcDbBlockTableRecord
  2
_None
340
0
 70
     0
280
     1
281
     0
  0
ENDTAB
  0
ENDSEC
  0
SECTION
  2
BLOCKS
  0
BLOCK
  5
1A
330
19
100
AcDbEntity
  8
0
100
AcDbBlockBegin
  2
*MODEL_SPACE
 70
     0
 10
0.0
 20
0.0
 30
0.0
  3
*MODEL_SPACE
  1

  0
ENDBLK
  5
1B
330
19
100
AcDbEntity
  8
0
100
AcDbBlockEnd
  0
BLOCK
  5
17
330
16
100
AcDbEntity
 67
     1
  8
0
100
AcDbBlockBegin
  2
*PAPER_SPACE
 70
     0
 10
0.0
 20
0.0
 30
0.0
  3
*PAPER_SPACE
  1

  0
ENDBLK
  5
18
330
16
100
AcDbEntity
 67
     1
  8
0
100
AcDbBlockEnd
  0
BLOCK
  5
7B50
330
7B4F
100
AcDbEntity
  8
0
100
AcDbBlockBegin
  2
_OPEN
 70
     0
 10
0.0
 20
0.0
 30
0.0
  3
_OPEN
  1

  0
LINE
  5
7B51
330
7B4F
100
AcDbEntity
  8
0
  6
ByBlock
 62
     0
100
AcDbLine
 10
-1.0
 20
0.166667
 30
0.0
 11
0.0
 21
0.0
 31
0.0
  0
LINE
  5
7B52
330
7B4F
100
AcDbEntity
  8
0
  6
ByBlock
 62
     0
100
AcDbLine
 10
0.0
 20
0.0
 30
0.0
 11
-1.0
 21
-0.166667
 31
0.0
  0
LINE
  5
7B53
330
7B4F
100
AcDbEntity
  8
0
  6
ByBlock
 62
     0
100
AcDbLine
 10
0.0
 20
0.0
 30
0.0
 11
-1.0
 21
0.0
 31
0.0
  0
ENDBLK
  5
7B54
330
7B4F
100
AcDbEntity
  8
0
100
AcDbBlockEnd
  0
BLOCK
  5
7B57
330
7B56
100
AcDbEntity
  8
0
100
AcDbBlockBegin
  2
*D1
 70
     1
 10
0.0
 20
0.0
 30
0.0
  3
*D1
  1

  0
LINE
  5
7FA9
330
7B56
100
AcDbEntity
  8
3
  6
Continuous
 62
     0
440
 16777216
370
    -2
100
AcDbLine
 10
-3769.325811659911
 20
-2181.264896
 30
0.0
 11
-3769.325811659911
 21
-2231.96699
 31
0.0
  0
LINE
  5
7FAA
330
7B56
100
AcDbEntity
  8
3
  6
Continuous
 62
     0
440
 16777216
370
    -2
100
AcDbLine
 10
-3609.325811659912
 20
-2156.264896
 30
0.0
 11
-3609.325811659912
 21
-2231.96699
 31
0.0
  0
LINE
  5
7FAB
330
7B56
100
AcDbEntity
  8
3
  6
Continuous
 62
     0
440
 16777216
370
    -2
100
AcDbLine
 10
-3749.325811659911
 20
-2221.96699
 30
0.0
 11
-3629.325811659911
 21
-2221.96699
 31
0.0
  0
INSERT
  5
7FAC
330
7B56
100
AcDbEntity
  8
3
  6
Continuous
 62
     0
440
 16777216
370
    -2
100
AcDbBlockReference
  2
_OPEN
 10
-3769.325811659911
 20
-2221.96699
 30
0.0
 41
20.0
 42
20.0
 43
20.0
 50
180.0
  0
INSERT
  5
7FAD
330
7B56
100
AcDbEntity
  8
3
  6
Continuous
 62
     0
440
 16777216
370
    -2
100
AcDbBlockReference
  2
_OPEN
 10
-3609.325811659912
 20
-2221.96699
 30
0.0
 41
20.0
 42
20.0
 43
20.0
  0
MTEXT
  5
7FAE
330
7B56
100
AcDbEntity
  8
3
  6
Continuous
 62
     0
440
 16777216
100
AcDbMText
 10
-3686.320545659911
 20
-2196.96699
 30
0.0
 40
30.0
 41
0.0
 46
0.0
 71
     5
 72
     1
  1
\A1;160
 73
     1
 44
1.0
  0
POINT
  5
7FAF
330
7B56
100
AcDbEntity
  8
DEFPOINTS
  6
Continuous
 62
     0
440
 16777216
100
AcDbPoint
 10
-3769.325811659911
 20
-2176.264896000001
 30
0.0
  0
POINT
  5
7FB0
330
7B56
100
AcDbEntity
  8
DEFPOINTS
  6
Continuous
 62
     0
440
 16777216
100
AcDbPoint
 10
-3609.325811659912
 20
-2151.264896
 30
0.0
  0
POINT
  5
7FB1
330
7B56
100
AcDbEntity
  8
DEFPOINTS
  6
Continuous
 62
     0
440
 16777216
100
AcDbPoint
 10
-3609.325811659912
 20
-2221.96699
 30
0.0
  0
ENDBLK
  5
7B62
330
7B56
100
AcDbEntity
  8
0
100
AcDbBlockEnd
  0
BLOCK
  5
7B66
330
7B65
100
AcDbEntity
  8
0
100
AcDbBlockBegin
  2
*D2
 70
     1
 10
0.0
 20
0.0
 30
0.0
  3
*D2
  1

  0
LINE
  5
7FB2
330
7B65
100
AcDbEntity
  8
3
  6
Continuous
 62
     0
440
 16777216
370
    -2
100
AcDbLine
 10
-3159.325811659911
 20
-2181.264896
 30
0.0
 11
-3159.325811659911
 21
-2231.96699
 31
0.0
  0
LINE
  5
7FB3
330
7B65
100
AcDbEntity
  8
3
  6
Continuous
 62
     0
440
 16777216
370
    -2
100
AcDbLine
 10
-3589.325811659911
 20
-2221.96699
 30
0.0
 11
-3179.325811659911
 21
-2221.96699
 31
0.0
  0
INSERT
  5
7FB4
330
7B65
100
AcDbEntity
  8
3
  6
Continuous
 62
     0
440
 16777216
370
    -2
100
AcDbBlockReference
  2
_OPEN
 10
-3609.325811659912
 20
-2221.96699
 30
0.0
 41
20.0
 42
20.0
 43
20.0
 50
180.0
  0
INSERT
  5
7FB5
330
7B65
100
AcDbEntity
  8
3
  6
Continuous
 62
     0
440
 16777216
370
    -2
100
AcDbBlockReference
  2
_OPEN
 10
-3159.325811659911
 20
-2221.96699
 30
0.0
 41
20.0
 42
20.0
 43
20.0
  0
MTEXT
  5
7FB6
330
7B65
100
AcDbEntity
  8
3
  6
Continuous
 62
     0
440
 16777216
100
AcDbMText
 10
-3384.325811659911
 20
-2196.96699
 30
0.0
 40
30.0
 41
0.0
 46
0.0
 71
     5
 72
     1
  1
\A1;450
 73
     1
 44
1.0
  0
POINT
  5
7FB7
330
7B65
100
AcDbEntity
  8
DEFPOINTS
  6
Continuous
 62
     0
440
 16777216
100
AcDbPoint
 10
-3609.325811659912
 20
-2151.264896
 30
0.0
  0
POINT
  5
7FB8
330
7B65
100
AcDbEntity
  8
DEFPOINTS
  6
Continuous
 62
     0
440
 16777216
100
AcDbPoint
 10
-3159.325811659911
 20
-2176.264896000001
 30
0.0
  0
POINT
  5
7FB9
330
7B65
100
AcDbEntity
  8
DEFPOINTS
  6
Continuous
 62
     0
440
 16777216
100
AcDbPoint
 10
-3159.325811659911
 20
-2221.96699
 30
0.0
  0
ENDBLK
  5
7B6F
330
7B65
100
AcDbEntity
  8
0
100
AcDbBlockEnd
  0
BLOCK
  5
7B72
330
7B71
100
AcDbEntity
  8
0
100
AcDbBlockBegin
  2
*D3
 70
     1
 10
0.0
 20
0.0
 30
0.0
  3
*D3
  1

  0
LINE
  5
7EAC
330
7B71
100
AcDbEntity
  8
3
  6
Continuous
 62
     0
440
 16777216
100
AcDbLine
 10
-3744.325811659911
 20
-1981.264896
 30
0.0
 11
-3783.108100659911
 21
-1981.264896
 31
0.0
  0
LINE
  5
7EAD
330
7B71
100
AcDbEntity
  8
3
  6
Continuous
 62
     0
440
 16777216
100
AcDbLine
 10
-3744.325811659911
 20
-1821.264896
 30
0.0
 11
-3783.108100659911
 21
-1821.264896
 31
0.0
  0
LINE
  5
7EAE
330
7B71
100
AcDbEntity
  8
3
  6
Continuous
 62
     0
440
 16777216
100
AcDbLine
 10
-3773.108100659911
 20
-1961.264896
 30
0.0
 11
-3773.108100659911
 21
-1841.264896
 31
0.0
  0
INSERT
  5
7EAF
330
7B71
100
AcDbEntity
  8
3
  6
Continuous
 62
     0
440
 16777216
100
AcDbBlockReference
  2
_OPEN
 10
-3773.108100659911
 20
-1981.264896
 30
0.0
 41
20.0
 42
20.0
 43
20.0
 50
270.0
  0
INSERT
  5
7EB0
330
7B71
100
AcDbEntity
  8
3
  6
Continuous
 62
     0
440
 16777216
100
AcDbBlockReference
  2
_OPEN
 10
-3773.108100659911
 20
-1821.264896
 30
0.0
 41
20.0
 42
20.0
 43
20.0
 50
90.0
  0
MTEXT
  5
7EB1
330
7B71
100
AcDbEntity
  8
3
  6
Continuous
 62
     0
440
 16777216
100
AcDbMText
 10
-3798.108100659911
 20
-1899.125918
 30
0.0
 40
30.0
 41
0.0
 46
0.0
 71
     5
 72
     5
  1
\A1;160
 11
0.0000000000000001
 21
1.0
 31
0.0
 73
     1
 44
1.0
  0
POINT
  5
7EB2
330
7B71
100
AcDbEntity
  8
DEFPOINTS
  6
Continuous
 62
     0
440
 16777216
100
AcDbPoint
 10
-3739.325811659912
 20
-1981.264896
 30
0.0
  0
POINT
  5
7EB3
330
7B71
100
AcDbEntity
  8
DEFPOINTS
  6
Continuous
 62
     0
440
 16777216
100
AcDbPoint
 10
-3739.325811659912
 20
-1821.264896
 30
0.0
  0
POINT
  5
7EB4
330
7B71
100
AcDbEntity
  8
DEFPOINTS
  6
Continuous
 62
     0
440
 16777216
100
AcDbPoint
 10
-3773.108100659911
 20
-1821.264896
 30
0.0
  0
ENDBLK
  5
7B7C
330
7B71
100
AcDbEntity
  8
0
100
AcDbBlockEnd
  0
BLOCK
  5
7DB2
330
7B7E
100
AcDbEntity
  8
0
100
AcDbBlockBegin
  2
*D4
 70
     1
 10
0.0
 20
0.0
 30
0.0
  3
*D4
  1

  0
LINE
  5
7DB3
330
7B7E
100
AcDbEntity
  8
0
  6
ByBlock
 62
     0
440
 16777216
100
AcDbLine
 10
-3739.325811659912
 20
-1794.264896
 30
0.0
 11
-3739.325811659912
 21
-1654.28667
 31
0.0
  0
LINE
  5
7DB4
330
7B7E
100
AcDbEntity
  8
0
  6
ByBlock
 62
     0
440
 16777216
100
AcDbLine
 10
-3609.325811659912
 20
-1693.620714
 30
0.0
 11
-3609.325811659912
 21
-1654.28667
 31
0.0
  0
LINE
  5
7DB5
330
7B7E
100
AcDbEntity
  8
0
  6
ByBlock
 62
     0
440
 16777216
100
AcDbLine
 10
-3719.325811659911
 20
-1664.28667
 30
0.0
 11
-3629.325811659911
 21
-1664.28667
 31
0.0
  0
MTEXT
  5
7DB6
330
7B7E
100
AcDbEntity
  8
0
  6
ByBlock
 62
     0
440
 16777216
100
AcDbMText
 10
-3674.325811659912
 20
-1642.736733528879
 30
0.0
 40
30.0
 41
0.0
 46
0.0
 71
     5
 72
     5
  1
\A1;130
 73
     1
 44
1.0
  0
INSERT
  5
7DB7
330
7B7E
100
AcDbEntity
  8
0
  6
ByBlock
 62
     0
440
 16777216
100
AcDbBlockReference
  2
_OPEN
 10
-3739.325811659912
 20
-1664.28667
 30
0.0
 41
20.0
 42
20.0
 43
20.0
 50
180.0
  0
INSERT
  5
7DB8
330
7B7E
100
AcDbEntity
  8
0
  6
ByBlock
 62
     0
440
 16777216
100
AcDbBlockReference
  2
_OPEN
 10
-3609.325811659912
 20
-1664.28667
 30
0.0
 41
20.0
 42
20.0
 43
20.0
  0
POINT
  5
7DB9
330
7B7E
100
AcDbEntity
  8
DEFPOINTS
  6
ByBlock
 62
     0
440
 16777216
100
AcDbPoint
 10
-3739.325811659912
 20
-1799.264896
 30
0.0
  0
POINT
  5
7DBA
330
7B7E
100
AcDbEntity
  8
DEFPOINTS
  6
ByBlock
 62
     0
440
 16777216
100
AcDbPoint
 10
-3609.325811659912
 20
-1698.620714
 30
0.0
  0
POINT
  5
7DBB
330
7B7E
100
AcDbEntity
  8
DEFPOINTS
  6
ByBlock
 62
     0
440
 16777216
100
AcDbPoint
 10
-3609.325811659912
 20
-1664.28667
 30
0.0
  0
ENDBLK
  5
7DBC
330
7B7E
100
AcDbEntity
  8
0
100
AcDbBlockEnd
  0
BLOCK
  5
7DC8
330
7BA6
100
AcDbEntity
  8
0
100
AcDbBlockBegin
  2
*D5
 70
     1
 10
0.0
 20
0.0
 30
0.0
  3
*D5
  1

  0
LINE
  5
7DC9
330
7BA6
100
AcDbEntity
  8
0
  6
ByBlock
 62
     0
440
 16777216
100
AcDbLine
 10
-3614.325811659912
 20
-1698.620714
 30
0.0
 11
-3889.380935659911
 21
-1698.620714
 31
0.0
  0
LINE
  5
7DCA
330
7BA6
100
AcDbEntity
  8
0
  6
ByBlock
 62
     0
440
 16777216
100
AcDbLine
 10
-3749.325811659911
 20
-1821.264896
 30
0.0
 11
-3889.380935659911
 21
-1821.264896
 31
0.0
  0
LINE
  5
7DCB
330
7BA6
100
AcDbEntity
  8
0
  6
ByBlock
 62
     0
440
 16777216
100
AcDbLine
 10
-3879.380935659911
 20
-1718.620714
 30
0.0
 11
-3879.380935659911
 21
-1801.264896
 31
0.0
  0
MTEXT
  5
7DCC
330
7BA6
100
AcDbEntity
  8
0
  6
ByBlock
 62
     0
440
 16777216
100
AcDbMText
 10
-3905.158395378892
 20
-1759.942805
 30
0.0
 40
30.0
 41
0.0
 46
0.0
 71
     5
 72
     5
  1
\A1;123
 11
0.0
 21
1.0
 31
0.0
 73
     1
 44
1.0
  0
INSERT
  5
7DCD
330
7BA6
100
AcDbEntity
  8
0
  6
ByBlock
 62
     0
440
 16777216
100
AcDbBlockReference
  2
_OPEN
 10
-3879.380935659911
 20
-1698.620714
 30
0.0
 41
20.0
 42
20.0
 43
20.0
 50
90.0
  0
INSERT
  5
7DCE
330
7BA6
100
AcDbEntity
  8
0
  6
ByBlock
 62
     0
440
 16777216
100
AcDbBlockReference
  2
_OPEN
 10
-3879.380935659911
 20
-1821.264896
 30
0.0
 41
20.0
 42
20.0
 43
20.0
 50
270.0
  0
POINT
  5
7DCF
330
7BA6
100
AcDbEntity
  8
DEFPOINTS
  6
ByBlock
 62
     0
440
 16777216
100
AcDbPoint
 10
-3609.325811659912
 20
-1698.620714
 30
0.0
  0
POINT
  5
7DD0
330
7BA6
100
AcDbEntity
  8
DEFPOINTS
  6
ByBlock
 62
     0
440
 16777216
100
AcDbPoint
 10
-3744.325811659911
 20
-1821.264896
 30
0.0
  0
POINT
  5
7DD1
330
7BA6
100
AcDbEntity
  8
DEFPOINTS
  6
ByBlock
 62
     0
440
 16777216
100
AcDbPoint
 10
-3879.380935659911
 20
-1821.264896
 30
0.0
  0
ENDBLK
  5
7DD2
330
7BA6
100
AcDbEntity
  8
0
100
AcDbBlockEnd
  0
BLOCK
  5
7CD9
330
7BB5
100
AcDbEntity
  8
0
100
AcDbBlockBegin
  2
*D6
 70
     1
 10
0.0
 20
0.0
 30
0.0
  3
*D6
  1

  0
LINE
  5
7EB5
330
7BB5
100
AcDbEntity
  8
3
  6
Continuous
 62
     0
440
 16777216
100
AcDbLine
 10
-3749.325811659911
 20
-2056.264896
 30
0.0
 11
-3889.380935659911
 21
-2056.264896
 31
0.0
  0
LINE
  5
7EB6
330
7BB5
100
AcDbEntity
  8
3
  6
Continuous
 62
     0
440
 16777216
100
AcDbLine
 10
-3879.380935659911
 20
-1841.264896
 30
0.0
 11
-3879.380935659911
 21
-2036.264896
 31
0.0
  0
INSERT
  5
7EB7
330
7BB5
100
AcDbEntity
  8
3
  6
Continuous
 62
     0
440
 16777216
100
AcDbBlockReference
  2
_OPEN
 10
-3879.380935659911
 20
-1821.264896
 30
0.0
 41
20.0
 42
20.0
 43
20.0
 50
90.0
  0
INSERT
  5
7EB8
330
7BB5
100
AcDbEntity
  8
3
  6
Continuous
 62
     0
440
 16777216
100
AcDbBlockReference
  2
_OPEN
 10
-3879.380935659911
 20
-2056.264896
 30
0.0
 41
20.0
 42
20.0
 43
20.0
 50
270.0
  0
MTEXT
  5
7EB9
330
7BB5
100
AcDbEntity
  8
3
  6
Continuous
 62
     0
440
 16777216
100
AcDbMText
 10
-3904.380935659911
 20
-1938.764896000001
 30
0.0
 40
30.0
 41
0.0
 46
0.0
 71
     5
 72
     5
  1
\A1;235
 11
0.0000000000000001
 21
1.0
 31
0.0
 73
     1
 44
1.0
  0
POINT
  5
7EBA
330
7BB5
100
AcDbEntity
  8
DEFPOINTS
  6
Continuous
 62
     0
440
 16777216
100
AcDbPoint
 10
-3744.325811659911
 20
-1821.264896
 30
0.0
  0
POINT
  5
7EBB
330
7BB5
100
AcDbEntity
  8
DEFPOINTS
  6
Continuous
 62
     0
440
 16777216
100
AcDbPoint
 10
-3744.325811659911
 20
-2056.264896
 30
0.0
  0
POINT
  5
7EBC
330
7BB5
100
AcDbEntity
  8
DEFPOINTS
  6
Continuous
 62
     0
440
 16777216
100
AcDbPoint
 10
-3879.380935659911
 20
-2056.264896
 30
0.0
  0
ENDBLK
  5
7CE2
330
7BB5
100
AcDbEntity
  8
0
100
AcDbBlockEnd
  0
BLOCK
  5
7C23
330
7C22
100
AcDbEntity
  8
0
100
AcDbBlockBegin
  2
*D7
 70
     1
 10
0.0
 20
0.0
 30
0.0
  3
*D7
  1

  0
LINE
  5
7EBD
330
7C22
100
AcDbEntity
  8
3
  6
Continuous
 62
     0
440
 16777216
100
AcDbLine
 10
-3769.325811659911
 20
-1208.728037324095
 30
0.0
 11
-3769.325811659911
 21
-1300.932076324095
 31
0.0
  0
LINE
  5
7EBE
330
7C22
100
AcDbEntity
  8
3
  6
Continuous
 62
     0
440
 16777216
100
AcDbLine
 10
-3159.325811659911
 20
-1208.728037324095
 30
0.0
 11
-3159.325811659911
 21
-1300.932076324095
 31
0.0
  0
LINE
  5
7EBF
330
7C22
100
AcDbEntity
  8
3
  6
Continuous
 62
     0
440
 16777216
100
AcDbLine
 10
-3749.325811659911
 20
-1290.932076324095
 30
0.0
 11
-3179.325811659911
 21
-1290.932076324095
 31
0.0
  0
INSERT
  5
7EC0
330
7C22
100
AcDbEntity
  8
3
  6
Continuous
 62
     0
440
 16777216
100
AcDbBlockReference
  2
_OPEN
 10
-3769.325811659911
 20
-1290.932076324095
 30
0.0
 41
20.0
 42
20.0
 43
20.0
 50
180.0
  0
INSERT
  5
7EC1
330
7C22
100
AcDbEntity
  8
3
  6
Continuous
 62
     0
440
 16777216
100
AcDbBlockReference
  2
_OPEN
 10
-3159.325811659911
 20
-1290.932076324095
 30
0.0
 41
20.0
 42
20.0
 43
20.0
  0
MTEXT
  5
7EC2
330
7C22
100
AcDbEntity
  8
3
  6
Continuous
 62
     0
440
 16777216
100
AcDbMText
 10
-3447.844021659911
 20
-1265.932076324095
 30
0.0
 40
30.0
 41
0.0
 46
0.0
 71
     5
 72
     5
  1
\A1;610
 73
     1
 44
1.0
  0
POINT
  5
7EC3
330
7C22
100
AcDbEntity
  8
DEFPOINTS
  6
Continuous
 62
     0
440
 16777216
100
AcDbPoint
 10
-3769.325811659911
 20
-1203.728037324095
 30
0.0
  0
POINT
  5
7EC4
330
7C22
100
AcDbEntity
  8
DEFPOINTS
  6
Continuous
 62
     0
440
 16777216
100
AcDbPoint
 10
-3159.325811659911
 20
-1203.728037324095
 30
0.0
  0
POINT
  5
7EC5
330
7C22
100
AcDbEntity
  8
DEFPOINTS
  6
Continuous
 62
     0
440
 16777216
100
AcDbPoint
 10
-3159.325811659911
 20
-1290.932076324095
 30
0.0
  0
ENDBLK
  5
7C2D
330
7C22
100
AcDbEntity
  8
0
100
AcDbBlockEnd
  0
BLOCK
  5
7C30
330
7C2F
100
AcDbEntity
  8
0
100
AcDbBlockBegin
  2
*D8
 70
     1
 10
0.0
 20
0.0
 30
0.0
  3
*D8
  1

  0
LINE
  5
7EC6
330
7C2F
100
AcDbEntity
  8
3
  6
Continuous
 62
     0
440
 16777216
100
AcDbLine
 10
-3154.325811659911
 20
-773.7280373240955
 30
0.0
 11
-3071.302428659911
 21
-773.7280373240955
 31
0.0
  0
LINE
  5
7EC7
330
7C2F
100
AcDbEntity
  8
3
  6
Continuous
 62
     0
440
 16777216
100
AcDbLine
 10
-3154.325811659911
 20
-1203.728037324095
 30
0.0
 11
-3071.302428659912
 21
-1203.728037324095
 31
0.0
  0
LINE
  5
7EC8
330
7C2F
100
AcDbEntity
  8
3
  6
Continuous
 62
     0
440
 16777216
100
AcDbLine
 10
-3081.302428659911
 20
-793.7280373240955
 30
0.0
 11
-3081.302428659912
 21
-1183.728037324095
 31
0.0
  0
INSERT
  5
7EC9
330
7C2F
100
AcDbEntity
  8
3
  6
Continuous
 62
     0
440
 16777216
100
AcDbBlockReference
  2
_OPEN
 10
-3081.302428659911
 20
-773.7280373240955
 30
0.0
 41
20.0
 42
20.0
 43
20.0
 50
90.0
  0
INSERT
  5
7ECA
330
7C2F
100
AcDbEntity
  8
3
  6
Continuous
 62
     0
440
 16777216
100
AcDbBlockReference
  2
_OPEN
 10
-3081.302428659912
 20
-1203.728037324095
 30
0.0
 41
20.0
 42
20.0
 43
20.0
 50
270.0
  0
MTEXT
  5
7ECB
330
7C2F
100
AcDbEntity
  8
3
  6
Continuous
 62
     0
440
 16777216
100
AcDbMText
 10
-3106.302428659911
 20
-981.4286593240955
 30
0.0
 40
30.0
 41
0.0
 46
0.0
 71
     5
 72
     5
  1
\A1;430
 11
0.0000000000000001
 21
1.0
 31
0.0
 73
     1
 44
1.0
  0
POINT
  5
7ECC
330
7C2F
100
AcDbEntity
  8
DEFPOINTS
  6
Continuous
 62
     0
440
 16777216
100
AcDbPoint
 10
-3159.325811659911
 20
-773.7280373240955
 30
0.0
  0
POINT
  5
7ECD
330
7C2F
100
AcDbEntity
  8
DEFPOINTS
  6
Continuous
 62
     0
440
 16777216
100
AcDbPoint
 10
-3159.325811659911
 20
-1203.728037324095
 30
0.0
  0
POINT
  5
7ECE
330
7C2F
100
AcDbEntity
  8
DEFPOINTS
  6
Continuous
 62
     0
440
 16777216
100
AcDbPoint
 10
-3081.302428659912
 20
-1203.728037324095
 30
0.0
  0
ENDBLK
  5
7C3A
330
7C2F
100
AcDbEntity
  8
0
100
AcDbBlockEnd
  0
BLOCK
  5
7C3D
330
7C3C
100
AcDbEntity
  8
0
100
AcDbBlockBegin
  2
*D9
 70
     1
 10
0.0
 20
0.0
 30
0.0
  3
*D9
  1

  0
LINE
  5
7F7B
330
7C3C
100
AcDbEntity
  8
3
  6
Continuous
 62
     0
440
 16777216
370
    -2
100
AcDbLine
 10
-2897.160556034576
 20
-2181.264896
 30
0.0
 11
-2897.160556034576
 21
-2243.304472
 31
0.0
  0
LINE
  5
7F7C
330
7C3C
100
AcDbEntity
  8
3
  6
Continuous
 62
     0
440
 16777216
370
    -2
100
AcDbLine
 10
-2625.160556034576
 20
-2181.264896
 30
0.0
 11
-2625.160556034576
 21
-2243.304472
 31
0.0
  0
LINE
  5
7F7D
330
7C3C
100
AcDbEntity
  8
3
  6
Continuous
 62
     0
440
 16777216
370
    -2
100
AcDbLine
 10
-2877.160556034576
 20
-2233.304472
 30
0.0
 11
-2645.160556034576
 21
-2233.304472
 31
0.0
  0
INSERT
  5
7F7E
330
7C3C
100
AcDbEntity
  8
3
  6
Continuous
 62
     0
440
 16777216
370
    -2
100
AcDbBlockReference
  2
_OPEN
 10
-2897.160556034576
 20
-2233.304472
 30
0.0
 41
20.0
 42
20.0
 43
20.0
 50
180.0
  0
INSERT
  5
7F7F
330
7C3C
100
AcDbEntity
  8
3
  6
Continuous
 62
     0
440
 16777216
370
    -2
100
AcDbBlockReference
  2
_OPEN
 10
-2625.160556034576
 20
-2233.304472
 30
0.0
 41
20.0
 42
20.0
 43
20.0
  0
MTEXT
  5
7F80
330
7C3C
100
AcDbEntity
  8
3
  6
Continuous
 62
     0
440
 16777216
100
AcDbMText
 10
-2758.209972034576
 20
-2208.304472
 30
0.0
 40
30.0
 41
0.0
 46
0.0
 71
     5
 72
     1
  1
\A1;272
 73
     1
 44
1.0
  0
POINT
  5
7F81
330
7C3C
100
AcDbEntity
  8
DEFPOINTS
  6
Continuous
 62
     0
440
 16777216
100
AcDbPoint
 10
-2897.160556034576
 20
-2176.264896000001
 30
0.0
  0
POINT
  5
7F82
330
7C3C
100
AcDbEntity
  8
DEFPOINTS
  6
Continuous
 62
     0
440
 16777216
100
AcDbPoint
 10
-2625.160556034576
 20
-2176.264896000001
 30
0.0
  0
POINT
  5
7F83
330
7C3C
100
AcDbEntity
  8
DEFPOINTS
  6
Continuous
 62
     0
440
 16777216
100
AcDbPoint
 10
-2625.160556034576
 20
-2233.304472
 30
0.0
  0
ENDBLK
  5
7C47
330
7C3C
100
AcDbEntity
  8
0
100
AcDbBlockEnd
  0
BLOCK
  5
7C4A
330
7C49
100
AcDbEntity
  8
0
100
AcDbBlockBegin
  2
*D10
 70
     1
 10
0.0
 20
0.0
 30
0.0
  3
*D10
  1

  0
LINE
  5
7F84
330
7C49
100
AcDbEntity
  8
3
  6
Continuous
 62
     0
440
 16777216
370
    -2
100
AcDbLine
 10
-2467.160556034576
 20
-2181.264896
 30
0.0
 11
-2467.160556034576
 21
-2243.304472
 31
0.0
  0
LINE
  5
7F85
330
7C49
100
AcDbEntity
  8
3
  6
Continuous
 62
     0
440
 16777216
370
    -2
100
AcDbLine
 10
-2605.160556034576
 20
-2233.304472
 30
0.0
 11
-2487.160556034576
 21
-2233.304472
 31
0.0
  0
INSERT
  5
7F86
330
7C49
100
AcDbEntity
  8
3
  6
Continuous
 62
     0
440
 16777216
370
    -2
100
AcDbBlockReference
  2
_OPEN
 10
-2625.160556034576
 20
-2233.304472
 30
0.0
 41
20.0
 42
20.0
 43
20.0
 50
180.0
  0
INSERT
  5
7F87
330
7C49
100
AcDbEntity
  8
3
  6
Continuous
 62
     0
440
 16777216
370
    -2
100
AcDbBlockReference
  2
_OPEN
 10
-2467.160556034576
 20
-2233.304472
 30
0.0
 41
20.0
 42
20.0
 43
20.0
  0
MTEXT
  5
7F88
330
7C49
100
AcDbEntity
  8
3
  6
Continuous
 62
     0
440
 16777216
100
AcDbMText
 10
-2546.160556034576
 20
-2208.304472
 30
0.0
 40
30.0
 41
0.0
 46
0.0
 71
     5
 72
     1
  1
\A1;158
 73
     1
 44
1.0
  0
POINT
  5
7F89
330
7C49
100
AcDbEntity
  8
DEFPOINTS
  6
Continuous
 62
     0
440
 16777216
100
AcDbPoint
 10
-2625.160556034576
 20
-2176.264896000001
 30
0.0
  0
POINT
  5
7F8A
330
7C49
100
AcDbEntity
  8
DEFPOINTS
  6
Continuous
 62
     0
440
 16777216
100
AcDbPoint
 10
-2467.160556034576
 20
-2176.264896000001
 30
0.0
  0
POINT
  5
7F8B
330
7C49
100
AcDbEntity
  8
DEFPOINTS
  6
Continuous
 62
     0
440
 16777216
100
AcDbPoint
 10
-2467.160556034576
 20
-2233.304472
 30
0.0
  0
ENDBLK
  5
7C53
330
7C49
100
AcDbEntity
  8
0
100
AcDbBlockEnd
  0
BLOCK
  5
7D79
330
7C55
100
AcDbEntity
  8
0
100
AcDbBlockBegin
  2
*D11
 70
     1
 10
0.0
 20
0.0
 30
0.0
  3
*D11
  1

  0
LINE
  5
7D7A
330
7C55
100
AcDbEntity
  8
0
  6
ByBlock
 62
     0
440
 16777216
100
AcDbLine
 10
-2681.160556034576
 20
-1705.264896
 30
0.0
 11
-2681.160556034576
 21
-1670.263092
 31
0.0
  0
LINE
  5
7D7B
330
7C55
100
AcDbEntity
  8
0
  6
ByBlock
 62
     0
440
 16777216
100
AcDbLine
 10
-2569.160556034576
 20
-1705.264896
 30
0.0
 11
-2569.160556034576
 21
-1670.263092
 31
0.0
  0
LINE
  5
7D7C
330
7C55
100
AcDbEntity
  8
0
  6
ByBlock
 62
     0
440
 16777216
100
AcDbLine
 10
-2661.160556034576
 20
-1680.263092
 30
0.0
 11
-2589.160556034576
 21
-1680.263092
 31
0.0
  0
MTEXT
  5
7D7D
330
7C55
100
AcDbEntity
  8
0
  6
ByBlock
 62
     0
440
 16777216
100
AcDbMText
 10
-2625.160556034576
 20
-1658.774695913096
 30
0.0
 40
30.0
 41
0.0
 46
0.0
 71
     5
 72
     5
  1
\A1;112
 73
     1
 44
1.0
  0
INSERT
  5
7D7E
330
7C55
100
AcDbEntity
  8
0
  6
ByBlock
 62
     0
440
 16777216
100
AcDbBlockReference
  2
_OPEN
 10
-2681.160556034576
 20
-1680.263092
 30
0.0
 41
20.0
 42
20.0
 43
20.0
 50
180.0
  0
INSERT
  5
7D7F
330
7C55
100
AcDbEntity
  8
0
  6
ByBlock
 62
     0
440
 16777216
100
AcDbBlockReference
  2
_OPEN
 10
-2569.160556034576
 20
-1680.263092
 30
0.0
 41
20.0
 42
20.0
 43
20.0
  0
POINT
  5
7D80
330
7C55
100
AcDbEntity
  8
DEFPOINTS
  6
ByBlock
 62
     0
440
 16777216
100
AcDbPoint
 10
-2681.160556034576
 20
-1710.264896
 30
0.0
  0
POINT
  5
7D81
330
7C55
100
AcDbEntity
  8
DEFPOINTS
  6
ByBlock
 62
     0
440
 16777216
100
AcDbPoint
 10
-2569.160556034576
 20
-1710.264896
 30
0.0
  0
POINT
  5
7D82
330
7C55
100
AcDbEntity
  8
DEFPOINTS
  6
ByBlock
 62
     0
440
 16777216
100
AcDbPoint
 10
-2569.160556034576
 20
-1680.263092
 30
0.0
  0
ENDBLK
  5
7D83
330
7C55
100
AcDbEntity
  8
0
100
AcDbBlockEnd
  0
BLOCK
  5
7D63
330
7C64
100
AcDbEntity
  8
0
100
AcDbBlockBegin
  2
*D12
 70
     1
 10
0.0
 20
0.0
 30
0.0
  3
*D12
  1

  0
LINE
  5
82A8
330
7C64
100
AcDbEntity
  8
3
  6
Continuous
 62
     0
440
 16777216
370
    -2
100
AcDbLine
 10
-2885.160556034576
 20
-1721.264896
 30
0.0
 11
-2885.160556034576
 21
-1604.594194933644
 31
0.0
  0
LINE
  5
82A9
330
7C64
100
AcDbEntity
  8
3
  6
Continuous
 62
     0
440
 16777216
370
    -2
100
AcDbLine
 10
-2625.160556034576
 20
-1632.661857106186
 30
0.0
 11
-2625.160556034576
 21
-1604.594194933644
 31
0.0
  0
LINE
  5
82AA
330
7C64
100
AcDbEntity
  8
3
  6
Continuous
 62
     0
440
 16777216
370
    -2
100
AcDbLine
 10
-2865.160556034576
 20
-1614.594194933644
 30
0.0
 11
-2645.160556034576
 21
-1614.594194933644
 31
0.0
  0
INSERT
  5
82AB
330
7C64
100
AcDbEntity
  8
3
  6
Continuous
 62
     0
440
 16777216
370
    -2
100
AcDbBlockReference
  2
_OPEN
 10
-2885.160556034576
 20
-1614.594194933644
 30
0.0
 41
20.0
 42
20.0
 43
20.0
 50
180.0
  0
INSERT
  5
82AC
330
7C64
100
AcDbEntity
  8
3
  6
Continuous
 62
     0
440
 16777216
370
    -2
100
AcDbBlockReference
  2
_OPEN
 10
-2625.160556034576
 20
-1614.594194933644
 30
0.0
 41
20.0
 42
20.0
 43
20.0
  0
MTEXT
  5
82AD
330
7C64
100
AcDbEntity
  8
3
  6
Continuous
 62
     0
440
 16777216
100
AcDbMText
 10
-2759.732707034576
 20
-1581.737052076501
 30
0.0
 40
30.0
 41
0.0
 46
0.0
 71
     5
 72
     1
  1
\A1;(260)
 73
     1
 44
1.0
  0
POINT
  5
82AE
330
7C64
100
AcDbEntity
  8
DEFPOINTS
  6
Continuous
 62
     0
440
 16777216
100
AcDbPoint
 10
-2885.160556034576
 20
-1726.264896
 30
0.0
  0
POINT
  5
82AF
330
7C64
100
AcDbEntity
  8
DEFPOINTS
  6
Continuous
 62
     0
440
 16777216
100
AcDbPoint
 10
-2625.160556034576
 20
-1637.661857106186
 30
0.0
  0
POINT
  5
82B0
330
7C64
100
AcDbEntity
  8
DEFPOINTS
  6
Continuous
 62
     0
440
 16777216
100
AcDbPoint
 10
-2625.160556034576
 20
-1614.594194933644
 30
0.0
  0
ENDBLK
  5
7D6D
330
7C64
100
AcDbEntity
  8
0
100
AcDbBlockEnd
  0
BLOCK
  5
7D59
330
7C71
100
AcDbEntity
  8
0
100
AcDbBlockBegin
  2
*D13
 70
     1
 10
0.0
 20
0.0
 30
0.0
  3
*D13
  1

  0
LINE
  5
7EE9
330
7C71
100
AcDbEntity
  8
3
  6
Continuous
 62
     0
440
 16777216
100
AcDbLine
 10
-2561.160556034576
 20
-1716.264896
 30
0.0
 11
-2561.160556034576
 21
-1604.594194933644
 31
0.0
  0
LINE
  5
7EEA
330
7C71
100
AcDbEntity
  8
3
  6
Continuous
 62
     0
440
 16777216
100
AcDbLine
 10
-2605.160556034576
 20
-1614.594194933644
 30
0.0
 11
-2581.160556034576
 21
-1614.594194933644
 31
0.0
  0
MTEXT
  5
7EEB
330
7C71
100
AcDbEntity
  8
3
  6
Continuous
 62
     0
440
 16777216
100
AcDbMText
 10
-2598.323440034576
 20
-1589.443952933644
 30
0.0
 40
30.0
 41
0.0
 46
0.0
 71
     5
 72
     5
  1
\A1;64
 73
     1
 44
1.0
  0
INSERT
  5
7EEC
330
7C71
100
AcDbEntity
  8
3
  6
Continuous
 62
     0
440
 16777216
100
AcDbBlockReference
  2
_OPEN
 10
-2625.160556034576
 20
-1614.594194933644
 30
0.0
 41
20.0
 42
20.0
 43
20.0
 50
180.0
  0
INSERT
  5
7EED
330
7C71
100
AcDbEntity
  8
3
  6
Continuous
 62
     0
440
 16777216
100
AcDbBlockReference
  2
_OPEN
 10
-2561.160556034576
 20
-1614.594194933644
 30
0.0
 41
20.0
 42
20.0
 43
20.0
  0
POINT
  5
7EEE
330
7C71
100
AcDbEntity
  8
DEFPOINTS
  6
Continuous
 62
     0
440
 16777216
100
AcDbPoint
 10
-2625.160556034576
 20
-1637.661857106186
 30
0.0
  0
POINT
  5
7EEF
330
7C71
100
AcDbEntity
  8
DEFPOINTS
  6
Continuous
 62
     0
440
 16777216
100
AcDbPoint
 10
-2561.160556034576
 20
-1721.264896
 30
0.0
  0
POINT
  5
7EF0
330
7C71
100
AcDbEntity
  8
DEFPOINTS
  6
Continuous
 62
     0
440
 16777216
100
AcDbPoint
 10
-2561.160556034576
 20
-1614.594194933644
 30
0.0
  0
ENDBLK
  5
7D62
330
7C71
100
AcDbEntity
  8
0
100
AcDbBlockEnd
  0
BLOCK
  5
7D9C
330
7CA6
100
AcDbEntity
  8
0
100
AcDbBlockBegin
  2
*D14
 70
     1
 10
0.0
 20
0.0
 30
0.0
  3
*D14
  1

  0
LINE
  5
7D9D
330
7CA6
100
AcDbEntity
  8
0
  6
ByBlock
 62
     0
440
 16777216
100
AcDbLine
 10
-2556.160556034576
 20
-1741.264896
 30
0.0
 11
-2483.752089034576
 21
-1741.264896
 31
0.0
  0
LINE
  5
7D9E
330
7CA6
100
AcDbEntity
  8
0
  6
ByBlock
 62
     0
440
 16777216
100
AcDbLine
 10
-2556.160556034576
 20
-1901.264896
 30
0.0
 11
-2483.752089034576
 21
-1901.264896
 31
0.0
  0
LINE
  5
7D9F
330
7CA6
100
AcDbEntity
  8
0
  6
ByBlock
 62
     0
440
 16777216
100
AcDbLine
 10
-2493.752089034576
 20
-1761.264896
 30
0.0
 11
-2493.752089034576
 21
-1881.264896
 31
0.0
  0
MTEXT
  5
7DA0
330
7CA6
100
AcDbEntity
  8
0
  6
ByBlock
 62
     0
440
 16777216
100
AcDbMText
 10
-2517.755236646572
 20
-1821.264896
 30
0.0
 40
30.0
 41
0.0
 46
0.0
 71
     5
 72
     5
  1
\A1;φ160
 11
0.0
 21
1.0
 31
0.0
 73
     1
 44
1.0
  0
INSERT
  5
7DA1
330
7CA6
100
AcDbEntity
  8
0
  6
ByBlock
 62
     0
440
 16777216
100
AcDbBlockReference
  2
_OPEN
 10
-2493.752089034576
 20
-1741.264896
 30
0.0
 41
20.0
 42
20.0
 43
20.0
 50
90.0
  0
INSERT
  5
7DA2
330
7CA6
100
AcDbEntity
  8
0
  6
ByBlock
 62
     0
440
 16777216
100
AcDbBlockReference
  2
_OPEN
 10
-2493.752089034576
 20
-1901.264896
 30
0.0
 41
20.0
 42
20.0
 43
20.0
 50
270.0
  0
POINT
  5
7DA3
330
7CA6
100
AcDbEntity
  8
DEFPOINTS
  6
ByBlock
 62
     0
440
 16777216
100
AcDbPoint
 10
-2561.160556034576
 20
-1741.264896
 30
0.0
  0
POINT
  5
7DA4
330
7CA6
100
AcDbEntity
  8
DEFPOINTS
  6
ByBlock
 62
     0
440
 16777216
100
AcDbPoint
 10
-2561.160556034576
 20
-1901.264896
 30
0.0
  0
POINT
  5
7DA5
330
7CA6
100
AcDbEntity
  8
DEFPOINTS
  6
ByBlock
 62
     0
440
 16777216
100
AcDbPoint
 10
-2493.752089034576
 20
-1901.264896
 30
0.0
  0
ENDBLK
  5
7DA6
330
7CA6
100
AcDbEntity
  8
0
100
AcDbBlockEnd
  0
BLOCK
  5
7CF0
330
7CEF
100
AcDbEntity
  8
0
100
AcDbBlockBegin
  2
*D15
 70
     1
 10
0.0
 20
0.0
 30
0.0
  3
*D15
  1

  0
LINE
  5
7EF1
330
7CEF
100
AcDbEntity
  8
3
  6
Continuous
 62
     0
440
 16777216
100
AcDbLine
 10
-3729.325811659911
 20
-1992.264896
 30
0.0
 11
-3829.899717659911
 21
-1992.264896
 31
0.0
  0
LINE
  5
7EF2
330
7CEF
100
AcDbEntity
  8
3
  6
Continuous
 62
     0
440
 16777216
100
AcDbLine
 10
-3749.325811659911
 20
-1821.264896
 30
0.0
 11
-3829.899717659911
 21
-1821.264896
 31
0.0
  0
LINE
  5
7EF3
330
7CEF
100
AcDbEntity
  8
3
  6
Continuous
 62
     0
440
 16777216
100
AcDbLine
 10
-3819.899717659911
 20
-1972.264896
 30
0.0
 11
-3819.899717659911
 21
-1841.264896
 31
0.0
  0
INSERT
  5
7EF4
330
7CEF
100
AcDbEntity
  8
3
  6
Continuous
 62
     0
440
 16777216
100
AcDbBlockReference
  2
_OPEN
 10
-3819.899717659911
 20
-1992.264896
 30
0.0
 41
20.0
 42
20.0
 43
20.0
 50
270.0
  0
INSERT
  5
7EF5
330
7CEF
100
AcDbEntity
  8
3
  6
Continuous
 62
     0
440
 16777216
100
AcDbBlockReference
  2
_OPEN
 10
-3819.899717659911
 20
-1821.264896
 30
0.0
 41
20.0
 42
20.0
 43
20.0
 50
90.0
  0
MTEXT
  5
7EF6
330
7CEF
100
AcDbEntity
  8
3
  6
Continuous
 62
     0
440
 16777216
100
AcDbMText
 10
-3844.899717659911
 20
-1902.431193
 30
0.0
 40
30.0
 41
0.0
 46
0.0
 71
     5
 72
     5
  1
\A1;171
 11
0.0000000000000001
 21
1.0
 31
0.0
 73
     1
 44
1.0
  0
POINT
  5
7EF7
330
7CEF
100
AcDbEntity
  8
DEFPOINTS
  6
Continuous
 62
     0
440
 16777216
100
AcDbPoint
 10
-3724.325811659912
 20
-1992.264896
 30
0.0
  0
POINT
  5
7EF8
330
7CEF
100
AcDbEntity
  8
DEFPOINTS
  6
Continuous
 62
     0
440
 16777216
100
AcDbPoint
 10
-3744.325811659911
 20
-1821.264896
 30
0.0
  0
POINT
  5
7EF9
330
7CEF
100
AcDbEntity
  8
DEFPOINTS
  6
Continuous
 62
     0
440
 16777216
100
AcDbPoint
 10
-3819.899717659911
 20
-1821.264896
 30
0.0
  0
ENDBLK
  5
7CFA
330
7CEF
100
AcDbEntity
  8
0
100
AcDbBlockEnd
  0
BLOCK
  5
7E25
330
7D0C
100
AcDbEntity
  8
0
100
AcDbBlockBegin
  2
*D16
 70
     1
 10
0.0
 20
0.0
 30
0.0
  3
*D16
  1

  0
LINE
  5
7EFA
330
7D0C
100
AcDbEntity
  8
3
  6
Continuous
 62
     0
440
 16777216
100
AcDbLine
 10
-3464.325811659911
 20
-1816.264896
 30
0.0
 11
-3464.325811659911
 21
-1654.28667
 31
0.0
  0
LINE
  5
7EFB
330
7D0C
100
AcDbEntity
  8
3
  6
Continuous
 62
     0
440
 16777216
100
AcDbLine
 10
-3589.325811659911
 20
-1664.28667
 30
0.0
 11
-3484.325811659912
 21
-1664.28667
 31
0.0
  0
INSERT
  5
7EFC
330
7D0C
100
AcDbEntity
  8
3
  6
Continuous
 62
     0
440
 16777216
100
AcDbBlockReference
  2
_OPEN
 10
-3609.325811659912
 20
-1664.28667
 30
0.0
 41
20.0
 42
20.0
 43
20.0
 50
180.0
  0
INSERT
  5
7EFD
330
7D0C
100
AcDbEntity
  8
3
  6
Continuous
 62
     0
440
 16777216
100
AcDbBlockReference
  2
_OPEN
 10
-3464.325811659911
 20
-1664.28667
 30
0.0
 41
20.0
 42
20.0
 43
20.0
  0
MTEXT
  5
7EFE
330
7D0C
100
AcDbEntity
  8
3
  6
Continuous
 62
     0
440
 16777216
100
AcDbMText
 10
-3536.825811659912
 20
-1639.28667
 30
0.0
 40
30.0
 41
0.0
 46
0.0
 71
     5
 72
     5
  1
\A1;145
 73
     1
 44
1.0
  0
POINT
  5
7EFF
330
7D0C
100
AcDbEntity
  8
DEFPOINTS
  6
Continuous
 62
     0
440
 16777216
100
AcDbPoint
 10
-3609.325811659912
 20
-1698.620714
 30
0.0
  0
POINT
  5
7F00
330
7D0C
100
AcDbEntity
  8
DEFPOINTS
  6
Continuous
 62
     0
440
 16777216
100
AcDbPoint
 10
-3464.325811659911
 20
-1821.264896
 30
0.0
  0
POINT
  5
7F01
330
7D0C
100
AcDbEntity
  8
DEFPOINTS
  6
Continuous
 62
     0
440
 16777216
100
AcDbPoint
 10
-3464.325811659911
 20
-1664.28667
 30
0.0
  0
ENDBLK
  5
7E2E
330
7D0C
100
AcDbEntity
  8
0
100
AcDbBlockEnd
  0
BLOCK
  5
7DEE
330
7DED
100
AcDbEntity
  8
0
100
AcDbBlockBegin
  2
_DOT
 70
     0
 10
0.0
 20
0.0
 30
0.0
  3
_DOT
  1

  0
LINE
  5
7E0E
330
7DED
100
AcDbEntity
  8
0
  6
ByBlock
 62
     0
100
AcDbLine
 10
0.0
 20
0.0
 30
0.0
 11
-1.0
 21
-0.0000000000000284
 31
0.0
  0
LWPOLYLINE
  5
7E0F
330
7DED
100
AcDbEntity
  8
0
  6
ByBlock
 62
     0
100
AcDbPolyline
 90
        2
 70
     1
 43
0.1666666666666666
 10
-0.0833333333333286
 20
-0.0000000000000284
 42
1.0
 10
0.0833333333333286
 20
-0.0000000000000284
 42
1.0
  0
ENDBLK
  5
7DF4
330
7DED
100
AcDbEntity
  8
0
100
AcDbBlockEnd
  0
BLOCK
  5
7E38
330
7E37
100
AcDbEntity
  8
0
100
AcDbBlockBegin
  2
*D18
 70
     1
 10
0.0
 20
0.0
 30
0.0
  3
*D18
  1

  0
LINE
  5
8252
330
7E37
100
AcDbEntity
  8
3
 62
     0
440
 16777216
370
    -2
100
AcDbLine
 10
-3774.325811659912
 20
-2126.264896
 30
0.0
 11
-3889.380935659909
 21
-2126.264896
 31
0.0
  0
LINE
  5
8253
330
7E37
100
AcDbEntity
  8
3
 62
     0
440
 16777216
370
    -2
100
AcDbLine
 10
-3774.325811659912
 20
-2176.264896000001
 30
0.0
 11
-3889.380935659909
 21
-2176.264896000001
 31
0.0
  0
LINE
  5
8254
330
7E37
100
AcDbEntity
  8
3
 62
     0
440
 16777216
370
    -2
100
AcDbLine
 10
-3879.38093565991
 20
-2126.264896
 30
0.0
 11
-3879.38093565991
 21
-2156.264896
 31
0.0
  0
LINE
  5
8255
330
7E37
100
AcDbEntity
  8
3
 62
     0
440
 16777216
370
    -2
100
AcDbLine
 10
-3879.38093565991
 20
-2176.264896000001
 30
0.0
 11
-3879.38093565991
 21
-2309.095038941084
 31
0.0
  0
INSERT
  5
8256
330
7E37
100
AcDbEntity
  8
3
 62
     0
440
 16777216
370
    -2
100
AcDbBlockReference
  2
_OPEN
 10
-3879.38093565991
 20
-2176.264896000001
 30
0.0
 41
20.0
 42
20.0
 43
20.0
 50
90.0
  0
LINE
  5
8257
330
7E37
100
AcDbEntity
  8
3
 62
     0
440
 16777216
370
    -2
100
AcDbLine
 10
-3879.38093565991
 20
-2196.264896
 30
0.0
 11
-3879.38093565991
 21
-2216.264896
 31
0.0
  0
LINE
  5
8258
330
7E37
100
AcDbEntity
  8
3
 62
     0
440
 16777216
370
    -2
100
AcDbLine
 10
-3879.38093565991
 20
-2176.264896000001
 30
0.0
 11
-3879.38093565991
 21
-2156.264896
 31
0.0
  0
MTEXT
  5
8259
330
7E37
100
AcDbEntity
  8
3
 62
     0
440
 16777216
100
AcDbMText
 10
-3904.380935659909
 20
-2274.80932465537
 30
0.0
 40
30.0
 41
0.0
 46
0.0
 71
     5
 72
     1
  1
\A1;50
 11
0.0000000000000001
 21
1.0
 31
0.0
 73
     1
 44
1.0
  0
POINT
  5
825A
330
7E37
100
AcDbEntity
  8
DEFPOINTS
 62
     0
440
 16777216
100
AcDbPoint
 10
-3769.325811659911
 20
-2126.264896
 30
0.0
  0
POINT
  5
825B
330
7E37
100
AcDbEntity
  8
DEFPOINTS
 62
     0
440
 16777216
100
AcDbPoint
 10
-3769.325811659911
 20
-2176.264896000001
 30
0.0
  0
POINT
  5
825C
330
7E37
100
AcDbEntity
  8
DEFPOINTS
 62
     0
440
 16777216
100
AcDbPoint
 10
-3879.38093565991
 20
-2176.264896000001
 30
0.0
  0
ENDBLK
  5
7E44
330
7E37
100
AcDbEntity
  8
0
100
AcDbBlockEnd
  0
BLOCK
  5
7E47
330
7E46
100
AcDbEntity
  8
0
100
AcDbBlockBegin
  2
*D19
 70
     1
 10
0.0
 20
0.0
 30
0.0
  3
*D19
  1

  0
LINE
  5
8273
330
7E46
100
AcDbEntity
  8
3
 62
     0
440
 16777216
370
    -2
100
AcDbLine
 10
-3774.325811659912
 20
-2126.264896
 30
0.0
 11
-3889.380935659911
 21
-2126.264896
 31
0.0
  0
LINE
  5
8274
330
7E46
100
AcDbEntity
  8
3
 62
     0
440
 16777216
370
    -2
100
AcDbLine
 10
-3749.325811659911
 20
-2056.264896
 30
0.0
 11
-3889.380935659911
 21
-2056.264896
 31
0.0
  0
LINE
  5
8275
330
7E46
100
AcDbEntity
  8
3
 62
     0
440
 16777216
370
    -2
100
AcDbLine
 10
-3879.380935659911
 20
-2106.264896
 30
0.0
 11
-3879.380935659911
 21
-2076.264896
 31
0.0
  0
MTEXT
  5
8276
330
7E46
100
AcDbEntity
  8
3
 62
     0
440
 16777216
100
AcDbMText
 10
-3913.535428235358
 20
-2092.173404809326
 30
0.0
 40
30.0
 41
0.0
 46
0.0
 71
     5
 72
     1
  1
\A1;(70)
 11
0.0000000000000001
 21
1.0
 31
0.0
 73
     1
 44
1.0
  0
INSERT
  5
8277
330
7E46
100
AcDbEntity
  8
3
 62
     0
440
 16777216
370
    -2
100
AcDbBlockReference
  2
_DOT
 10
-3879.380935659911
 20
-2126.264896
 30
0.0
 41
20.0
 42
20.0
 43
20.0
 50
270.0
  0
INSERT
  5
8278
330
7E46
100
AcDbEntity
  8
3
 62
     0
440
 16777216
370
    -2
100
AcDbBlockReference
  2
_OPEN
 10
-3879.380935659911
 20
-2056.264896
 30
0.0
 41
20.0
 42
20.0
 43
20.0
 50
90.0
  0
POINT
  5
8279
330
7E46
100
AcDbEntity
  8
DEFPOINTS
 62
     0
440
 16777216
100
AcDbPoint
 10
-3769.325811659911
 20
-2126.264896
 30
0.0
  0
POINT
  5
827A
330
7E46
100
AcDbEntity
  8
DEFPOINTS
 62
     0
440
 16777216
100
AcDbPoint
 10
-3744.325811659911
 20
-2056.264896
 30
0.0
  0
POINT
  5
827B
330
7E46
100
AcDbEntity
  8
DEFPOINTS
 62
     0
440
 16777216
100
AcDbPoint
 10
-3879.380935659911
 20
-2056.264896
 30
0.0
  0
ENDBLK
  5
7E51
330
7E46
100
AcDbEntity
  8
0
100
AcDbBlockEnd
  0
BLOCK
  5
7E54
330
7E53
100
AcDbEntity
  8
0
100
AcDbBlockBegin
  2
*D20
 70
     1
 10
0.0
 20
0.0
 30
0.0
  3
*D20
  1

  0
LINE
  5
7FA0
330
7E53
100
AcDbEntity
  8
3
 62
     0
440
 16777216
370
    -2
100
AcDbLine
 10
-3619.325811659911
 20
-1698.620714
 30
0.0
 11
-3989.086840846465
 21
-1698.620714
 31
0.0
  0
LINE
  5
7FA1
330
7E53
100
AcDbEntity
  8
3
 62
     0
440
 16777216
370
    -2
100
AcDbLine
 10
-3774.325811659912
 20
-2176.264896000001
 30
0.0
 11
-3989.086840846465
 21
-2176.264896000001
 31
0.0
  0
LINE
  5
7FA2
330
7E53
100
AcDbEntity
  8
3
 62
     0
440
 16777216
370
    -2
100
AcDbLine
 10
-3979.086840846465
 20
-1718.620714
 30
0.0
 11
-3979.086840846465
 21
-2156.264896
 31
0.0
  0
INSERT
  5
7FA3
330
7E53
100
AcDbEntity
  8
3
 62
     0
440
 16777216
370
    -2
100
AcDbBlockReference
  2
_OPEN
 10
-3979.086840846465
 20
-1698.620714
 30
0.0
 41
20.0
 42
20.0
 43
20.0
 50
90.0
  0
INSERT
  5
7FA4
330
7E53
100
AcDbEntity
  8
3
 62
     0
440
 16777216
370
    -2
100
AcDbBlockReference
  2
_OPEN
 10
-3979.086840846465
 20
-2176.264896000001
 30
0.0
 41
20.0
 42
20.0
 43
20.0
 50
270.0
  0
MTEXT
  5
7FA5
330
7E53
100
AcDbEntity
  8
3
 62
     0
440
 16777216
100
AcDbMText
 10
-4011.943983703607
 20
-1937.442805000001
 30
0.0
 40
30.0
 41
0.0
 46
0.0
 71
     5
 72
     1
  1
\A1;(478)
 11
0.0000000000000001
 21
1.0
 31
0.0
 73
     1
 44
1.0
  0
POINT
  5
7FA6
330
7E53
100
AcDbEntity
  8
DEFPOINTS
 62
     0
440
 16777216
100
AcDbPoint
 10
-3614.325811659912
 20
-1698.620714
 30
0.0
  0
POINT
  5
7FA7
330
7E53
100
AcDbEntity
  8
DEFPOINTS
 62
     0
440
 16777216
100
AcDbPoint
 10
-3769.325811659911
 20
-2176.264896000001
 30
0.0
  0
POINT
  5
7FA8
330
7E53
100
AcDbEntity
  8
DEFPOINTS
 62
     0
440
 16777216
100
AcDbPoint
 10
-3979.086840846465
 20
-2176.264896000001
 30
0.0
  0
ENDBLK
  5
7E5E
330
7E53
100
AcDbEntity
  8
0
100
AcDbBlockEnd
  0
BLOCK
  5
7FF4
330
7FF2
100
AcDbEntity
  8
0
100
AcDbBlockBegin
  2
_DotSmall
 70
     0
 10
0.0
 20
0.0
 30
0.0
  3
_DotSmall
  1

  0
LWPOLYLINE
  5
7FF3
330
7FF2
100
AcDbEntity
  8
0
  6
ByBlock
 62
     0
100
AcDbPolyline
 90
        2
 70
     1
 43
0.5
 10
-0.0625
 20
0.0
 42
1.0
 10
0.0625
 20
0.0
 42
1.0
  0
ENDBLK
  5
7FF5
330
7FF2
100
AcDbEntity
  8
0
100
AcDbBlockEnd
  0
BLOCK
  5
801F
330
801E
100
AcDbEntity
  8
0
100
AcDbBlockBegin
  2
*D22
 70
     1
 10
0.0
 20
0.0
 30
0.0
  3
*D22
  1

  0
LINE
  5
8020
330
801E
100
AcDbEntity
  8
3
 62
     0
440
 16777216
370
    -2
100
AcDbLine
 10
512.6325038471941
 20
741.9410338141347
 30
0.0
 11
425.4925707832645
 21
741.9410338141347
 31
0.0
  0
LINE
  5
8021
330
801E
100
AcDbEntity
  8
3
 62
     0
440
 16777216
370
    -2
100
AcDbLine
 10
537.6325038471941
 20
811.9410338141346
 30
0.0
 11
425.4925707832645
 21
811.9410338141346
 31
0.0
  0
LINE
  5
8022
330
801E
100
AcDbEntity
  8
3
 62
     0
440
 16777216
370
    -2
100
AcDbLine
 10
435.4925707832644
 20
761.9410338141348
 30
0.0
 11
435.4925707832644
 21
791.9410338141346
 31
0.0
  0
MTEXT
  5
8023
330
801E
100
AcDbEntity
  8
3
 62
     0
440
 16777216
100
AcDbMText
 10
398.3501704120354
 20
776.9410338141349
 30
0.0
 40
30.0
 41
0.0
 46
0.0
 71
     5
 72
     1
  1
\A1;(70)
 11
0.0000000000000001
 21
1.0
 31
0.0
 73
     1
 44
1.0
  0
INSERT
  5
8024
330
801E
100
AcDbEntity
  8
3
 62
     0
440
 16777216
370
    -2
100
AcDbBlockReference
  2
_DOT
 10
435.4925707832644
 20
741.9410338141347
 30
0.0
 41
20.0
 42
20.0
 43
20.0
 50
270.0
  0
INSERT
  5
8025
330
801E
100
AcDbEntity
  8
3
 62
     0
440
 16777216
370
    -2
100
AcDbBlockReference
  2
_OPEN
 10
435.4925707832644
 20
811.9410338141346
 30
0.0
 41
20.0
 42
20.0
 43
20.0
 50
90.0
  0
POINT
  5
8026
330
801E
100
AcDbEntity
  8
DEFPOINTS
 62
     0
440
 16777216
100
AcDbPoint
 10
517.6325038471941
 20
741.9410338141347
 30
0.0
  0
POINT
  5
8027
330
801E
100
AcDbEntity
  8
DEFPOINTS
 62
     0
440
 16777216
100
AcDbPoint
 10
542.6325038471941
 20
811.9410338141346
 30
0.0
  0
POINT
  5
8028
330
801E
100
AcDbEntity
  8
DEFPOINTS
 62
     0
440
 16777216
100
AcDbPoint
 10
435.4925707832644
 20
811.9410338141346
 30
0.0
  0
ENDBLK
  5
8029
330
801E
100
AcDbEntity
  8
0
100
AcDbBlockEnd
  0
BLOCK
  5
802E
330
802A
100
AcDbEntity
  8
0
100
AcDbBlockBegin
  2
A$C7BE51AB1
 70
     0
 10
0.0
 20
0.0
 30
0.0
  3
A$C7BE51AB1
  1

  0
DIMENSION
  5
802B
330
802A
100
AcDbEntity
  8
3
100
AcDbDimension
280
     0
  2
*D22
 10
62.85668558881297
 20
80.00000363625032
 30
0.0
 11
25.71428521758389
 21
45.00000363625054
 31
0.0
 12
-372.6358851944515
 22
-731.9410301778844
 32
0.0
 70
   128
 71
     5
 42
69.99999999999989
 73
     0
 74
     0
 75
     0
  3
IGA
100
AcDbAlignedDimension
 13
144.9966186527426
 23
10.00000363625042
 33
0.0
 14
169.9966186527426
 24
80.00000363625032
 34
0.0
 50
90.0
100
AcDbRotatedDimension
1001
ACAD
1000
DSTYLE
1002
{
1070
     3
1000
(<>)
1070
    40
1040
10.0
1070
   143
1040
0.039
1070
   172
1070
     1
1070
   271
1070
     0
1070
   343
1005
7DED
1002
}
  0
ENDBLK
  5
802F
330
802A
100
AcDbEntity
  8
0
100
AcDbBlockEnd
  0
BLOCK
  5
81F3
330
81F2
100
AcDbEntity
  8
0
100
AcDbBlockBegin
  2
_None
 70
     0
 10
0.0
 20
0.0
 30
0.0
  3
_None
  1

  0
ENDBLK
  5
81F4
330
81F2
100
AcDbEntity
  8
0
100
AcDbBlockEnd
  0
ENDSEC
  0
SECTION
  2
ENTITIES
  0
CIRCLE
  5
7A97
330
19
100
AcDbEntity
  8
1
  6
Continuous
100
AcDbCircle
 10
-3609.325811659912
 20
-1821.264896
 30
0.0
 40
80.0
  0
LINE
  5
7A98
330
19
100
AcDbEntity
  8
1
  6
Continuous
100
AcDbLine
 10
-3769.325811659911
 20
-1119.228037324095
 30
0.0
 11
-3769.325811659911
 21
-895.2280373240956
 31
0.0
  0
LINE
  5
7A99
330
19
100
AcDbEntity
  8
1
  6
Continuous
100
AcDbLine
 10
-3159.325811659911
 20
-895.2280373240956
 30
0.0
 11
-3159.325811659911
 21
-1119.228037324095
 31
0.0
  0
LINE
  5
7A9A
330
19
100
AcDbEntity
  8
1
  6
Continuous
100
AcDbLine
 10
-3744.325811659911
 20
-2056.264896
 30
0.0
 11
-3744.325811659911
 21
-2006.264896
 31
0.0
  0
LINE
  5
7A9B
330
19
100
AcDbEntity
  8
1
  6
Continuous
100
AcDbLine
 10
-3706.625811659911
 20
-2006.264896
 30
0.0
 11
-3706.625811659911
 21
-1726.264896
 31
0.0
  0
LINE
  5
7A9C
330
19
100
AcDbEntity
  8
1
  6
Continuous
100
AcDbLine
 10
-3435.325811659911
 20
-1986.264896
 30
0.0
 11
-3435.325811659911
 21
-2006.264896
 31
0.0
  0
LINE
  5
7A9D
330
19
100
AcDbEntity
  8
1
  6
Continuous
100
AcDbLine
 10
-3184.325811659911
 20
-1986.264896
 30
0.0
 11
-3435.325811659911
 21
-1986.264896
 31
0.0
  0
LINE
  5
7A9E
330
19
100
AcDbEntity
  8
1
  6
Continuous
100
AcDbLine
 10
-3246.325811659911
 20
-1986.264896
 30
0.0
 11
-3246.325811659911
 21
-1978.264896
 31
0.0
  0
LINE
  5
7A9F
330
19
100
AcDbEntity
  8
1
  6
Continuous
100
AcDbLine
 10
-3401.325811659911
 20
-1978.264896
 30
0.0
 11
-3393.125811659911
 21
-1955.464896
 31
0.0
  0
LINE
  5
7AA0
330
19
100
AcDbEntity
  8
1
  6
Continuous
100
AcDbLine
 10
-3401.325811659911
 20
-1986.264896
 30
0.0
 11
-3401.325811659911
 21
-1978.264896
 31
0.0
  0
LINE
  5
7AA1
330
19
100
AcDbEntity
  8
1
  6
Continuous
100
AcDbLine
 10
-3246.325811659911
 20
-1978.264896
 30
0.0
 11
-3254.525811659911
 21
-1955.464896
 31
0.0
  0
ARC
  5
7AA2
330
19
100
AcDbEntity
  8
1
  6
Continuous
100
AcDbCircle
 10
-3323.825811659911
 20
-1906.264896
 30
0.0
 40
85.0
100
AcDbArc
 50
324.7
 51
215.3
  0
LINE
  5
7AA3
330
19
100
AcDbEntity
  8
1
  6
Continuous
100
AcDbLine
 10
-3184.325811659911
 20
-1986.264896
 30
0.0
 11
-3184.325811659911
 21
-2056.264896
 31
0.0
  0
LINE
  5
7AA4
330
19
100
AcDbEntity
  8
1
  6
Continuous
100
AcDbLine
 10
-3184.325811659911
 20
-2056.264896
 30
0.0
 11
-3744.325811659911
 21
-2056.264896
 31
0.0
  0
LINE
  5
7AA5
330
19
100
AcDbEntity
  8
1
  6
Continuous
100
AcDbLine
 10
-3184.325811659911
 20
-2006.264896
 30
0.0
 11
-3744.325811659911
 21
-2006.264896
 31
0.0
  0
LINE
  5
7AA6
330
19
100
AcDbEntity
  8
1
  6
Continuous
100
AcDbLine
 10
-3706.625811659911
 20
-1726.264896
 30
0.0
 11
-3226.625811659911
 21
-1726.264896
 31
0.0
  0
LINE
  5
7AA7
330
19
100
AcDbEntity
  8
1
  6
Continuous
100
AcDbLine
 10
-3226.625811659911
 20
-1726.264896
 30
0.0
 11
-3226.625811659911
 21
-2006.264896
 31
0.0
  0
LINE
  5
7AA8
330
19
100
AcDbEntity
  8
1
  6
Continuous
100
AcDbLine
 10
-3499.325811659911
 20
-1779.164896
 30
0.0
 11
-3572.725811659912
 21
-1716.264896
 31
0.0
  0
LINE
  5
7AA9
330
19
100
AcDbEntity
  8
1
  6
Continuous
100
AcDbLine
 10
-3719.325811659911
 20
-1779.164896
 30
0.0
 11
-3645.925811659912
 21
-1716.264896
 31
0.0
  0
LINE
  5
7AAA
330
19
100
AcDbEntity
  8
1
  6
Continuous
100
AcDbLine
 10
-3499.325811659911
 20
-1854.564896
 30
0.0
 11
-3719.325811659911
 21
-1854.564896
 31
0.0
  0
LINE
  5
7AAB
330
19
100
AcDbEntity
  8
1
  6
Continuous
100
AcDbLine
 10
-3499.325811659911
 20
-1779.164896
 30
0.0
 11
-3499.325811659911
 21
-2006.264896
 31
0.0
  0
LINE
  5
7AAC
330
19
100
AcDbEntity
  8
1
  6
Continuous
100
AcDbLine
 10
-3645.925811659912
 20
-1716.264896
 30
0.0
 11
-3572.725811659912
 21
-1716.264896
 31
0.0
  0
LINE
  5
7AAD
330
19
100
AcDbEntity
  8
1
  6
Continuous
100
AcDbLine
 10
-3719.325811659911
 20
-2006.264896
 30
0.0
 11
-3719.325811659911
 21
-1779.164896
 31
0.0
  0
LINE
  5
7AAE
330
19
100
AcDbEntity
  8
1
  6
Continuous
100
AcDbLine
 10
-3739.325811659912
 20
-1820.264896
 30
0.0
 11
-3724.325811659912
 21
-1835.264896
 31
0.0
  0
LINE
  5
7AAF
330
19
100
AcDbEntity
  8
1
  6
Continuous
100
AcDbLine
 10
-3724.325811659912
 20
-1967.264896
 30
0.0
 11
-3724.325811659912
 21
-1835.264896
 31
0.0
  0
LINE
  5
7AB0
330
19
100
AcDbEntity
  8
1
  6
Continuous
100
AcDbLine
 10
-3739.325811659912
 20
-1982.264896
 30
0.0
 11
-3724.325811659912
 21
-1967.264896
 31
0.0
  0
ARC
  5
7AB1
330
19
100
AcDbEntity
  8
1
  6
Continuous
100
AcDbCircle
 10
-3598.325811659912
 20
-1832.264896
 30
0.0
 40
134.0
100
AcDbArc
 50
9.9
 51
90.5
  0
ARC
  5
7AB2
330
19
100
AcDbEntity
  8
1
  6
Continuous
100
AcDbCircle
 10
-3600.325811659911
 20
-1812.264896
 30
0.0
 40
114.0
100
AcDbArc
 50
89.50000000000001
 51
179.5
  0
ARC
  5
7AB3
330
19
100
AcDbEntity
  8
1
  6
Continuous
100
AcDbCircle
 10
-3622.325811659911
 20
-1834.264896
 30
0.0
 40
158.0
100
AcDbArc
 50
270.0
 51
9.099999999999999
  0
LINE
  5
7AB4
330
19
100
AcDbEntity
  8
1
  6
Continuous
100
AcDbLine
 10
-3724.325811659912
 20
-1992.264896
 30
0.0
 11
-3622.325811659911
 21
-1992.264896
 31
0.0
  0
LINE
  5
7AB5
330
19
100
AcDbEntity
  8
1
  6
Continuous
100
AcDbLine
 10
-3739.325811659912
 20
-2003.264896000001
 30
0.0
 11
-3739.325811659912
 21
-1799.264896
 31
0.0
  0
LINE
  5
7AB6
330
19
100
AcDbEntity
  8
1
  6
Continuous
100
AcDbLine
 10
-3724.325811659912
 20
-1811.264896
 30
0.0
 11
-3714.325811659911
 21
-1811.264896
 31
0.0
  0
LINE
  5
7AB7
330
19
100
AcDbEntity
  8
1
  6
Continuous
100
AcDbLine
 10
-3332.725811659911
 20
-1940.164896
 30
0.0
 11
-3620.725811659911
 21
-1864.764896
 31
0.0
  0
LINE
  5
7AB8
330
19
100
AcDbEntity
  8
1
  6
Continuous
100
AcDbLine
 10
-3312.725811659911
 20
-1873.064896
 30
0.0
 11
-3595.025811659911
 21
-1778.564896
 31
0.0
  0
CIRCLE
  5
7AB9
330
19
100
AcDbEntity
  8
1
  6
Continuous
100
AcDbCircle
 10
-3323.825811659911
 20
-1906.264896
 30
0.0
 40
35.0
  0
LINE
  5
7ABA
330
19
100
AcDbEntity
  8
2
  6
CENTER
100
AcDbLine
 10
-3323.825811659911
 20
-1941.264896
 30
0.0
 11
-3323.825811659911
 21
-1871.264896
 31
0.0
  0
LINE
  5
7ABB
330
19
100
AcDbEntity
  8
2
  6
CENTER
100
AcDbLine
 10
-3288.825811659911
 20
-1906.264896
 30
0.0
 11
-3358.825811659912
 21
-1906.264896
 31
0.0
  0
LINE
  5
7ABC
330
19
100
AcDbEntity
  8
2
  6
CENTER
100
AcDbLine
 10
-2536.093485034576
 20
-1821.264896
 30
0.0
 11
-2956.782790034576
 21
-1821.264896
 31
0.0
  0
LINE
  5
7ABD
330
19
100
AcDbEntity
  8
2
  6
CENTER
100
AcDbLine
 10
-3609.325811659912
 20
-2151.264896
 30
0.0
 11
-3609.325811659912
 21
-1692.52197814165
 31
0.0
  0
CIRCLE
  5
7ABE
330
19
100
AcDbEntity
  8
1
  6
Continuous
100
AcDbCircle
 10
-3609.325811659912
 20
-1821.264896
 30
0.0
 40
45.0
  0
CIRCLE
  5
7ABF
330
19
100
AcDbEntity
  8
1
  6
Continuous
100
AcDbCircle
 10
-3609.325811659912
 20
-1821.264896
 30
0.0
 40
100.0
  0
LINE
  5
7AC0
330
19
100
AcDbEntity
  8
1
  6
Continuous
100
AcDbLine
 10
-3709.325811659912
 20
-867.2280373240955
 30
0.0
 11
-3509.325811659912
 21
-867.2280373240955
 31
0.0
  0
LINE
  5
7AC1
330
19
100
AcDbEntity
  8
1
  6
Continuous
100
AcDbLine
 10
-3739.325811659912
 20
-988.2280373240956
 30
0.0
 11
-3724.325811659912
 21
-973.2280373240955
 31
0.0
  0
LINE
  5
7AC2
330
19
100
AcDbEntity
  8
1
  6
Continuous
100
AcDbLine
 10
-3739.325811659912
 20
-874.2280373240955
 30
0.0
 11
-3724.325811659912
 21
-889.2280373240955
 31
0.0
  0
LINE
  5
7AC3
330
19
100
AcDbEntity
  8
1
  6
Continuous
100
AcDbLine
 10
-3464.325811659911
 20
-883.2280373240955
 30
0.0
 11
-3464.325811659911
 21
-979.2280373240956
 31
0.0
  0
LINE
  5
7AC4
330
19
100
AcDbEntity
  8
1
  6
Continuous
100
AcDbLine
 10
-3724.325811659912
 20
-889.2280373240955
 30
0.0
 11
-3724.325811659912
 21
-973.2280373240955
 31
0.0
  0
ARC
  5
7AC5
330
19
100
AcDbEntity
  8
1
  6
Continuous
100
AcDbCircle
 10
-3472.325811659911
 20
-883.2280373240955
 30
0.0
 40
8.0
100
AcDbArc
 50
0.0
 51
90.0
  0
ARC
  5
7AC6
330
19
100
AcDbEntity
  8
1
  6
Continuous
100
AcDbCircle
 10
-3472.325811659911
 20
-979.2280373240956
 30
0.0
 40
8.0
100
AcDbArc
 50
270.0
 51
0.0
  0
LINE
  5
7AC7
330
19
100
AcDbEntity
  8
1
  6
Continuous
100
AcDbLine
 10
-3472.325811659911
 20
-987.2280373240956
 30
0.0
 11
-3739.325811659912
 21
-987.2280373240956
 31
0.0
  0
LINE
  5
7AC8
330
19
100
AcDbEntity
  8
1
  6
Continuous
100
AcDbLine
 10
-3739.325811659912
 20
-854.2280373240956
 30
0.0
 11
-3739.325811659912
 21
-1008.228037324095
 31
0.0
  0
LINE
  5
7AC9
330
19
100
AcDbEntity
  8
1
  6
Continuous
100
AcDbLine
 10
-3709.325811659912
 20
-994.8280373240955
 30
0.0
 11
-3709.325811659912
 21
-987.2280373240956
 31
0.0
  0
LINE
  5
7ACA
330
19
100
AcDbEntity
  8
1
  6
Continuous
100
AcDbLine
 10
-3472.325811659911
 20
-875.2280373240955
 30
0.0
 11
-3739.325811659912
 21
-875.2280373240955
 31
0.0
  0
LINE
  5
7ACB
330
19
100
AcDbEntity
  8
1
  6
Continuous
100
AcDbLine
 10
-3719.325811659911
 20
-994.8280373240955
 30
0.0
 11
-3499.325811659911
 21
-994.8280373240955
 31
0.0
  0
LINE
  5
7ACC
330
19
100
AcDbEntity
  8
1
  6
Continuous
100
AcDbLine
 10
-3509.325811659912
 20
-994.8280373240955
 30
0.0
 11
-3509.325811659912
 21
-987.2280373240956
 31
0.0
  0
LINE
  5
7ACD
330
19
100
AcDbEntity
  8
1
  6
Continuous
100
AcDbLine
 10
-3509.325811659912
 20
-867.2280373240955
 30
0.0
 11
-3509.325811659912
 21
-875.2280373240955
 31
0.0
  0
LINE
  5
7ACE
330
19
100
AcDbEntity
  8
1
  6
Continuous
100
AcDbLine
 10
-3709.325811659912
 20
-867.2280373240955
 30
0.0
 11
-3709.325811659912
 21
-875.2280373240955
 31
0.0
  0
LINE
  5
7ACF
330
19
100
AcDbEntity
  8
1
  6
Continuous
100
AcDbLine
 10
-3159.325811659911
 20
-1119.228037324095
 30
0.0
 11
-3314.325811659911
 21
-1119.228037324095
 31
0.0
  0
LINE
  5
7AD0
330
19
100
AcDbEntity
  8
1
  6
Continuous
100
AcDbLine
 10
-3769.325811659911
 20
-895.2280373240956
 30
0.0
 11
-3739.325811659912
 21
-895.2280373240956
 31
0.0
  0
LINE
  5
7AD1
330
19
100
AcDbEntity
  8
1
  6
Continuous
100
AcDbLine
 10
-3499.325811659911
 20
-994.8280373240955
 30
0.0
 11
-3499.325811659911
 21
-1119.228037324095
 31
0.0
  0
LINE
  5
7AD2
330
19
100
AcDbEntity
  8
1
  6
Continuous
100
AcDbLine
 10
-3719.325811659911
 20
-1119.228037324095
 30
0.0
 11
-3719.325811659911
 21
-994.8280373240955
 31
0.0
  0
LINE
  5
7AD3
330
19
100
AcDbEntity
  8
1
  6
Continuous
100
AcDbLine
 10
-3238.825811659911
 20
-1105.528037324096
 30
0.0
 11
-3238.825811659911
 21
-914.7280373240956
 31
0.0
  0
LINE
  5
7AD4
330
19
100
AcDbEntity
  8
1
  6
Continuous
100
AcDbLine
 10
-3333.325811659911
 20
-1135.328037324095
 30
0.0
 11
-3333.325811659911
 21
-1105.528037324096
 31
0.0
  0
LINE
  5
7AD5
330
19
100
AcDbEntity
  8
1
  6
Continuous
100
AcDbLine
 10
-3314.325811659911
 20
-1135.328037324095
 30
0.0
 11
-3314.325811659911
 21
-1105.528037324096
 31
0.0
  0
LINE
  5
7AD6
330
19
100
AcDbEntity
  8
1
  6
Continuous
100
AcDbLine
 10
-3408.825811659911
 20
-1105.528037324096
 30
0.0
 11
-3238.825811659911
 21
-1105.528037324096
 31
0.0
  0
LINE
  5
7AD7
330
19
100
AcDbEntity
  8
1
  6
Continuous
100
AcDbLine
 10
-3408.825811659911
 20
-914.7280373240956
 30
0.0
 11
-3238.825811659911
 21
-914.7280373240956
 31
0.0
  0
LINE
  5
7AD8
330
19
100
AcDbEntity
  8
1
  6
Continuous
100
AcDbLine
 10
-3408.825811659911
 20
-1105.528037324096
 30
0.0
 11
-3408.825811659911
 21
-914.7280373240956
 31
0.0
  0
LINE
  5
7AD9
330
19
100
AcDbEntity
  8
1
  6
Continuous
100
AcDbLine
 10
-3706.625811659911
 20
-1191.228037324095
 30
0.0
 11
-3226.625811659911
 21
-1191.228037324095
 31
0.0
  0
LINE
  5
7ADA
330
19
100
AcDbEntity
  8
1
  6
Continuous
100
AcDbLine
 10
-3706.625811659911
 20
-1116.228037324095
 30
0.0
 11
-3226.625811659911
 21
-1116.228037324095
 31
0.0
  0
LINE
  5
7ADB
330
19
100
AcDbEntity
  8
1
  6
Continuous
100
AcDbLine
 10
-3564.325811659911
 20
-1135.328037324095
 30
0.0
 11
-3564.325811659911
 21
-1170.328037324095
 31
0.0
  0
LINE
  5
7ADC
330
19
100
AcDbEntity
  8
1
  6
Continuous
100
AcDbLine
 10
-3654.325811659911
 20
-1135.328037324095
 30
0.0
 11
-3654.325811659911
 21
-1170.328037324095
 31
0.0
  0
LINE
  5
7ADD
330
19
100
AcDbEntity
  8
1
  6
Continuous
100
AcDbLine
 10
-3654.325811659911
 20
-1170.328037324095
 30
0.0
 11
-3564.325811659911
 21
-1170.328037324095
 31
0.0
  0
LINE
  5
7ADE
330
19
100
AcDbEntity
  8
1
  6
Continuous
100
AcDbLine
 10
-3654.325811659911
 20
-1135.328037324095
 30
0.0
 11
-3564.325811659911
 21
-1135.328037324095
 31
0.0
  0
LINE
  5
7ADF
330
19
100
AcDbEntity
  8
1
  6
Continuous
100
AcDbLine
 10
-3597.325811659911
 20
-994.8280373240955
 30
0.0
 11
-3597.325811659911
 21
-1135.328037324095
 31
0.0
  0
LINE
  5
7AE0
330
19
100
AcDbEntity
  8
1
  6
Continuous
100
AcDbLine
 10
-3621.325811659911
 20
-994.8280373240955
 30
0.0
 11
-3621.325811659911
 21
-1135.328037324095
 31
0.0
  0
LINE
  5
7AE1
330
19
100
AcDbEntity
  8
1
  6
Continuous
100
AcDbLine
 10
-3226.625811659911
 20
-1116.228037324095
 30
0.0
 11
-3226.625811659911
 21
-1191.228037324095
 31
0.0
  0
LINE
  5
7AE2
330
19
100
AcDbEntity
  8
1
  6
Continuous
100
AcDbLine
 10
-3706.625811659911
 20
-1191.228037324095
 30
0.0
 11
-3706.625811659911
 21
-1116.228037324095
 31
0.0
  0
LINE
  5
7AE3
330
19
100
AcDbEntity
  8
1
  6
Continuous
100
AcDbLine
 10
-3621.325811659911
 20
-1119.228037324095
 30
0.0
 11
-3769.325811659911
 21
-1119.228037324095
 31
0.0
  0
LINE
  5
7AE4
330
19
100
AcDbEntity
  8
1
  6
Continuous
100
AcDbLine
 10
-3358.825811659912
 20
-1135.328037324095
 30
0.0
 11
-3288.825811659911
 21
-1135.328037324095
 31
0.0
  0
LINE
  5
7AE5
330
19
100
AcDbEntity
  8
1
  6
Continuous
100
AcDbLine
 10
-3358.825811659912
 20
-1170.328037324095
 30
0.0
 11
-3288.825811659911
 21
-1170.328037324095
 31
0.0
  0
LINE
  5
7AE6
330
19
100
AcDbEntity
  8
1
  6
Continuous
100
AcDbLine
 10
-3358.825811659912
 20
-1135.328037324095
 30
0.0
 11
-3358.825811659912
 21
-1170.328037324095
 31
0.0
  0
LINE
  5
7AE7
330
19
100
AcDbEntity
  8
1
  6
Continuous
100
AcDbLine
 10
-3288.825811659911
 20
-1135.328037324095
 30
0.0
 11
-3288.825811659911
 21
-1170.328037324095
 31
0.0
  0
LINE
  5
7AE8
330
19
100
AcDbEntity
  8
1
  6
Continuous
100
AcDbLine
 10
-3464.325811659911
 20
-895.2280373240956
 30
0.0
 11
-3159.325811659911
 21
-895.2280373240956
 31
0.0
  0
LINE
  5
7AE9
330
19
100
AcDbEntity
  8
1
  6
Continuous
100
AcDbLine
 10
-3333.325811659911
 20
-1119.228037324095
 30
0.0
 11
-3597.325811659911
 21
-1119.228037324095
 31
0.0
  0
LINE
  5
7AEA
330
19
100
AcDbEntity
  8
1
  6
Continuous
100
AcDbLine
 10
-3724.325811659912
 20
-1821.264896
 30
0.0
 11
-3724.325811659912
 21
-1811.264896
 31
0.0
  0
LINE
  5
7AEB
330
19
100
AcDbEntity
  8
1
  6
Continuous
100
AcDbLine
 10
-3724.325811659912
 20
-1992.264896
 30
0.0
 11
-3724.325811659912
 21
-1981.264896
 31
0.0
  0
LINE
  5
7AEC
330
19
100
AcDbEntity
  8
1
  6
Continuous
100
AcDbLine
 10
-3739.325811659912
 20
-1821.264896
 30
0.0
 11
-3724.325811659912
 21
-1821.264896
 31
0.0
  0
LINE
  5
7AED
330
19
100
AcDbEntity
  8
1
  6
Continuous
100
AcDbLine
 10
-3724.325811659912
 20
-1981.264896
 30
0.0
 11
-3739.325811659912
 21
-1981.264896
 31
0.0
  0
LINE
  5
7AEE
330
19
100
AcDbEntity
  8
1
  6
Continuous
100
AcDbLine
 10
-3744.325811659911
 20
-2151.264896
 30
0.0
 11
-3744.325811659911
 21
-2176.264896000001
 31
0.0
  0
LINE
  5
7AEF
330
19
100
AcDbEntity
  8
1
  6
Continuous
100
AcDbLine
 10
-3769.325811659911
 20
-2176.264896000001
 30
0.0
 11
-3744.325811659911
 21
-2176.264896000001
 31
0.0
  0
LINE
  5
7AF0
330
19
100
AcDbEntity
  8
1
  6
Continuous
100
AcDbLine
 10
-3159.325811659911
 20
-2176.264896000001
 30
0.0
 11
-3184.325811659911
 21
-2176.264896000001
 31
0.0
  0
LINE
  5
7AF1
330
19
100
AcDbEntity
  8
1
  6
Continuous
100
AcDbLine
 10
-3184.325811659911
 20
-2151.264896
 30
0.0
 11
-3184.325811659911
 21
-2176.264896000001
 31
0.0
  0
LINE
  5
7AF2
330
19
100
AcDbEntity
  8
1
  6
Continuous
100
AcDbLine
 10
-3769.325811659911
 20
-773.7280373240955
 30
0.0
 11
-3769.325811659911
 21
-1203.728037324095
 31
0.0
  0
LINE
  5
7AF3
330
19
100
AcDbEntity
  8
1
  6
Continuous
100
AcDbLine
 10
-3744.325811659911
 20
-1203.728037324095
 30
0.0
 11
-3769.325811659911
 21
-1203.728037324095
 31
0.0
  0
LINE
  5
7AF4
330
19
100
AcDbEntity
  8
1
  6
Continuous
100
AcDbLine
 10
-3744.325811659911
 20
-773.7280373240955
 30
0.0
 11
-3744.325811659911
 21
-1203.728037324095
 31
0.0
  0
LINE
  5
7AF5
330
19
100
AcDbEntity
  8
1
  6
Continuous
100
AcDbLine
 10
-3744.325811659911
 20
-773.7280373240955
 30
0.0
 11
-3769.325811659911
 21
-773.7280373240955
 31
0.0
  0
LINE
  5
7AF6
330
19
100
AcDbEntity
  8
1
  6
Continuous
100
AcDbLine
 10
-3184.325811659911
 20
-773.7280373240955
 30
0.0
 11
-3184.325811659911
 21
-1203.728037324095
 31
0.0
  0
LINE
  5
7AF7
330
19
100
AcDbEntity
  8
1
  6
Continuous
100
AcDbLine
 10
-3184.325811659911
 20
-773.7280373240955
 30
0.0
 11
-3159.325811659911
 21
-773.7280373240955
 31
0.0
  0
LINE
  5
7AF8
330
19
100
AcDbEntity
  8
1
  6
Continuous
100
AcDbLine
 10
-3159.325811659911
 20
-773.7280373240955
 30
0.0
 11
-3159.325811659911
 21
-1203.728037324095
 31
0.0
  0
LINE
  5
7AF9
330
19
100
AcDbEntity
  8
1
  6
Continuous
100
AcDbLine
 10
-3184.325811659911
 20
-1203.728037324095
 30
0.0
 11
-3159.325811659911
 21
-1203.728037324095
 31
0.0
  0
LINE
  5
7AFA
330
19
100
AcDbEntity
  8
1
  6
Continuous
100
AcDbLine
 10
-3159.325811659911
 20
-2126.264896
 30
0.0
 11
-3769.325811659911
 21
-2126.264896
 31
0.0
  0
LINE
  5
7AFB
330
19
100
AcDbEntity
  8
1
  6
Continuous
100
AcDbLine
 10
-3159.325811659911
 20
-2151.264896
 30
0.0
 11
-3769.325811659911
 21
-2151.264896
 31
0.0
  0
LINE
  5
7AFC
330
19
100
AcDbEntity
  8
1
  6
Continuous
100
AcDbLine
 10
-3159.325811659911
 20
-2126.264896
 30
0.0
 11
-3159.325811659911
 21
-2176.264896000001
 31
0.0
  0
LINE
  5
7AFD
330
19
100
AcDbEntity
  8
1
  6
Continuous
100
AcDbLine
 10
-3769.325811659911
 20
-2176.264896000001
 30
0.0
 11
-3769.325811659911
 21
-2126.264896
 31
0.0
  0
POINT
  5
7B00
330
19
100
AcDbEntity
  8
1
  6
Continuous
100
AcDbPoint
 10
-2877.739351659911
 20
-2126.264896
 30
0.0
  0
LINE
  5
7B03
330
19
100
AcDbEntity
  8
1
  6
Continuous
100
AcDbLine
 10
-2897.160556034576
 20
-2151.264896
 30
0.0
 11
-2467.160556034576
 21
-2151.264896
 31
0.0
  0
LINE
  5
7B04
330
19
100
AcDbEntity
  8
1
  6
Continuous
100
AcDbLine
 10
-2589.160556034576
 20
-2126.264896
 30
0.0
 11
-2589.160556034576
 21
-2151.264896
 31
0.0
  0
LINE
  5
7B05
330
19
100
AcDbEntity
  8
1
  6
Continuous
100
AcDbLine
 10
-2813.160556034576
 20
-2126.264896
 30
0.0
 11
-2813.160556034576
 21
-2151.264896
 31
0.0
  0
LINE
  5
7B06
330
19
100
AcDbEntity
  8
1
  6
Continuous
100
AcDbLine
 10
-2813.160556034576
 20
-2126.264896
 30
0.0
 11
-2589.160556034576
 21
-2126.264896
 31
0.0
  0
LINE
  5
7B07
330
19
100
AcDbEntity
  8
1
  6
Continuous
100
AcDbLine
 10
-2897.160556034576
 20
-2151.264896
 30
0.0
 11
-2897.160556034576
 21
-2176.264896000001
 31
0.0
  0
LINE
  5
7B08
330
19
100
AcDbEntity
  8
1
  6
Continuous
100
AcDbLine
 10
-2467.160556034576
 20
-2151.264896
 30
0.0
 11
-2467.160556034576
 21
-2176.264896000001
 31
0.0
  0
LINE
  5
7B09
330
19
100
AcDbEntity
  8
1
  6
Continuous
100
AcDbLine
 10
-2897.160556034576
 20
-2176.264896000001
 30
0.0
 11
-2467.160556034576
 21
-2176.264896000001
 31
0.0
  0
LINE
  5
7B0A
330
19
100
AcDbEntity
  8
1
  6
Continuous
100
AcDbLine
 10
-2688.760556034576
 20
-1779.164896
 30
0.0
 11
-2788.160556034576
 21
-1854.564896
 31
0.0
  0
LINE
  5
7B0B
330
19
100
AcDbEntity
  8
1
  6
Continuous
100
AcDbLine
 10
-2788.160556034576
 20
-1854.564896
 30
0.0
 11
-2788.160556034576
 21
-2006.264896
 31
0.0
  0
LINE
  5
7B0C
330
19
100
AcDbEntity
  8
1
  6
Continuous
100
AcDbLine
 10
-2813.160556034576
 20
-2006.264896
 30
0.0
 11
-2813.160556034576
 21
-2056.264896
 31
0.0
  0
LINE
  5
7B0D
330
19
100
AcDbEntity
  8
1
  6
Continuous
100
AcDbLine
 10
-2885.160556034576
 20
-2006.264896
 30
0.0
 11
-2589.160556034576
 21
-2006.264896
 31
0.0
  0
LINE
  5
7B0E
330
19
100
AcDbEntity
  8
1
  6
Continuous
100
AcDbLine
 10
-2813.160556034576
 20
-2056.264896
 30
0.0
 11
-2589.160556034576
 21
-2056.264896
 31
0.0
  0
LINE
  5
7B0F
330
19
100
AcDbEntity
  8
1
  6
Continuous
100
AcDbLine
 10
-2589.160556034576
 20
-2006.264896
 30
0.0
 11
-2589.160556034576
 21
-2056.264896
 31
0.0
  0
ARC
  5
7B12
330
19
100
AcDbEntity
  8
1
  6
Continuous
100
AcDbCircle
 10
-2669.160556034576
 20
-1710.264896
 30
0.0
 40
12.0
100
AcDbArc
 50
90.0
 51
180.0
  0
ARC
  5
7B13
330
19
100
AcDbEntity
  8
1
  6
Continuous
100
AcDbCircle
 10
-2581.160556034576
 20
-1710.264896
 30
0.0
 40
12.0
100
AcDbArc
 50
0.0
 51
90.0
  0
LINE
  5
7B14
330
19
100
AcDbEntity
  8
1
  6
Continuous
100
AcDbLine
 10
-2681.160556034576
 20
-1981.264896
 30
0.0
 11
-2681.160556034576
 21
-1710.264896
 31
0.0
  0
LINE
  5
7B15
330
19
100
AcDbEntity
  8
1
  6
Continuous
100
AcDbLine
 10
-2569.160556034576
 20
-1981.264896
 30
0.0
 11
-2681.160556034576
 21
-1981.264896
 31
0.0
  0
LINE
  5
7B16
330
19
100
AcDbEntity
  8
1
  6
Continuous
100
AcDbLine
 10
-2569.160556034576
 20
-1710.264896
 30
0.0
 11
-2569.160556034576
 21
-1981.264896
 31
0.0
  0
LINE
  5
7B18
330
19
100
AcDbEntity
  8
1
  6
Continuous
100
AcDbLine
 10
-2688.760556034576
 20
-1921.264896
 30
0.0
 11
-2680.760556034576
 21
-1921.264896
 31
0.0
  0
LINE
  5
7B19
330
19
100
AcDbEntity
  8
1
  6
Continuous
100
AcDbLine
 10
-2688.760556034576
 20
-1721.264896
 30
0.0
 11
-2688.760556034576
 21
-2006.264896
 31
0.0
  0
LINE
  5
7B1A
330
19
100
AcDbEntity
  8
1
  6
Continuous
100
AcDbLine
 10
-2688.760556034576
 20
-1721.264896
 30
0.0
 11
-2680.760556034576
 21
-1721.264896
 31
0.0
  0
LINE
  5
7B1B
330
19
100
AcDbEntity
  8
1
  6
Continuous
100
AcDbLine
 10
-2561.160556034576
 20
-1721.264896
 30
0.0
 11
-2569.560556034576
 21
-1721.264896
 31
0.0
  0
LINE
  5
7B1C
330
19
100
AcDbEntity
  8
1
  6
Continuous
100
AcDbLine
 10
-2561.160556034576
 20
-1921.264896
 30
0.0
 11
-2569.560556034576
 21
-1921.264896
 31
0.0
  0
LINE
  5
7B1D
330
19
100
AcDbEntity
  8
1
  6
Continuous
100
AcDbLine
 10
-2669.160556034576
 20
-1698.264896
 30
0.0
 11
-2581.160556034576
 21
-1698.264896
 31
0.0
  0
LINE
  5
7B1E
330
19
100
AcDbEntity
  8
1
  6
Continuous
100
AcDbLine
 10
-2810.160556034576
 20
-1726.264896
 30
0.0
 11
-2885.160556034576
 21
-1726.264896
 31
0.0
  0
LINE
  5
7B1F
330
19
100
AcDbEntity
  8
1
  6
Continuous
100
AcDbLine
 10
-2885.160556034576
 20
-2006.264896
 30
0.0
 11
-2885.160556034576
 21
-1726.264896
 31
0.0
  0
LINE
  5
7B20
330
19
100
AcDbEntity
  8
1
  6
Continuous
100
AcDbLine
 10
-2810.160556034576
 20
-2006.264896
 30
0.0
 11
-2810.160556034576
 21
-1726.264896
 31
0.0
  0
LINE
  5
7B21
330
19
100
AcDbEntity
  8
1
  6
Continuous
100
AcDbLine
 10
-2830.160556034576
 20
-1915.764896
 30
0.0
 11
-2788.160556034576
 21
-1915.764896
 31
0.0
  0
LINE
  5
7B22
330
19
100
AcDbEntity
  8
1
  6
Continuous
100
AcDbLine
 10
-2830.160556034576
 20
-1896.764896
 30
0.0
 11
-2788.160556034576
 21
-1896.764896
 31
0.0
  0
LINE
  5
7B23
330
19
100
AcDbEntity
  8
1
  6
Continuous
100
AcDbLine
 10
-2830.160556034576
 20
-1941.264896
 30
0.0
 11
-2830.160556034576
 21
-1871.264896
 31
0.0
  0
LINE
  5
7B24
330
19
100
AcDbEntity
  8
1
  6
Continuous
100
AcDbLine
 10
-2865.160556034576
 20
-1941.264896
 30
0.0
 11
-2865.160556034576
 21
-1871.264896
 31
0.0
  0
LINE
  5
7B25
330
19
100
AcDbEntity
  8
1
  6
Continuous
100
AcDbLine
 10
-2830.160556034576
 20
-1941.264896
 30
0.0
 11
-2865.160556034576
 21
-1941.264896
 31
0.0
  0
LINE
  5
7B26
330
19
100
AcDbEntity
  8
1
  6
Continuous
100
AcDbLine
 10
-2830.160556034576
 20
-1871.264896
 30
0.0
 11
-2865.160556034576
 21
-1871.264896
 31
0.0
  0
LINE
  5
7B27
330
19
100
AcDbEntity
  8
1
  6
Continuous
100
AcDbLine
 10
-2830.160556034576
 20
-1776.264896
 30
0.0
 11
-2865.160556034576
 21
-1776.264896
 31
0.0
  0
LINE
  5
7B28
330
19
100
AcDbEntity
  8
1
  6
Continuous
100
AcDbLine
 10
-2830.160556034576
 20
-1866.264896
 30
0.0
 11
-2865.160556034576
 21
-1866.264896
 31
0.0
  0
LINE
  5
7B29
330
19
100
AcDbEntity
  8
1
  6
Continuous
100
AcDbLine
 10
-2865.160556034576
 20
-1866.264896
 30
0.0
 11
-2865.160556034576
 21
-1776.264896
 31
0.0
  0
LINE
  5
7B2A
330
19
100
AcDbEntity
  8
1
  6
Continuous
100
AcDbLine
 10
-2830.160556034576
 20
-1866.264896
 30
0.0
 11
-2830.160556034576
 21
-1776.264896
 31
0.0
  0
LINE
  5
7B2B
330
19
100
AcDbEntity
  8
1
  6
Continuous
100
AcDbLine
 10
-2728.460556034576
 20
-1809.264896
 30
0.0
 11
-2830.160556034576
 21
-1809.264896
 31
0.0
  0
LINE
  5
7B2C
330
19
100
AcDbEntity
  8
1
  6
Continuous
100
AcDbLine
 10
-2760.060556034576
 20
-1833.264896
 30
0.0
 11
-2830.160556034576
 21
-1833.264896
 31
0.0
  0
LINE
  5
7B2D
330
19
100
AcDbEntity
  8
1
  6
Continuous
100
AcDbLine
 10
-2561.160556034576
 20
-1921.264896
 30
0.0
 11
-2561.160556034576
 21
-1721.264896
 31
0.0
  0
LINE
  5
7B2E
330
19
100
AcDbEntity
  8
2
  6
CENTER
100
AcDbLine
 10
-2625.160556034576
 20
-2176.264896000001
 30
0.0
 11
-2625.160556034576
 21
-1688.904642372225
 31
0.0
  0
LINE
  5
7B2F
330
19
100
AcDbEntity
  8
2
  6
CENTER
100
AcDbLine
 10
-3442.693465659911
 20
-931.2280373240955
 30
0.0
 11
-3783.793942659911
 21
-931.2280373240955
 31
0.0
  0
LINE
  5
7B30
330
19
100
AcDbEntity
  8
4
  6
Continuous
100
AcDbLine
 10
-2424.653248
 20
-2377.266633
 30
0.0
 11
-2424.653248
 21
-2577.266632999999
 31
0.0
  0
LINE
  5
7B31
330
19
100
AcDbEntity
  8
4
  6
Continuous
100
AcDbLine
 10
-3124.653248
 20
-2377.266633
 30
0.0
 11
-3124.653248
 21
-2577.266632999999
 31
0.0
  0
LINE
  5
7B32
330
19
100
AcDbEntity
  8
4
  6
Continuous
100
AcDbLine
 10
-3624.653248
 20
-2377.266633
 30
0.0
 11
-3624.653248
 21
-2577.266632999999
 31
0.0
  0
LINE
  5
7B35
330
19
100
AcDbEntity
  8
4
  6
Continuous
100
AcDbLine
 10
-3624.653248
 20
-2577.266633
 30
0.0
 11
-2424.653248
 21
-2577.266633
 31
0.0
  0
LINE
  5
7B36
330
19
100
AcDbEntity
  8
4
  6
Continuous
100
AcDbLine
 10
-3624.653248
 20
-2477.266633
 30
0.0
 11
-2424.653248
 21
-2477.266633
 31
0.0
  0
TEXT
  5
7B37
330
19
100
AcDbEntity
  8
4
  6
Continuous
100
AcDbText
 10
-3586.151167
 20
-2445.723607
 30
0.0
 40
50.0
  1
機器名称
100
AcDbText
  0
TEXT
  5
7B38
330
19
100
AcDbEntity
  8
4
  6
Continuous
100
AcDbText
 10
-3588.395142
 20
-2555.621476000001
 30
0.0
 40
50.0
  1
機器型番
100
AcDbText
  0
TEXT
  5
7B39
330
19
100
AcDbEntity
  8
4
  6
Continuous
100
AcDbText
 10
-3096.974503
 20
-2454.694864
 30
0.0
 40
45.0
  1
ミツヤニューマルチファン
100
AcDbText
  0
TEXT
  5
7B3A
330
19
100
AcDbEntity
  8
4
  6
Continuous
100
AcDbText
 10
-3087.998753000001
 20
-2560.107048
 30
0.0
 40
50.0
  1
NM#1-1
100
AcDbText
  0
TEXT
  5
7B3C
330
19
100
AcDbEntity
  8
4
  6
Continuous
100
AcDbText
 10
-3529.879441
 20
-493.837791
 30
0.0
 40
54.0
  1
天井吊防振ベット
100
AcDbText
  0
TEXT
  5
7B3D
330
19
100
AcDbEntity
  8
4
  6
Continuous
100
AcDbText
 10
-3958.485655
 20
-343.385656
 30
0.0
 40
72.0
  1
ベルト駆動式片吸込片持多翼ファン
100
AcDbText
  0
LINE
  5
7B3E
330
19
100
AcDbEntity
  8
4
  6
Continuous
100
AcDbLine
 10
-4024.653247999999
 20
-407.8578779999999
 30
0.0
 11
-2424.653248
 21
-407.8578779999999
 31
0.0
  0
LINE
  5
7B3F
330
19
100
AcDbEntity
  8
4
  6
Continuous
100
AcDbLine
 10
-4024.653247999999
 20
-207.857878
 30
0.0
 11
-2424.653248
 21
-207.857878
 31
0.0
  0
LINE
  5
7B40
330
19
100
AcDbEntity
  8
4
  6
Continuous
100
AcDbLine
 10
-3624.653248
 20
-2377.266633
 30
0.0
 11
-2424.653248
 21
-2377.266633
 31
0.0
  0
LINE
  5
7B41
330
19
100
AcDbEntity
  8
4
  6
Continuous
100
AcDbLine
 10
-4024.653247999999
 20
-207.857878
 30
0.0
 11
-4024.653247999999
 21
-407.8578779999999
 31
0.0
  0
TEXT
  5
7B42
330
19
100
AcDbEntity
  8
4
  6
Continuous
100
AcDbText
 10
-3965.738272999999
 20
-494.947155
 30
0.0
 40
54.0
  1
右回転左横向
100
AcDbText
  0
TEXT
  5
7B43
330
19
100
AcDbEntity
  8
4
  6
Continuous
100
AcDbText
 10
-2805.683689
 20
-171.205551
 30
0.0
 40
56.0
  1
No.
100
AcDbText
  0
TEXT
  5
7B44
330
19
100
AcDbEntity
  8
4
  6
Continuous
100
AcDbText
 10
-2868.804678
 20
-493.837791
 30
0.0
 40
54.0
  1
縮尺：1/10
100
AcDbText
  0
LINE
  5
7B45
330
19
100
AcDbEntity
  8
4
  6
Continuous
100
AcDbLine
 10
-2424.653248
 20
-207.857878
 30
0.0
 11
-2424.653248
 21
-407.8578779999999
 31
0.0
  0
LINE
  5
7B47
330
19
100
AcDbEntity
  8
4
  6
Continuous
100
AcDbLine
 10
-2834.035826
 20
-196.003049
 30
0.0
 11
-2834.035826
 21
-90.61437099999999
 31
0.0
  0
LINE
  5
7B48
330
19
100
AcDbEntity
  8
4
  6
Continuous
100
AcDbLine
 10
-2834.035826
 20
-90.61437099999999
 30
0.0
 11
-2424.653248
 21
-90.61437099999999
 31
0.0
  0
LINE
  5
7B49
330
19
100
AcDbEntity
  8
4
  6
Continuous
100
AcDbLine
 10
-2424.653248
 20
-90.61437099999999
 30
0.0
 11
-2424.653248
 21
-196.003049
 31
0.0
  0
LINE
  5
7B4A
330
19
100
AcDbEntity
  8
4
  6
Continuous
100
AcDbLine
 10
-2424.653248
 20
-196.003049
 30
0.0
 11
-2834.035826
 21
-196.003049
 31
0.0
  0
DIMENSION
  5
7B63
330
19
100
AcDbEntity
  8
3
  6
Continuous
100
AcDbDimension
280
     0
  2
*D1
 10
-3609.325811659912
 20
-2221.96699
 30
0.0
 11
-3686.320545659911
 21
-2221.96699
 31
0.0
 70
   160
 71
     5
 42
160.0
 73
     0
 74
     0
 75
     0
  3
IGA
100
AcDbAlignedDimension
 13
-3769.325811659911
 23
-2176.264896000001
 33
0.0
 14
-3609.325811659912
 24
-2151.264896
 34
0.0
100
AcDbRotatedDimension
1001
ACAD
1000
DSTYLE
1002
{
1070
   287
1070
     3
1070
    40
1040
10.0
1070
   143
1040
0.039
1070
   172
1070
     1
1070
   271
1070
     0
1070
   279
1070
     0
1070
   288
1070
     1
1002
}
  0
DIMENSION
  5
7B70
330
19
100
AcDbEntity
  8
3
  6
Continuous
100
AcDbDimension
280
     0
  2
*D2
 10
-3159.325811659911
 20
-2221.96699
 30
0.0
 11
-3384.325811659911
 21
-2196.96699
 31
0.0
 70
    32
 71
     5
 42
450.0000000000004
 73
     0
 74
     0
 75
     0
  3
IGA
100
AcDbAlignedDimension
 13
-3609.325811659912
 23
-2151.264896
 33
0.0
 14
-3159.325811659911
 24
-2176.264896000001
 34
0.0
100
AcDbRotatedDimension
1001
ACAD
1000
DSTYLE
1002
{
1070
   287
1070
     4
1070
    40
1040
10.0
1070
    75
1070
     1
1070
   143
1040
0.039
1070
   172
1070
     1
1070
   271
1070
     0
1070
   279
1070
     1
1070
   288
1070
     1
1002
}
  0
DIMENSION
  5
7B7D
330
19
100
AcDbEntity
  8
3
  6
Continuous
100
AcDbDimension
280
     0
  2
*D3
 10
-3773.108100659911
 20
-1821.264896
 30
0.0
 11
-3773.108100659911
 21
-1899.125918
 31
0.0
 70
   160
 71
     5
 42
-1.0
 73
     0
 74
     0
 75
     0
  3
IGA
100
AcDbAlignedDimension
 13
-3739.325811659912
 23
-1981.264896
 33
0.0
 14
-3739.325811659912
 24
-1821.264896
 34
0.0
 50
90.0
100
AcDbRotatedDimension
1001
ACAD
1000
DSTYLE
1002
{
1070
   287
1070
     3
1070
    40
1040
10.0
1070
   143
1040
0.039
1070
   172
1070
     1
1070
   271
1070
     0
1070
   279
1070
     0
1070
   288
1070
     1
1002
}
  0
DIMENSION
  5
7B8C
330
19
100
AcDbEntity
  8
3
  6
Continuous
100
AcDbDimension
280
     0
  2
*D4
 10
-3609.325811659912
 20
-1664.28667
 30
0.0
 11
-3674.325811659912
 21
-1642.736733528879
 31
0.0
 70
   160
 71
     5
 42
-1.0
 73
     0
 74
     0
 75
     0
  3
IGA
100
AcDbAlignedDimension
 13
-3739.325811659912
 23
-1799.264896
 33
0.0
 14
-3609.325811659912
 24
-1698.620714
 34
0.0
100
AcDbRotatedDimension
1001
ACAD
1000
DSTYLE
1002
{
1070
   288
1070
     1
1070
   172
1070
     1
1070
    40
1040
10.0
1070
   271
1070
     0
1070
   143
1040
0.039
1002
}
  0
DIMENSION
  5
7BB4
330
19
100
AcDbEntity
  8
3
  6
Continuous
100
AcDbDimension
280
     0
  2
*D5
 10
-3879.380935659911
 20
-1821.264896
 30
0.0
 11
-3905.158395378892
 21
-1759.942805
 31
0.0
 70
   160
 71
     5
 42
-1.0
 73
     0
 74
     0
 75
     0
  3
IGA
100
AcDbAlignedDimension
 13
-3609.325811659912
 23
-1698.620714
 33
0.0
 14
-3744.325811659911
 24
-1821.264896
 34
0.0
 50
90.0
100
AcDbRotatedDimension
1001
ACAD
1000
DSTYLE
1002
{
1070
   288
1070
     1
1070
   172
1070
     1
1070
    40
1040
10.0
1070
   271
1070
     0
1070
   143
1040
0.039
1002
}
  0
DIMENSION
  5
7BC0
330
19
100
AcDbEntity
  8
3
  6
Continuous
100
AcDbDimension
280
     0
  2
*D6
 10
-3879.380935659911
 20
-2056.264896
 30
0.0
 11
-3904.380935659911
 21
-1938.764896000001
 31
0.0
 70
    32
 71
     5
 42
-1.0
 73
     0
 74
     0
 75
     0
  3
IGA
100
AcDbAlignedDimension
 13
-3744.325811659911
 23
-1821.264896
 33
0.0
 14
-3744.325811659911
 24
-2056.264896
 34
0.0
 50
90.0
100
AcDbRotatedDimension
1001
ACAD
1000
DSTYLE
1002
{
1070
   287
1070
     4
1070
    40
1040
10.0
1070
    75
1070
     1
1070
   143
1040
0.039
1070
   172
1070
     1
1070
   271
1070
     0
1070
   279
1070
     1
1070
   288
1070
     1
1002
}
  0
DIMENSION
  5
7C2E
330
19
100
AcDbEntity
  8
3
  6
Continuous
100
AcDbDimension
280
     0
  2
*D7
 10
-3159.325811659911
 20
-1290.932076324095
 30
0.0
 11
-3447.844021659911
 21
-1290.932076324095
 31
0.0
 70
   160
 71
     5
 42
-1.0
 73
     0
 74
     0
 75
     0
  3
IGA
100
AcDbAlignedDimension
 13
-3769.325811659911
 23
-1203.728037324095
 33
0.0
 14
-3159.325811659911
 24
-1203.728037324095
 34
0.0
100
AcDbRotatedDimension
1001
ACAD
1000
DSTYLE
1002
{
1070
   287
1070
     3
1070
    40
1040
10.0
1070
   143
1040
0.039
1070
   172
1070
     1
1070
   271
1070
     0
1070
   279
1070
     0
1070
   288
1070
     1
1002
}
  0
DIMENSION
  5
7C3B
330
19
100
AcDbEntity
  8
3
  6
Continuous
100
AcDbDimension
280
     0
  2
*D8
 10
-3081.302428659912
 20
-1203.728037324095
 30
0.0
 11
-3081.302428659911
 21
-981.4286593240955
 31
0.0
 70
   160
 71
     5
 42
-1.0
 73
     0
 74
     0
 75
     0
  3
IGA
100
AcDbAlignedDimension
 13
-3159.325811659911
 23
-773.7280373240955
 33
0.0
 14
-3159.325811659911
 24
-1203.728037324095
 34
0.0
 50
90.0
100
AcDbRotatedDimension
1001
ACAD
1000
DSTYLE
1002
{
1070
   287
1070
     3
1070
    40
1040
10.0
1070
   143
1040
0.039
1070
   172
1070
     1
1070
   271
1070
     0
1070
   279
1070
     0
1070
   288
1070
     1
1002
}
  0
DIMENSION
  5
7C48
330
19
100
AcDbEntity
  8
3
  6
Continuous
100
AcDbDimension
280
     0
  2
*D9
 10
-2625.160556034576
 20
-2233.304472
 30
0.0
 11
-2758.209972034576
 21
-2233.304472
 31
0.0
 70
   160
 71
     5
 42
272.0
 73
     0
 74
     0
 75
     0
  3
IGA
100
AcDbAlignedDimension
 13
-2897.160556034576
 23
-2176.264896000001
 33
0.0
 14
-2625.160556034576
 24
-2176.264896000001
 34
0.0
100
AcDbRotatedDimension
1001
ACAD
1000
DSTYLE
1002
{
1070
   287
1070
     3
1070
    40
1040
10.0
1070
   143
1040
0.039
1070
   172
1070
     1
1070
   271
1070
     0
1070
   279
1070
     0
1070
   288
1070
     1
1002
}
  0
DIMENSION
  5
7C54
330
19
100
AcDbEntity
  8
3
  6
Continuous
100
AcDbDimension
280
     0
  2
*D10
 10
-2467.160556034576
 20
-2233.304472
 30
0.0
 11
-2546.160556034576
 21
-2208.304472
 31
0.0
 70
    32
 71
     5
 42
158.0
 73
     0
 74
     0
 75
     0
  3
IGA
100
AcDbAlignedDimension
 13
-2625.160556034576
 23
-2176.264896000001
 33
0.0
 14
-2467.160556034576
 24
-2176.264896000001
 34
0.0
100
AcDbRotatedDimension
1001
ACAD
1000
DSTYLE
1002
{
1070
   287
1070
     4
1070
    40
1040
10.0
1070
    75
1070
     1
1070
   143
1040
0.039
1070
   172
1070
     1
1070
   271
1070
     0
1070
   279
1070
     1
1070
   288
1070
     1
1002
}
  0
DIMENSION
  5
7C63
330
19
100
AcDbEntity
  8
3
  6
Continuous
100
AcDbDimension
280
     0
  2
*D11
 10
-2569.160556034576
 20
-1680.263092
 30
0.0
 11
-2625.160556034576
 21
-1658.774695913096
 31
0.0
 70
   160
 71
     5
 42
-1.0
 73
     0
 74
     0
 75
     0
  3
IGA
100
AcDbAlignedDimension
 13
-2681.160556034576
 23
-1710.264896
 33
0.0
 14
-2569.160556034576
 24
-1710.264896
 34
0.0
100
AcDbRotatedDimension
1001
ACAD
1000
DSTYLE
1002
{
1070
   288
1070
     1
1070
   172
1070
     1
1070
    40
1040
10.0
1070
   271
1070
     0
1070
   143
1040
0.039
1002
}
  0
DIMENSION
  5
7C70
330
19
100
AcDbEntity
  8
3
  6
Continuous
100
AcDbDimension
280
     0
  2
*D12
 10
-2625.160556034576
 20
-1614.594194933644
 30
0.0
 11
-2759.732707034576
 21
-1614.594194933644
 31
0.0
 70
   160
  1
(260)
 71
     5
 42
260.0
 73
     0
 74
     0
 75
     0
  3
IGA
100
AcDbAlignedDimension
 13
-2885.160556034576
 23
-1726.264896
 33
0.0
 14
-2625.160556034576
 24
-1637.661857106186
 34
0.0
100
AcDbRotatedDimension
1001
ACAD
1000
DSTYLE
1002
{
1070
   287
1070
     3
1070
    40
1040
10.0
1070
   143
1040
0.039
1070
   172
1070
     1
1070
   271
1070
     0
1070
   279
1070
     0
1070
   288
1070
     1
1002
}
  0
DIMENSION
  5
7C7E
330
19
100
AcDbEntity
  8
3
  6
Continuous
100
AcDbDimension
280
     0
  2
*D13
 10
-2561.160556034576
 20
-1614.594194933644
 30
0.0
 11
-2598.323440034576
 21
-1614.443952933644
 31
0.0
 70
   160
 71
     5
 42
-1.0
 73
     0
 74
     0
 75
     0
  3
IGA
100
AcDbAlignedDimension
 13
-2625.160556034576
 23
-1637.661857106186
 33
0.0
 14
-2561.160556034576
 24
-1721.264896
 34
0.0
100
AcDbRotatedDimension
1001
ACAD
1000
DSTYLE
1002
{
1070
   287
1070
     4
1070
    40
1040
10.0
1070
    75
1070
     1
1070
   143
1040
0.039
1070
   172
1070
     1
1070
   271
1070
     0
1070
   279
1070
     1
1070
   288
1070
     1
1002
}
  0
LINE
  5
7CA3
330
19
100
AcDbEntity
  8
3
  6
Continuous
100
AcDbLine
 10
-2561.160556034576
 20
-1741.264896
 30
0.0
 11
-2553.386058034576
 21
-1741.264896
 31
0.0
  0
LINE
  5
7CA5
330
19
100
AcDbEntity
  8
3
  6
Continuous
100
AcDbLine
 10
-2561.160556034576
 20
-1901.264896
 30
0.0
 11
-2552.193377034576
 21
-1901.264896
 31
0.0
  0
DIMENSION
  5
7CB2
330
19
100
AcDbEntity
  8
3
  6
Continuous
100
AcDbDimension
280
     0
  2
*D14
 10
-2493.752089034576
 20
-1901.264896
 30
0.0
 11
-2517.755236646572
 21
-1821.264896
 31
0.0
 70
   160
 71
     5
 42
-1.0
 73
     0
 74
     0
 75
     0
  3
IGA
100
AcDbAlignedDimension
 13
-2561.160556034576
 23
-1741.264896
 33
0.0
 14
-2561.160556034576
 24
-1901.264896
 34
0.0
 50
90.0
100
AcDbRotatedDimension
1001
ACAD
1000
DSTYLE
1002
{
1070
   288
1070
     1
1070
   172
1070
     1
1070
    40
1040
10.0
1070
     3
1000
φ<>
1070
   271
1070
     0
1070
   143
1040
0.039
1002
}
  0
LINE
  5
7CB3
330
19
100
AcDbEntity
  8
2
  6
CENTER
100
AcDbLine
 10
-3609.325811659912
 20
-1273.558346324095
 30
0.0
 11
-3609.325811659912
 21
-805.4524623240956
 31
0.0
  0
LINE
  5
7CB4
330
19
100
AcDbEntity
  8
2
  6
CENTER
100
AcDbLine
 10
-3190.358750659911
 20
-1821.264896
 30
0.0
 11
-3784.119807659911
 21
-1821.264896
 31
0.0
  0
DIMENSION
  5
7CFB
330
19
100
AcDbEntity
  8
3
  6
Continuous
100
AcDbDimension
280
     0
  2
*D15
 10
-3819.899717659911
 20
-1821.264896
 30
0.0
 11
-3819.899717659911
 21
-1902.431193
 31
0.0
 70
   160
 71
     5
 42
-1.0
 73
     0
 74
     0
 75
     0
  3
IGA
100
AcDbAlignedDimension
 13
-3724.325811659912
 23
-1992.264896
 33
0.0
 14
-3744.325811659911
 24
-1821.264896
 34
0.0
 50
90.0
100
AcDbRotatedDimension
1001
ACAD
1000
DSTYLE
1002
{
1070
   287
1070
     3
1070
    40
1040
10.0
1070
   143
1040
0.039
1070
   172
1070
     1
1070
   271
1070
     0
1070
   279
1070
     0
1070
   288
1070
     1
1002
}
  0
DIMENSION
  5
7D17
330
19
100
AcDbEntity
  8
3
  6
Continuous
100
AcDbDimension
280
     0
  2
*D16
 10
-3464.325811659911
 20
-1664.28667
 30
0.0
 11
-3536.825811659912
 21
-1639.28667
 31
0.0
 70
    32
 71
     5
 42
-1.0
 73
     0
 74
     0
 75
     0
  3
IGA
100
AcDbAlignedDimension
 13
-3609.325811659912
 23
-1698.620714
 33
0.0
 14
-3464.325811659911
 24
-1821.264896
 34
0.0
100
AcDbRotatedDimension
1001
ACAD
1000
DSTYLE
1002
{
1070
   287
1070
     4
1070
    40
1040
10.0
1070
    75
1070
     1
1070
   143
1040
0.039
1070
   172
1070
     1
1070
   271
1070
     0
1070
   279
1070
     1
1070
   288
1070
     1
1002
}
  0
DIMENSION
  5
7E45
330
19
100
AcDbEntity
  8
3
100
AcDbDimension
280
     0
  2
*D18
 10
-3879.38093565991
 20
-2176.264896000001
 30
0.0
 11
-3879.380935659909
 21
-2274.80932465537
 31
0.0
 70
   160
 71
     5
 42
50.0
 73
     0
 74
     0
 75
     1
  3
IGA
100
AcDbAlignedDimension
 13
-3769.325811659911
 23
-2126.264896
 33
0.0
 14
-3769.325811659911
 24
-2176.264896000001
 34
0.0
 50
90.0
100
AcDbRotatedDimension
1001
ACAD
1000
DSTYLE
1002
{
1070
    40
1040
10.0
1070
   143
1040
0.039
1070
   172
1070
     1
1070
   271
1070
     0
1070
   279
1070
     0
1070
   288
1070
     1
1070
   343
1005
81F2
1002
}
  0
DIMENSION
  5
7E52
330
19
100
AcDbEntity
  8
3
100
AcDbDimension
280
     0
  2
*D19
 10
-3879.380935659911
 20
-2056.264896
 30
0.0
 11
-3913.535428235358
 21
-2092.173404809326
 31
0.0
 70
   160
 71
     5
 42
70.0
 73
     0
 74
     0
 75
     0
  3
IGA
100
AcDbAlignedDimension
 13
-3769.325811659911
 23
-2126.264896
 33
0.0
 14
-3744.325811659911
 24
-2056.264896
 34
0.0
 50
90.0
100
AcDbRotatedDimension
1001
ACAD
1000
DSTYLE
1002
{
1070
     3
1000
(<>)
1070
    40
1040
10.0
1070
    41
1040
2.0
1070
   143
1040
0.039
1070
   172
1070
     1
1070
   271
1070
     0
1070
   343
1005
7DED
1070
   344
1005
7B4F
1002
}
  0
DIMENSION
  5
7E5F
330
19
100
AcDbEntity
  8
3
100
AcDbDimension
280
     0
  2
*D20
 10
-3979.086840846465
 20
-2176.264896000001
 30
0.0
 11
-4011.943983703607
 21
-1937.442805000001
 31
0.0
 70
    32
 71
     5
 42
477.644182
 73
     0
 74
     0
 75
     0
  3
IGA
100
AcDbAlignedDimension
 13
-3614.325811659912
 23
-1698.620714
 33
0.0
 14
-3769.325811659911
 24
-2176.264896000001
 34
0.0
 50
90.0
100
AcDbRotatedDimension
1001
ACAD
1000
DSTYLE
1002
{
1070
   287
1070
     3
1070
     3
1000
(<>)
1070
    40
1040
10.0
1070
   143
1040
0.039
1070
   172
1070
     1
1070
   271
1070
     0
1070
   279
1070
     0
1002
}
  0
ENDSEC
  0
SECTION
  2
OBJECTS
  0
DICTIONARY
  5
C
330
0
100
AcDbDictionary
281
     1
  3
ACAD_CIP_PREVIOUS_PRODUCT_INFO
350
7F77
  3
ACAD_COLOR
350
7F5A
  3
ACAD_DETAILVIEWSTYLE
350
7F73
  3
ACAD_GROUP
350
D
  3
ACAD_LAYOUT
350
7E68
  3
ACAD_MATERIAL
350
7F28
  3
ACAD_MLEADERSTYLE
350
7F6F
  3
ACAD_MLINESTYLE
350
E
  3
ACAD_PLOTSETTINGS
350
7E69
  3
ACAD_PLOTSTYLENAME
350
7E66
  3
ACAD_SCALELIST
350
7F5D
  3
ACAD_SECTIONVIEWSTYLE
350
7F71
  3
ACAD_TABLESTYLE
350
7F5B
  3
ACAD_VISUALSTYLE
350
7F41
  3
ACDB_RECOMPOSE_DATA
350
82DB
  3
AcDbVariableDictionary
350
7F1B
  0
DICTIONARY
  5
7FD0
330
2
100
AcDbDictionary
280
     1
281
     1
  3
ACAD_LAYERSTATES
360
7FD1
  0
DICTIONARY
  5
7FC3
330
F
100
AcDbDictionary
280
     1
281
     1
  3
ADSK_XREC_LAYER_RECONCILED
360
7FC4
  0
DICTIONARY
  5
7FC5
330
31
100
AcDbDictionary
280
     1
281
     1
  3
ADSK_XREC_LAYER_RECONCILED
360
7FC6
  0
DICTIONARY
  5
7FC7
330
76D0
100
AcDbDictionary
280
     1
281
     1
  3
ADSK_XREC_LAYER_RECONCILED
360
7FC8
  0
DICTIONARY
  5
7FC9
330
76D1
100
AcDbDictionary
280
     1
281
     1
  3
ADSK_XREC_LAYER_RECONCILED
360
7FCA
  0
DICTIONARY
  5
7FCB
330
76D2
100
AcDbDictionary
280
     1
281
     1
  3
ADSK_XREC_LAYER_RECONCILED
360
7FCC
  0
DICTIONARY
  5
7E95
330
19
100
AcDbDictionary
280
     1
281
     1
  3
ACAD_LAYOUTSELFREF
360
7E96
  3
ACAD_SORTENTS
360
7F79
  0
DICTIONARY
  5
7E93
330
16
100
AcDbDictionary
280
     1
281
     1
  3
ACAD_LAYOUTSELFREF
360
7E94
  0
DICTIONARY
  5
802C
330
802A
100
AcDbDictionary
280
     1
281
     1
  3
ACAD_SORTENTS
360
802D
  0
XRECORD
  5
7F77
102
{ACAD_REACTORS
330
C
102
}
330
C
100
AcDbXrecord
280
     1
300
ACDLT
300
2015
300
INVLTS_F_S
  0
DICTIONARY
  5
7F5A
102
{ACAD_REACTORS
330
C
102
}
330
C
100
AcDbDictionary
281
     1
  0
DICTIONARY
  5
7F73
102
{ACAD_REACTORS
330
C
102
}
330
C
100
AcDbDictionary
281
     1
  3
Imperial24
350
7F74
  0
DICTIONARY
  5
D
102
{ACAD_REACTORS
330
C
102
}
330
0
100
AcDbDictionary
281
     1
  0
DICTIONARY
  5
7E68
102
{ACAD_REACTORS
330
C
102
}
330
C
100
AcDbDictionary
281
     1
  3
Model
350
7E6A
  3
ﾚｲｱｳﾄ1
350
7E6B
  0
DICTIONARY
  5
7F28
102
{ACAD_REACTORS
330
C
102
}
330
C
100
AcDbDictionary
281
     1
  3
ByBlock
350
7F31
  3
ByLayer
350
7F29
  3
Global
350
7F39
  0
DICTIONARY
  5
7F6F
102
{ACAD_REACTORS
330
C
102
}
330
C
100
AcDbDictionary
281
     1
  3
Standard
350
7F70
  0
DICTIONARY
  5
E
102
{ACAD_REACTORS
330
C
102
}
330
0
100
AcDbDictionary
281
     1
  3
STANDARD
350
1C
  0
DICTIONARY
  5
7E69
102
{ACAD_REACTORS
330
C
102
}
330
C
100
AcDbDictionary
281
     1
  0
ACDBDICTIONARYWDFLT
  5
7E66
102
{ACAD_REACTORS
330
C
102
}
330
C
100
AcDbDictionary
281
     1
  3
Normal
350
7E67
100
AcDbDictionaryWithDefault
340
7E67
1001
ACAD
1000
TREAT_AS_HARD
1070
     0
  0
DICTIONARY
  5
7F5D
102
{ACAD_REACTORS
330
C
102
}
330
C
100
AcDbDictionary
281
     1
  3
A0
350
7F5E
  3
A1
350
7F5F
  3
A2
350
7F60
  3
A3
350
7F61
  3
A4
350
7F62
  3
A5
350
7F63
  3
A6
350
7F64
  3
A7
350
7F65
  3
A8
350
7F66
  3
A9
350
7F67
  3
B0
350
7F68
  3
B1
350
7F69
  3
B2
350
7F6A
  3
B3
350
7F6B
  3
B4
350
7F6C
  3
B5
350
7F6D
  3
B6
350
7F6E
  0
DICTIONARY
  5
7F71
102
{ACAD_REACTORS
330
C
102
}
330
C
100
AcDbDictionary
281
     1
  3
Imperial24
350
7F72
  0
DICTIONARY
  5
7F5B
102
{ACAD_REACTORS
330
C
102
}
330
C
100
AcDbDictionary
281
     1
  3
Standard
350
7F5C
  0
DICTIONARY
  5
7F41
102
{ACAD_REACTORS
330
C
102
}
330
C
100
AcDbDictionary
281
     1
  3
2dWireframe
350
7F47
  3
Basic
350
7F46
  3
Brighten
350
7F4D
  3
ColorChange
350
7F51
  3
Conceptual
350
7F4A
  3
Dim
350
7F4C
  3
EdgeColorOff
350
7F59
  3
Facepattern
350
7F50
  3
Flat
350
7F42
  3
FlatWithEdges
350
7F43
  3
Gouraud
350
7F44
  3
GouraudWithEdges
350
7F45
  3
Hidden
350
7F49
  3
JitterOff
350
7F57
  3
Linepattern
350
7F4F
  3
OverhangOff
350
7F58
  3
Realistic
350
7F4B
  3
Shaded
350
7F56
  3
Shaded with edges
350
7F55
  3
Shades of Gray
350
7F52
  3
Sketchy
350
7F53
  3
Thicken
350
7F4E
  3
Wireframe
350
7F48
  3
X-Ray
350
7F54
  0
XRECORD
  5
82DB
102
{ACAD_REACTORS
330
C
102
}
330
C
100
AcDbXrecord
280
     1
 90
        1
330
7F5C
330
7F72
330
7F74
  0
DICTIONARY
  5
7F1B
102
{ACAD_REACTORS
330
C
102
}
330
C
100
AcDbDictionary
281
     1
  3
CANNOSCALE
350
7FE0
  3
CMLEADERSTYLE
350
7FDC
  3
CTABLESTYLE
350
7FDB
  3
CVIEWDETAILSTYLE
350
7FDD
  3
CVIEWSECTIONSTYLE
350
7FDE
  3
DIMASSOC
350
7F1C
  3
LAYEREVAL
350
7FE2
  3
LAYERNOTIFY
350
7FE3
  3
LIGHTINGUNITS
350
7FE1
  3
MSLTSCALE
350
7FDF
  0
DICTIONARY
  5
7FD1
102
{ACAD_REACTORS
330
7FD0
102
}
330
7FD0
100
AcDbDictionary
281
     1
  0
XRECORD
  5
7FC4
102
{ACAD_REACTORS
330
7FC3
102
}
330
7FC3
100
AcDbXrecord
280
     1
290
     1
  0
XRECORD
  5
7FC6
102
{ACAD_REACTORS
330
7FC5
102
}
330
7FC5
100
AcDbXrecord
280
     1
290
     1
  0
XRECORD
  5
7FC8
102
{ACAD_REACTORS
330
7FC7
102
}
330
7FC7
100
AcDbXrecord
280
     1
290
     1
  0
XRECORD
  5
7FCA
102
{ACAD_REACTORS
330
7FC9
102
}
330
7FC9
100
AcDbXrecord
280
     1
290
     1
  0
XRECORD
  5
7FCC
102
{ACAD_REACTORS
330
7FCB
102
}
330
7FCB
100
AcDbXrecord
280
     1
290
     1
  0
XRECORD
  5
7E96
102
{ACAD_REACTORS
330
7E95
102
}
330
7E95
100
AcDbXrecord
280
     1
340
19
  0
SORTENTSTABLE
  5
7F79
102
{ACAD_REACTORS
330
7E95
102
}
330
7E95
100
AcDbSortentsTable
330
19
331
7A9C
  5
7A9C
331
7B13
  5
7B14
331
7AD7
  5
7AD8
331
7A98
  5
7A98
331
7B0F
  5
7B10
331
7B4A
  5
7B63
331
7AD3
  5
7AD4
331
7B0B
  5
7B0C
331
7CB3
  5
7CB4
331
7ACF
  5
7AD0
331
7B07
  5
7B08
331
7B7D
  5
7B8C
331
7B42
  5
7B43
331
7ACB
  5
7ACC
331
7B03
  5
7B04
331
7AC7
  5
7AC8
331
7B3E
  5
7B3F
331
7B3A
  5
7B3C
331
7E5F
  5
7F78
331
7AC3
  5
7AC4
331
7AFB
  5
7AFC
331
7CA3
  5
7CA5
331
7B36
  5
7B37
331
7ABF
  5
7AC0
331
7AF7
  5
7AF8
331
7B32
  5
7B35
331
7ABB
  5
7ABC
331
7AF3
  5
7AF4
331
7AB7
  5
7AB8
331
7AEF
  5
7AF0
331
7B2E
  5
7B2F
331
7B2A
  5
7B2B
331
7AB3
  5
7AB4
331
7AEB
  5
7AEC
331
7C63
  5
7C70
331
7B26
  5
7B27
331
7AAF
  5
7AB0
331
7AE7
  5
7AE8
331
7B22
  5
7B23
331
7AAB
  5
7AAC
331
7AE3
  5
7AE4
331
7BC0
  5
7C2E
331
7BB4
  5
7BC0
331
7AA7
  5
7AA8
331
7ADF
  5
7AE0
331
7B1E
  5
7B1F
331
7B1A
  5
7B1B
331
7AA3
  5
7AA3
331
7ADB
  5
7ADC
331
7A9F
  5
7A9F
331
7B16
  5
7B17
331
7A9B
  5
7A9B
331
7B12
  5
7B13
331
7B8C
  5
7BB4
331
7AD6
  5
7AD7
331
7A97
  5
7A97
331
7B0E
  5
7B0F
331
7B49
  5
7B4A
331
7AD2
  5
7AD3
331
7B0A
  5
7B0B
331
7CB2
  5
7CB3
331
7B45
  5
7B47
331
7ACE
  5
7ACF
331
7B06
  5
7B07
331
7C3B
  5
7C48
331
7ACA
  5
7ACB
331
7B41
  5
7B42
331
7AC6
  5
7AC7
331
7B3D
  5
7B3E
331
7B39
  5
7B3A
331
7AC2
  5
7AC3
331
7AFA
  5
7AFB
331
7B70
  5
7B7D
331
7C7E
  5
7CA3
331
7B35
  5
7B36
331
7AF6
  5
7AF7
331
7ABE
  5
7ABF
331
7B31
  5
7B32
331
7AF2
  5
7AF3
331
7ABA
  5
7ABB
331
7AEE
  5
7AEF
331
7B2D
  5
7B2E
331
7E52
  5
7E5F
331
7AB6
  5
7AB7
331
7B29
  5
7B2A
331
7AEA
  5
7AEB
331
7AB2
  5
7AB3
331
7B25
  5
7B26
331
7AE6
  5
7AE7
331
7AAE
  5
7AAF
331
7B21
  5
7B22
331
7AE2
  5
7AE3
331
7AAA
  5
7AAB
331
7ADE
  5
7ADF
331
7B1D
  5
7B1E
331
7AA6
  5
7AA7
331
7B19
  5
7B1A
331
7ADA
  5
7ADB
331
7AA2
  5
7AA2
331
7B15
  5
7B16
331
7A9E
  5
7A9E
331
7A9A
  5
7A9A
331
7B0D
  5
7B0E
331
7AD5
  5
7AD6
331
7B48
  5
7B49
331
7B09
  5
7B0A
331
7AD1
  5
7AD2
331
7B44
  5
7B45
331
7B05
  5
7B06
331
7ACD
  5
7ACE
331
7B40
  5
7B41
331
7AC9
  5
7ACA
331
7B3C
  5
7B3D
331
7AFD
  5
7B00
331
7AC5
  5
7AC6
331
7B38
  5
7B39
331
7AF9
  5
7AFA
331
7AC1
  5
7AC2
331
7CA5
  5
7CB2
331
7C2E
  5
7C3B
331
7AF5
  5
7AF6
331
7ABD
  5
7ABE
331
7AF1
  5
7AF2
331
7B30
  5
7B31
331
7AB9
  5
7ABA
331
7AED
  5
7AEE
331
7B2C
  5
7B2D
331
7B63
  5
7B70
331
7AB5
  5
7AB6
331
7B28
  5
7B29
331
7AE9
  5
7AEA
331
7E45
  5
7E52
331
7AB1
  5
7AB2
331
7B24
  5
7B25
331
7AE5
  5
7AE6
331
7AAD
  5
7AAE
331
7B20
  5
7B21
331
7AE1
  5
7AE2
331
7AA9
  5
7AAA
331
7ADD
  5
7ADE
331
7B1C
  5
7B1D
331
7AA5
  5
7AA6
331
7B18
  5
7B19
331
7AD9
  5
7ADA
331
7AA1
  5
7AA1
331
7B14
  5
7B15
331
7A9D
  5
7A9D
331
7A99
  5
7A99
331
7B0C
  5
7B0D
331
7AD4
  5
7AD5
331
7B08
  5
7B09
331
7AD0
  5
7AD1
331
7CB4
  5
7CFB
331
7B47
  5
7B48
331
7B43
  5
7B44
331
7B04
  5
7B05
331
7ACC
  5
7ACD
331
7B00
  5
7B03
331
7B3F
  5
7B40
331
7AC8
  5
7AC9
331
7AFC
  5
7AFD
331
7AC4
  5
7AC5
331
7AF8
  5
7AF9
331
7D17
  5
7E45
331
7AC0
  5
7AC1
331
7B37
  5
7B38
331
7ABC
  5
7ABD
331
7AF4
  5
7AF5
331
7AB8
  5
7AB9
331
7AF0
  5
7AF1
331
7B2F
  5
7B30
331
7B2B
  5
7B2C
331
7AB4
  5
7AB5
331
7AEC
  5
7AED
331
7AB0
  5
7AB1
331
7AE8
  5
7AE9
331
7CFB
  5
7D17
331
7C70
  5
7C7E
331
7B27
  5
7B28
331
7B23
  5
7B24
331
7AAC
  5
7AAD
331
7AE4
  5
7AE5
331
7AA8
  5
7AA9
331
7AE0
  5
7AE1
331
7B1F
  5
7B20
331
7AA4
  5
7AA4
331
7ADC
  5
7ADD
331
7B1B
  5
7B1C
331
7AA0
  5
7AA0
331
7AD8
  5
7AD9
331
7C54
  5
7C63
331
7C48
  5
7C54
  0
XRECORD
  5
7E94
102
{ACAD_REACTORS
330
7E93
102
}
330
7E93
100
AcDbXrecord
280
     1
340
16
  0
SORTENTSTABLE
  5
802D
102
{ACAD_REACTORS
330
802C
102
}
330
802C
100
AcDbSortentsTable
330
802A
  0
ACDBDETAILVIEWSTYLE
  5
7F74
102
{ACAD_XDICTIONARY
360
7FD8
102
}
102
{ACAD_REACTORS
330
7F73
102
}
330
7F73
100
AcDbModelDocViewStyle
 70
     0
  3
Imperial24
290
     0
100
AcDbDetailViewStyle
 70
     0
 71
     0
 90
        3
 71
     1
340
10
 62
   256
 40
0.24
340
0
 62
   256
 40
0.24
300

 40
0.36
280
     3
 71
     2
340
15
 90
       25
 62
   256
 71
     3
340
10
 62
   256
 40
0.24
 90
        1
 40
0.75
 90
        1
300
%<\AcVar ViewType \f "%tc1">% %<\AcVar ViewDetailId>%\PSCALE %<\AcVar ViewScale \f "%sn">%
 71
     4
340
15
 90
       25
 62
   256
340
15
 90
       25
 62
   256
280
     0
  0
LAYOUT
  5
7E6A
102
{ACAD_REACTORS
330
7E68
102
}
330
7E68
100
AcDbPlotSettings
  1

  2
\\Txbo34x8944cqyd\EPSON LP-6100
  4

  6

 40
0.0
 41
0.0
 42
0.0
 43
0.0
 44
0.0
 45
0.0
 46
0.0
 47
0.0
 48
0.0
 49
0.0
140
0.0
141
0.0
142
1.0
143
1.0
 70
  1712
 72
     0
 73
     0
 74
     0
  7
GOD2000TABLE.ctb
 75
     0
147
1.0
 76
     0
 77
     2
 78
   300
148
0.0
149
0.0
100
AcDbLayout
  1
Model
 70
     1
 71
     0
 10
0.0
 20
0.0
 11
12.0
 21
9.0
 12
0.0
 22
0.0
 32
0.0
 14
0.0
 24
0.0
 34
0.0
 15
0.0
 25
0.0
 35
0.0
146
0.0
 13
0.0
 23
0.0
 33
0.0
 16
1.0
 26
0.0
 36
0.0
 17
0.0
 27
1.0
 37
0.0
 76
     0
330
19
331
7F26
  0
LAYOUT
  5
7E6B
102
{ACAD_REACTORS
330
7E68
102
}
330
7E68
100
AcDbPlotSettings
  1

  2
\\Txbo34x8944cqyd\EPSON LP-6100
  4

  6

 40
0.0
 41
0.0
 42
0.0
 43
0.0
 44
0.0
 45
0.0
 46
0.0
 47
0.0
 48
0.0
 49
0.0
140
0.0
141
0.0
142
1.0
143
1.0
 70
   688
 72
     0
 73
     0
 74
     5
  7
GOD2000TABLE.ctb
 75
    16
147
1.0
 76
     0
 77
     2
 78
   300
148
0.0
149
0.0
100
AcDbLayout
  1
ﾚｲｱｳﾄ1
 70
     1
 71
     1
 10
0.0
 20
0.0
 11
12.0
 21
9.0
 12
0.0
 22
0.0
 32
0.0
 14
1.000000000000000E+20
 24
1.000000000000000E+20
 34
1.000000000000000E+20
 15
-1.000000000000000E+20
 25
-1.000000000000000E+20
 35
-1.000000000000000E+20
146
0.0
 13
0.0
 23
0.0
 33
0.0
 16
1.0
 26
0.0
 36
0.0
 17
0.0
 27
1.0
 37
0.0
 76
     0
330
16
  0
MATERIAL
  5
7F31
102
{ACAD_XDICTIONARY
360
7F32
102
}
102
{ACAD_REACTORS
330
7F28
102
}
330
7F28
100
AcDbMaterial
  1
ByBlock
 72
     0
 43
0.0208333333333333
 43
0.0
 43
0.0
 43
0.0
 43
0.0
 43
0.0208333333333333
 43
0.0
 43
0.0
 43
0.0
 43
0.0
 43
1.0
 43
0.0
 43
0.0
 43
0.0
 43
0.0
 43
1.0
 77
     0
 47
0.0208333333333333
 47
0.0
 47
0.0
 47
0.0
 47
0.0
 47
0.0208333333333333
 47
0.0
 47
0.0
 47
0.0
 47
0.0
 47
1.0
 47
0.0
 47
0.0
 47
0.0
 47
0.0
 47
1.0
171
     0
 49
0.0208333333333333
 49
0.0
 49
0.0
 49
0.0
 49
0.0
 49
0.0208333333333333
 49
0.0
 49
0.0
 49
0.0
 49
0.0
 49
1.0
 49
0.0
 49
0.0
 49
0.0
 49
0.0
 49
1.0
175
     0
142
0.0208333333333333
142
0.0
142
0.0
142
0.0
142
0.0
142
0.0208333333333333
142
0.0
142
0.0
142
0.0
142
0.0
142
1.0
142
0.0
142
0.0
142
0.0
142
0.0
142
1.0
179
     0
144
0.0208333333333333
144
0.0
144
0.0
144
0.0
144
0.0
144
0.0208333333333333
144
0.0
144
0.0
144
0.0
144
0.0
144
1.0
144
0.0
144
0.0
144
0.0
144
0.0
144
1.0
147
0.0208333333333333
147
0.0
147
0.0
147
0.0
147
0.0
147
0.0208333333333333
147
0.0
147
0.0
147
0.0
147
0.0
147
1.0
147
0.0
147
0.0
147
0.0
147
0.0
147
1.0
  0
MATERIAL
  5
7F29
102
{ACAD_XDICTIONARY
360
7F2A
102
}
102
{ACAD_REACTORS
330
7F28
102
}
330
7F28
100
AcDbMaterial
  1
ByLayer
 72
     0
 43
0.0208333333333333
 43
0.0
 43
0.0
 43
0.0
 43
0.0
 43
0.0208333333333333
 43
0.0
 43
0.0
 43
0.0
 43
0.0
 43
1.0
 43
0.0
 43
0.0
 43
0.0
 43
0.0
 43
1.0
 77
     0
 47
0.0208333333333333
 47
0.0
 47
0.0
 47
0.0
 47
0.0
 47
0.0208333333333333
 47
0.0
 47
0.0
 47
0.0
 47
0.0
 47
1.0
 47
0.0
 47
0.0
 47
0.0
 47
0.0
 47
1.0
171
     0
 49
0.0208333333333333
 49
0.0
 49
0.0
 49
0.0
 49
0.0
 49
0.0208333333333333
 49
0.0
 49
0.0
 49
0.0
 49
0.0
 49
1.0
 49
0.0
 49
0.0
 49
0.0
 49
0.0
 49
1.0
175
     0
142
0.0208333333333333
142
0.0
142
0.0
142
0.0
142
0.0
142
0.0208333333333333
142
0.0
142
0.0
142
0.0
142
0.0
142
1.0
142
0.0
142
0.0
142
0.0
142
0.0
142
1.0
179
     0
144
0.0208333333333333
144
0.0
144
0.0
144
0.0
144
0.0
144
0.0208333333333333
144
0.0
144
0.0
144
0.0
144
0.0
144
1.0
144
0.0
144
0.0
144
0.0
144
0.0
144
1.0
147
0.0208333333333333
147
0.0
147
0.0
147
0.0
147
0.0
147
0.0208333333333333
147
0.0
147
0.0
147
0.0
147
0.0
147
1.0
147
0.0
147
0.0
147
0.0
147
0.0
147
1.0
  0
MATERIAL
  5
7F39
102
{ACAD_XDICTIONARY
360
7F3A
102
}
102
{ACAD_REACTORS
330
7F28
102
}
330
7F28
100
AcDbMaterial
  1
Global
 72
     0
 43
0.0208333333333333
 43
0.0
 43
0.0
 43
0.0
 43
0.0
 43
0.0208333333333333
 43
0.0
 43
0.0
 43
0.0
 43
0.0
 43
1.0
 43
0.0
 43
0.0
 43
0.0
 43
0.0
 43
1.0
 77
     0
 47
0.0208333333333333
 47
0.0
 47
0.0
 47
0.0
 47
0.0
 47
0.0208333333333333
 47
0.0
 47
0.0
 47
0.0
 47
0.0
 47
1.0
 47
0.0
 47
0.0
 47
0.0
 47
0.0
 47
1.0
171
     0
 49
0.0208333333333333
 49
0.0
 49
0.0
 49
0.0
 49
0.0
 49
0.0208333333333333
 49
0.0
 49
0.0
 49
0.0
 49
0.0
 49
1.0
 49
0.0
 49
0.0
 49
0.0
 49
0.0
 49
1.0
175
     0
142
0.0208333333333333
142
0.0
142
0.0
142
0.0
142
0.0
142
0.0208333333333333
142
0.0
142
0.0
142
0.0
142
0.0
142
1.0
142
0.0
142
0.0
142
0.0
142
0.0
142
1.0
179
     0
144
0.0208333333333333
144
0.0
144
0.0
144
0.0
144
0.0
144
0.0208333333333333
144
0.0
144
0.0
144
0.0
144
0.0
144
1.0
144
0.0
144
0.0
144
0.0
144
0.0
144
1.0
147
0.0208333333333333
147
0.0
147
0.0
147
0.0
147
0.0
147
0.0208333333333333
147
0.0
147
0.0
147
0.0
147
0.0
147
1.0
147
0.0
147
0.0
147
0.0
147
0.0
147
1.0
  0
MLEADERSTYLE
  5
7F70
102
{ACAD_REACTORS
330
7F6F
102
}
330
7F6F
100
AcDbMLeaderStyle
179
     2
170
     2
171
     1
172
     0
 90
        2
 40
0.0
 41
0.0
173
     1
 91
-1056964608
340
13
 92
       -2
290
     1
 42
0.09
291
     1
 43
0.36
  3
Standard
 44
0.18
300

342
10
174
     1
178
     6
175
     1
176
     0
 93
-1056964608
 45
0.18
292
     0
297
     0
 46
0.18
 94
-1056964608
 47
1.0
 49
1.0
140
1.0
293
     1
141
0.0
294
     1
177
     0
142
1.0
295
     1
296
     0
143
0.125
271
     0
272
     9
273
     9
298
     1
  0
MLINESTYLE
  5
1C
102
{ACAD_REACTORS
330
E
102
}
330
0
100
AcDbMlineStyle
  2
STANDARD
 70
     0
  3

 62
     0
 51
90.0
 52
90.0
 71
     2
 49
0.5
 62
   256
  6
BYLAYER
 49
-0.5
 62
   256
  6
BYLAYER
  0
ACDBPLACEHOLDER
  5
7E67
102
{ACAD_REACTORS
330
7E66
102
}
330
7E66
  0
SCALE
  5
7F5E
102
{ACAD_REACTORS
330
7F5D
102
}
330
7F5D
100
AcDbScale
 70
     0
300
1:1
140
1.0
141
1.0
290
     1
  0
SCALE
  5
7F5F
102
{ACAD_REACTORS
330
7F5D
102
}
330
7F5D
100
AcDbScale
 70
     0
300
1/128" = 1'-0"
140
0.0078125
141
12.0
290
     0
  0
SCALE
  5
7F60
102
{ACAD_REACTORS
330
7F5D
102
}
330
7F5D
100
AcDbScale
 70
     0
300
1/64" = 1'-0"
140
0.015625
141
12.0
290
     0
  0
SCALE
  5
7F61
102
{ACAD_REACTORS
330
7F5D
102
}
330
7F5D
100
AcDbScale
 70
     0
300
1/32" = 1'-0"
140
0.03125
141
12.0
290
     0
  0
SCALE
  5
7F62
102
{ACAD_REACTORS
330
7F5D
102
}
330
7F5D
100
AcDbScale
 70
     0
300
1/16" = 1'-0"
140
0.0625
141
12.0
290
     0
  0
SCALE
  5
7F63
102
{ACAD_REACTORS
330
7F5D
102
}
330
7F5D
100
AcDbScale
 70
     0
300
3/32" = 1'-0"
140
0.09375
141
12.0
290
     0
  0
SCALE
  5
7F64
102
{ACAD_REACTORS
330
7F5D
102
}
330
7F5D
100
AcDbScale
 70
     0
300
1/8" = 1'-0"
140
0.125
141
12.0
290
     0
  0
SCALE
  5
7F65
102
{ACAD_REACTORS
330
7F5D
102
}
330
7F5D
100
AcDbScale
 70
     0
300
3/16" = 1'-0"
140
0.1875
141
12.0
290
     0
  0
SCALE
  5
7F66
102
{ACAD_REACTORS
330
7F5D
102
}
330
7F5D
100
AcDbScale
 70
     0
300
1/4" = 1'-0"
140
0.25
141
12.0
290
     0
  0
SCALE
  5
7F67
102
{ACAD_REACTORS
330
7F5D
102
}
330
7F5D
100
AcDbScale
 70
     0
300
3/8" = 1'-0"
140
0.375
141
12.0
290
     0
  0
SCALE
  5
7F68
102
{ACAD_REACTORS
330
7F5D
102
}
330
7F5D
100
AcDbScale
 70
     0
300
1/2" = 1'-0"
140
0.5
141
12.0
290
     0
  0
SCALE
  5
7F69
102
{ACAD_REACTORS
330
7F5D
102
}
330
7F5D
100
AcDbScale
 70
     0
300
3/4" = 1'-0"
140
0.75
141
12.0
290
     0
  0
SCALE
  5
7F6A
102
{ACAD_REACTORS
330
7F5D
102
}
330
7F5D
100
AcDbScale
 70
     0
300
1" = 1'-0"
140
1.0
141
12.0
290
     0
  0
SCALE
  5
7F6B
102
{ACAD_REACTORS
330
7F5D
102
}
330
7F5D
100
AcDbScale
 70
     0
300
1-1/2" = 1'-0"
140
1.5
141
12.0
290
     0
  0
SCALE
  5
7F6C
102
{ACAD_REACTORS
330
7F5D
102
}
330
7F5D
100
AcDbScale
 70
     0
300
3" = 1'-0"
140
3.0
141
12.0
290
     0
  0
SCALE
  5
7F6D
102
{ACAD_REACTORS
330
7F5D
102
}
330
7F5D
100
AcDbScale
 70
     0
300
6" = 1'-0"
140
6.0
141
12.0
290
     0
  0
SCALE
  5
7F6E
102
{ACAD_REACTORS
330
7F5D
102
}
330
7F5D
100
AcDbScale
 70
     0
300
1'-0" = 1'-0"
140
12.0
141
12.0
290
     0
  0
ACDBSECTIONVIEWSTYLE
  5
7F72
102
{ACAD_XDICTIONARY
360
7FD6
102
}
102
{ACAD_REACTORS
330
7F71
102
}
330
7F71
100
AcDbModelDocViewStyle
 70
     0
  3
Imperial24
290
     0
100
AcDbSectionViewStyle
 70
     0
 71
     0
 90
       78
 71
     1
340
10
 62
   256
 40
0.24
340
0
340
0
 62
   256
 40
0.24
300
I, O, Q, S, X, Z
 40
0.48
 90
        3
 40
0.18
 90
        1
 71
     2
340
15
 90
       25
 62
   256
340
15
 90
       50
 62
   256
 40
0.24
 40
0.0
 40
0.24
 71
     3
340
10
 62
   256
 40
0.24
 90
        1
 40
0.75
 90
        1
300
%<\AcVar ViewType \f "%tc1">% %<\AcVar ViewSectionStartId>%-%<\AcVar ViewSectionEndId>%\PSCALE %<\AcVar ViewScale \f "%sn">%
 71
     4
 62
   256
 62
   257
300
ANSI31
 40
1.0
 90
        0
290
     0
290
     0
 90
        6
 40
0.0
 40
1.570796326794896
 40
0.2617993877991494
 40
1.308996938995747
 40
-0.2617993877991494
 40
1.832595714594046
  0
TABLESTYLE
  5
7F5C
102
{ACAD_XDICTIONARY
360
82D7
102
}
102
{ACAD_REACTORS
330
7F5B
102
}
330
7F5B
100
AcDbTableStyle
280
     0
  3
Standard
 70
     0
 71
     0
 40
0.06
 41
0.06
280
     0
281
     0
  7
STANDARD
140
0.18
170
     2
 62
     0
 63
     7
283
     0
 90
      512
 91
        0
  1

274
    -2
284
     1
 64
     0
275
    -2
285
     1
 65
     0
276
    -2
286
     1
 66
     0
277
    -2
287
     1
 67
     0
278
    -2
288
     1
 68
     0
279
    -2
289
     1
 69
     0
  7
STANDARD
140
0.25
170
     5
 62
     0
 63
     7
283
     0
 90
      512
 91
        0
  1

274
    -2
284
     1
 64
     0
275
    -2
285
     1
 65
     0
276
    -2
286
     1
 66
     0
277
    -2
287
     1
 67
     0
278
    -2
288
     1
 68
     0
279
    -2
289
     1
 69
     0
  7
STANDARD
140
0.18
170
     5
 62
     0
 63
     7
283
     0
 90
      512
 91
        0
  1

274
    -2
284
     1
 64
     0
275
    -2
285
     1
 65
     0
276
    -2
286
     1
 66
     0
277
    -2
287
     1
 67
     0
278
    -2
288
     1
 68
     0
279
    -2
289
     1
 69
     0
  0
VISUALSTYLE
  5
7F47
102
{ACAD_REACTORS
330
7F41
102
}
330
7F41
100
AcDbVisualStyle
  2
2dWireframe
 70
     4
177
     3
291
     0
 70
    58
 90
        0
176
     1
 90
        2
176
     1
 90
        0
176
     1
 90
        0
176
     1
 40
0.6
176
     1
 40
30.0
176
     1
 62
     7
420
 16777215
176
     1
 90
        1
176
     1
 90
        4
176
     1
 62
     7
176
     1
 62
   257
176
     1
 90
        1
176
     1
 90
        1
176
     1
 40
1.0
176
     1
 90
        0
176
     1
 62
   257
176
     1
 40
1.0
176
     1
 90
        1
176
     1
 90
        6
176
     1
 90
        2
176
     1
 62
     7
176
     1
 90
        5
176
     1
 90
        0
176
     1
 90
        0
176
     1
290
     0
176
     1
 90
        1
176
     1
 40
0.0
176
     1
 90
        0
176
     1
290
     1
176
     1
290
     1
176
     1
290
     0
176
     1
290
     0
176
     1
290
     0
176
     1
290
     0
176
     1
290
     0
176
     1
290
     0
176
     1
290
     0
176
     1
 90
       50
176
     1
 40
0.0
176
     1
 40
1.0
176
     1
 90
        0
176
     1
 62
    18
420
        0
176
     1
 90
       50
176
     1
 90
        3
176
     1
 62
     5
420
      255
176
     1
290
     0
176
     1
 90
       50
176
     1
 90
       50
176
     1
 90
       50
176
     1
290
     0
176
     1
 90
       50
176
     1
 62
   256
176
     0
 40
1.0
176
     0
 90
        2
176
     1
  1
strokes_ogs.tif
176
     1
290
     0
176
     1
 40
1.0
176
     1
 40
1.0
176
     1
  0
VISUALSTYLE
  5
7F46
102
{ACAD_REACTORS
330
7F41
102
}
330
7F41
100
AcDbVisualStyle
  2
Basic
 70
     7
177
     3
291
     1
 70
    58
 90
        1
176
     1
 90
        0
176
     1
 90
        1
176
     1
 90
        0
176
     1
 40
0.6
176
     1
 40
30.0
176
     1
 62
     7
420
 16777215
176
     1
 90
        0
176
     1
 90
        4
176
     1
 62
     7
176
     1
 62
   257
176
     1
 90
        1
176
     1
 90
        1
176
     1
 40
1.0
176
     1
 90
        8
176
     1
 62
     7
176
     1
 40
1.0
176
     1
 90
        1
176
     1
 90
        6
176
     1
 90
        2
176
     1
 62
     7
176
     1
 90
        5
176
     1
 90
        0
176
     1
 90
        0
176
     1
290
     0
176
     1
 90
        1
176
     1
 40
0.0
176
     1
 90
        0
176
     1
290
     0
176
     1
290
     1
176
     1
290
     1
176
     1
290
     0
176
     1
290
     0
176
     1
290
     0
176
     1
290
     0
176
     1
290
     0
176
     1
290
     0
176
     1
 90
       50
176
     1
 40
0.0
176
     1
 40
1.0
176
     1
 90
        0
176
     1
 62
    18
420
        0
176
     1
 90
       50
176
     1
 90
        3
176
     1
 62
     5
420
      255
176
     1
290
     0
176
     1
 90
       50
176
     1
 90
       50
176
     1
 90
       50
176
     1
290
     0
176
     1
 90
       50
176
     1
 62
   256
176
     0
 40
1.0
176
     0
 90
        2
176
     1
  1
strokes_ogs.tif
176
     1
290
     0
176
     1
 40
1.0
176
     1
 40
1.0
176
     1
  0
VISUALSTYLE
  5
7F4D
102
{ACAD_REACTORS
330
7F41
102
}
330
7F41
100
AcDbVisualStyle
  2
Brighten
 70
    12
177
     3
291
     1
 70
    58
 90
        2
176
     1
 90
        2
176
     1
 90
        0
176
     1
 90
        0
176
     1
 40
0.6
176
     1
 40
30.0
176
     1
 62
     7
420
 16777215
176
     1
 90
        1
176
     1
 90
        4
176
     1
 62
     7
176
     1
 62
   257
176
     1
 90
        1
176
     1
 90
        1
176
     1
 40
1.0
176
     1
 90
        8
176
     1
 62
     7
176
     1
 40
1.0
176
     1
 90
        1
176
     1
 90
        6
176
     1
 90
        2
176
     1
 62
     7
176
     1
 90
        5
176
     1
 90
        0
176
     1
 90
        0
176
     1
290
     0
176
     1
 90
        1
176
     1
 40
50.0
176
     1
 90
        0
176
     1
290
     0
176
     1
290
     1
176
     1
290
     1
176
     1
290
     0
176
     1
290
     0
176
     1
290
     0
176
     1
290
     0
176
     1
290
     0
176
     1
290
     0
176
     1
 90
       50
176
     1
 40
0.0
176
     1
 40
1.0
176
     1
 90
        0
176
     1
 62
    18
420
        0
176
     1
 90
       50
176
     1
 90
        3
176
     1
 62
     5
420
      255
176
     1
290
     0
176
     1
 90
       50
176
     1
 90
       50
176
     1
 90
       50
176
     1
290
     0
176
     1
 90
       50
176
     1
 62
   256
176
     0
 40
1.0
176
     0
 90
        2
176
     1
  1
strokes_ogs.tif
176
     1
290
     0
176
     1
 40
1.0
176
     1
 40
1.0
176
     1
  0
VISUALSTYLE
  5
7F51
102
{ACAD_REACTORS
330
7F41
102
}
330
7F41
100
AcDbVisualStyle
  2
ColorChange
 70
    16
177
     3
291
     1
 70
    58
 90
        2
176
     1
 90
        2
176
     1
 90
        3
176
     1
 90
        0
176
     1
 40
0.6
176
     1
 40
30.0
176
     1
 62
     8
420
  8421504
176
     1
 90
        1
176
     1
 90
        4
176
     1
 62
     7
176
     1
 62
   257
176
     1
 90
        1
176
     1
 90
        1
176
     1
 40
1.0
176
     1
 90
        8
176
     1
 62
     8
420
  8421504
176
     1
 40
1.0
176
     1
 90
        1
176
     1
 90
        6
176
     1
 90
        2
176
     1
 62
     7
176
     1
 90
        5
176
     1
 90
        0
176
     1
 90
        0
176
     1
290
     0
176
     1
 90
        1
176
     1
 40
0.0
176
     1
 90
        0
176
     1
290
     0
176
     1
290
     1
176
     1
290
     1
176
     1
290
     0
176
     1
290
     0
176
     1
290
     0
176
     1
290
     0
176
     1
290
     0
176
     1
290
     0
176
     1
 90
       50
176
     1
 40
0.0
176
     1
 40
1.0
176
     1
 90
        0
176
     1
 62
    18
420
        0
176
     1
 90
       50
176
     1
 90
        3
176
     1
 62
     5
420
      255
176
     1
290
     0
176
     1
 90
       50
176
     1
 90
       50
176
     1
 90
       50
176
     1
290
     0
176
     1
 90
       50
176
     1
 62
   256
176
     0
 40
1.0
176
     0
 90
        2
176
     1
  1
strokes_ogs.tif
176
     1
290
     0
176
     1
 40
1.0
176
     1
 40
1.0
176
     1
  0
VISUALSTYLE
  5
7F4A
102
{ACAD_REACTORS
330
7F41
102
}
330
7F41
100
AcDbVisualStyle
  2
Conceptual
 70
     9
177
     3
291
     0
 70
    58
 90
        3
176
     1
 90
        2
176
     1
 90
        0
176
     1
 90
        0
176
     1
 40
0.6
176
     1
 40
30.0
176
     1
 62
     7
420
 16777215
176
     1
 90
        2
176
     1
 90
        2
176
     1
 62
     7
176
     1
 62
   257
176
     1
 90
        1
176
     1
 90
        1
176
     1
 40
179.0
176
     1
 90
        8
176
     1
 62
     7
176
     1
 40
1.0
176
     1
 90
        1
176
     1
 90
        6
176
     1
 90
        2
176
     1
 62
     7
176
     1
 90
        3
176
     1
 90
        0
176
     1
 90
        0
176
     1
290
     0
176
     1
 90
        1
176
     1
 40
0.0
176
     1
 90
        0
176
     1
290
     0
176
     1
290
     1
176
     1
290
     1
176
     1
290
     0
176
     1
290
     0
176
     1
290
     0
176
     1
290
     0
176
     1
290
     0
176
     1
290
     0
176
     1
 90
       50
176
     1
 40
0.0
176
     1
 40
1.0
176
     1
 90
        0
176
     1
 62
    18
420
        0
176
     1
 90
       50
176
     1
 90
        3
176
     1
 62
     5
420
      255
176
     1
290
     0
176
     1
 90
       50
176
     1
 90
       50
176
     1
 90
       50
176
     1
290
     0
176
     1
 90
       50
176
     1
 62
   256
176
     0
 40
1.0
176
     0
 90
        2
176
     1
  1
strokes_ogs.tif
176
     1
290
     0
176
     1
 40
1.0
176
     1
 40
1.0
176
     1
  0
VISUALSTYLE
  5
7F4C
102
{ACAD_REACTORS
330
7F41
102
}
330
7F41
100
AcDbVisualStyle
  2
Dim
 70
    11
177
     3
291
     1
 70
    58
 90
        2
176
     1
 90
        2
176
     1
 90
        0
176
     1
 90
        0
176
     1
 40
0.6
176
     1
 40
30.0
176
     1
 62
     7
420
 16777215
176
     1
 90
        1
176
     1
 90
        4
176
     1
 62
     7
176
     1
 62
   257
176
     1
 90
        1
176
     1
 90
        1
176
     1
 40
1.0
176
     1
 90
        8
176
     1
 62
     7
176
     1
 40
1.0
176
     1
 90
        1
176
     1
 90
        6
176
     1
 90
        2
176
     1
 62
     7
176
     1
 90
        5
176
     1
 90
        0
176
     1
 90
        0
176
     1
290
     0
176
     1
 90
        1
176
     1
 40
-50.0
176
     1
 90
        0
176
     1
290
     0
176
     1
290
     1
176
     1
290
     1
176
     1
290
     0
176
     1
290
     0
176
     1
290
     0
176
     1
290
     0
176
     1
290
     0
176
     1
290
     0
176
     1
 90
       50
176
     1
 40
0.0
176
     1
 40
1.0
176
     1
 90
        0
176
     1
 62
    18
420
        0
176
     1
 90
       50
176
     1
 90
        3
176
     1
 62
     5
420
      255
176
     1
290
     0
176
     1
 90
       50
176
     1
 90
       50
176
     1
 90
       50
176
     1
290
     0
176
     1
 90
       50
176
     1
 62
   256
176
     0
 40
1.0
176
     0
 90
        2
176
     1
  1
strokes_ogs.tif
176
     1
290
     0
176
     1
 40
1.0
176
     1
 40
1.0
176
     1
  0
VISUALSTYLE
  5
7F59
102
{ACAD_REACTORS
330
7F41
102
}
330
7F41
100
AcDbVisualStyle
  2
EdgeColorOff
 70
    22
177
     3
291
     1
 70
    58
 90
        2
176
     0
 90
        2
176
     0
 90
        0
176
     0
 90
        0
176
     0
 40
0.6
176
     0
 40
30.0
176
     0
 62
     7
420
 16777215
176
     0
 90
        1
176
     0
 90
        4
176
     0
 62
     7
176
     0
 62
   257
176
     0
 90
        1
176
     0
 90
        1
176
     0
 40
1.0
176
     0
 90
        8
176
     2
 62
     7
176
     0
 40
1.0
176
     0
 90
        1
176
     0
 90
        6
176
     0
 90
        2
176
     0
 62
     7
176
     0
 90
        5
176
     0
 90
        0
176
     0
 90
        0
176
     0
290
     0
176
     0
 90
        1
176
     0
 40
0.0
176
     0
 90
        0
176
     0
290
     0
176
     0
290
     1
176
     0
290
     1
176
     0
290
     0
176
     0
290
     0
176
     0
290
     0
176
     0
290
     0
176
     0
290
     0
176
     0
290
     0
176
     0
 90
       50
176
     0
 40
0.0
176
     0
 40
1.0
176
     0
 90
        0
176
     0
 62
    18
420
        0
176
     0
 90
       50
176
     0
 90
        3
176
     0
 62
     5
420
      255
176
     0
290
     0
176
     0
 90
       50
176
     0
 90
       50
176
     0
 90
       50
176
     0
290
     0
176
     0
 90
       50
176
     0
 62
   256
176
     0
 40
1.0
176
     0
 90
        2
176
     0
  1
strokes_ogs.tif
176
     0
290
     0
176
     0
 40
1.0
176
     0
 40
1.0
176
     0
  0
VISUALSTYLE
  5
7F50
102
{ACAD_REACTORS
330
7F41
102
}
330
7F41
100
AcDbVisualStyle
  2
Facepattern
 70
    15
177
     3
291
     1
 70
    58
 90
        2
176
     1
 90
        2
176
     1
 90
        0
176
     1
 90
        0
176
     1
 40
0.6
176
     1
 40
30.0
176
     1
 62
     7
420
 16777215
176
     1
 90
        1
176
     1
 90
        4
176
     1
 62
     7
176
     1
 62
   257
176
     1
 90
        1
176
     1
 90
        1
176
     1
 40
1.0
176
     1
 90
        8
176
     1
 62
     7
176
     1
 40
1.0
176
     1
 90
        1
176
     1
 90
        6
176
     1
 90
        2
176
     1
 62
     7
176
     1
 90
        5
176
     1
 90
        0
176
     1
 90
        0
176
     1
290
     0
176
     1
 90
        1
176
     1
 40
0.0
176
     1
 90
        0
176
     1
290
     0
176
     1
290
     1
176
     1
290
     1
176
     1
290
     0
176
     1
290
     0
176
     1
290
     0
176
     1
290
     0
176
     1
290
     0
176
     1
290
     0
176
     1
 90
       50
176
     1
 40
0.0
176
     1
 40
1.0
176
     1
 90
        0
176
     1
 62
    18
420
        0
176
     1
 90
       50
176
     1
 90
        3
176
     1
 62
     5
420
      255
176
     1
290
     0
176
     1
 90
       50
176
     1
 90
       50
176
     1
 90
       50
176
     1
290
     0
176
     1
 90
       50
176
     1
 62
   256
176
     0
 40
1.0
176
     0
 90
        2
176
     1
  1
strokes_ogs.tif
176
     1
290
     0
176
     1
 40
1.0
176
     1
 40
1.0
176
     1
  0
VISUALSTYLE
  5
7F42
102
{ACAD_REACTORS
330
7F41
102
}
330
7F41
100
AcDbVisualStyle
  2
Flat
 70
     0
177
     3
291
     1
 70
    58
 90
        2
176
     1
 90
        1
176
     1
 90
        1
176
     1
 90
        2
176
     1
 40
0.6
176
     1
 40
30.0
176
     1
 62
     7
420
 16777215
176
     1
 90
        0
176
     1
 90
        0
176
     1
 62
     7
176
     1
 62
   257
176
     1
 90
        1
176
     1
 90
        1
176
     1
 40
1.0
176
     1
 90
        8
176
     1
 62
     7
176
     1
 40
1.0
176
     1
 90
        1
176
     1
 90
        6
176
     1
 90
        2
176
     1
 62
     7
176
     1
 90
        5
176
     1
 90
        0
176
     1
 90
        0
176
     1
290
     0
176
     1
 90
       13
176
     1
 40
0.0
176
     1
 90
        0
176
     1
290
     0
176
     1
290
     1
176
     1
290
     1
176
     1
290
     0
176
     1
290
     0
176
     1
290
     0
176
     1
290
     0
176
     1
290
     0
176
     1
290
     0
176
     1
 90
       50
176
     1
 40
0.0
176
     1
 40
1.0
176
     1
 90
        0
176
     1
 62
    18
420
        0
176
     1
 90
       50
176
     1
 90
        3
176
     1
 62
     5
420
      255
176
     1
290
     0
176
     1
 90
       50
176
     1
 90
       50
176
     1
 90
       50
176
     1
290
     0
176
     1
 90
       50
176
     1
 62
   256
176
     0
 40
1.0
176
     0
 90
        2
176
     1
  1
strokes_ogs.tif
176
     1
290
     0
176
     1
 40
1.0
176
     1
 40
1.0
176
     1
  0
VISUALSTYLE
  5
7F43
102
{ACAD_REACTORS
330
7F41
102
}
330
7F41
100
AcDbVisualStyle
  2
FlatWithEdges
 70
     1
177
     3
291
     1
 70
    58
 90
        2
176
     1
 90
        1
176
     1
 90
        1
176
     1
 90
        2
176
     1
 40
0.6
176
     1
 40
30.0
176
     1
 62
     7
420
 16777215
176
     1
 90
        1
176
     1
 90
        0
176
     1
 62
     7
176
     1
 62
   257
176
     1
 90
        1
176
     1
 90
        1
176
     1
 40
1.0
176
     1
 90
        0
176
     1
 62
   257
176
     1
 40
1.0
176
     1
 90
        1
176
     1
 90
        6
176
     1
 90
        2
176
     1
 62
     7
176
     1
 90
        5
176
     1
 90
        0
176
     1
 90
        0
176
     1
290
     0
176
     1
 90
       13
176
     1
 40
0.0
176
     1
 90
        0
176
     1
290
     0
176
     1
290
     1
176
     1
290
     1
176
     1
290
     0
176
     1
290
     0
176
     1
290
     0
176
     1
290
     0
176
     1
290
     0
176
     1
290
     0
176
     1
 90
       50
176
     1
 40
0.0
176
     1
 40
1.0
176
     1
 90
        0
176
     1
 62
    18
420
        0
176
     1
 90
       50
176
     1
 90
        3
176
     1
 62
     5
420
      255
176
     1
290
     0
176
     1
 90
       50
176
     1
 90
       50
176
     1
 90
       50
176
     1
290
     0
176
     1
 90
       50
176
     1
 62
   256
176
     0
 40
1.0
176
     0
 90
        2
176
     1
  1
strokes_ogs.tif
176
     1
290
     0
176
     1
 40
1.0
176
     1
 40
1.0
176
     1
  0
VISUALSTYLE
  5
7F44
102
{ACAD_REACTORS
330
7F41
102
}
330
7F41
100
AcDbVisualStyle
  2
Gouraud
 70
     2
177
     3
291
     1
 70
    58
 90
        2
176
     1
 90
        2
176
     1
 90
        1
176
     1
 90
        2
176
     1
 40
0.6
176
     1
 40
30.0
176
     1
 62
     7
420
 16777215
176
     1
 90
        0
176
     1
 90
        0
176
     1
 62
     7
176
     1
 62
   257
176
     1
 90
        1
176
     1
 90
        1
176
     1
 40
1.0
176
     1
 90
        0
176
     1
 62
     7
176
     1
 40
1.0
176
     1
 90
        1
176
     1
 90
        6
176
     1
 90
        2
176
     1
 62
     7
176
     1
 90
        5
176
     1
 90
        0
176
     1
 90
        0
176
     1
290
     0
176
     1
 90
       13
176
     1
 40
0.0
176
     1
 90
        0
176
     1
290
     0
176
     1
290
     1
176
     1
290
     1
176
     1
290
     0
176
     1
290
     0
176
     1
290
     0
176
     1
290
     0
176
     1
290
     0
176
     1
290
     0
176
     1
 90
       50
176
     1
 40
0.0
176
     1
 40
1.0
176
     1
 90
        0
176
     1
 62
    18
420
        0
176
     1
 90
       50
176
     1
 90
        3
176
     1
 62
     5
420
      255
176
     1
290
     0
176
     1
 90
       50
176
     1
 90
       50
176
     1
 90
       50
176
     1
290
     0
176
     1
 90
       50
176
     1
 62
   256
176
     0
 40
1.0
176
     0
 90
        2
176
     1
  1
strokes_ogs.tif
176
     1
290
     0
176
     1
 40
1.0
176
     1
 40
1.0
176
     1
  0
VISUALSTYLE
  5
7F45
102
{ACAD_REACTORS
330
7F41
102
}
330
7F41
100
AcDbVisualStyle
  2
GouraudWithEdges
 70
     3
177
     3
291
     1
 70
    58
 90
        2
176
     1
 90
        2
176
     1
 90
        1
176
     1
 90
        2
176
     1
 40
0.6
176
     1
 40
30.0
176
     1
 62
     7
420
 16777215
176
     1
 90
        1
176
     1
 90
        0
176
     1
 62
     7
176
     1
 62
   257
176
     1
 90
        1
176
     1
 90
        1
176
     1
 40
1.0
176
     1
 90
        0
176
     1
 62
   257
176
     1
 40
1.0
176
     1
 90
        1
176
     1
 90
        6
176
     1
 90
        2
176
     1
 62
     7
176
     1
 90
        5
176
     1
 90
        0
176
     1
 90
        0
176
     1
290
     0
176
     1
 90
       13
176
     1
 40
0.0
176
     1
 90
        0
176
     1
290
     0
176
     1
290
     1
176
     1
290
     1
176
     1
290
     0
176
     1
290
     0
176
     1
290
     0
176
     1
290
     0
176
     1
290
     0
176
     1
290
     0
176
     1
 90
       50
176
     1
 40
0.0
176
     1
 40
1.0
176
     1
 90
        0
176
     1
 62
    18
420
        0
176
     1
 90
       50
176
     1
 90
        3
176
     1
 62
     5
420
      255
176
     1
290
     0
176
     1
 90
       50
176
     1
 90
       50
176
     1
 90
       50
176
     1
290
     0
176
     1
 90
       50
176
     1
 62
   256
176
     0
 40
1.0
176
     0
 90
        2
176
     1
  1
strokes_ogs.tif
176
     1
290
     0
176
     1
 40
1.0
176
     1
 40
1.0
176
     1
  0
VISUALSTYLE
  5
7F49
102
{ACAD_REACTORS
330
7F41
102
}
330
7F41
100
AcDbVisualStyle
  2
Hidden
 70
     6
177
     3
291
     0
 70
    58
 90
        1
176
     1
 90
        2
176
     1
 90
        2
176
     1
 90
        0
176
     1
 40
0.6
176
     1
 40
30.0
176
     1
 62
     7
420
 16777215
176
     1
 90
        2
176
     1
 90
        2
176
     1
 62
     7
176
     1
 62
   257
176
     1
 90
        2
176
     1
 90
        1
176
     1
 40
40.0
176
     1
 90
        0
176
     1
 62
   257
176
     1
 40
1.0
176
     1
 90
        1
176
     1
 90
        6
176
     1
 90
        2
176
     1
 62
     7
176
     1
 90
        3
176
     1
 90
        0
176
     1
 90
        0
176
     1
290
     0
176
     1
 90
        1
176
     1
 40
0.0
176
     1
 90
        0
176
     1
290
     0
176
     1
290
     1
176
     1
290
     1
176
     1
290
     0
176
     1
290
     0
176
     1
290
     0
176
     1
290
     0
176
     1
290
     0
176
     1
290
     0
176
     1
 90
       50
176
     1
 40
0.0
176
     1
 40
1.0
176
     1
 90
        0
176
     1
 62
    18
420
        0
176
     1
 90
       50
176
     1
 90
        3
176
     1
 62
     5
420
      255
176
     1
290
     0
176
     1
 90
       50
176
     1
 90
       50
176
     1
 90
       50
176
     1
290
     0
176
     1
 90
       50
176
     1
 62
   256
176
     0
 40
1.0
176
     0
 90
        2
176
     1
  1
strokes_ogs.tif
176
     1
290
     0
176
     1
 40
1.0
176
     1
 40
1.0
176
     1
  0
VISUALSTYLE
  5
7F57
102
{ACAD_REACTORS
330
7F41
102
}
330
7F41
100
AcDbVisualStyle
  2
JitterOff
 70
    20
177
     3
291
     1
 70
    58
 90
        2
176
     0
 90
        2
176
     0
 90
        0
176
     0
 90
        0
176
     0
 40
0.6
176
     0
 40
30.0
176
     0
 62
     7
420
 16777215
176
     0
 90
        1
176
     0
 90
        4
176
     0
 62
     7
176
     0
 62
   257
176
     0
 90
        1
176
     0
 90
        1
176
     0
 40
1.0
176
     0
 90
       10
176
     2
 62
     7
176
     0
 40
1.0
176
     0
 90
        1
176
     0
 90
        6
176
     0
 90
        2
176
     0
 62
     7
176
     0
 90
        5
176
     0
 90
        0
176
     0
 90
        0
176
     0
290
     0
176
     0
 90
        1
176
     0
 40
0.0
176
     0
 90
        0
176
     0
290
     0
176
     0
290
     1
176
     0
290
     1
176
     0
290
     0
176
     0
290
     0
176
     0
290
     0
176
     0
290
     0
176
     0
290
     0
176
     0
290
     0
176
     0
 90
       50
176
     0
 40
0.0
176
     0
 40
1.0
176
     0
 90
        0
176
     0
 62
    18
420
        0
176
     0
 90
       50
176
     0
 90
        3
176
     0
 62
     5
420
      255
176
     0
290
     0
176
     0
 90
       50
176
     0
 90
       50
176
     0
 90
       50
176
     0
290
     0
176
     0
 90
       50
176
     0
 62
   256
176
     0
 40
1.0
176
     0
 90
        2
176
     0
  1
strokes_ogs.tif
176
     0
290
     0
176
     0
 40
1.0
176
     0
 40
1.0
176
     0
  0
VISUALSTYLE
  5
7F4F
102
{ACAD_REACTORS
330
7F41
102
}
330
7F41
100
AcDbVisualStyle
  2
Linepattern
 70
    14
177
     3
291
     1
 70
    58
 90
        2
176
     1
 90
        2
176
     1
 90
        0
176
     1
 90
        0
176
     1
 40
0.6
176
     1
 40
30.0
176
     1
 62
     7
420
 16777215
176
     1
 90
        1
176
     1
 90
        4
176
     1
 62
     7
176
     1
 62
   257
176
     1
 90
        7
176
     1
 90
        7
176
     1
 40
1.0
176
     1
 90
        8
176
     1
 62
     7
176
     1
 40
1.0
176
     1
 90
        1
176
     1
 90
        6
176
     1
 90
        2
176
     1
 62
     7
176
     1
 90
        5
176
     1
 90
        0
176
     1
 90
        0
176
     1
290
     0
176
     1
 90
        1
176
     1
 40
0.0
176
     1
 90
        0
176
     1
290
     0
176
     1
290
     1
176
     1
290
     1
176
     1
290
     0
176
     1
290
     0
176
     1
290
     0
176
     1
290
     0
176
     1
290
     0
176
     1
290
     0
176
     1
 90
       50
176
     1
 40
0.0
176
     1
 40
1.0
176
     1
 90
        0
176
     1
 62
    18
420
        0
176
     1
 90
       50
176
     1
 90
        3
176
     1
 62
     5
420
      255
176
     1
290
     0
176
     1
 90
       50
176
     1
 90
       50
176
     1
 90
       50
176
     1
290
     0
176
     1
 90
       50
176
     1
 62
   256
176
     0
 40
1.0
176
     0
 90
        2
176
     1
  1
strokes_ogs.tif
176
     1
290
     0
176
     1
 40
1.0
176
     1
 40
1.0
176
     1
  0
VISUALSTYLE
  5
7F58
102
{ACAD_REACTORS
330
7F41
102
}
330
7F41
100
AcDbVisualStyle
  2
OverhangOff
 70
    21
177
     3
291
     1
 70
    58
 90
        2
176
     0
 90
        2
176
     0
 90
        0
176
     0
 90
        0
176
     0
 40
0.6
176
     0
 40
30.0
176
     0
 62
     7
420
 16777215
176
     0
 90
        1
176
     0
 90
        4
176
     0
 62
     7
176
     0
 62
   257
176
     0
 90
        1
176
     0
 90
        1
176
     0
 40
1.0
176
     0
 90
        9
176
     2
 62
     7
176
     0
 40
1.0
176
     0
 90
        1
176
     0
 90
        6
176
     0
 90
        2
176
     0
 62
     7
176
     0
 90
        5
176
     0
 90
        0
176
     0
 90
        0
176
     0
290
     0
176
     0
 90
        1
176
     0
 40
0.0
176
     0
 90
        0
176
     0
290
     0
176
     0
290
     1
176
     0
290
     1
176
     0
290
     0
176
     0
290
     0
176
     0
290
     0
176
     0
290
     0
176
     0
290
     0
176
     0
290
     0
176
     0
 90
       50
176
     0
 40
0.0
176
     0
 40
1.0
176
     0
 90
        0
176
     0
 62
    18
420
        0
176
     0
 90
       50
176
     0
 90
        3
176
     0
 62
     5
420
      255
176
     0
290
     0
176
     0
 90
       50
176
     0
 90
       50
176
     0
 90
       50
176
     0
290
     0
176
     0
 90
       50
176
     0
 62
   256
176
     0
 40
1.0
176
     0
 90
        2
176
     0
  1
strokes_ogs.tif
176
     0
290
     0
176
     0
 40
1.0
176
     0
 40
1.0
176
     0
  0
VISUALSTYLE
  5
7F4B
102
{ACAD_REACTORS
330
7F41
102
}
330
7F41
100
AcDbVisualStyle
  2
Realistic
 70
     8
177
     3
291
     0
 70
    58
 90
        2
176
     1
 90
        3
176
     1
 90
        0
176
     1
 90
        2
176
     1
 40
0.6
176
     1
 40
30.0
176
     1
 62
     7
420
 16777215
176
     1
 90
        0
176
     1
 90
        0
176
     1
 62
     7
176
     1
 62
   257
176
     1
 90
        1
176
     1
 90
        1
176
     1
 40
1.0
176
     1
 90
        8
176
     1
 62
   257
176
     1
 40
1.0
176
     1
 90
        1
176
     1
 90
        6
176
     1
 90
        2
176
     1
 62
     7
176
     1
 90
        3
176
     1
 90
        0
176
     1
 90
        0
176
     1
290
     0
176
     1
 90
       13
176
     1
 40
0.0
176
     1
 90
        0
176
     1
290
     0
176
     1
290
     1
176
     1
290
     1
176
     1
290
     0
176
     1
290
     0
176
     1
290
     0
176
     1
290
     0
176
     1
290
     0
176
     1
290
     0
176
     1
 90
       50
176
     1
 40
0.0
176
     1
 40
1.0
176
     1
 90
        0
176
     1
 62
    18
420
        0
176
     1
 90
       50
176
     1
 90
        3
176
     1
 62
     5
420
      255
176
     1
290
     0
176
     1
 90
       50
176
     1
 90
       50
176
     1
 90
       50
176
     1
290
     0
176
     1
 90
       50
176
     1
 62
   256
176
     0
 40
1.0
176
     0
 90
        2
176
     1
  1
strokes_ogs.tif
176
     1
290
     0
176
     1
 40
1.0
176
     1
 40
1.0
176
     1
  0
VISUALSTYLE
  5
7F56
102
{ACAD_REACTORS
330
7F41
102
}
330
7F41
100
AcDbVisualStyle
  2
Shaded
 70
    27
177
     3
291
     0
 70
    58
 90
        2
176
     1
 90
        2
176
     1
 90
        1
176
     1
 90
        2
176
     1
 40
0.6
176
     1
 40
30.0
176
     1
 62
     7
420
 16777215
176
     1
 90
        0
176
     1
 90
        4
176
     1
 62
     7
176
     1
 62
   257
176
     1
 90
        1
176
     1
 90
        1
176
     1
 40
1.0
176
     1
 90
        8
176
     1
 62
   257
176
     1
 40
1.0
176
     1
 90
        1
176
     1
 90
        6
176
     1
 90
        2
176
     1
 62
     8
420
  7895160
176
     1
 90
        3
176
     1
 90
        0
176
     1
 90
        0
176
     1
290
     0
176
     1
 90
        5
176
     1
 40
0.0
176
     1
 90
        0
176
     1
290
     0
176
     1
290
     1
176
     1
290
     1
176
     1
290
     0
176
     1
290
     0
176
     1
290
     0
176
     1
290
     0
176
     1
290
     0
176
     1
290
     0
176
     1
 90
       50
176
     1
 40
0.0
176
     1
 40
1.0
176
     1
 90
        0
176
     1
 62
    18
420
        0
176
     1
 90
       50
176
     1
 90
        3
176
     1
 62
     5
420
      255
176
     1
290
     0
176
     1
 90
       50
176
     1
 90
       50
176
     1
 90
       50
176
     1
290
     0
176
     1
 90
       50
176
     1
 62
   256
176
     0
 40
1.0
176
     0
 90
        2
176
     1
  1
strokes_ogs.tif
176
     1
290
     0
176
     1
 40
1.0
176
     1
 40
1.0
176
     1
  0
VISUALSTYLE
  5
7F55
102
{ACAD_REACTORS
330
7F41
102
}
330
7F41
100
AcDbVisualStyle
  2
Shaded with edges
 70
    26
177
     3
291
     0
 70
    58
 90
        2
176
     1
 90
        2
176
     1
 90
        1
176
     1
 90
        2
176
     1
 40
0.6
176
     1
 40
30.0
176
     1
 62
     7
420
 16777215
176
     1
 90
        1
176
     1
 90
       10
176
     1
 62
     7
176
     1
 62
   257
176
     1
 90
        2
176
     1
 90
        1
176
     1
 40
1.0
176
     1
 90
        8
176
     1
 62
   257
176
     1
 40
1.0
176
     1
 90
        1
176
     1
 90
        6
176
     1
 90
        2
176
     1
 62
     7
176
     1
 90
        3
176
     1
 90
        0
176
     1
 90
        0
176
     1
290
     0
176
     1
 90
        5
176
     1
 40
0.0
176
     1
 90
        0
176
     1
290
     0
176
     1
290
     1
176
     1
290
     1
176
     1
290
     0
176
     1
290
     0
176
     1
290
     0
176
     1
290
     0
176
     1
290
     0
176
     1
290
     0
176
     1
 90
       50
176
     1
 40
0.0
176
     1
 40
1.0
176
     1
 90
        0
176
     1
 62
    18
420
        0
176
     1
 90
       50
176
     1
 90
        3
176
     1
 62
     5
420
      255
176
     1
290
     0
176
     1
 90
       50
176
     1
 90
       50
176
     1
 90
       50
176
     1
290
     0
176
     1
 90
       50
176
     1
 62
   256
176
     0
 40
1.0
176
     0
 90
        2
176
     1
  1
strokes_ogs.tif
176
     1
290
     0
176
     1
 40
1.0
176
     1
 40
1.0
176
     1
  0
VISUALSTYLE
  5
7F52
102
{ACAD_REACTORS
330
7F41
102
}
330
7F41
100
AcDbVisualStyle
  2
Shades of Gray
 70
    23
177
     3
291
     0
 70
    58
 90
        2
176
     1
 90
        2
176
     1
 90
        3
176
     1
 90
        0
176
     1
 40
0.6
176
     1
 40
30.0
176
     1
 62
     7
420
 16777215
176
     1
 90
        2
176
     1
 90
        2
176
     1
 62
     7
176
     1
 62
     7
176
     1
 90
        1
176
     1
 90
        1
176
     1
 40
40.0
176
     1
 90
        8
176
     1
 62
     7
176
     1
 40
1.0
176
     1
 90
        1
176
     1
 90
        6
176
     1
 90
        2
176
     1
 62
     7
176
     1
 90
        3
176
     1
 90
        0
176
     1
 90
        0
176
     1
290
     0
176
     1
 90
        1
176
     1
 40
0.0
176
     1
 90
        0
176
     1
290
     0
176
     1
290
     1
176
     1
290
     1
176
     1
290
     0
176
     1
290
     0
176
     1
290
     0
176
     1
290
     0
176
     1
290
     0
176
     1
290
     0
176
     1
 90
       50
176
     1
 40
0.0
176
     1
 40
1.0
176
     1
 90
        0
176
     1
 62
    18
420
        0
176
     1
 90
       50
176
     1
 90
        3
176
     1
 62
     5
420
      255
176
     1
290
     0
176
     1
 90
       50
176
     1
 90
       50
176
     1
 90
       50
176
     1
290
     0
176
     1
 90
       50
176
     1
 62
   256
176
     0
 40
1.0
176
     0
 90
        2
176
     1
  1
strokes_ogs.tif
176
     1
290
     0
176
     1
 40
1.0
176
     1
 40
1.0
176
     1
  0
VISUALSTYLE
  5
7F53
102
{ACAD_REACTORS
330
7F41
102
}
330
7F41
100
AcDbVisualStyle
  2
Sketchy
 70
    24
177
     3
291
     0
 70
    58
 90
        1
176
     1
 90
        2
176
     1
 90
        2
176
     1
 90
        0
176
     1
 40
0.6
176
     1
 40
30.0
176
     1
 62
     7
420
 16777215
176
     1
 90
        2
176
     1
 90
        2
176
     1
 62
     7
176
     1
 62
     7
176
     1
 90
        1
176
     1
 90
        1
176
     1
 40
40.0
176
     1
 90
       11
176
     1
 62
     7
176
     1
 40
1.0
176
     1
 90
        1
176
     1
 90
        6
176
     1
 90
        2
176
     1
 62
     7
176
     1
 90
        6
176
     1
 90
        0
176
     1
 90
        0
176
     1
290
     0
176
     1
 90
        1
176
     1
 40
0.0
176
     1
 90
        0
176
     1
290
     0
176
     1
290
     1
176
     1
290
     1
176
     1
290
     0
176
     1
290
     0
176
     1
290
     0
176
     1
290
     0
176
     1
290
     0
176
     1
290
     0
176
     1
 90
       50
176
     1
 40
0.0
176
     1
 40
1.0
176
     1
 90
        0
176
     1
 62
    18
420
        0
176
     1
 90
       50
176
     1
 90
        3
176
     1
 62
     5
420
      255
176
     1
290
     0
176
     1
 90
       50
176
     1
 90
       50
176
     1
 90
       50
176
     1
290
     0
176
     1
 90
       50
176
     1
 62
   256
176
     0
 40
1.0
176
     0
 90
        2
176
     1
  1
strokes_ogs.tif
176
     1
290
     0
176
     1
 40
1.0
176
     1
 40
1.0
176
     1
  0
VISUALSTYLE
  5
7F4E
102
{ACAD_REACTORS
330
7F41
102
}
330
7F41
100
AcDbVisualStyle
  2
Thicken
 70
    13
177
     3
291
     1
 70
    58
 90
        2
176
     1
 90
        2
176
     1
 90
        0
176
     1
 90
        0
176
     1
 40
0.6
176
     1
 40
30.0
176
     1
 62
     7
420
 16777215
176
     1
 90
        1
176
     1
 90
        4
176
     1
 62
     7
176
     1
 62
   257
176
     1
 90
        1
176
     1
 90
        1
176
     1
 40
1.0
176
     1
 90
       12
176
     1
 62
     7
176
     1
 40
1.0
176
     1
 90
        1
176
     1
 90
        6
176
     1
 90
        2
176
     1
 62
     7
176
     1
 90
        5
176
     1
 90
        0
176
     1
 90
        0
176
     1
290
     0
176
     1
 90
        1
176
     1
 40
0.0
176
     1
 90
        0
176
     1
290
     0
176
     1
290
     1
176
     1
290
     1
176
     1
290
     0
176
     1
290
     0
176
     1
290
     0
176
     1
290
     0
176
     1
290
     0
176
     1
290
     0
176
     1
 90
       50
176
     1
 40
0.0
176
     1
 40
1.0
176
     1
 90
        0
176
     1
 62
    18
420
        0
176
     1
 90
       50
176
     1
 90
        3
176
     1
 62
     5
420
      255
176
     1
290
     0
176
     1
 90
       50
176
     1
 90
       50
176
     1
 90
       50
176
     1
290
     0
176
     1
 90
       50
176
     1
 62
   256
176
     0
 40
1.0
176
     0
 90
        2
176
     1
  1
strokes_ogs.tif
176
     1
290
     0
176
     1
 40
1.0
176
     1
 40
1.0
176
     1
  0
VISUALSTYLE
  5
7F48
102
{ACAD_REACTORS
330
7F41
102
}
330
7F41
100
AcDbVisualStyle
  2
Wireframe
 70
     5
177
     3
291
     0
 70
    58
 90
        0
176
     1
 90
        2
176
     1
 90
        0
176
     1
 90
        0
176
     1
 40
0.6
176
     1
 40
30.0
176
     1
 62
     7
420
 16777215
176
     1
 90
        1
176
     1
 90
        4
176
     1
 62
     7
176
     1
 62
   257
176
     1
 90
        1
176
     1
 90
        1
176
     1
 40
1.0
176
     1
 90
        0
176
     1
 62
   257
176
     1
 40
1.0
176
     1
 90
        1
176
     1
 90
        6
176
     1
 90
        2
176
     1
 62
     7
176
     1
 90
        3
176
     1
 90
        0
176
     1
 90
        0
176
     1
290
     0
176
     1
 90
        1
176
     1
 40
0.0
176
     1
 90
        0
176
     1
290
     0
176
     1
290
     1
176
     1
290
     1
176
     1
290
     0
176
     1
290
     0
176
     1
290
     0
176
     1
290
     0
176
     1
290
     0
176
     1
290
     0
176
     1
 90
       50
176
     1
 40
0.0
176
     1
 40
1.0
176
     1
 90
        0
176
     1
 62
    18
420
        0
176
     1
 90
       50
176
     1
 90
        3
176
     1
 62
     5
420
      255
176
     1
290
     0
176
     1
 90
       50
176
     1
 90
       50
176
     1
 90
       50
176
     1
290
     0
176
     1
 90
       50
176
     1
 62
   256
176
     0
 40
1.0
176
     0
 90
        2
176
     1
  1
strokes_ogs.tif
176
     1
290
     0
176
     1
 40
1.0
176
     1
 40
1.0
176
     1
  0
VISUALSTYLE
  5
7F54
102
{ACAD_REACTORS
330
7F41
102
}
330
7F41
100
AcDbVisualStyle
  2
X-Ray
 70
    25
177
     3
291
     0
 70
    58
 90
        2
176
     1
 90
        2
176
     1
 90
        1
176
     1
 90
        1
176
     1
 40
0.5
176
     1
 40
30.0
176
     1
 62
     7
420
 16777215
176
     1
 90
        1
176
     1
 90
        0
176
     1
 62
     7
176
     1
 62
   257
176
     1
 90
        1
176
     1
 90
        1
176
     1
 40
1.0
176
     1
 90
        8
176
     1
 62
     7
176
     1
 40
1.0
176
     1
 90
        1
176
     1
 90
        6
176
     1
 90
        2
176
     1
 62
     7
176
     1
 90
        3
176
     1
 90
        0
176
     1
 90
        0
176
     1
290
     0
176
     1
 90
       13
176
     1
 40
0.0
176
     1
 90
        0
176
     1
290
     0
176
     1
290
     1
176
     1
290
     1
176
     1
290
     0
176
     1
290
     0
176
     1
290
     0
176
     1
290
     0
176
     1
290
     0
176
     1
290
     0
176
     1
 90
       50
176
     1
 40
0.0
176
     1
 40
1.0
176
     1
 90
        0
176
     1
 62
    18
420
        0
176
     1
 90
       50
176
     1
 90
        3
176
     1
 62
     5
420
      255
176
     1
290
     0
176
     1
 90
       50
176
     1
 90
       50
176
     1
 90
       50
176
     1
290
     0
176
     1
 90
       50
176
     1
 62
   256
176
     0
 40
1.0
176
     0
 90
        2
176
     1
  1
strokes_ogs.tif
176
     1
290
     0
176
     1
 40
1.0
176
     1
 40
1.0
176
     1
  0
DICTIONARYVAR
  5
7FE0
102
{ACAD_REACTORS
330
7F1B
102
}
330
7F1B
100
DictionaryVariables
280
     0
  1
1:1
  0
DICTIONARYVAR
  5
7FDC
102
{ACAD_REACTORS
330
7F1B
102
}
330
7F1B
100
DictionaryVariables
280
     0
  1
STANDARD
  0
DICTIONARYVAR
  5
7FDB
102
{ACAD_REACTORS
330
7F1B
102
}
330
7F1B
100
DictionaryVariables
280
     0
  1
STANDARD
  0
DICTIONARYVAR
  5
7FDD
102
{ACAD_REACTORS
330
7F1B
102
}
330
7F1B
100
DictionaryVariables
280
     0
  1
Imperial24
  0
DICTIONARYVAR
  5
7FDE
102
{ACAD_REACTORS
330
7F1B
102
}
330
7F1B
100
DictionaryVariables
280
     0
  1
Imperial24
  0
DICTIONARYVAR
  5
7F1C
102
{ACAD_REACTORS
330
7F1B
102
}
330
7F1B
100
DictionaryVariables
280
     0
  1
1
  0
DICTIONARYVAR
  5
7FE2
102
{ACAD_REACTORS
330
7F1B
102
}
330
7F1B
100
DictionaryVariables
280
     0
  1
1
  0
DICTIONARYVAR
  5
7FE3
102
{ACAD_REACTORS
330
7F1B
102
}
330
7F1B
100
DictionaryVariables
280
     0
  1
15
  0
DICTIONARYVAR
  5
7FE1
102
{ACAD_REACTORS
330
7F1B
102
}
330
7F1B
100
DictionaryVariables
280
     0
  1
0
  0
DICTIONARYVAR
  5
7FDF
102
{ACAD_REACTORS
330
7F1B
102
}
330
7F1B
100
DictionaryVariables
280
     0
  1
0
  0
DICTIONARY
  5
7FD8
330
7F74
100
AcDbDictionary
280
     1
281
     1
  3
ACAD_XREC_ROUNDTRIP
360
82DA
  0
DICTIONARY
  5
7F32
330
7F31
100
AcDbDictionary
280
     1
281
     1
  3
BUMPTILE
360
7F34
  3
DIFFUSETILE
360
7F33
  3
OPACITYTILE
360
7F37
  3
REFLECTIONTILE
360
7F36
  3
REFRACTIONTILE
360
7F38
  3
SPECULARTILE
360
7F35
  0
DICTIONARY
  5
7F2A
330
7F29
100
AcDbDictionary
280
     1
281
     1
  3
BUMPTILE
360
7F2C
  3
DIFFUSETILE
360
7F2B
  3
OPACITYTILE
360
7F2F
  3
REFLECTIONTILE
360
7F2E
  3
REFRACTIONTILE
360
7F30
  3
SPECULARTILE
360
7F2D
  0
DICTIONARY
  5
7F3A
330
7F39
100
AcDbDictionary
280
     1
281
     1
  3
BUMPTILE
360
7F3C
  3
DIFFUSETILE
360
7F3B
  3
OPACITYTILE
360
7F3F
  3
REFLECTIONTILE
360
7F3E
  3
REFRACTIONTILE
360
7F40
  3
SPECULARTILE
360
7F3D
  0
DICTIONARY
  5
7FD6
330
7F72
100
AcDbDictionary
280
     1
281
     1
  3
ACAD_XREC_ROUNDTRIP
360
82D9
  0
DICTIONARY
  5
82D7
330
7F5C
100
AcDbDictionary
280
     1
281
     1
  3
ACAD_ROUNDTRIP_2008_TABLESTYLE_CELLSTYLEMAP
360
82D8
  0
XRECORD
  5
82DA
102
{ACAD_REACTORS
330
7FD8
102
}
330
7FD8
100
AcDbXrecord
280
     1
102
DISPLAYNAME
  1
Imperial24
102
FLAGS
 90
        0
  0
XRECORD
  5
7F34
102
{ACAD_REACTORS
330
7F32
102
}
330
7F32
100
AcDbXrecord
280
     1
270
     1
271
     1
  0
XRECORD
  5
7F33
102
{ACAD_REACTORS
330
7F32
102
}
330
7F32
100
AcDbXrecord
280
     1
270
     1
271
     1
  0
XRECORD
  5
7F37
102
{ACAD_REACTORS
330
7F32
102
}
330
7F32
100
AcDbXrecord
280
     1
270
     1
271
     1
  0
XRECORD
  5
7F36
102
{ACAD_REACTORS
330
7F32
102
}
330
7F32
100
AcDbXrecord
280
     1
270
     1
271
     1
  0
XRECORD
  5
7F38
102
{ACAD_REACTORS
330
7F32
102
}
330
7F32
100
AcDbXrecord
280
     1
270
     1
271
     1
  0
XRECORD
  5
7F35
102
{ACAD_REACTORS
330
7F32
102
}
330
7F32
100
AcDbXrecord
280
     1
270
     1
271
     1
  0
XRECORD
  5
7F2C
102
{ACAD_REACTORS
330
7F2A
102
}
330
7F2A
100
AcDbXrecord
280
     1
270
     1
271
     1
  0
XRECORD
  5
7F2B
102
{ACAD_REACTORS
330
7F2A
102
}
330
7F2A
100
AcDbXrecord
280
     1
270
     1
271
     1
  0
XRECORD
  5
7F2F
102
{ACAD_REACTORS
330
7F2A
102
}
330
7F2A
100
AcDbXrecord
280
     1
270
     1
271
     1
  0
XRECORD
  5
7F2E
102
{ACAD_REACTORS
330
7F2A
102
}
330
7F2A
100
AcDbXrecord
280
     1
270
     1
271
     1
  0
XRECORD
  5
7F30
102
{ACAD_REACTORS
330
7F2A
102
}
330
7F2A
100
AcDbXrecord
280
     1
270
     1
271
     1
  0
XRECORD
  5
7F2D
102
{ACAD_REACTORS
330
7F2A
102
}
330
7F2A
100
AcDbXrecord
280
     1
270
     1
271
     1
  0
XRECORD
  5
7F3C
102
{ACAD_REACTORS
330
7F3A
102
}
330
7F3A
100
AcDbXrecord
280
     1
270
     1
271
     1
  0
XRECORD
  5
7F3B
102
{ACAD_REACTORS
330
7F3A
102
}
330
7F3A
100
AcDbXrecord
280
     1
270
     1
271
     1
  0
XRECORD
  5
7F3F
102
{ACAD_REACTORS
330
7F3A
102
}
330
7F3A
100
AcDbXrecord
280
     1
270
     1
271
     1
  0
XRECORD
  5
7F3E
102
{ACAD_REACTORS
330
7F3A
102
}
330
7F3A
100
AcDbXrecord
280
     1
270
     1
271
     1
  0
XRECORD
  5
7F40
102
{ACAD_REACTORS
330
7F3A
102
}
330
7F3A
100
AcDbXrecord
280
     1
270
     1
271
     1
  0
XRECORD
  5
7F3D
102
{ACAD_REACTORS
330
7F3A
102
}
330
7F3A
100
AcDbXrecord
280
     1
270
     1
271
     1
  0
XRECORD
  5
82D9
102
{ACAD_REACTORS
330
7FD6
102
}
330
7FD6
100
AcDbXrecord
280
     1
102
DISPLAYNAME
  1
Imperial24
102
FLAGS
 90
        0
  0
CELLSTYLEMAP
  5
82D8
102
{ACAD_REACTORS
330
82D7
102
}
330
82D7
100
AcDbCellStyleMap
 90
        3
300
CELLSTYLE
  1
TABLEFORMAT_BEGIN
 90
        5
170
     1
 91
        0
 92
    32768
 62
   257
 93
        1
300
CONTENTFORMAT
  1
CONTENTFORMAT_BEGIN
 90
        0
 91
        0
 92
      512
 93
        0
300

 40
0.0
140
1.0
 94
        5
 62
     0
340
10
144
0.25
309
CONTENTFORMAT_END
171
     0
 94
        0
309
TABLEFORMAT_END
  1
CELLSTYLE_BEGIN
 90
        1
 91
        1
300
_TITLE
309
CELLSTYLE_END
300
CELLSTYLE
  1
TABLEFORMAT_BEGIN
 90
        5
170
     1
 91
        0
 92
        0
 62
   257
 93
        1
300
CONTENTFORMAT
  1
CONTENTFORMAT_BEGIN
 90
        0
 91
        0
 92
      512
 93
        0
300

 40
0.0
140
1.0
 94
        5
 62
     0
340
10
144
0.18
309
CONTENTFORMAT_END
171
     0
 94
        0
309
TABLEFORMAT_END
  1
CELLSTYLE_BEGIN
 90
        2
 91
        1
300
_HEADER
309
CELLSTYLE_END
300
CELLSTYLE
  1
TABLEFORMAT_BEGIN
 90
        5
170
     1
 91
        0
 92
        0
 62
   257
 93
        1
300
CONTENTFORMAT
  1
CONTENTFORMAT_BEGIN
 90
        0
 91
        0
 92
      512
 93
        0
300

 40
0.0
140
1.0
 94
        2
 62
     0
340
10
144
0.18
309
CONTENTFORMAT_END
171
     0
 94
        0
309
TABLEFORMAT_END
  1
CELLSTYLE_BEGIN
 90
        3
 91
        2
300
_DATA
309
CELLSTYLE_END
  0
ENDSEC
  0
SECTION
  2
ACDSDATA
 70
     2
 71
     8
  0
ACDSSCHEMA
 90
        0
  1
AcDb_Thumbnail_Schema
  2
AcDbDs::ID
280
    10
 91
        8
  2
Thumbnail_Data
280
    15
 91
        0
101
ACDSRECORD
 95
        0
 90
        1
  2
AcDbDs::TreatedAsObjectData
280
     1
291
     1
101
ACDSRECORD
 95
        0
 90
        2
  2
AcDbDs::Legacy
280
     1
291
     1
101
ACDSRECORD
  1
AcDbDs::ID
 90
        3
  2
AcDs:Indexable
280
     1
291
     1
101
ACDSRECORD
  1
AcDbDs::ID
 90
        4
  2
AcDbDs::HandleAttribute
280
     7
282
     1
  0
ACDSSCHEMA
 90
        1
  1
AcDbDs::TreatedAsObjectDataSchema
  2
AcDbDs::TreatedAsObjectData
280
     1
 91
        0
  0
ACDSSCHEMA
 90
        2
  1
AcDbDs::LegacySchema
  2
AcDbDs::Legacy
280
     1
 91
        0
  0
ACDSSCHEMA
 90
        3
  1
AcDbDs::IndexedPropertySchema
  2
AcDs:Indexable
280
     1
 91
        0
  0
ACDSSCHEMA
 90
        4
  1
AcDbDs::HandleAttributeSchema
  2
AcDbDs::HandleAttribute
280
     7
 91
        1
284
     1
  0
ACDSRECORD
 90
        0
  2
AcDbDs::ID
280
    10
320
7E6A
  2
Thumbnail_Data
280
    15
 94
     1760
310
89504E470D0A1A0A0000000D49484452000001000000007C0803000000B13B9E5A00000300504C5445000000000000C8C8C80000000000000000000000000000000000000000000000000000330000660000990000CC0000FF0033000033330033660033990033CC0033FF0066000066330066660066990066CC0066FF0099
310
000099330099660099990099CC0099FF00CC0000CC3300CC6600CC9900CCCC00CCFF00FF0000FF3300FF6600FF9900FFCC00FFFF3300003300333300663300993300CC3300FF3333003333333333663333993333CC3333FF3366003366333366663366993366CC3366FF3399003399333399663399993399CC3399FF33CC00
310
33CC3333CC6633CC9933CCCC33CCFF33FF0033FF3333FF6633FF9933FFCC33FFFF6600006600336600666600996600CC6600FF6633006633336633666633996633CC6633FF6666006666336666666666996666CC6666FF6699006699336699666699996699CC6699FF66CC0066CC3366CC6666CC9966CCCC66CCFF66FF0066
310
FF3366FF6666FF9966FFCC66FFFF9900009900339900669900999900CC9900FF9933009933339933669933999933CC9933FF9966009966339966669966999966CC9966FF9999009999339999669999999999CC9999FF99CC0099CC3399CC6699CC9999CCCC99CCFF99FF0099FF3399FF6699FF9999FFCC99FFFFCC0000CC00
310
33CC0066CC0099CC00CCCC00FFCC3300CC3333CC3366CC3399CC33CCCC33FFCC6600CC6633CC6666CC6699CC66CCCC66FFCC9900CC9933CC9966CC9999CC99CCCC99FFCCCC00CCCC33CCCC66CCCC99CCCCCCCCCCFFCCFF00CCFF33CCFF66CCFF99CCFFCCCCFFFFFF0000FF0033FF0066FF0099FF00CCFF00FFFF3300FF3333
310
FF3366FF3399FF33CCFF33FFFF6600FF6633FF6666FF6699FF66CCFF66FFFF9900FF9933FF9966FF9999FF99CCFF99FFFFCC00FFCC33FFCC66FFCC99FFCCCCFFCCFFFFFF00FFFF33FFFF66FFFF99FFFFCCFFFFFF0000000D0D0D1A1A1A2828283535354343435050505D5D5D6B6B6B787878868686939393A1A1A1AEAEAEBB
310
BBBBC9C9C9D6D6D6E4E4E4F1F1F1FFFFFF00000000000000000000000000000000000000000000000000000000000008F1915C000003574944415478DAED9D5B8EE4200C45BD1C7EBCFFCDB00DFE671230D804A8746BA4293FAE5A9D4A2AD56A8E1F38C4A5007C9FCA52E047E5F541B30016F676076066E01040710CC0420E
310
28FF5A26CCF8457F2F00FC1F00B72717DA967AD6B573BF2C3572EC00A051D5C45E537B112FEEE1B283FD34FA1B45378041418C9BED933BC874570F002F06948600599379403534147E60F28FE63E1600D018B8D3F7A02FDD11A0B97FCB0B8BF1C72C1000A212F429D5E35E9B7163DC327D0C0A9B1ED5038013803E17CE00A8
310
848062CE03A64A50967C647F5643014406088542A15028140A8542217D423CBD992F790670BDE904400A0001C02B80AAD4B61E01700FC0497E00D02E63E0C203D243809C0538A80364088043005312740DA00DDC610860EA639700C03D00080001C01B005785D0631A74580AFFB57B0520A1C07D3C00B800B00B011700F271
310
41C4C1A2280D2F1DDF75036036B84B00D91980A69497F200E0B76F8642A15028140A8542214FCA3EAE113F5D3CDE14B273000E2F15ADAE160C93E6CFF1CF776C00C875E47DF30EC0E793B5FAF53B00DA4360B5FA874F2FB70C600CE7DAD09DA1F700AE6564CD00D82C964573649E6E0DCB8FD1B16B93004D0148F556201FD3
310
03406F2123006AC34000A8666D3749CF00260F40B569E001A0B7C9BD02801600B07B424D78FDBAF74603EDF8C87DC6E826A9BBCA01D422A836025C066D6100D419B0F480DE3B64C003EA8FEC14C5D136B50901D49F03DABF4D0550B369B37CCDF509575FA77A00D0590AD4B96B548088305A649AE9F70010F54F831D001000
310
E803BB5FB4EF0D7C04807AAF04260F80D620D11B25DF85002807D067010220DAE5715309EA07904100C804A05977F40A9F00C8C642A5B300C501B2FC078F4ED92500D8B59529AB0358759376ADC2CF42883E6005402B7557E7E1E18872007C29E8B5074C4EA0DB03E612E6C721AD3D07CC6BBADE00CC11B0D36316B092047B
310
158F4783A2D52438568597ABA16B0FC0691A549C0AC5FD803CDDE561977872DD57326A7B59731CB0743000886BDCBC5E486361A41FC0590E00AC6C0D6B0F30D5509FBDB7C20780F8324428141A72FF8085029B1115B1D97CD63680F1AC0100A02710F1670F9802006B0063CB9F3E05A600FCC2BF8BA510882478CA01FDB95C
310
4B6B7B02509C02608F9DF13C0DDA0E812F4C827F0044C7F1FA80E711F20000000049454E44AE4260827C1064B1C10680754B8D7D8702B841C38A243A16C02F66817FE4FA4448CE5167FD0000000049454E44AE42608282C895560000000049454E44AE426082824E44AE426082
  0
ENDSEC
  0
EOF
