  0
SECTION
  2
HEADER
  9
$ACADVER
  1
AC1027
  9
$ACADMAINTVER
 70
    81
  9
$DWGCODEPAGE
  3
ANSI_932
  9
$LASTSAVEDBY
  1
reiko.miyawaki
  9
$REQUIREDVERSIONS
160
                 0
  9
$INSBASE
 10
0.0
 20
0.0
 30
0.0
  9
$EXTMIN
 10
250.0
 20
300.0
 30
0.0
  9
$EXTMAX
 10
1850.0
 20
2786.652262
 30
0.0
  9
$LIMMIN
 10
0.0
 20
0.0
  9
$LIMMAX
 10
297.0
 20
210.0
  9
$ORTHOMODE
 70
     0
  9
$REGENMODE
 70
     1
  9
$FILLMODE
 70
     0
  9
$QTEXTMODE
 70
     0
  9
$MIRRTEXT
 70
     1
  9
$LTSCALE
 40
100.0
  9
$ATTMODE
 70
     1
  9
$TEXTSIZE
 40
180.0
  9
$TRACEWID
 40
0.05
  9
$TEXTSTYLE
  7
STANDARD
  9
$CLAYER
  8
3
  9
$CELTYPE
  6
BYLAYER
  9
$CECOLOR
 62
   256
  9
$CELTSCALE
 40
1.0
  9
$DISPSILH
 70
     0
  9
$DIMSCALE
 40
10.0
  9
$DIMASZ
 40
2.0
  9
$DIMEXO
 40
0.5
  9
$DIMDLI
 40
10.0
  9
$DIMRND
 40
0.0
  9
$DIMDLE
 40
0.0
  9
$DIMEXE
 40
1.0
  9
$DIMTP
 40
1.0
  9
$DIMTM
 40
1.0
  9
$DIMTXT
 40
3.0
  9
$DIMCEN
 40
0.0
  9
$DIMTSZ
 40
0.0
  9
$DIMTOL
 70
     0
  9
$DIMLIM
 70
     0
  9
$DIMTIH
 70
     0
  9
$DIMTOH
 70
     0
  9
$DIMSE1
 70
     0
  9
$DIMSE2
 70
     0
  9
$DIMTAD
 70
     1
  9
$DIMZIN
 70
     8
  9
$DIMBLK
  1

  9
$DIMASO
 70
     1
  9
$DIMSHO
 70
     1
  9
$DIMPOST
  1

  9
$DIMAPOST
  1

  9
$DIMALT
 70
     0
  9
$DIMALTD
 70
     2
  9
$DIMALTF
 40
0.039
  9
$DIMLFAC
 40
1.0
  9
$DIMTOFL
 70
     1
  9
$DIMTVP
 40
0.0
  9
$DIMTIX
 70
     0
  9
$DIMSOXD
 70
     0
  9
$DIMSAH
 70
     1
  9
$DIMBLK1
  1
OPEN
  9
$DIMBLK2
  1
OPEN
  9
$DIMSTYLE
  2
IGA
  9
$DIMCLRD
 70
     0
  9
$DIMCLRE
 70
     0
  9
$DIMCLRT
 70
     0
  9
$DIMTFAC
 40
10.0
  9
$DIMGAP
 40
1.0
  9
$DIMJUST
 70
     0
  9
$DIMSD1
 70
     0
  9
$DIMSD2
 70
     0
  9
$DIMTOLJ
 70
     1
  9
$DIMTZIN
 70
     8
  9
$DIMALTZ
 70
     0
  9
$DIMALTTZ
 70
     0
  9
$DIMUPT
 70
     0
  9
$DIMDEC
 70
     0
  9
$DIMTDEC
 70
     0
  9
$DIMALTU
 70
     2
  9
$DIMALTTD
 70
     2
  9
$DIMTXSTY
  7
STANDARD
  9
$DIMAUNIT
 70
     0
  9
$DIMADEC
 70
     0
  9
$DIMALTRND
 40
0.0
  9
$DIMAZIN
 70
     0
  9
$DIMDSEP
 70
    46
  9
$DIMATFIT
 70
     3
  9
$DIMFRAC
 70
     0
  9
$DIMLDRBLK
  1
OPEN
  9
$DIMLUNIT
 70
     2
  9
$DIMLWD
 70
    -2
  9
$DIMLWE
 70
    -2
  9
$DIMTMOVE
 70
     0
  9
$DIMFXL
 40
1.0
  9
$DIMFXLON
 70
     0
  9
$DIMJOGANG
 40
0.7853981633974483
  9
$DIMTFILL
 70
     0
  9
$DIMTFILLCLR
 70
     0
  9
$DIMARCSYM
 70
     0
  9
$DIMLTYPE
  6

  9
$DIMLTEX1
  6

  9
$DIMLTEX2
  6

  9
$DIMTXTDIRECTION
 70
     0
  9
$LUNITS
 70
     2
  9
$LUPREC
 70
     3
  9
$SKETCHINC
 40
0.1
  9
$FILLETRAD
 40
50.0
  9
$AUNITS
 70
     0
  9
$AUPREC
 70
     0
  9
$MENU
  1
acad
  9
$ELEVATION
 40
0.0
  9
$PELEVATION
 40
0.0
  9
$THICKNESS
 40
0.0
  9
$LIMCHECK
 70
     0
  9
$CHAMFERA
 40
0.5
  9
$CHAMFERB
 40
0.5
  9
$CHAMFERC
 40
20.0
  9
$CHAMFERD
 40
0.0
  9
$SKPOLY
 70
     0
  9
$TDCREATE
 40
2450736.576717593
  9
$TDUCREATE
 40
2450736.201717593
  9
$TDUPDATE
 40
2459024.534879433
  9
$TDUUPDATE
 40
2459024.159879433
  9
$TDINDWG
 40
0.0166053009
  9
$TDUSRTIMER
 40
0.0166053009
  9
$USRTIMER
 70
     1
  9
$ANGBASE
 50
0.0
  9
$ANGDIR
 70
     0
  9
$PDMODE
 70
     0
  9
$PDSIZE
 40
0.0
  9
$PLINEWID
 40
0.0
  9
$SPLFRAME
 70
     0
  9
$SPLINETYPE
 70
     6
  9
$SPLINESEGS
 70
     8
  9
$HANDSEED
  5
81E0
  9
$SURFTAB1
 70
     6
  9
$SURFTAB2
 70
     6
  9
$SURFTYPE
 70
     6
  9
$SURFU
 70
     6
  9
$SURFV
 70
     6
  9
$UCSBASE
  2

  9
$UCSNAME
  2

  9
$UCSORG
 10
0.0
 20
0.0
 30
0.0
  9
$UCSXDIR
 10
1.0
 20
0.0
 30
0.0
  9
$UCSYDIR
 10
0.0
 20
1.0
 30
0.0
  9
$UCSORTHOREF
  2

  9
$UCSORTHOVIEW
 70
     0
  9
$UCSORGTOP
 10
0.0
 20
0.0
 30
0.0
  9
$UCSORGBOTTOM
 10
0.0
 20
0.0
 30
0.0
  9
$UCSORGLEFT
 10
0.0
 20
0.0
 30
0.0
  9
$UCSORGRIGHT
 10
0.0
 20
0.0
 30
0.0
  9
$UCSORGFRONT
 10
0.0
 20
0.0
 30
0.0
  9
$UCSORGBACK
 10
0.0
 20
0.0
 30
0.0
  9
$PUCSBASE
  2

  9
$PUCSNAME
  2

  9
$PUCSORG
 10
0.0
 20
0.0
 30
0.0
  9
$PUCSXDIR
 10
1.0
 20
0.0
 30
0.0
  9
$PUCSYDIR
 10
0.0
 20
1.0
 30
0.0
  9
$PUCSORTHOREF
  2

  9
$PUCSORTHOVIEW
 70
     0
  9
$PUCSORGTOP
 10
0.0
 20
0.0
 30
0.0
  9
$PUCSORGBOTTOM
 10
0.0
 20
0.0
 30
0.0
  9
$PUCSORGLEFT
 10
0.0
 20
0.0
 30
0.0
  9
$PUCSORGRIGHT
 10
0.0
 20
0.0
 30
0.0
  9
$PUCSORGFRONT
 10
0.0
 20
0.0
 30
0.0
  9
$PUCSORGBACK
 10
0.0
 20
0.0
 30
0.0
  9
$USERI1
 70
     0
  9
$USERI2
 70
     0
  9
$USERI3
 70
     0
  9
$USERI4
 70
     0
  9
$USERI5
 70
     0
  9
$USERR1
 40
0.0
  9
$USERR2
 40
0.0
  9
$USERR3
 40
0.0
  9
$USERR4
 40
0.0
  9
$USERR5
 40
0.0
  9
$WORLDVIEW
 70
     1
  9
$SHADEDGE
 70
     3
  9
$SHADEDIF
 70
    70
  9
$TILEMODE
 70
     1
  9
$MAXACTVP
 70
    16
  9
$PINSBASE
 10
0.0
 20
0.0
 30
0.0
  9
$PLIMCHECK
 70
     0
  9
$PEXTMIN
 10
1.000000000000000E+20
 20
1.000000000000000E+20
 30
1.000000000000000E+20
  9
$PEXTMAX
 10
-1.000000000000000E+20
 20
-1.000000000000000E+20
 30
-1.000000000000000E+20
  9
$PLIMMIN
 10
0.0
 20
0.0
  9
$PLIMMAX
 10
12.0
 20
9.0
  9
$UNITMODE
 70
     0
  9
$VISRETAIN
 70
     0
  9
$PLINEGEN
 70
     0
  9
$PSLTSCALE
 70
     1
  9
$TREEDEPTH
 70
  3020
  9
$CMLSTYLE
  2
STANDARD
  9
$CMLJUST
 70
     0
  9
$CMLSCALE
 40
20.0
  9
$PROXYGRAPHICS
 70
     1
  9
$MEASUREMENT
 70
     0
  9
$CELWEIGHT
370
    -1
  9
$ENDCAPS
280
     0
  9
$JOINSTYLE
280
     0
  9
$LWDISPLAY
290
     0
  9
$INSUNITS
 70
     0
  9
$HYPERLINKBASE
  1

  9
$STYLESHEET
  1

  9
$XEDIT
290
     1
  9
$CEPSNTYPE
380
     0
  9
$PSTYLEMODE
290
     1
  9
$FINGERPRINTGUID
  2
{C257B720-B62D-4A50-AE07-7D58D2943C44}
  9
$VERSIONGUID
  2
{E32024AD-69FA-4A44-8AAB-7A6DE8340B29}
  9
$EXTNAMES
290
     1
  9
$PSVPSCALE
 40
0.0
  9
$OLESTARTUP
290
     0
  9
$SORTENTS
280
   127
  9
$INDEXCTL
280
     0
  9
$HIDETEXT
280
     0
  9
$XCLIPFRAME
280
     2
  9
$HALOGAP
280
     0
  9
$OBSCOLOR
 70
   257
  9
$OBSLTYPE
280
     0
  9
$INTERSECTIONDISPLAY
280
     0
  9
$INTERSECTIONCOLOR
 70
   257
  9
$DIMASSOC
280
     1
  9
$PROJECTNAME
  1

  9
$CAMERADISPLAY
290
     0
  9
$LENSLENGTH
 40
50.0
  9
$CAMERAHEIGHT
 40
0.0
  9
$STEPSPERSEC
 40
2.0
  9
$STEPSIZE
 40
6.0
  9
$3DDWFPREC
 40
2.0
  9
$PSOLWIDTH
 40
0.25
  9
$PSOLHEIGHT
 40
4.0
  9
$LOFTANG1
 40
1.570796326794896
  9
$LOFTANG2
 40
1.570796326794896
  9
$LOFTMAG1
 40
0.0
  9
$LOFTMAG2
 40
0.0
  9
$LOFTPARAM
 70
     7
  9
$LOFTNORMALS
280
     1
  9
$LATITUDE
 40
37.795
  9
$LONGITUDE
 40
-122.394
  9
$NORTHDIRECTION
 40
0.0
  9
$TIMEZONE
 70
 -8000
  9
$LIGHTGLYPHDISPLAY
280
     1
  9
$TILEMODELIGHTSYNCH
280
     1
  9
$CMATERIAL
347
80A9
  9
$SOLIDHIST
280
     0
  9
$SHOWHIST
280
     1
  9
$DWFFRAME
280
     2
  9
$DGNFRAME
280
     0
  9
$REALWORLDSCALE
290
     1
  9
$INTERFERECOLOR
 62
     1
  9
$INTERFEREOBJVS
345
80CB
  9
$INTERFEREVPVS
346
80C8
  9
$CSHADOW
280
     0
  9
$SHADOWPLANELOCATION
 40
0.0
  0
ENDSEC
  0
SECTION
  2
CLASSES
  0
CLASS
  1
ACDBDICTIONARYWDFLT
  2
AcDbDictionaryWithDefault
  3
ObjectDBX Classes
 90
        0
 91
        1
280
     0
281
     0
  0
CLASS
  1
DICTIONARYVAR
  2
AcDbDictionaryVar
  3
ObjectDBX Classes
 90
        0
 91
       10
280
     0
281
     0
  0
CLASS
  1
MATERIAL
  2
AcDbMaterial
  3
ObjectDBX Classes
 90
     1153
 91
        3
280
     0
281
     0
  0
CLASS
  1
VISUALSTYLE
  2
AcDbVisualStyle
  3
ObjectDBX Classes
 90
     4095
 91
       24
280
     0
281
     0
  0
CLASS
  1
TABLESTYLE
  2
AcDbTableStyle
  3
ObjectDBX Classes
 90
     4095
 91
        1
280
     0
281
     0
  0
CLASS
  1
SCALE
  2
AcDbScale
  3
ObjectDBX Classes
 90
     1153
 91
       17
280
     0
281
     0
  0
CLASS
  1
MLEADERSTYLE
  2
AcDbMLeaderStyle
  3
ACDB_MLEADERSTYLE_CLASS
 90
     4095
 91
        1
280
     0
281
     0
  0
CLASS
  1
ACDBSECTIONVIEWSTYLE
  2
AcDbSectionViewStyle
  3
ObjectDBX Classes
 90
     1025
 91
        1
280
     0
281
     0
  0
CLASS
  1
ACDBDETAILVIEWSTYLE
  2
AcDbDetailViewStyle
  3
ObjectDBX Classes
 90
     1025
 91
        1
280
     0
281
     0
  0
CLASS
  1
SORTENTSTABLE
  2
AcDbSortentsTable
  3
ObjectDBX Classes
 90
        0
 91
        1
280
     0
281
     0
  0
CLASS
  1
CELLSTYLEMAP
  2
AcDbCellStyleMap
  3
ObjectDBX Classes
 90
     1152
 91
        1
280
     0
281
     0
  0
ENDSEC
  0
SECTION
  2
TABLES
  0
TABLE
  2
VPORT
  5
8
330
0
100
AcDbSymbolTable
 70
     1
  0
VPORT
  5
80A6
330
8
100
AcDbSymbolTableRecord
100
AcDbViewportTableRecord
  2
*Active
 70
     0
 10
0.0
 20
0.0
 11
1.0
 21
1.0
 12
1049.982838315171
 22
1602.872645219692
 13
0.0
 23
0.0
 14
10.0
 24
10.0
 15
10.0
 25
10.0
 16
0.0
 26
0.0
 36
1.0
 17
0.0
 27
0.0
 37
0.0
 40
2622.783284160316
 41
1.957107843137254
 42
50.0
 43
0.0
 44
0.0
 50
0.0
 51
0.0
 71
     0
 72
   100
 73
     1
 74
     0
 75
     0
 76
     0
 77
     0
 78
     0
281
     0
 65
     1
110
0.0
120
0.0
130
0.0
111
1.0
121
0.0
131
0.0
112
0.0
122
1.0
132
0.0
 79
     0
146
0.0
348
80C7
 60
     3
 61
     5
292
     1
282
     1
141
0.0
142
0.0
 63
   250
421
  3355443
1001
ACAD_NAV_VCDISPLAY
1070
     3
  0
ENDTAB
  0
TABLE
  2
LTYPE
  5
5
330
0
100
AcDbSymbolTable
 70
     2
  0
LTYPE
  5
13
330
5
100
AcDbSymbolTableRecord
100
AcDbLinetypeTableRecord
  2
BYBLOCK
 70
     0
  3

 72
    65
 73
     0
 40
0.0
  0
LTYPE
  5
14
330
5
100
AcDbSymbolTableRecord
100
AcDbLinetypeTableRecord
  2
BYLAYER
 70
     0
  3

 72
    65
 73
     0
 40
0.0
  0
LTYPE
  5
15
330
5
100
AcDbSymbolTableRecord
100
AcDbLinetypeTableRecord
  2
CONTINUOUS
 70
     0
  3
Solid line
 72
    65
 73
     0
 40
0.0
  0
LTYPE
  5
1F
330
5
100
AcDbSymbolTableRecord
100
AcDbLinetypeTableRecord
  2
CENTER
 70
     0
  3
____ _ ____ _ ____ _ ____ _ ____ _ ____ _ ____ 
 72
    65
 73
     4
 40
2.0
 49
1.25
 74
     0
 49
-0.25
 74
     0
 49
0.25
 74
     0
 49
-0.25
 74
     0
  0
ENDTAB
  0
TABLE
  2
LAYER
  5
2
102
{ACAD_XDICTIONARY
360
8150
102
}
330
0
100
AcDbSymbolTable
 70
     6
  0
LAYER
  5
F
102
{ACAD_XDICTIONARY
360
8143
102
}
330
2
100
AcDbSymbolTableRecord
100
AcDbLayerTableRecord
  2
0
 70
     0
 62
     7
  6
CONTINUOUS
370
    -3
390
7FE6
347
80B9
348
0
  0
LAYER
  5
31
102
{ACAD_XDICTIONARY
360
8145
102
}
330
2
100
AcDbSymbolTableRecord
100
AcDbLayerTableRecord
  2
3
 70
     0
 62
     2
  6
CONTINUOUS
370
    -3
390
7FE6
347
80B9
348
0
  0
LAYER
  5
76D0
102
{ACAD_XDICTIONARY
360
8147
102
}
330
2
100
AcDbSymbolTableRecord
100
AcDbLayerTableRecord
  2
2
 70
     0
 62
     3
  6
CENTER
370
    -3
390
7FE6
347
80B9
348
0
  0
LAYER
  5
76D1
102
{ACAD_XDICTIONARY
360
8149
102
}
330
2
100
AcDbSymbolTableRecord
100
AcDbLayerTableRecord
  2
1
 70
     0
 62
     4
  6
CONTINUOUS
370
    -3
390
7FE6
347
80B9
348
0
  0
LAYER
  5
76D2
102
{ACAD_XDICTIONARY
360
814B
102
}
330
2
100
AcDbSymbolTableRecord
100
AcDbLayerTableRecord
  2
4
 70
     0
 62
     7
  6
CONTINUOUS
370
    -3
390
7FE6
347
80B9
348
0
  0
LAYER
  5
7C89
330
2
100
AcDbSymbolTableRecord
100
AcDbLayerTableRecord
  2
DEFPOINTS
 70
     0
 62
     7
  6
CONTINUOUS
290
     0
370
    -3
390
7FE6
347
80B9
348
0
  0
ENDTAB
  0
TABLE
  2
STYLE
  5
3
330
0
100
AcDbSymbolTable
 70
     1
  0
STYLE
  5
10
330
3
100
AcDbSymbolTableRecord
100
AcDbTextStyleTableRecord
  2
STANDARD
 70
     0
 40
0.0
 41
1.0
 50
0.0
 71
     0
 42
180.0
  3
simplex.shx
  4
extfont.shx
  0
ENDTAB
  0
TABLE
  2
VIEW
  5
6
330
0
100
AcDbSymbolTable
 70
     0
  0
ENDTAB
  0
TABLE
  2
UCS
  5
7
330
0
100
AcDbSymbolTable
 70
     0
  0
ENDTAB
  0
TABLE
  2
APPID
  5
9
330
0
100
AcDbSymbolTable
 70
     4
  0
APPID
  5
11
330
9
100
AcDbSymbolTableRecord
100
AcDbRegAppTableRecord
  2
ACAD
 70
     0
  0
APPID
  5
80FA
330
9
100
AcDbSymbolTableRecord
100
AcDbRegAppTableRecord
  2
ACAD_NAV_VCDISPLAY
 70
     0
  0
APPID
  5
81AA
330
9
100
AcDbSymbolTableRecord
100
AcDbRegAppTableRecord
  2
AcadAnnoMonitorAlertIconDisabled
 70
     0
  0
APPID
  5
81AB
330
9
100
AcDbSymbolTableRecord
100
AcDbRegAppTableRecord
  2
ACAD_EXEMPT_FROM_CAD_STANDARDS
 70
     0
  0
ENDTAB
  0
TABLE
  2
DIMSTYLE
  5
A
330
0
100
AcDbSymbolTable
 70
     1
100
AcDbDimStyleTable
 71
     0
  0
DIMSTYLE
105
1D
102
{ACAD_REACTORS
330
7CAC
330
7CB8
330
7CC5
330
7CDD
330
7CE9
330
7D35
330
7D65
330
7D72
330
7D83
330
7D8F
330
7D9E
330
7DAB
330
7DB9
330
7DE4
330
7E68
330
7FB7
330
7FC4
330
7FD1
102
}
330
A
100
AcDbSymbolTableRecord
100
AcDbDimStyleTableRecord
  2
IGA
 70
     0
 40
2.0
 41
2.0
 42
0.5
 43
10.0
 44
1.0
 47
1.0
 48
1.0
 73
     0
 74
     0
 77
     1
 78
     8
140
3.0
141
0.0
143
0.03937
146
10.0
147
1.0
173
     1
271
     1
272
     0
279
     2
284
     8
340
10
341
7C76
343
7C76
344
7C76
  0
ENDTAB
  0
TABLE
  2
BLOCK_RECORD
  5
1
330
0
100
AcDbSymbolTable
 70
    20
  0
BLOCK_RECORD
  5
19
102
{ACAD_XDICTIONARY
360
8014
102
}
330
1
100
AcDbSymbolTableRecord
100
AcDbBlockTableRecord
  2
*MODEL_SPACE
340
7FE9
 70
     0
280
     1
281
     0
  0
BLOCK_RECORD
  5
16
102
{ACAD_XDICTIONARY
360
8012
102
}
330
1
100
AcDbSymbolTableRecord
100
AcDbBlockTableRecord
  2
*PAPER_SPACE
340
7FEA
 70
     0
280
     1
281
     0
  0
BLOCK_RECORD
  5
7C76
330
1
100
AcDbSymbolTableRecord
100
AcDbBlockTableRecord
  2
_OPEN
340
0
102
{BLKREFS
331
802E
331
802F
331
8037
331
8038
331
803F
331
8040
331
8048
331
8049
331
8051
331
8052
331
8074
331
8075
331
807B
331
807C
331
80FE
331
80FF
331
8106
331
8107
331
810F
331
8110
331
8117
331
8118
331
7F01
331
7F02
331
7F0C
331
7F0D
331
7F3A
331
7F3B
331
8134
331
8135
331
8182
331
8197
331
81B9
331
81BA
102
}
 70
     0
280
     1
281
     0
  0
BLOCK_RECORD
  5
7CA0
330
1
100
AcDbSymbolTableRecord
100
AcDbBlockTableRecord
  2
*D1
340
0
 70
     0
280
     1
281
     0
  0
BLOCK_RECORD
  5
7CAD
330
1
100
AcDbSymbolTableRecord
100
AcDbBlockTableRecord
  2
*D2
340
0
 70
     0
280
     1
281
     0
  0
BLOCK_RECORD
  5
7CB9
330
1
100
AcDbSymbolTableRecord
100
AcDbBlockTableRecord
  2
*D3
340
0
 70
     0
280
     1
281
     0
  0
BLOCK_RECORD
  5
7CD1
330
1
100
AcDbSymbolTableRecord
100
AcDbBlockTableRecord
  2
*D4
340
0
 70
     0
280
     1
281
     0
  0
BLOCK_RECORD
  5
7CDE
330
1
100
AcDbSymbolTableRecord
100
AcDbBlockTableRecord
  2
*D5
340
0
 70
     0
280
     1
281
     0
  0
BLOCK_RECORD
  5
7D28
330
1
100
AcDbSymbolTableRecord
100
AcDbBlockTableRecord
  2
*D6
340
0
 70
     0
280
     1
281
     0
  0
BLOCK_RECORD
  5
7D59
330
1
100
AcDbSymbolTableRecord
100
AcDbBlockTableRecord
  2
*D7
340
0
 70
     0
280
     1
281
     0
  0
BLOCK_RECORD
  5
7D66
330
1
100
AcDbSymbolTableRecord
100
AcDbBlockTableRecord
  2
*D8
340
0
 70
     0
280
     1
281
     0
  0
BLOCK_RECORD
  5
7D77
330
1
100
AcDbSymbolTableRecord
100
AcDbBlockTableRecord
  2
*D9
340
0
 70
     0
280
     1
281
     0
  0
BLOCK_RECORD
  5
7D84
330
1
100
AcDbSymbolTableRecord
100
AcDbBlockTableRecord
  2
*D10
340
0
 70
     0
280
     1
281
     0
  0
BLOCK_RECORD
  5
7D90
330
1
100
AcDbSymbolTableRecord
100
AcDbBlockTableRecord
  2
*D11
340
0
 70
     0
280
     1
281
     0
  0
BLOCK_RECORD
  5
7D9F
330
1
100
AcDbSymbolTableRecord
100
AcDbBlockTableRecord
  2
*D12
340
0
 70
     0
280
     1
281
     0
  0
BLOCK_RECORD
  5
7DAC
330
1
100
AcDbSymbolTableRecord
100
AcDbBlockTableRecord
  2
*D13
340
0
 70
     0
280
     1
281
     0
  0
BLOCK_RECORD
  5
7DD8
330
1
100
AcDbSymbolTableRecord
100
AcDbBlockTableRecord
  2
*D14
340
0
 70
     0
280
     1
281
     0
  0
BLOCK_RECORD
  5
7E5D
330
1
100
AcDbSymbolTableRecord
100
AcDbBlockTableRecord
  2
*D15
340
0
 70
     0
280
     1
281
     0
  0
BLOCK_RECORD
  5
7F5F
330
1
100
AcDbSymbolTableRecord
100
AcDbBlockTableRecord
  2
_DOT
340
0
102
{BLKREFS
331
8181
331
8196
102
}
 70
     0
280
     1
281
     0
  0
BLOCK_RECORD
  5
7FA9
330
1
100
AcDbSymbolTableRecord
100
AcDbBlockTableRecord
  2
*D17
340
0
 70
     0
280
     1
281
     0
  0
BLOCK_RECORD
  5
7FB8
330
1
100
AcDbSymbolTableRecord
100
AcDbBlockTableRecord
  2
*D18
340
0
 70
     0
280
     1
281
     0
  0
BLOCK_RECORD
  5
7FC5
330
1
100
AcDbSymbolTableRecord
100
AcDbBlockTableRecord
  2
*D19
340
0
 70
     0
280
     1
281
     0
  0
ENDTAB
  0
ENDSEC
  0
SECTION
  2
BLOCKS
  0
BLOCK
  5
1A
330
19
100
AcDbEntity
  8
0
100
AcDbBlockBegin
  2
*MODEL_SPACE
 70
     0
 10
0.0
 20
0.0
 30
0.0
  3
*MODEL_SPACE
  1

  0
ENDBLK
  5
1B
330
19
100
AcDbEntity
  8
0
100
AcDbBlockEnd
  0
BLOCK
  5
17
330
16
100
AcDbEntity
 67
     1
  8
0
100
AcDbBlockBegin
  2
*PAPER_SPACE
 70
     0
 10
0.0
 20
0.0
 30
0.0
  3
*PAPER_SPACE
  1

  0
ENDBLK
  5
18
330
16
100
AcDbEntity
 67
     1
  8
0
100
AcDbBlockEnd
  0
BLOCK
  5
7C77
330
7C76
100
AcDbEntity
  8
0
100
AcDbBlockBegin
  2
_OPEN
 70
     0
 10
0.0
 20
0.0
 30
0.0
  3
_OPEN
  1

  0
LINE
  5
7C78
330
7C76
100
AcDbEntity
  8
0
  6
ByBlock
 62
     0
100
AcDbLine
 10
-1.0
 20
0.166667
 30
0.0
 11
0.0
 21
0.0
 31
0.0
  0
LINE
  5
7C79
330
7C76
100
AcDbEntity
  8
0
  6
ByBlock
 62
     0
100
AcDbLine
 10
0.0
 20
0.0
 30
0.0
 11
-1.0
 21
-0.166667
 31
0.0
  0
LINE
  5
7C7A
330
7C76
100
AcDbEntity
  8
0
  6
ByBlock
 62
     0
100
AcDbLine
 10
0.0
 20
0.0
 30
0.0
 11
-1.0
 21
0.0
 31
0.0
  0
ENDBLK
  5
7C7B
330
7C76
100
AcDbEntity
  8
0
100
AcDbBlockEnd
  0
BLOCK
  5
7CA1
330
7CA0
100
AcDbEntity
  8
0
100
AcDbBlockBegin
  2
*D1
 70
     1
 10
0.0
 20
0.0
 30
0.0
  3
*D1
  1

  0
LINE
  5
80FB
330
7CA0
100
AcDbEntity
  8
3
  6
Continuous
 62
     0
440
 16777216
370
    -2
100
AcDbLine
 10
383.1034520000001
 20
734.5216870535831
 30
0.0
 11
383.1034520000001
 21
674.9804710535832
 31
0.0
  0
LINE
  5
80FC
330
7CA0
100
AcDbEntity
  8
3
  6
Continuous
 62
     0
440
 16777216
370
    -2
100
AcDbLine
 10
833.1034519999999
 20
759.5216870535831
 30
0.0
 11
833.1034519999999
 21
674.9804710535832
 31
0.0
  0
LINE
  5
80FD
330
7CA0
100
AcDbEntity
  8
3
  6
Continuous
 62
     0
440
 16777216
370
    -2
100
AcDbLine
 10
403.103452
 20
684.9804710535831
 30
0.0
 11
813.103452
 21
684.9804710535831
 31
0.0
  0
INSERT
  5
80FE
330
7CA0
100
AcDbEntity
  8
3
  6
Continuous
 62
     0
440
 16777216
370
    -2
100
AcDbBlockReference
  2
_OPEN
 10
383.1034520000001
 20
684.9804710535831
 30
0.0
 41
20.0
 42
20.0
 43
20.0
 50
180.0
  0
INSERT
  5
80FF
330
7CA0
100
AcDbEntity
  8
3
  6
Continuous
 62
     0
440
 16777216
370
    -2
100
AcDbBlockReference
  2
_OPEN
 10
833.1034519999999
 20
684.9804710535831
 30
0.0
 41
20.0
 42
20.0
 43
20.0
  0
MTEXT
  5
8100
330
7CA0
100
AcDbEntity
  8
3
  6
Continuous
 62
     0
440
 16777216
100
AcDbMText
 10
616.427565
 20
709.9804710535831
 30
0.0
 40
30.0
 41
0.0
 46
0.0
 71
     5
 72
     1
  1
\A1;450
 73
     1
 44
1.0
  0
POINT
  5
8101
330
7CA0
100
AcDbEntity
  8
DEFPOINTS
  6
Continuous
 62
     0
440
 16777216
100
AcDbPoint
 10
383.1034520000001
 20
739.5216870535831
 30
0.0
  0
POINT
  5
8102
330
7CA0
100
AcDbEntity
  8
DEFPOINTS
  6
Continuous
 62
     0
440
 16777216
100
AcDbPoint
 10
833.1034519999999
 20
764.5216870535831
 30
0.0
  0
POINT
  5
8103
330
7CA0
100
AcDbEntity
  8
DEFPOINTS
  6
Continuous
 62
     0
440
 16777216
100
AcDbPoint
 10
833.1034519999999
 20
684.9804710535831
 30
0.0
  0
ENDBLK
  5
7CAB
330
7CA0
100
AcDbEntity
  8
0
100
AcDbBlockEnd
  0
BLOCK
  5
7CAE
330
7CAD
100
AcDbEntity
  8
0
100
AcDbBlockBegin
  2
*D2
 70
     1
 10
0.0
 20
0.0
 30
0.0
  3
*D2
  1

  0
LINE
  5
8104
330
7CAD
100
AcDbEntity
  8
3
  6
Continuous
 62
     0
440
 16777216
370
    -2
100
AcDbLine
 10
993.1034519999998
 20
734.5216870535831
 30
0.0
 11
993.1034519999998
 21
674.9804710535832
 31
0.0
  0
LINE
  5
8105
330
7CAD
100
AcDbEntity
  8
3
  6
Continuous
 62
     0
440
 16777216
370
    -2
100
AcDbLine
 10
853.103452
 20
684.9804710535831
 30
0.0
 11
973.1034519999999
 21
684.9804710535831
 31
0.0
  0
INSERT
  5
8106
330
7CAD
100
AcDbEntity
  8
3
  6
Continuous
 62
     0
440
 16777216
370
    -2
100
AcDbBlockReference
  2
_OPEN
 10
833.1034519999999
 20
684.9804710535831
 30
0.0
 41
20.0
 42
20.0
 43
20.0
 50
180.0
  0
INSERT
  5
8107
330
7CAD
100
AcDbEntity
  8
3
  6
Continuous
 62
     0
440
 16777216
370
    -2
100
AcDbBlockReference
  2
_OPEN
 10
993.1034519999998
 20
684.9804710535831
 30
0.0
 41
20.0
 42
20.0
 43
20.0
  0
MTEXT
  5
8108
330
7CAD
100
AcDbEntity
  8
3
  6
Continuous
 62
     0
440
 16777216
100
AcDbMText
 10
913.103452
 20
709.9804710535831
 30
0.0
 40
30.0
 41
0.0
 46
0.0
 71
     5
 72
     1
  1
\A1;160
 73
     1
 44
1.0
  0
POINT
  5
8109
330
7CAD
100
AcDbEntity
  8
DEFPOINTS
  6
Continuous
 62
     0
440
 16777216
100
AcDbPoint
 10
833.1034519999999
 20
764.5216870535831
 30
0.0
  0
POINT
  5
810A
330
7CAD
100
AcDbEntity
  8
DEFPOINTS
  6
Continuous
 62
     0
440
 16777216
100
AcDbPoint
 10
993.1034519999998
 20
739.5216870535831
 30
0.0
  0
POINT
  5
810B
330
7CAD
100
AcDbEntity
  8
DEFPOINTS
  6
Continuous
 62
     0
440
 16777216
100
AcDbPoint
 10
993.1034519999998
 20
684.9804710535831
 30
0.0
  0
ENDBLK
  5
7CB7
330
7CAD
100
AcDbEntity
  8
0
100
AcDbBlockEnd
  0
BLOCK
  5
7CC6
330
7CB9
100
AcDbEntity
  8
0
100
AcDbBlockBegin
  2
*D3
 70
     1
 10
0.0
 20
0.0
 30
0.0
  3
*D3
  1

  0
LINE
  5
802B
330
7CB9
100
AcDbEntity
  8
3
  6
Continuous
 62
     0
440
 16777216
100
AcDbLine
 10
968.1034519999998
 20
1254.521687053583
 30
0.0
 11
1041.378064
 21
1254.521687053583
 31
0.0
  0
LINE
  5
802C
330
7CB9
100
AcDbEntity
  8
3
  6
Continuous
 62
     0
440
 16777216
100
AcDbLine
 10
968.1034519999998
 20
1094.521687053583
 30
0.0
 11
1041.378064
 21
1094.521687053583
 31
0.0
  0
LINE
  5
802D
330
7CB9
100
AcDbEntity
  8
3
  6
Continuous
 62
     0
440
 16777216
100
AcDbLine
 10
1031.378064
 20
1234.521687053583
 30
0.0
 11
1031.378064
 21
1114.521687053583
 31
0.0
  0
INSERT
  5
802E
330
7CB9
100
AcDbEntity
  8
3
  6
Continuous
 62
     0
440
 16777216
100
AcDbBlockReference
  2
_OPEN
 10
1031.378064
 20
1254.521687053583
 30
0.0
 41
20.0
 42
20.0
 43
20.0
 50
90.0
  0
INSERT
  5
802F
330
7CB9
100
AcDbEntity
  8
3
  6
Continuous
 62
     0
440
 16777216
100
AcDbBlockReference
  2
_OPEN
 10
1031.378064
 20
1094.521687053583
 30
0.0
 41
20.0
 42
20.0
 43
20.0
 50
270.0
  0
MTEXT
  5
8030
330
7CB9
100
AcDbEntity
  8
3
  6
Continuous
 62
     0
440
 16777216
100
AcDbMText
 10
1006.378064
 20
1171.994021053583
 30
0.0
 40
30.0
 41
0.0
 46
0.0
 71
     5
 72
     5
  1
\A1;160
 11
0.0000000000000001
 21
1.0
 31
0.0
 73
     1
 44
1.0
  0
POINT
  5
8031
330
7CB9
100
AcDbEntity
  8
DEFPOINTS
  6
Continuous
 62
     0
440
 16777216
100
AcDbPoint
 10
963.103452
 20
1254.521687053583
 30
0.0
  0
POINT
  5
8032
330
7CB9
100
AcDbEntity
  8
DEFPOINTS
  6
Continuous
 62
     0
440
 16777216
100
AcDbPoint
 10
963.103452
 20
1094.521687053583
 30
0.0
  0
POINT
  5
8033
330
7CB9
100
AcDbEntity
  8
DEFPOINTS
  6
Continuous
 62
     0
440
 16777216
100
AcDbPoint
 10
1031.378064
 20
1094.521687053583
 30
0.0
  0
ENDBLK
  5
7CD0
330
7CB9
100
AcDbEntity
  8
0
100
AcDbBlockEnd
  0
BLOCK
  5
7CD2
330
7CD1
100
AcDbEntity
  8
0
100
AcDbBlockBegin
  2
*D4
 70
     1
 10
0.0
 20
0.0
 30
0.0
  3
*D4
  1

  0
LINE
  5
8034
330
7CD1
100
AcDbEntity
  8
3
  6
Continuous
 62
     0
440
 16777216
100
AcDbLine
 10
953.103452
 20
1265.521687053583
 30
0.0
 11
1114.80325
 21
1265.521687053583
 31
0.0
  0
LINE
  5
8035
330
7CD1
100
AcDbEntity
  8
3
  6
Continuous
 62
     0
440
 16777216
100
AcDbLine
 10
968.1034519999998
 20
1094.521687053583
 30
0.0
 11
1114.80325
 21
1094.521687053583
 31
0.0
  0
LINE
  5
8036
330
7CD1
100
AcDbEntity
  8
3
  6
Continuous
 62
     0
440
 16777216
100
AcDbLine
 10
1104.80325
 20
1245.521687053583
 30
0.0
 11
1104.80325
 21
1114.521687053583
 31
0.0
  0
INSERT
  5
8037
330
7CD1
100
AcDbEntity
  8
3
  6
Continuous
 62
     0
440
 16777216
100
AcDbBlockReference
  2
_OPEN
 10
1104.80325
 20
1265.521687053583
 30
0.0
 41
20.0
 42
20.0
 43
20.0
 50
90.0
  0
INSERT
  5
8038
330
7CD1
100
AcDbEntity
  8
3
  6
Continuous
 62
     0
440
 16777216
100
AcDbBlockReference
  2
_OPEN
 10
1104.80325
 20
1094.521687053583
 30
0.0
 41
20.0
 42
20.0
 43
20.0
 50
270.0
  0
MTEXT
  5
8039
330
7CD1
100
AcDbEntity
  8
3
  6
Continuous
 62
     0
440
 16777216
100
AcDbMText
 10
1079.80325
 20
1166.587336053583
 30
0.0
 40
30.0
 41
0.0
 46
0.0
 71
     5
 72
     5
  1
\A1;171
 11
0.0000000000000001
 21
1.0
 31
0.0
 73
     1
 44
1.0
  0
POINT
  5
803A
330
7CD1
100
AcDbEntity
  8
DEFPOINTS
  6
Continuous
 62
     0
440
 16777216
100
AcDbPoint
 10
948.1034519999999
 20
1265.521687053583
 30
0.0
  0
POINT
  5
803B
330
7CD1
100
AcDbEntity
  8
DEFPOINTS
  6
Continuous
 62
     0
440
 16777216
100
AcDbPoint
 10
963.103452
 20
1094.521687053583
 30
0.0
  0
POINT
  5
803C
330
7CD1
100
AcDbEntity
  8
DEFPOINTS
  6
Continuous
 62
     0
440
 16777216
100
AcDbPoint
 10
1104.80325
 20
1094.521687053583
 30
0.0
  0
ENDBLK
  5
7CDC
330
7CD1
100
AcDbEntity
  8
0
100
AcDbBlockEnd
  0
BLOCK
  5
7CDF
330
7CDE
100
AcDbEntity
  8
0
100
AcDbBlockBegin
  2
*D5
 70
     1
 10
0.0
 20
0.0
 30
0.0
  3
*D5
  1

  0
LINE
  5
803D
330
7CDE
100
AcDbEntity
  8
3
  6
Continuous
 62
     0
440
 16777216
100
AcDbLine
 10
973.1034519999999
 20
859.5216870535832
 30
0.0
 11
1114.80325
 21
859.5216870535832
 31
0.0
  0
LINE
  5
803E
330
7CDE
100
AcDbEntity
  8
3
  6
Continuous
 62
     0
440
 16777216
100
AcDbLine
 10
1104.80325
 20
1074.521687053583
 30
0.0
 11
1104.80325
 21
879.5216870535831
 31
0.0
  0
INSERT
  5
803F
330
7CDE
100
AcDbEntity
  8
3
  6
Continuous
 62
     0
440
 16777216
100
AcDbBlockReference
  2
_OPEN
 10
1104.80325
 20
1094.521687053583
 30
0.0
 41
20.0
 42
20.0
 43
20.0
 50
90.0
  0
INSERT
  5
8040
330
7CDE
100
AcDbEntity
  8
3
  6
Continuous
 62
     0
440
 16777216
100
AcDbBlockReference
  2
_OPEN
 10
1104.80325
 20
859.5216870535832
 30
0.0
 41
20.0
 42
20.0
 43
20.0
 50
270.0
  0
MTEXT
  5
8041
330
7CDE
100
AcDbEntity
  8
3
  6
Continuous
 62
     0
440
 16777216
100
AcDbMText
 10
1079.80325
 20
977.0216870535831
 30
0.0
 40
30.0
 41
0.0
 46
0.0
 71
     5
 72
     5
  1
\A1;235
 11
0.0000000000000001
 21
1.0
 31
0.0
 73
     1
 44
1.0
  0
POINT
  5
8042
330
7CDE
100
AcDbEntity
  8
DEFPOINTS
  6
Continuous
 62
     0
440
 16777216
100
AcDbPoint
 10
963.103452
 20
1094.521687053583
 30
0.0
  0
POINT
  5
8043
330
7CDE
100
AcDbEntity
  8
DEFPOINTS
  6
Continuous
 62
     0
440
 16777216
100
AcDbPoint
 10
968.1034519999998
 20
859.5216870535832
 30
0.0
  0
POINT
  5
8044
330
7CDE
100
AcDbEntity
  8
DEFPOINTS
  6
Continuous
 62
     0
440
 16777216
100
AcDbPoint
 10
1104.80325
 20
859.5216870535832
 30
0.0
  0
ENDBLK
  5
7CE8
330
7CDE
100
AcDbEntity
  8
0
100
AcDbBlockEnd
  0
BLOCK
  5
7F35
330
7D28
100
AcDbEntity
  8
0
100
AcDbBlockBegin
  2
*D6
 70
     1
 10
0.0
 20
0.0
 30
0.0
  3
*D6
  1

  0
LINE
  5
7F36
330
7D28
100
AcDbEntity
  8
0
  6
ByBlock
 62
     0
440
 16777216
100
AcDbLine
 10
833.1034519999999
 20
1269.985969053583
 30
0.0
 11
833.1034519999999
 21
1316.329838053583
 31
0.0
  0
LINE
  5
7F37
330
7D28
100
AcDbEntity
  8
0
  6
ByBlock
 62
     0
440
 16777216
100
AcDbLine
 10
963.103452
 20
1281.521687053583
 30
0.0
 11
963.103452
 21
1316.329838053583
 31
0.0
  0
LINE
  5
7F38
330
7D28
100
AcDbEntity
  8
0
  6
ByBlock
 62
     0
440
 16777216
100
AcDbLine
 10
853.103452
 20
1306.329838053583
 30
0.0
 11
943.1034519999998
 21
1306.329838053583
 31
0.0
  0
MTEXT
  5
7F39
330
7D28
100
AcDbEntity
  8
0
  6
ByBlock
 62
     0
440
 16777216
100
AcDbMText
 10
895.6940136469583
 20
1333.613190990229
 30
0.0
 40
30.0
 41
0.0
 46
0.0
 71
     5
 72
     5
  1
\A1;130
 73
     1
 44
1.0
  0
INSERT
  5
7F3A
330
7D28
100
AcDbEntity
  8
0
  6
ByBlock
 62
     0
440
 16777216
100
AcDbBlockReference
  2
_OPEN
 10
833.1034519999999
 20
1306.329838053583
 30
0.0
 41
20.0
 42
20.0
 43
20.0
 50
180.0
  0
INSERT
  5
7F3B
330
7D28
100
AcDbEntity
  8
0
  6
ByBlock
 62
     0
440
 16777216
100
AcDbBlockReference
  2
_OPEN
 10
963.103452
 20
1306.329838053583
 30
0.0
 41
20.0
 42
20.0
 43
20.0
  0
POINT
  5
7F3C
330
7D28
100
AcDbEntity
  8
DEFPOINTS
  6
ByBlock
 62
     0
440
 16777216
100
AcDbPoint
 10
833.1034519999999
 20
1264.985969053583
 30
0.0
  0
POINT
  5
7F3D
330
7D28
100
AcDbEntity
  8
DEFPOINTS
  6
ByBlock
 62
     0
440
 16777216
100
AcDbPoint
 10
963.103452
 20
1276.521687053583
 30
0.0
  0
POINT
  5
7F3E
330
7D28
100
AcDbEntity
  8
DEFPOINTS
  6
ByBlock
 62
     0
440
 16777216
100
AcDbPoint
 10
963.103452
 20
1306.329838053583
 30
0.0
  0
ENDBLK
  5
7F3F
330
7D28
100
AcDbEntity
  8
0
100
AcDbBlockEnd
  0
BLOCK
  5
7D5A
330
7D59
100
AcDbEntity
  8
0
100
AcDbBlockBegin
  2
*D7
 70
     1
 10
0.0
 20
0.0
 30
0.0
  3
*D7
  1

  0
LINE
  5
8045
330
7D59
100
AcDbEntity
  8
3
  6
Continuous
 62
     0
440
 16777216
100
AcDbLine
 10
383.103452
 20
1691.444948109763
 30
0.0
 11
383.103452
 21
1607.188417109764
 31
0.0
  0
LINE
  5
8046
330
7D59
100
AcDbEntity
  8
3
  6
Continuous
 62
     0
440
 16777216
100
AcDbLine
 10
993.1034519999998
 20
1691.444948109763
 30
0.0
 11
993.1034519999998
 21
1607.188417109764
 31
0.0
  0
LINE
  5
8047
330
7D59
100
AcDbEntity
  8
3
  6
Continuous
 62
     0
440
 16777216
100
AcDbLine
 10
403.103452
 20
1617.188417109764
 30
0.0
 11
973.1034519999999
 21
1617.188417109764
 31
0.0
  0
INSERT
  5
8048
330
7D59
100
AcDbEntity
  8
3
  6
Continuous
 62
     0
440
 16777216
100
AcDbBlockReference
  2
_OPEN
 10
383.103452
 20
1617.188417109764
 30
0.0
 41
20.0
 42
20.0
 43
20.0
 50
180.0
  0
INSERT
  5
8049
330
7D59
100
AcDbEntity
  8
3
  6
Continuous
 62
     0
440
 16777216
100
AcDbBlockReference
  2
_OPEN
 10
993.1034519999998
 20
1617.188417109764
 30
0.0
 41
20.0
 42
20.0
 43
20.0
  0
MTEXT
  5
804A
330
7D59
100
AcDbEntity
  8
3
  6
Continuous
 62
     0
440
 16777216
100
AcDbMText
 10
660.6017839999999
 20
1642.188417109764
 30
0.0
 40
30.0
 41
0.0
 46
0.0
 71
     5
 72
     5
  1
\A1;610
 73
     1
 44
1.0
  0
POINT
  5
804B
330
7D59
100
AcDbEntity
  8
DEFPOINTS
  6
Continuous
 62
     0
440
 16777216
100
AcDbPoint
 10
383.103452
 20
1696.444948109764
 30
0.0
  0
POINT
  5
804C
330
7D59
100
AcDbEntity
  8
DEFPOINTS
  6
Continuous
 62
     0
440
 16777216
100
AcDbPoint
 10
993.1034519999998
 20
1696.444948109764
 30
0.0
  0
POINT
  5
804D
330
7D59
100
AcDbEntity
  8
DEFPOINTS
  6
Continuous
 62
     0
440
 16777216
100
AcDbPoint
 10
993.1034519999998
 20
1617.188417109764
 30
0.0
  0
ENDBLK
  5
7D64
330
7D59
100
AcDbEntity
  8
0
100
AcDbBlockEnd
  0
BLOCK
  5
7D67
330
7D66
100
AcDbEntity
  8
0
100
AcDbBlockBegin
  2
*D8
 70
     1
 10
0.0
 20
0.0
 30
0.0
  3
*D8
  1

  0
LINE
  5
804E
330
7D66
100
AcDbEntity
  8
3
  6
Continuous
 62
     0
440
 16777216
100
AcDbLine
 10
998.1034519999999
 20
2126.444948109764
 30
0.0
 11
1092.326376
 21
2126.444948109763
 31
0.0
  0
LINE
  5
804F
330
7D66
100
AcDbEntity
  8
3
  6
Continuous
 62
     0
440
 16777216
100
AcDbLine
 10
998.1034519999999
 20
1696.444948109764
 30
0.0
 11
1092.326376
 21
1696.444948109764
 31
0.0
  0
LINE
  5
8050
330
7D66
100
AcDbEntity
  8
3
  6
Continuous
 62
     0
440
 16777216
100
AcDbLine
 10
1082.326376
 20
2106.444948109763
 30
0.0
 11
1082.326376
 21
1716.444948109764
 31
0.0
  0
INSERT
  5
8051
330
7D66
100
AcDbEntity
  8
3
  6
Continuous
 62
     0
440
 16777216
100
AcDbBlockReference
  2
_OPEN
 10
1082.326376
 20
2126.444948109763
 30
0.0
 41
20.0
 42
20.0
 43
20.0
 50
90.0
  0
INSERT
  5
8052
330
7D66
100
AcDbEntity
  8
3
  6
Continuous
 62
     0
440
 16777216
100
AcDbBlockReference
  2
_OPEN
 10
1082.326376
 20
1696.444948109764
 30
0.0
 41
20.0
 42
20.0
 43
20.0
 50
270.0
  0
MTEXT
  5
8053
330
7D66
100
AcDbEntity
  8
3
  6
Continuous
 62
     0
440
 16777216
100
AcDbMText
 10
1057.326376
 20
1912.097747109764
 30
0.0
 40
30.0
 41
0.0
 46
0.0
 71
     5
 72
     5
  1
\A1;430
 11
0.0000000000000001
 21
1.0
 31
0.0
 73
     1
 44
1.0
  0
POINT
  5
8054
330
7D66
100
AcDbEntity
  8
DEFPOINTS
  6
Continuous
 62
     0
440
 16777216
100
AcDbPoint
 10
993.1034519999998
 20
2126.444948109764
 30
0.0
  0
POINT
  5
8055
330
7D66
100
AcDbEntity
  8
DEFPOINTS
  6
Continuous
 62
     0
440
 16777216
100
AcDbPoint
 10
993.1034519999998
 20
1696.444948109764
 30
0.0
  0
POINT
  5
8056
330
7D66
100
AcDbEntity
  8
DEFPOINTS
  6
Continuous
 62
     0
440
 16777216
100
AcDbPoint
 10
1082.326376
 20
1696.444948109764
 30
0.0
  0
ENDBLK
  5
7D71
330
7D66
100
AcDbEntity
  8
0
100
AcDbBlockEnd
  0
BLOCK
  5
7D78
330
7D77
100
AcDbEntity
  8
0
100
AcDbBlockBegin
  2
*D9
 70
     1
 10
0.0
 20
0.0
 30
0.0
  3
*D9
  1

  0
LINE
  5
810C
330
7D77
100
AcDbEntity
  8
3
  6
Continuous
 62
     0
440
 16777216
370
    -2
100
AcDbLine
 10
1378.386269354494
 20
734.9896710535831
 30
0.0
 11
1378.386269354494
 21
658.549897053583
 31
0.0
  0
LINE
  5
810D
330
7D77
100
AcDbEntity
  8
3
  6
Continuous
 62
     0
440
 16777216
370
    -2
100
AcDbLine
 10
1650.386269354494
 20
734.9896710535831
 30
0.0
 11
1650.386269354494
 21
658.549897053583
 31
0.0
  0
LINE
  5
810E
330
7D77
100
AcDbEntity
  8
3
  6
Continuous
 62
     0
440
 16777216
370
    -2
100
AcDbLine
 10
1398.386269354494
 20
668.5498970535831
 30
0.0
 11
1630.386269354494
 21
668.5498970535831
 31
0.0
  0
INSERT
  5
810F
330
7D77
100
AcDbEntity
  8
3
  6
Continuous
 62
     0
440
 16777216
370
    -2
100
AcDbBlockReference
  2
_OPEN
 10
1378.386269354494
 20
668.5498970535831
 30
0.0
 41
20.0
 42
20.0
 43
20.0
 50
180.0
  0
INSERT
  5
8110
330
7D77
100
AcDbEntity
  8
3
  6
Continuous
 62
     0
440
 16777216
370
    -2
100
AcDbBlockReference
  2
_OPEN
 10
1650.386269354494
 20
668.5498970535831
 30
0.0
 41
20.0
 42
20.0
 43
20.0
  0
MTEXT
  5
8111
330
7D77
100
AcDbEntity
  8
3
  6
Continuous
 62
     0
440
 16777216
100
AcDbMText
 10
1514.695604354494
 20
693.5498970535831
 30
0.0
 40
30.0
 41
0.0
 46
0.0
 71
     5
 72
     1
  1
\A1;272
 73
     1
 44
1.0
  0
POINT
  5
8112
330
7D77
100
AcDbEntity
  8
DEFPOINTS
  6
Continuous
 62
     0
440
 16777216
100
AcDbPoint
 10
1378.386269354494
 20
739.9896710535831
 30
0.0
  0
POINT
  5
8113
330
7D77
100
AcDbEntity
  8
DEFPOINTS
  6
Continuous
 62
     0
440
 16777216
100
AcDbPoint
 10
1650.386269354494
 20
739.9896710535831
 30
0.0
  0
POINT
  5
8114
330
7D77
100
AcDbEntity
  8
DEFPOINTS
  6
Continuous
 62
     0
440
 16777216
100
AcDbPoint
 10
1650.386269354494
 20
668.5498970535831
 30
0.0
  0
ENDBLK
  5
7D82
330
7D77
100
AcDbEntity
  8
0
100
AcDbBlockEnd
  0
BLOCK
  5
7D85
330
7D84
100
AcDbEntity
  8
0
100
AcDbBlockBegin
  2
*D10
 70
     1
 10
0.0
 20
0.0
 30
0.0
  3
*D10
  1

  0
LINE
  5
8115
330
7D84
100
AcDbEntity
  8
3
  6
Continuous
 62
     0
440
 16777216
370
    -2
100
AcDbLine
 10
1808.386269354494
 20
734.9896710535831
 30
0.0
 11
1808.386269354494
 21
658.549897053583
 31
0.0
  0
LINE
  5
8116
330
7D84
100
AcDbEntity
  8
3
  6
Continuous
 62
     0
440
 16777216
370
    -2
100
AcDbLine
 10
1670.386269354494
 20
668.5498970535831
 30
0.0
 11
1788.386269354494
 21
668.5498970535831
 31
0.0
  0
INSERT
  5
8117
330
7D84
100
AcDbEntity
  8
3
  6
Continuous
 62
     0
440
 16777216
370
    -2
100
AcDbBlockReference
  2
_OPEN
 10
1650.386269354494
 20
668.5498970535831
 30
0.0
 41
20.0
 42
20.0
 43
20.0
 50
180.0
  0
INSERT
  5
8118
330
7D84
100
AcDbEntity
  8
3
  6
Continuous
 62
     0
440
 16777216
370
    -2
100
AcDbBlockReference
  2
_OPEN
 10
1808.386269354494
 20
668.5498970535831
 30
0.0
 41
20.0
 42
20.0
 43
20.0
  0
MTEXT
  5
8119
330
7D84
100
AcDbEntity
  8
3
  6
Continuous
 62
     0
440
 16777216
100
AcDbMText
 10
1729.386269354494
 20
693.5498970535831
 30
0.0
 40
30.0
 41
0.0
 46
0.0
 71
     5
 72
     1
  1
\A1;158
 73
     1
 44
1.0
  0
POINT
  5
811A
330
7D84
100
AcDbEntity
  8
DEFPOINTS
  6
Continuous
 62
     0
440
 16777216
100
AcDbPoint
 10
1650.386269354494
 20
739.9896710535831
 30
0.0
  0
POINT
  5
811B
330
7D84
100
AcDbEntity
  8
DEFPOINTS
  6
Continuous
 62
     0
440
 16777216
100
AcDbPoint
 10
1808.386269354494
 20
739.9896710535831
 30
0.0
  0
POINT
  5
811C
330
7D84
100
AcDbEntity
  8
DEFPOINTS
  6
Continuous
 62
     0
440
 16777216
100
AcDbPoint
 10
1808.386269354494
 20
668.5498970535831
 30
0.0
  0
ENDBLK
  5
7D8E
330
7D84
100
AcDbEntity
  8
0
100
AcDbBlockEnd
  0
BLOCK
  5
7EFC
330
7D90
100
AcDbEntity
  8
0
100
AcDbBlockBegin
  2
*D11
 70
     1
 10
0.0
 20
0.0
 30
0.0
  3
*D11
  1

  0
LINE
  5
7EFD
330
7D90
100
AcDbEntity
  8
0
  6
ByBlock
 62
     0
440
 16777216
100
AcDbLine
 10
1594.386269354494
 20
1259.989671053583
 30
0.0
 11
1594.386269354494
 21
1303.670869053583
 31
0.0
  0
LINE
  5
7EFE
330
7D90
100
AcDbEntity
  8
0
  6
ByBlock
 62
     0
440
 16777216
100
AcDbLine
 10
1706.386269354494
 20
1259.989671053583
 30
0.0
 11
1706.386269354494
 21
1303.670869053583
 31
0.0
  0
LINE
  5
7EFF
330
7D90
100
AcDbEntity
  8
0
  6
ByBlock
 62
     0
440
 16777216
100
AcDbLine
 10
1614.386269354494
 20
1293.670869053583
 30
0.0
 11
1686.386269354494
 21
1293.670869053583
 31
0.0
  0
MTEXT
  5
7F00
330
7D90
100
AcDbEntity
  8
0
  6
ByBlock
 62
     0
440
 16777216
100
AcDbMText
 10
1651.607330257617
 20
1315.459493550375
 30
0.0
 40
30.0
 41
0.0
 46
0.0
 71
     5
 72
     5
  1
\A1;112
 73
     1
 44
1.0
  0
INSERT
  5
7F01
330
7D90
100
AcDbEntity
  8
0
  6
ByBlock
 62
     0
440
 16777216
100
AcDbBlockReference
  2
_OPEN
 10
1594.386269354494
 20
1293.670869053583
 30
0.0
 41
20.0
 42
20.0
 43
20.0
 50
180.0
  0
INSERT
  5
7F02
330
7D90
100
AcDbEntity
  8
0
  6
ByBlock
 62
     0
440
 16777216
100
AcDbBlockReference
  2
_OPEN
 10
1706.386269354494
 20
1293.670869053583
 30
0.0
 41
20.0
 42
20.0
 43
20.0
  0
POINT
  5
7F03
330
7D90
100
AcDbEntity
  8
DEFPOINTS
  6
ByBlock
 62
     0
440
 16777216
100
AcDbPoint
 10
1594.386269354494
 20
1254.989671053583
 30
0.0
  0
POINT
  5
7F04
330
7D90
100
AcDbEntity
  8
DEFPOINTS
  6
ByBlock
 62
     0
440
 16777216
100
AcDbPoint
 10
1706.386269354494
 20
1254.989671053583
 30
0.0
  0
POINT
  5
7F05
330
7D90
100
AcDbEntity
  8
DEFPOINTS
  6
ByBlock
 62
     0
440
 16777216
100
AcDbPoint
 10
1706.386269354494
 20
1293.670869053583
 30
0.0
  0
ENDBLK
  5
7F06
330
7D90
100
AcDbEntity
  8
0
100
AcDbBlockEnd
  0
BLOCK
  5
7F40
330
7D9F
100
AcDbEntity
  8
0
100
AcDbBlockBegin
  2
*D12
 70
     1
 10
0.0
 20
0.0
 30
0.0
  3
*D12
  1

  0
LINE
  5
81B6
330
7D9F
100
AcDbEntity
  8
3
  6
Continuous
 62
     0
440
 16777216
370
    -2
100
AcDbLine
 10
1390.386269354494
 20
1194.989671053583
 30
0.0
 11
1390.386269354494
 21
1363.599502167309
 31
0.0
  0
LINE
  5
81B7
330
7D9F
100
AcDbEntity
  8
3
  6
Continuous
 62
     0
440
 16777216
370
    -2
100
AcDbLine
 10
1650.386269354494
 20
1341.629073053583
 30
0.0
 11
1650.386269354494
 21
1363.599502167309
 31
0.0
  0
LINE
  5
81B8
330
7D9F
100
AcDbEntity
  8
3
  6
Continuous
 62
     0
440
 16777216
370
    -2
100
AcDbLine
 10
1410.386269354494
 20
1353.599502167309
 30
0.0
 11
1630.386269354494
 21
1353.599502167309
 31
0.0
  0
INSERT
  5
81B9
330
7D9F
100
AcDbEntity
  8
3
  6
Continuous
 62
     0
440
 16777216
370
    -2
100
AcDbBlockReference
  2
_OPEN
 10
1390.386269354494
 20
1353.599502167309
 30
0.0
 41
20.0
 42
20.0
 43
20.0
 50
180.0
  0
INSERT
  5
81BA
330
7D9F
100
AcDbEntity
  8
3
  6
Continuous
 62
     0
440
 16777216
370
    -2
100
AcDbBlockReference
  2
_OPEN
 10
1650.386269354494
 20
1353.599502167309
 30
0.0
 41
20.0
 42
20.0
 43
20.0
  0
MTEXT
  5
81BB
330
7D9F
100
AcDbEntity
  8
3
  6
Continuous
 62
     0
440
 16777216
100
AcDbMText
 10
1521.737305354494
 20
1386.456645024452
 30
0.0
 40
30.0
 41
0.0
 46
0.0
 71
     5
 72
     1
  1
\A1;(260)
 73
     1
 44
1.0
  0
POINT
  5
81BC
330
7D9F
100
AcDbEntity
  8
DEFPOINTS
  6
Continuous
 62
     0
440
 16777216
100
AcDbPoint
 10
1390.386269354494
 20
1189.989671053583
 30
0.0
  0
POINT
  5
81BD
330
7D9F
100
AcDbEntity
  8
DEFPOINTS
  6
Continuous
 62
     0
440
 16777216
100
AcDbPoint
 10
1650.386269354494
 20
1336.629073053583
 30
0.0
  0
POINT
  5
81BE
330
7D9F
100
AcDbEntity
  8
DEFPOINTS
  6
Continuous
 62
     0
440
 16777216
100
AcDbPoint
 10
1650.386269354494
 20
1353.599502167309
 30
0.0
  0
ENDBLK
  5
7F4A
330
7D9F
100
AcDbEntity
  8
0
100
AcDbBlockEnd
  0
BLOCK
  5
7EDC
330
7DAC
100
AcDbEntity
  8
0
100
AcDbBlockBegin
  2
*D13
 70
     1
 10
0.0
 20
0.0
 30
0.0
  3
*D13
  1

  0
LINE
  5
8071
330
7DAC
100
AcDbEntity
  8
3
  6
Continuous
 62
     0
440
 16777216
100
AcDbLine
 10
1714.386269354494
 20
1199.989671053583
 30
0.0
 11
1714.386269354494
 21
1363.599502167309
 31
0.0
  0
LINE
  5
8072
330
7DAC
100
AcDbEntity
  8
3
  6
Continuous
 62
     0
440
 16777216
100
AcDbLine
 10
1670.386269354494
 20
1353.599502167309
 30
0.0
 11
1694.386269354494
 21
1353.599502167309
 31
0.0
  0
MTEXT
  5
8073
330
7DAC
100
AcDbEntity
  8
3
  6
Continuous
 62
     0
440
 16777216
100
AcDbMText
 10
1683.696421354494
 20
1378.738459167309
 30
0.0
 40
30.0
 41
0.0
 46
0.0
 71
     5
 72
     5
  1
\A1;64
 73
     1
 44
1.0
  0
INSERT
  5
8074
330
7DAC
100
AcDbEntity
  8
3
  6
Continuous
 62
     0
440
 16777216
100
AcDbBlockReference
  2
_OPEN
 10
1650.386269354494
 20
1353.599502167309
 30
0.0
 41
20.0
 42
20.0
 43
20.0
 50
180.0
  0
INSERT
  5
8075
330
7DAC
100
AcDbEntity
  8
3
  6
Continuous
 62
     0
440
 16777216
100
AcDbBlockReference
  2
_OPEN
 10
1714.386269354494
 20
1353.599502167309
 30
0.0
 41
20.0
 42
20.0
 43
20.0
  0
POINT
  5
8076
330
7DAC
100
AcDbEntity
  8
DEFPOINTS
  6
Continuous
 62
     0
440
 16777216
100
AcDbPoint
 10
1650.386269354494
 20
1336.629073053583
 30
0.0
  0
POINT
  5
8077
330
7DAC
100
AcDbEntity
  8
DEFPOINTS
  6
Continuous
 62
     0
440
 16777216
100
AcDbPoint
 10
1714.386269354494
 20
1194.989671053583
 30
0.0
  0
POINT
  5
8078
330
7DAC
100
AcDbEntity
  8
DEFPOINTS
  6
Continuous
 62
     0
440
 16777216
100
AcDbPoint
 10
1714.386269354494
 20
1353.599502167309
 30
0.0
  0
ENDBLK
  5
7EE5
330
7DAC
100
AcDbEntity
  8
0
100
AcDbBlockEnd
  0
BLOCK
  5
7F07
330
7DD8
100
AcDbEntity
  8
0
100
AcDbBlockBegin
  2
*D14
 70
     1
 10
0.0
 20
0.0
 30
0.0
  3
*D14
  1

  0
LINE
  5
7F08
330
7DD8
100
AcDbEntity
  8
0
  6
ByBlock
 62
     0
440
 16777216
100
AcDbLine
 10
1719.386269354494
 20
1174.521687053583
 30
0.0
 11
1797.913591354494
 21
1174.521687053583
 31
0.0
  0
LINE
  5
7F09
330
7DD8
100
AcDbEntity
  8
0
  6
ByBlock
 62
     0
440
 16777216
100
AcDbLine
 10
1719.386269354494
 20
1014.521687053583
 30
0.0
 11
1797.913591354494
 21
1014.521687053583
 31
0.0
  0
LINE
  5
7F0A
330
7DD8
100
AcDbEntity
  8
0
  6
ByBlock
 62
     0
440
 16777216
100
AcDbLine
 10
1787.913591354494
 20
1154.521687053583
 30
0.0
 11
1787.913591354494
 21
1034.521687053583
 31
0.0
  0
MTEXT
  5
7F0B
330
7DD8
100
AcDbEntity
  8
0
  6
ByBlock
 62
     0
440
 16777216
100
AcDbMText
 10
1763.76213526339
 20
1096.722592961617
 30
0.0
 40
30.0
 41
0.0
 46
0.0
 71
     5
 72
     5
  1
\A1;φ160
 11
0.0
 21
1.0
 31
0.0
 73
     1
 44
1.0
  0
INSERT
  5
7F0C
330
7DD8
100
AcDbEntity
  8
0
  6
ByBlock
 62
     0
440
 16777216
100
AcDbBlockReference
  2
_OPEN
 10
1787.913591354494
 20
1174.521687053583
 30
0.0
 41
20.0
 42
20.0
 43
20.0
 50
90.0
  0
INSERT
  5
7F0D
330
7DD8
100
AcDbEntity
  8
0
  6
ByBlock
 62
     0
440
 16777216
100
AcDbBlockReference
  2
_OPEN
 10
1787.913591354494
 20
1014.521687053583
 30
0.0
 41
20.0
 42
20.0
 43
20.0
 50
270.0
  0
POINT
  5
7F0E
330
7DD8
100
AcDbEntity
  8
DEFPOINTS
  6
ByBlock
 62
     0
440
 16777216
100
AcDbPoint
 10
1714.386269354494
 20
1174.521687053583
 30
0.0
  0
POINT
  5
7F0F
330
7DD8
100
AcDbEntity
  8
DEFPOINTS
  6
ByBlock
 62
     0
440
 16777216
100
AcDbPoint
 10
1714.386269354494
 20
1014.521687053583
 30
0.0
  0
POINT
  5
7F10
330
7DD8
100
AcDbEntity
  8
DEFPOINTS
  6
ByBlock
 62
     0
440
 16777216
100
AcDbPoint
 10
1787.913591354494
 20
1014.521687053583
 30
0.0
  0
ENDBLK
  5
7F11
330
7DD8
100
AcDbEntity
  8
0
100
AcDbBlockEnd
  0
BLOCK
  5
7F97
330
7E5D
100
AcDbEntity
  8
0
100
AcDbBlockBegin
  2
*D15
 70
     1
 10
0.0
 20
0.0
 30
0.0
  3
*D15
  1

  0
LINE
  5
8079
330
7E5D
100
AcDbEntity
  8
3
  6
Continuous
 62
     0
440
 16777216
100
AcDbLine
 10
688.103452
 20
1099.521687053583
 30
0.0
 11
688.103452
 21
1316.329838053583
 31
0.0
  0
LINE
  5
807A
330
7E5D
100
AcDbEntity
  8
3
  6
Continuous
 62
     0
440
 16777216
100
AcDbLine
 10
813.103452
 20
1306.329838053583
 30
0.0
 11
708.1034519999999
 21
1306.329838053583
 31
0.0
  0
INSERT
  5
807B
330
7E5D
100
AcDbEntity
  8
3
  6
Continuous
 62
     0
440
 16777216
100
AcDbBlockReference
  2
_OPEN
 10
833.1034519999999
 20
1306.329838053583
 30
0.0
 41
20.0
 42
20.0
 43
20.0
  0
INSERT
  5
807C
330
7E5D
100
AcDbEntity
  8
3
  6
Continuous
 62
     0
440
 16777216
100
AcDbBlockReference
  2
_OPEN
 10
688.103452
 20
1306.329838053583
 30
0.0
 41
20.0
 42
20.0
 43
20.0
 50
180.0
  0
MTEXT
  5
807D
330
7E5D
100
AcDbEntity
  8
3
  6
Continuous
 62
     0
440
 16777216
100
AcDbMText
 10
760.6034519999999
 20
1331.329838053583
 30
0.0
 40
30.0
 41
0.0
 46
0.0
 71
     5
 72
     5
  1
\A1;145
 73
     1
 44
1.0
  0
POINT
  5
807E
330
7E5D
100
AcDbEntity
  8
DEFPOINTS
  6
Continuous
 62
     0
440
 16777216
100
AcDbPoint
 10
833.1034519999999
 20
1264.985969053583
 30
0.0
  0
POINT
  5
807F
330
7E5D
100
AcDbEntity
  8
DEFPOINTS
  6
Continuous
 62
     0
440
 16777216
100
AcDbPoint
 10
688.103452
 20
1094.521687053583
 30
0.0
  0
POINT
  5
8080
330
7E5D
100
AcDbEntity
  8
DEFPOINTS
  6
Continuous
 62
     0
440
 16777216
100
AcDbPoint
 10
688.103452
 20
1306.329838053583
 30
0.0
  0
ENDBLK
  5
7FA0
330
7E5D
100
AcDbEntity
  8
0
100
AcDbBlockEnd
  0
BLOCK
  5
7F60
330
7F5F
100
AcDbEntity
  8
0
100
AcDbBlockBegin
  2
_DOT
 70
     0
 10
0.0
 20
0.0
 30
0.0
  3
_DOT
  1

  0
LINE
  5
7F8D
330
7F5F
100
AcDbEntity
  8
0
  6
ByBlock
 62
     0
100
AcDbLine
 10
0.0
 20
0.0
 30
0.0
 11
-1.0
 21
-0.0000000000000284
 31
0.0
  0
LWPOLYLINE
  5
7F8E
330
7F5F
100
AcDbEntity
  8
0
  6
ByBlock
 62
     0
100
AcDbPolyline
 90
        2
 70
     1
 43
0.1666666666666666
 10
-0.0833333333333286
 20
-0.0000000000000284
 42
1.0
 10
0.0833333333333286
 20
-0.0000000000000284
 42
1.0
  0
ENDBLK
  5
7F66
330
7F5F
100
AcDbEntity
  8
0
100
AcDbBlockEnd
  0
BLOCK
  5
7FAA
330
7FA9
100
AcDbEntity
  8
0
100
AcDbBlockBegin
  2
*D17
 70
     1
 10
0.0
 20
0.0
 30
0.0
  3
*D17
  1

  0
LINE
  5
8191
330
7FA9
100
AcDbEntity
  8
3
 62
     0
440
 16777216
370
    -2
100
AcDbLine
 10
998.1034519999999
 20
789.5216870535831
 30
0.0
 11
1114.824254427787
 21
789.5216870535831
 31
0.0
  0
LINE
  5
8192
330
7FA9
100
AcDbEntity
  8
3
 62
     0
440
 16777216
370
    -2
100
AcDbLine
 10
998.1034519999999
 20
739.5216870535831
 30
0.0
 11
1114.824254427787
 21
739.5216870535831
 31
0.0
  0
LINE
  5
8193
330
7FA9
100
AcDbEntity
  8
3
 62
     0
440
 16777216
370
    -2
100
AcDbLine
 10
1104.824254427787
 20
809.5216870535832
 30
0.0
 11
1104.824254427787
 21
829.5216870535831
 31
0.0
  0
LINE
  5
8194
330
7FA9
100
AcDbEntity
  8
3
 62
     0
440
 16777216
370
    -2
100
AcDbLine
 10
1104.824254427787
 20
719.5216870535831
 30
0.0
 11
1104.824254427787
 21
630.6983643893361
 31
0.0
  0
LINE
  5
8195
330
7FA9
100
AcDbEntity
  8
3
 62
     0
440
 16777216
370
    -2
100
AcDbLine
 10
1104.824254427787
 20
789.5216870535831
 30
0.0
 11
1104.824254427787
 21
739.5216870535831
 31
0.0
  0
INSERT
  5
8196
330
7FA9
100
AcDbEntity
  8
3
 62
     0
440
 16777216
370
    -2
100
AcDbBlockReference
  2
_DOT
 10
1104.824254427787
 20
789.5216870535831
 30
0.0
 41
20.0
 42
20.0
 43
20.0
 50
270.0
  0
INSERT
  5
8197
330
7FA9
100
AcDbEntity
  8
3
 62
     0
440
 16777216
370
    -2
100
AcDbBlockReference
  2
_OPEN
 10
1104.824254427787
 20
739.5216870535831
 30
0.0
 41
20.0
 42
20.0
 43
20.0
 50
90.0
  0
MTEXT
  5
8198
330
7FA9
100
AcDbEntity
  8
3
 62
     0
440
 16777216
100
AcDbMText
 10
1079.824254427787
 20
664.9840786750504
 30
0.0
 40
30.0
 41
0.0
 46
0.0
 71
     5
 72
     1
  1
\A1;50
 11
0.0000000000000001
 21
1.0
 31
0.0
 73
     1
 44
1.0
  0
POINT
  5
8199
330
7FA9
100
AcDbEntity
  8
DEFPOINTS
 62
     0
440
 16777216
100
AcDbPoint
 10
993.1034519999998
 20
789.5216870535831
 30
0.0
  0
POINT
  5
819A
330
7FA9
100
AcDbEntity
  8
DEFPOINTS
 62
     0
440
 16777216
100
AcDbPoint
 10
993.1034519999998
 20
739.5216870535831
 30
0.0
  0
POINT
  5
819B
330
7FA9
100
AcDbEntity
  8
DEFPOINTS
 62
     0
440
 16777216
100
AcDbPoint
 10
1104.824254427787
 20
739.5216870535831
 30
0.0
  0
ENDBLK
  5
7FB6
330
7FA9
100
AcDbEntity
  8
0
100
AcDbBlockEnd
  0
BLOCK
  5
7FB9
330
7FB8
100
AcDbEntity
  8
0
100
AcDbBlockBegin
  2
*D18
 70
     1
 10
0.0
 20
0.0
 30
0.0
  3
*D18
  1

  0
LINE
  5
817D
330
7FB8
100
AcDbEntity
  8
3
 62
     0
440
 16777216
370
    -2
100
AcDbLine
 10
998.1034519999999
 20
789.5216870535831
 30
0.0
 11
1114.824254427787
 21
789.5216870535831
 31
0.0
  0
LINE
  5
817E
330
7FB8
100
AcDbEntity
  8
3
 62
     0
440
 16777216
370
    -2
100
AcDbLine
 10
973.1034519999999
 20
859.5216870535832
 30
0.0
 11
1114.824254427787
 21
859.5216870535832
 31
0.0
  0
LINE
  5
817F
330
7FB8
100
AcDbEntity
  8
3
 62
     0
440
 16777216
370
    -2
100
AcDbLine
 10
1104.824254427787
 20
809.5216870535832
 30
0.0
 11
1104.824254427787
 21
839.5216870535831
 31
0.0
  0
MTEXT
  5
8180
330
7FB8
100
AcDbEntity
  8
3
 62
     0
440
 16777216
100
AcDbMText
 10
1144.813353577043
 20
824.0800150439154
 30
0.0
 40
30.0
 41
0.0
 46
0.0
 71
     5
 72
     1
  1
\A1;(70)
 11
0.0000000000000001
 21
1.0
 31
0.0
 73
     1
 44
1.0
  0
INSERT
  5
8181
330
7FB8
100
AcDbEntity
  8
3
 62
     0
440
 16777216
370
    -2
100
AcDbBlockReference
  2
_DOT
 10
1104.824254427787
 20
789.5216870535831
 30
0.0
 41
20.0
 42
20.0
 43
20.0
 50
270.0
  0
INSERT
  5
8182
330
7FB8
100
AcDbEntity
  8
3
 62
     0
440
 16777216
370
    -2
100
AcDbBlockReference
  2
_OPEN
 10
1104.824254427787
 20
859.5216870535832
 30
0.0
 41
20.0
 42
20.0
 43
20.0
 50
90.0
  0
POINT
  5
8183
330
7FB8
100
AcDbEntity
  8
DEFPOINTS
 62
     0
440
 16777216
100
AcDbPoint
 10
993.1034519999998
 20
789.5216870535831
 30
0.0
  0
POINT
  5
8184
330
7FB8
100
AcDbEntity
  8
DEFPOINTS
 62
     0
440
 16777216
100
AcDbPoint
 10
968.1034519999998
 20
859.5216870535832
 30
0.0
  0
POINT
  5
8185
330
7FB8
100
AcDbEntity
  8
DEFPOINTS
 62
     0
440
 16777216
100
AcDbPoint
 10
1104.824254427787
 20
859.5216870535832
 30
0.0
  0
ENDBLK
  5
7FC3
330
7FB8
100
AcDbEntity
  8
0
100
AcDbBlockEnd
  0
BLOCK
  5
7FC6
330
7FC5
100
AcDbEntity
  8
0
100
AcDbBlockBegin
  2
*D19
 70
     1
 10
0.0
 20
0.0
 30
0.0
  3
*D19
  1

  0
LINE
  5
8131
330
7FC5
100
AcDbEntity
  8
3
 62
     0
440
 16777216
370
    -2
100
AcDbLine
 10
968.1034519999998
 20
1276.521687053583
 30
0.0
 11
1205.818221214666
 21
1276.521687053583
 31
0.0
  0
LINE
  5
8132
330
7FC5
100
AcDbEntity
  8
3
 62
     0
440
 16777216
370
    -2
100
AcDbLine
 10
998.1034519999999
 20
739.5216870535831
 30
0.0
 11
1205.818221214666
 21
739.5216870535831
 31
0.0
  0
LINE
  5
8133
330
7FC5
100
AcDbEntity
  8
3
 62
     0
440
 16777216
370
    -2
100
AcDbLine
 10
1195.818221214666
 20
1256.521687053583
 30
0.0
 11
1195.818221214666
 21
759.5216870535831
 31
0.0
  0
INSERT
  5
8134
330
7FC5
100
AcDbEntity
  8
3
 62
     0
440
 16777216
370
    -2
100
AcDbBlockReference
  2
_OPEN
 10
1195.818221214666
 20
1276.521687053583
 30
0.0
 41
20.0
 42
20.0
 43
20.0
 50
90.0
  0
INSERT
  5
8135
330
7FC5
100
AcDbEntity
  8
3
 62
     0
440
 16777216
370
    -2
100
AcDbBlockReference
  2
_OPEN
 10
1195.818221214666
 20
739.5216870535831
 30
0.0
 41
20.0
 42
20.0
 43
20.0
 50
270.0
  0
MTEXT
  5
8136
330
7FC5
100
AcDbEntity
  8
3
 62
     0
440
 16777216
100
AcDbMText
 10
1162.961078357523
 20
1008.021687053583
 30
0.0
 40
30.0
 41
0.0
 46
0.0
 71
     5
 72
     1
  1
\A1;(537)
 11
0.0000000000000001
 21
1.0
 31
0.0
 73
     1
 44
1.0
  0
POINT
  5
8137
330
7FC5
100
AcDbEntity
  8
DEFPOINTS
 62
     0
440
 16777216
100
AcDbPoint
 10
963.103452
 20
1276.521687053583
 30
0.0
  0
POINT
  5
8138
330
7FC5
100
AcDbEntity
  8
DEFPOINTS
 62
     0
440
 16777216
100
AcDbPoint
 10
993.1034519999998
 20
739.5216870535831
 30
0.0
  0
POINT
  5
8139
330
7FC5
100
AcDbEntity
  8
DEFPOINTS
 62
     0
440
 16777216
100
AcDbPoint
 10
1195.818221214666
 20
739.5216870535831
 30
0.0
  0
ENDBLK
  5
7FD0
330
7FC5
100
AcDbEntity
  8
0
100
AcDbBlockEnd
  0
ENDSEC
  0
SECTION
  2
ENTITIES
  0
LINE
  5
7B29
330
19
100
AcDbEntity
  8
4
  6
Continuous
100
AcDbLine
 10
1850.0
 20
500.0
 30
0.0
 11
1850.0
 21
300.0
 31
0.0
  0
LINE
  5
7B2A
330
19
100
AcDbEntity
  8
4
  6
Continuous
100
AcDbLine
 10
1150.0
 20
500.0
 30
0.0
 11
1150.0
 21
300.0
 31
0.0
  0
LINE
  5
7B2B
330
19
100
AcDbEntity
  8
4
  6
Continuous
100
AcDbLine
 10
650.0
 20
500.0
 30
0.0
 11
650.0
 21
300.0
 31
0.0
  0
LINE
  5
7B2E
330
19
100
AcDbEntity
  8
4
  6
Continuous
100
AcDbLine
 10
650.0
 20
300.0
 30
0.0
 11
1850.0
 21
300.0
 31
0.0
  0
LINE
  5
7B2F
330
19
100
AcDbEntity
  8
4
  6
Continuous
100
AcDbLine
 10
650.0
 20
400.0
 30
0.0
 11
1850.0
 21
400.0
 31
0.0
  0
TEXT
  5
7B30
330
19
100
AcDbEntity
  8
4
  6
Continuous
100
AcDbText
 10
688.502081
 20
431.543026
 30
0.0
 40
50.0
  1
機器名称
100
AcDbText
  0
TEXT
  5
7B31
330
19
100
AcDbEntity
  8
4
  6
Continuous
100
AcDbText
 10
686.258106
 20
321.645157
 30
0.0
 40
50.0
  1
機器型番
100
AcDbText
  0
TEXT
  5
7B32
330
19
100
AcDbEntity
  8
4
  6
Continuous
100
AcDbText
 10
1177.678745
 20
422.571769
 30
0.0
 40
45.0
  1
ミツヤニューマルチファン
100
AcDbText
  0
TEXT
  5
7B33
330
19
100
AcDbEntity
  8
4
  6
Continuous
100
AcDbText
 10
1186.654496
 20
317.159584
 30
0.0
 40
50.0
  1
NM#1-1
100
AcDbText
  0
TEXT
  5
7B35
330
19
100
AcDbEntity
  8
4
  6
Continuous
100
AcDbText
 10
739.009784
 20
2383.428841
 30
0.0
 40
54.0
  1
天井吊防振ベット
100
AcDbText
  0
TEXT
  5
7B36
330
19
100
AcDbEntity
  8
4
  6
Continuous
100
AcDbText
 10
316.167593
 20
2533.880976000001
 30
0.0
 40
72.0
  1
ベルト駆動式片吸込片持多翼ファン
100
AcDbText
  0
LINE
  5
7B37
330
19
100
AcDbEntity
  8
4
  6
Continuous
100
AcDbLine
 10
250.0
 20
2469.408754
 30
0.0
 11
1850.0
 21
2469.408754
 31
0.0
  0
LINE
  5
7B38
330
19
100
AcDbEntity
  8
4
  6
Continuous
100
AcDbLine
 10
250.0
 20
2669.408754
 30
0.0
 11
1850.0
 21
2669.408754
 31
0.0
  0
LINE
  5
7B39
330
19
100
AcDbEntity
  8
4
  6
Continuous
100
AcDbLine
 10
650.0
 20
500.0
 30
0.0
 11
1850.0
 21
500.0
 31
0.0
  0
LINE
  5
7B3A
330
19
100
AcDbEntity
  8
4
  6
Continuous
100
AcDbLine
 10
250.0
 20
2669.408754
 30
0.0
 11
250.0
 21
2469.408754
 31
0.0
  0
TEXT
  5
7B3B
330
19
100
AcDbEntity
  8
4
  6
Continuous
100
AcDbText
 10
303.150951
 20
2382.319478000001
 30
0.0
 40
54.0
  1
右回転右横向
100
AcDbText
  0
TEXT
  5
7B3C
330
19
100
AcDbEntity
  8
4
  6
Continuous
100
AcDbText
 10
1468.969559
 20
2706.061081
 30
0.0
 40
56.0
  1
No.
100
AcDbText
  0
TEXT
  5
7B3D
330
19
100
AcDbEntity
  8
4
  6
Continuous
100
AcDbText
 10
1383.416154
 20
2383.428841
 30
0.0
 40
54.0
  1
縮尺：1/10
100
AcDbText
  0
LINE
  5
7B3E
330
19
100
AcDbEntity
  8
4
  6
Continuous
100
AcDbLine
 10
1850.0
 20
2669.408754
 30
0.0
 11
1850.0
 21
2469.408754
 31
0.0
  0
LINE
  5
7B40
330
19
100
AcDbEntity
  8
4
  6
Continuous
100
AcDbLine
 10
1440.617422
 20
2681.263583
 30
0.0
 11
1440.617422
 21
2786.652262
 31
0.0
  0
LINE
  5
7B41
330
19
100
AcDbEntity
  8
4
  6
Continuous
100
AcDbLine
 10
1440.617422
 20
2786.652262
 30
0.0
 11
1850.0
 21
2786.652262
 31
0.0
  0
LINE
  5
7B42
330
19
100
AcDbEntity
  8
4
  6
Continuous
100
AcDbLine
 10
1850.0
 20
2786.652262
 30
0.0
 11
1850.0
 21
2681.263583
 31
0.0
  0
LINE
  5
7B43
330
19
100
AcDbEntity
  8
4
  6
Continuous
100
AcDbLine
 10
1850.0
 20
2681.263583
 30
0.0
 11
1440.617422
 21
2681.263583
 31
0.0
  0
LINE
  5
7BE1
330
19
100
AcDbEntity
  8
1
  6
Continuous
 62
     4
100
AcDbLine
 10
556.5034519999999
 20
975.621687053583
 30
0.0
 11
844.503452
 21
1051.021687053583
 31
0.0
  0
LINE
  5
7BE2
330
19
100
AcDbEntity
  8
1
  6
Continuous
 62
     4
100
AcDbLine
 10
536.5034519999999
 20
1042.721687053583
 30
0.0
 11
818.803452
 21
1137.221687053583
 31
0.0
  0
LINE
  5
7BE3
330
19
100
AcDbEntity
  8
1
  6
Continuous
 62
     4
100
AcDbLine
 10
930.403452
 20
1189.521687053583
 30
0.0
 11
450.403452
 21
1189.521687053583
 31
0.0
  0
LINE
  5
7BE4
330
19
100
AcDbEntity
  8
1
  6
Continuous
 62
     4
100
AcDbLine
 10
408.1034520000001
 20
909.5216870535832
 30
0.0
 11
968.1034519999998
 21
909.5216870535832
 31
0.0
  0
LINE
  5
7BE5
330
19
100
AcDbEntity
  8
1
  6
Continuous
 62
     4
100
AcDbLine
 10
408.1034520000001
 20
859.5216870535832
 30
0.0
 11
968.1034519999998
 21
859.5216870535832
 31
0.0
  0
ARC
  5
7BE6
330
19
100
AcDbEntity
  8
1
  6
Continuous
 62
     4
100
AcDbCircle
 10
547.6034519999999
 20
1009.521687053583
 30
0.0
 40
85.0
100
AcDbArc
 50
324.7
 51
215.3
  0
LINE
  5
7BE7
330
19
100
AcDbEntity
  8
1
  6
Continuous
 62
     4
100
AcDbLine
 10
408.1034520000001
 20
929.521687053583
 30
0.0
 11
659.103452
 21
929.521687053583
 31
0.0
  0
LINE
  5
7BE8
330
19
100
AcDbEntity
  8
1
  6
Continuous
 62
     4
100
AcDbLine
 10
383.1034520000001
 20
789.5216870535831
 30
0.0
 11
993.1034519999998
 21
789.5216870535831
 31
0.0
  0
LINE
  5
7BE9
330
19
100
AcDbEntity
  8
1
  6
Continuous
 62
     4
100
AcDbLine
 10
383.1034520000001
 20
764.5216870535831
 30
0.0
 11
993.1034519999998
 21
764.5216870535831
 31
0.0
  0
LINE
  5
7BEA
330
19
100
AcDbEntity
  8
1
  6
Continuous
 62
     4
100
AcDbLine
 10
408.1034520000001
 20
929.521687053583
 30
0.0
 11
408.1034520000001
 21
859.5216870535832
 31
0.0
  0
LINE
  5
7BEB
330
19
100
AcDbEntity
  8
1
  6
Continuous
 62
     4
100
AcDbLine
 10
383.1034520000001
 20
739.5216870535831
 30
0.0
 11
408.1034520000001
 21
739.5216870535831
 31
0.0
  0
LINE
  5
7BEC
330
19
100
AcDbEntity
  8
1
  6
Continuous
 62
     4
100
AcDbLine
 10
408.1034520000001
 20
764.5216870535831
 30
0.0
 11
408.1034520000001
 21
739.5216870535831
 31
0.0
  0
LINE
  5
7BED
330
19
100
AcDbEntity
  8
1
  6
Continuous
 62
     4
100
AcDbLine
 10
383.1034520000001
 20
789.5216870535831
 30
0.0
 11
383.1034520000001
 21
739.5216870535831
 31
0.0
  0
LINE
  5
7BEE
330
19
100
AcDbEntity
  8
1
  6
Continuous
 62
     4
100
AcDbLine
 10
470.1034519999999
 20
929.521687053583
 30
0.0
 11
470.1034519999999
 21
937.521687053583
 31
0.0
  0
LINE
  5
7BEF
330
19
100
AcDbEntity
  8
1
  6
Continuous
 62
     4
100
AcDbLine
 10
450.403452
 20
1189.521687053583
 30
0.0
 11
450.403452
 21
909.5216870535832
 31
0.0
  0
LINE
  5
7BF0
330
19
100
AcDbEntity
  8
1
  6
Continuous
 62
     4
100
AcDbLine
 10
470.1034519999999
 20
937.521687053583
 30
0.0
 11
478.3034519999999
 21
960.3216870535831
 31
0.0
  0
CIRCLE
  5
7BF1
330
19
100
AcDbEntity
  8
1
  6
Continuous
 62
     4
100
AcDbCircle
 10
547.6034519999999
 20
1009.521687053583
 30
0.0
 40
35.0
  0
LINE
  5
7BF2
330
19
100
AcDbEntity
  8
2
  6
CENTER
 62
     3
100
AcDbLine
 10
547.6034519999999
 20
974.5216870535831
 30
0.0
 11
547.6034519999999
 21
1044.521687053583
 31
0.0
  0
LINE
  5
7BF3
330
19
100
AcDbEntity
  8
2
  6
CENTER
100
AcDbLine
 10
512.6034519999999
 20
1009.521687053583
 30
0.0
 11
582.6034519999999
 21
1009.521687053583
 31
0.0
  0
LINE
  5
7BF4
330
19
100
AcDbEntity
  8
1
  6
Continuous
 62
     4
100
AcDbLine
 10
968.1034519999998
 20
859.5216870535832
 30
0.0
 11
968.1034519999998
 21
909.5216870535832
 31
0.0
  0
LINE
  5
7BF5
330
19
100
AcDbEntity
  8
1
  6
Continuous
 62
     4
100
AcDbLine
 10
968.1034519999998
 20
764.5216870535831
 30
0.0
 11
968.1034519999998
 21
739.5216870535831
 31
0.0
  0
LINE
  5
7BF6
330
19
100
AcDbEntity
  8
1
  6
Continuous
 62
     4
100
AcDbLine
 10
993.1034519999998
 20
739.5216870535831
 30
0.0
 11
968.1034519999998
 21
739.5216870535831
 31
0.0
  0
LINE
  5
7BF7
330
19
100
AcDbEntity
  8
1
  6
Continuous
 62
     4
100
AcDbLine
 10
993.1034519999998
 20
739.5216870535831
 30
0.0
 11
993.1034519999998
 21
789.5216870535831
 31
0.0
  0
CIRCLE
  5
7BF8
330
19
100
AcDbEntity
  8
1
  6
Continuous
 62
     4
100
AcDbCircle
 10
833.1034519999999
 20
1094.521687053583
 30
0.0
 40
80.0
  0
CIRCLE
  5
7BF9
330
19
100
AcDbEntity
  8
1
  6
Continuous
 62
     4
100
AcDbCircle
 10
833.1034519999999
 20
1094.521687053583
 30
0.0
 40
100.0
  0
LINE
  5
7BFA
330
19
100
AcDbEntity
  8
2
  6
CENTER
100
AcDbLine
 10
429.760518
 20
1094.521687053583
 30
0.0
 11
1026.993803
 21
1094.521687053583
 31
0.0
  0
ARC
  5
7BFB
330
19
100
AcDbEntity
  8
1
  6
Continuous
 62
     4
100
AcDbCircle
 10
822.1034519999999
 20
1105.521687053583
 30
0.0
 40
134.0
100
AcDbArc
 50
189.9
 51
270.5
  0
ARC
  5
7BFC
330
19
100
AcDbEntity
  8
1
  6
Continuous
 62
     4
100
AcDbCircle
 10
846.103452
 20
1107.521687053583
 30
0.0
 40
158.0
100
AcDbArc
 50
90.0
 51
189.1
  0
LINE
  5
7BFD
330
19
100
AcDbEntity
  8
1
  6
Continuous
 62
     4
100
AcDbLine
 10
869.703452
 20
1199.521687053583
 30
0.0
 11
796.5034519999999
 21
1199.521687053583
 31
0.0
  0
LINE
  5
7BFE
330
19
100
AcDbEntity
  8
1
  6
Continuous
 62
     4
100
AcDbLine
 10
723.1034519999999
 20
1061.221687053583
 30
0.0
 11
943.1034519999998
 21
1061.221687053583
 31
0.0
  0
CIRCLE
  5
7BFF
330
19
100
AcDbEntity
  8
1
  6
Continuous
 62
     4
100
AcDbCircle
 10
833.1034519999999
 20
1094.521687053583
 30
0.0
 40
45.0
  0
LINE
  5
7C00
330
19
100
AcDbEntity
  8
1
  6
Continuous
 62
     4
100
AcDbLine
 10
659.103452
 20
929.521687053583
 30
0.0
 11
659.103452
 21
909.5216870535832
 31
0.0
  0
LINE
  5
7C01
330
19
100
AcDbEntity
  8
1
  6
Continuous
 62
     4
100
AcDbLine
 10
625.1034519999999
 20
929.521687053583
 30
0.0
 11
625.1034519999999
 21
937.521687053583
 31
0.0
  0
LINE
  5
7C02
330
19
100
AcDbEntity
  8
1
  6
Continuous
 62
     4
100
AcDbLine
 10
625.1034519999999
 20
937.521687053583
 30
0.0
 11
616.9034519999999
 21
960.3216870535831
 31
0.0
  0
LINE
  5
7C03
330
19
100
AcDbEntity
  8
1
  6
Continuous
 62
     4
100
AcDbLine
 10
723.1034519999999
 20
1136.621687053583
 30
0.0
 11
796.5034519999999
 21
1199.521687053583
 31
0.0
  0
LINE
  5
7C04
330
19
100
AcDbEntity
  8
1
  6
Continuous
 62
     4
100
AcDbLine
 10
723.1034519999999
 20
1136.621687053583
 30
0.0
 11
723.1034519999999
 21
909.5216870535832
 31
0.0
  0
LINE
  5
7C05
330
19
100
AcDbEntity
  8
1
  6
Continuous
 62
     4
100
AcDbLine
 10
948.1034519999999
 20
1240.521687053583
 30
0.0
 11
948.1034519999999
 21
1108.521687053583
 31
0.0
  0
LINE
  5
7C06
330
19
100
AcDbEntity
  8
1
  6
Continuous
 62
     4
100
AcDbLine
 10
963.103452
 20
1276.521687053583
 30
0.0
 11
963.103452
 21
1072.521687053583
 31
0.0
  0
ARC
  5
7C07
330
19
100
AcDbEntity
  8
1
  6
Continuous
 62
     4
100
AcDbCircle
 10
824.1034519999999
 20
1085.521687053583
 30
0.0
 40
114.0
100
AcDbArc
 50
269.5000000000001
 51
359.5000000000001
  0
LINE
  5
7C08
330
19
100
AcDbEntity
  8
1
  6
Continuous
 62
     4
100
AcDbLine
 10
943.1034519999998
 20
1136.621687053583
 30
0.0
 11
869.703452
 21
1199.521687053583
 31
0.0
  0
LINE
  5
7C09
330
19
100
AcDbEntity
  8
2
  6
CENTER
100
AcDbLine
 10
833.1034519999999
 20
764.5216870535831
 30
0.0
 11
833.1034519999999
 21
1290.304787053583
 31
0.0
  0
LINE
  5
7C0A
330
19
100
AcDbEntity
  8
1
  6
Continuous
 62
     4
100
AcDbLine
 10
948.1034519999999
 20
1094.521687053583
 30
0.0
 11
948.1034519999999
 21
1084.521687053583
 31
0.0
  0
LINE
  5
7C0B
330
19
100
AcDbEntity
  8
1
  6
Continuous
 62
     4
100
AcDbLine
 10
948.1034519999999
 20
1094.521687053583
 30
0.0
 11
963.103452
 21
1094.521687053583
 31
0.0
  0
LINE
  5
7C0C
330
19
100
AcDbEntity
  8
1
  6
Continuous
 62
     4
100
AcDbLine
 10
963.103452
 20
1093.521687053583
 30
0.0
 11
948.1034519999999
 21
1108.521687053583
 31
0.0
  0
LINE
  5
7C0D
330
19
100
AcDbEntity
  8
1
  6
Continuous
 62
     4
100
AcDbLine
 10
948.1034519999999
 20
1084.521687053583
 30
0.0
 11
938.103452
 21
1084.521687053583
 31
0.0
  0
LINE
  5
7C0E
330
19
100
AcDbEntity
  8
1
  6
Continuous
 62
     4
100
AcDbLine
 10
943.1034519999998
 20
909.5216870535832
 30
0.0
 11
943.1034519999998
 21
1136.621687053583
 31
0.0
  0
LINE
  5
7C0F
330
19
100
AcDbEntity
  8
1
  6
Continuous
 62
     4
100
AcDbLine
 10
930.403452
 20
909.5216870535832
 30
0.0
 11
930.403452
 21
1189.521687053583
 31
0.0
  0
LINE
  5
7C10
330
19
100
AcDbEntity
  8
1
  6
Continuous
 62
     4
100
AcDbLine
 10
948.1034519999999
 20
1265.521687053583
 30
0.0
 11
846.103452
 21
1265.521687053583
 31
0.0
  0
LINE
  5
7C11
330
19
100
AcDbEntity
  8
1
  6
Continuous
 62
     4
100
AcDbLine
 10
948.1034519999999
 20
1254.521687053583
 30
0.0
 11
963.103452
 21
1254.521687053583
 31
0.0
  0
LINE
  5
7C12
330
19
100
AcDbEntity
  8
1
  6
Continuous
 62
     4
100
AcDbLine
 10
963.103452
 20
1255.521687053583
 30
0.0
 11
948.1034519999999
 21
1240.521687053583
 31
0.0
  0
LINE
  5
7C13
330
19
100
AcDbEntity
  8
1
  6
Continuous
 62
     4
100
AcDbLine
 10
948.1034519999999
 20
1265.521687053583
 30
0.0
 11
948.1034519999999
 21
1254.521687053583
 31
0.0
  0
LINE
  5
7C14
330
19
100
AcDbEntity
  8
1
  6
Continuous
 62
     4
100
AcDbLine
 10
632.6034519999999
 20
1794.644948109764
 30
0.0
 11
462.6034519999999
 21
1794.644948109764
 31
0.0
  0
LINE
  5
7C15
330
19
100
AcDbEntity
  8
1
  6
Continuous
 62
     4
100
AcDbLine
 10
632.6034519999999
 20
1985.444948109763
 30
0.0
 11
462.6034519999999
 21
1985.444948109763
 31
0.0
  0
LINE
  5
7C16
330
19
100
AcDbEntity
  8
1
  6
Continuous
 62
     4
100
AcDbLine
 10
930.403452
 20
1708.944948109764
 30
0.0
 11
450.4034519999999
 21
1708.944948109764
 31
0.0
  0
LINE
  5
7C17
330
19
100
AcDbEntity
  8
1
  6
Continuous
 62
     4
100
AcDbLine
 10
930.403452
 20
1783.944948109764
 30
0.0
 11
450.4034519999999
 21
1783.944948109764
 31
0.0
  0
LINE
  5
7C18
330
19
100
AcDbEntity
  8
1
  6
Continuous
 62
     4
100
AcDbLine
 10
557.1034519999999
 20
1780.944948109764
 30
0.0
 11
821.103452
 21
1780.944948109764
 31
0.0
  0
LINE
  5
7C19
330
19
100
AcDbEntity
  8
1
  6
Continuous
 62
     4
100
AcDbLine
 10
699.0034519999999
 20
2004.944948109764
 30
0.0
 11
408.103452
 21
2004.944948109764
 31
0.0
  0
LINE
  5
7C1A
330
19
100
AcDbEntity
  8
1
  6
Continuous
 62
     4
100
AcDbLine
 10
462.6034519999999
 20
1794.644948109764
 30
0.0
 11
462.6034519999999
 21
1985.444948109763
 31
0.0
  0
LINE
  5
7C1B
330
19
100
AcDbEntity
  8
1
  6
Continuous
 62
     4
100
AcDbLine
 10
408.103452
 20
2126.444948109764
 30
0.0
 11
408.103452
 21
1696.444948109764
 31
0.0
  0
LINE
  5
7C1C
330
19
100
AcDbEntity
  8
1
  6
Continuous
 62
     4
100
AcDbLine
 10
383.103452
 20
2126.444948109764
 30
0.0
 11
383.103452
 21
1696.444948109764
 31
0.0
  0
LINE
  5
7C1D
330
19
100
AcDbEntity
  8
1
  6
Continuous
 62
     4
100
AcDbLine
 10
408.103452
 20
1780.944948109764
 30
0.0
 11
538.1034519999999
 21
1780.944948109764
 31
0.0
  0
LINE
  5
7C1E
330
19
100
AcDbEntity
  8
1
  6
Continuous
 62
     4
100
AcDbLine
 10
408.103452
 20
1696.444948109764
 30
0.0
 11
383.103452
 21
1696.444948109764
 31
0.0
  0
LINE
  5
7C1F
330
19
100
AcDbEntity
  8
1
  6
Continuous
 62
     4
100
AcDbLine
 10
450.4034519999999
 20
1783.944948109764
 30
0.0
 11
450.4034519999999
 21
1708.944948109764
 31
0.0
  0
LINE
  5
7C20
330
19
100
AcDbEntity
  8
1
  6
Continuous
 62
     4
100
AcDbLine
 10
557.1034519999999
 20
1764.844948109763
 30
0.0
 11
557.1034519999999
 21
1794.644948109764
 31
0.0
  0
LINE
  5
7C21
330
19
100
AcDbEntity
  8
1
  6
Continuous
 62
     4
100
AcDbLine
 10
538.1034519999999
 20
1764.844948109763
 30
0.0
 11
538.1034519999999
 21
1794.644948109764
 31
0.0
  0
LINE
  5
7C22
330
19
100
AcDbEntity
  8
1
  6
Continuous
 62
     4
100
AcDbLine
 10
582.6034519999999
 20
1764.844948109763
 30
0.0
 11
512.6034519999999
 21
1764.844948109763
 31
0.0
  0
LINE
  5
7C23
330
19
100
AcDbEntity
  8
1
  6
Continuous
 62
     4
100
AcDbLine
 10
582.6034519999999
 20
1729.844948109764
 30
0.0
 11
512.6034519999999
 21
1729.844948109764
 31
0.0
  0
LINE
  5
7C24
330
19
100
AcDbEntity
  8
1
  6
Continuous
 62
     4
100
AcDbLine
 10
582.6034519999999
 20
1764.844948109763
 30
0.0
 11
582.6034519999999
 21
1729.844948109764
 31
0.0
  0
LINE
  5
7C25
330
19
100
AcDbEntity
  8
1
  6
Continuous
 62
     4
100
AcDbLine
 10
512.6034519999999
 20
1764.844948109763
 30
0.0
 11
512.6034519999999
 21
1729.844948109764
 31
0.0
  0
LINE
  5
7C26
330
19
100
AcDbEntity
  8
1
  6
Continuous
 62
     4
100
AcDbLine
 10
408.103452
 20
2126.444948109764
 30
0.0
 11
383.103452
 21
2126.444948109764
 31
0.0
  0
LINE
  5
7C27
330
19
100
AcDbEntity
  8
1
  6
Continuous
 62
     4
100
AcDbLine
 10
632.6034519999999
 20
1794.644948109764
 30
0.0
 11
632.6034519999999
 21
1985.444948109763
 31
0.0
  0
LINE
  5
7C28
330
19
100
AcDbEntity
  8
1
  6
Continuous
 62
     4
100
AcDbLine
 10
993.1034519999998
 20
2126.444948109764
 30
0.0
 11
993.1034519999998
 21
1696.444948109764
 31
0.0
  0
LINE
  5
7C29
330
19
100
AcDbEntity
  8
1
  6
Continuous
 62
     4
100
AcDbLine
 10
968.1034519999998
 20
2126.444948109764
 30
0.0
 11
968.1034519999998
 21
1696.444948109764
 31
0.0
  0
LINE
  5
7C2A
330
19
100
AcDbEntity
  8
1
  6
Continuous
 62
     4
100
AcDbLine
 10
699.0034519999999
 20
2016.944948109764
 30
0.0
 11
699.0034519999999
 21
1920.944948109764
 31
0.0
  0
LINE
  5
7C2B
330
19
100
AcDbEntity
  8
1
  6
Continuous
 62
     4
100
AcDbLine
 10
948.1034519999999
 20
2010.944948109764
 30
0.0
 11
948.1034519999999
 21
1926.944948109763
 31
0.0
  0
LINE
  5
7C2C
330
19
100
AcDbEntity
  8
1
  6
Continuous
 62
     4
100
AcDbLine
 10
963.103452
 20
2045.944948109764
 30
0.0
 11
963.103452
 21
1891.944948109764
 31
0.0
  0
LINE
  5
7C2D
330
19
100
AcDbEntity
  8
1
  6
Continuous
 62
     4
100
AcDbLine
 10
707.0034519999999
 20
1912.944948109764
 30
0.0
 11
963.103452
 21
1912.944948109764
 31
0.0
  0
LINE
  5
7C2E
330
19
100
AcDbEntity
  8
1
  6
Continuous
 62
     4
100
AcDbLine
 10
943.1034519999998
 20
1905.344948109764
 30
0.0
 11
723.1034519999999
 21
1905.344948109764
 31
0.0
  0
LINE
  5
7C2F
330
19
100
AcDbEntity
  8
1
  6
Continuous
 62
     4
100
AcDbLine
 10
878.103452
 20
1729.844948109764
 30
0.0
 11
788.103452
 21
1729.844948109764
 31
0.0
  0
LINE
  5
7C30
330
19
100
AcDbEntity
  8
1
  6
Continuous
 62
     4
100
AcDbLine
 10
878.103452
 20
1764.844948109763
 30
0.0
 11
788.103452
 21
1764.844948109763
 31
0.0
  0
ARC
  5
7C31
330
19
100
AcDbEntity
  8
1
  6
Continuous
 62
     4
100
AcDbCircle
 10
707.0034519999999
 20
1920.944948109764
 30
0.0
 40
8.0
100
AcDbArc
 50
180.0
 51
270.0
  0
LINE
  5
7C32
330
19
100
AcDbEntity
  8
1
  6
Continuous
 62
     4
100
AcDbLine
 10
733.1034519999999
 20
1905.344948109764
 30
0.0
 11
733.1034519999999
 21
1912.944948109764
 31
0.0
  0
LINE
  5
7C33
330
19
100
AcDbEntity
  8
1
  6
Continuous
 62
     4
100
AcDbLine
 10
723.1034519999999
 20
1905.344948109764
 30
0.0
 11
723.1034519999999
 21
1780.944948109764
 31
0.0
  0
LINE
  5
7C34
330
19
100
AcDbEntity
  8
1
  6
Continuous
 62
     4
100
AcDbLine
 10
788.103452
 20
1764.844948109763
 30
0.0
 11
788.103452
 21
1729.844948109764
 31
0.0
  0
LINE
  5
7C35
330
19
100
AcDbEntity
  8
1
  6
Continuous
 62
     4
100
AcDbLine
 10
845.103452
 20
1780.944948109764
 30
0.0
 11
968.1034519999998
 21
1780.944948109764
 31
0.0
  0
LINE
  5
7C36
330
19
100
AcDbEntity
  8
1
  6
Continuous
 62
     4
100
AcDbLine
 10
878.103452
 20
1764.844948109763
 30
0.0
 11
878.103452
 21
1729.844948109764
 31
0.0
  0
LINE
  5
7C37
330
19
100
AcDbEntity
  8
1
  6
Continuous
 62
     4
100
AcDbLine
 10
821.103452
 20
1905.344948109764
 30
0.0
 11
821.103452
 21
1764.844948109763
 31
0.0
  0
LINE
  5
7C38
330
19
100
AcDbEntity
  8
1
  6
Continuous
 62
     4
100
AcDbLine
 10
845.103452
 20
1905.344948109764
 30
0.0
 11
845.103452
 21
1764.844948109763
 31
0.0
  0
LINE
  5
7C39
330
19
100
AcDbEntity
  8
1
  6
Continuous
 62
     4
100
AcDbLine
 10
968.1034519999998
 20
1696.444948109764
 30
0.0
 11
993.1034519999998
 21
1696.444948109764
 31
0.0
  0
LINE
  5
7C3A
330
19
100
AcDbEntity
  8
1
  6
Continuous
 62
     4
100
AcDbLine
 10
963.103452
 20
1911.944948109764
 30
0.0
 11
948.1034519999999
 21
1926.944948109763
 31
0.0
  0
LINE
  5
7C3B
330
19
100
AcDbEntity
  8
1
  6
Continuous
 62
     4
100
AcDbLine
 10
933.1034519999999
 20
1905.344948109764
 30
0.0
 11
933.1034519999999
 21
1912.944948109764
 31
0.0
  0
LINE
  5
7C3C
330
19
100
AcDbEntity
  8
1
  6
Continuous
 62
     4
100
AcDbLine
 10
943.1034519999998
 20
1780.944948109764
 30
0.0
 11
943.1034519999998
 21
1905.344948109764
 31
0.0
  0
LINE
  5
7C3D
330
19
100
AcDbEntity
  8
1
  6
Continuous
 62
     4
100
AcDbLine
 10
930.403452
 20
1708.944948109764
 30
0.0
 11
930.403452
 21
1783.944948109764
 31
0.0
  0
LINE
  5
7C3E
330
19
100
AcDbEntity
  8
1
  6
Continuous
 62
     4
100
AcDbLine
 10
933.1034519999999
 20
2032.944948109764
 30
0.0
 11
733.1034519999999
 21
2032.944948109764
 31
0.0
  0
LINE
  5
7C3F
330
19
100
AcDbEntity
  8
1
  6
Continuous
 62
     4
100
AcDbLine
 10
707.0034519999999
 20
2024.944948109764
 30
0.0
 11
963.103452
 21
2024.944948109764
 31
0.0
  0
ARC
  5
7C40
330
19
100
AcDbEntity
  8
1
  6
Continuous
 62
     4
100
AcDbCircle
 10
707.0034519999999
 20
2016.944948109764
 30
0.0
 40
8.0
100
AcDbArc
 50
90.0
 51
180.0
  0
LINE
  5
7C41
330
19
100
AcDbEntity
  8
1
  6
Continuous
 62
     4
100
AcDbLine
 10
733.1034519999999
 20
2032.944948109764
 30
0.0
 11
733.1034519999999
 21
2024.944948109764
 31
0.0
  0
LINE
  5
7C42
330
19
100
AcDbEntity
  8
1
  6
Continuous
 62
     4
100
AcDbLine
 10
968.1034519999998
 20
2126.444948109764
 30
0.0
 11
993.1034519999998
 21
2126.444948109764
 31
0.0
  0
LINE
  5
7C43
330
19
100
AcDbEntity
  8
1
  6
Continuous
 62
     4
100
AcDbLine
 10
963.103452
 20
2025.944948109763
 30
0.0
 11
948.1034519999999
 21
2010.944948109764
 31
0.0
  0
LINE
  5
7C44
330
19
100
AcDbEntity
  8
1
  6
Continuous
 62
     4
100
AcDbLine
 10
933.1034519999999
 20
2032.944948109764
 30
0.0
 11
933.1034519999999
 21
2024.944948109764
 31
0.0
  0
LINE
  5
7C45
330
19
100
AcDbEntity
  8
1
  6
Continuous
 62
     4
100
AcDbLine
 10
968.1034519999998
 20
2004.944948109764
 30
0.0
 11
963.103452
 21
2004.944948109764
 31
0.0
  0
LINE
  5
7C46
330
19
100
AcDbEntity
  8
1
  6
Continuous
 62
     4
100
AcDbLine
 10
968.1034519999998
 20
2004.944948109764
 30
0.0
 11
963.103452
 21
2004.944948109764
 31
0.0
  0
LINE
  5
7C47
330
19
100
AcDbEntity
  8
1
  6
Continuous
 62
     4
100
AcDbLine
 10
1378.386269354494
 20
739.9896710535831
 30
0.0
 11
1808.386269354494
 21
739.9896710535831
 31
0.0
  0
LINE
  5
7C48
330
19
100
AcDbEntity
  8
1
  6
Continuous
 62
     4
100
AcDbLine
 10
1515.486269354494
 20
1082.989671053583
 30
0.0
 11
1445.386269354494
 21
1082.989671053583
 31
0.0
  0
LINE
  5
7C49
330
19
100
AcDbEntity
  8
1
  6
Continuous
 62
     4
100
AcDbLine
 10
1547.086269354494
 20
1106.989671053583
 30
0.0
 11
1445.386269354494
 21
1106.989671053583
 31
0.0
  0
LINE
  5
7C4A
330
19
100
AcDbEntity
  8
1
  6
Continuous
 62
     4
100
AcDbLine
 10
1462.386269354494
 20
859.9896710535832
 30
0.0
 11
1686.386269354494
 21
859.9896710535832
 31
0.0
  0
LINE
  5
7C4B
330
19
100
AcDbEntity
  8
1
  6
Continuous
 62
     4
100
AcDbLine
 10
1390.386269354494
 20
909.9896710535832
 30
0.0
 11
1686.386269354494
 21
909.9896710535832
 31
0.0
  0
LINE
  5
7C4C
330
19
100
AcDbEntity
  8
1
  6
Continuous
 62
     4
100
AcDbLine
 10
1586.786269354494
 20
1137.089671053583
 30
0.0
 11
1487.386269354494
 21
1061.689671053583
 31
0.0
  0
LINE
  5
7C4D
330
19
100
AcDbEntity
  8
1
  6
Continuous
 62
     4
100
AcDbLine
 10
1378.386269354494
 20
764.9896710535831
 30
0.0
 11
1808.386269354494
 21
764.9896710535831
 31
0.0
  0
LINE
  5
7C4E
330
19
100
AcDbEntity
  8
1
  6
Continuous
 62
     4
100
AcDbLine
 10
1462.386269354494
 20
789.9896710535831
 30
0.0
 11
1686.386269354494
 21
789.9896710535831
 31
0.0
  0
LINE
  5
7C4F
330
19
100
AcDbEntity
  8
1
  6
Continuous
 62
     4
100
AcDbLine
 10
1462.386269354494
 20
909.9896710535832
 30
0.0
 11
1462.386269354494
 21
859.9896710535832
 31
0.0
  0
LINE
  5
7C54
330
19
100
AcDbEntity
  8
1
  6
Continuous
 62
     4
100
AcDbLine
 10
1378.386269354494
 20
764.9896710535831
 30
0.0
 11
1378.386269354494
 21
739.9896710535831
 31
0.0
  0
LINE
  5
7C55
330
19
100
AcDbEntity
  8
1
  6
Continuous
 62
     4
100
AcDbLine
 10
1462.386269354494
 20
789.9896710535831
 30
0.0
 11
1462.386269354494
 21
764.9896710535831
 31
0.0
  0
LINE
  5
7C56
330
19
100
AcDbEntity
  8
1
  6
Continuous
 62
     4
100
AcDbLine
 10
1445.386269354494
 20
1049.989671053583
 30
0.0
 11
1445.386269354494
 21
1139.989671053583
 31
0.0
  0
LINE
  5
7C57
330
19
100
AcDbEntity
  8
1
  6
Continuous
 62
     4
100
AcDbLine
 10
1410.386269354494
 20
1049.989671053583
 30
0.0
 11
1410.386269354494
 21
1139.989671053583
 31
0.0
  0
LINE
  5
7C58
330
19
100
AcDbEntity
  8
1
  6
Continuous
 62
     4
100
AcDbLine
 10
1445.386269354494
 20
1049.989671053583
 30
0.0
 11
1410.386269354494
 21
1049.989671053583
 31
0.0
  0
LINE
  5
7C59
330
19
100
AcDbEntity
  8
1
  6
Continuous
 62
     4
100
AcDbLine
 10
1445.386269354494
 20
1139.989671053583
 30
0.0
 11
1410.386269354494
 21
1139.989671053583
 31
0.0
  0
LINE
  5
7C5A
330
19
100
AcDbEntity
  8
1
  6
Continuous
 62
     4
100
AcDbLine
 10
1445.386269354494
 20
1044.989671053583
 30
0.0
 11
1410.386269354494
 21
1044.989671053583
 31
0.0
  0
LINE
  5
7C5B
330
19
100
AcDbEntity
  8
1
  6
Continuous
 62
     4
100
AcDbLine
 10
1445.386269354494
 20
974.989671053583
 30
0.0
 11
1410.386269354494
 21
974.989671053583
 31
0.0
  0
LINE
  5
7C5C
330
19
100
AcDbEntity
  8
1
  6
Continuous
 62
     4
100
AcDbLine
 10
1410.386269354494
 20
974.989671053583
 30
0.0
 11
1410.386269354494
 21
1044.989671053583
 31
0.0
  0
LINE
  5
7C5D
330
19
100
AcDbEntity
  8
1
  6
Continuous
 62
     4
100
AcDbLine
 10
1445.386269354494
 20
974.989671053583
 30
0.0
 11
1445.386269354494
 21
1044.989671053583
 31
0.0
  0
LINE
  5
7C5E
330
19
100
AcDbEntity
  8
1
  6
Continuous
 62
     4
100
AcDbLine
 10
1445.386269354494
 20
1019.489671053583
 30
0.0
 11
1487.386269354494
 21
1019.489671053583
 31
0.0
  0
LINE
  5
7C5F
330
19
100
AcDbEntity
  8
1
  6
Continuous
 62
     4
100
AcDbLine
 10
1445.386269354494
 20
1000.489671053583
 30
0.0
 11
1487.386269354494
 21
1000.489671053583
 31
0.0
  0
LINE
  5
7C60
330
19
100
AcDbEntity
  8
1
  6
Continuous
 62
     4
100
AcDbLine
 10
1465.386269354494
 20
1189.989671053583
 30
0.0
 11
1390.386269354494
 21
1189.989671053583
 31
0.0
  0
LINE
  5
7C61
330
19
100
AcDbEntity
  8
1
  6
Continuous
 62
     4
100
AcDbLine
 10
1465.386269354494
 20
909.9896710535832
 30
0.0
 11
1465.386269354494
 21
1189.989671053583
 31
0.0
  0
LINE
  5
7C62
330
19
100
AcDbEntity
  8
1
  6
Continuous
 62
     4
100
AcDbLine
 10
1390.386269354494
 20
909.9896710535832
 30
0.0
 11
1390.386269354494
 21
1189.989671053583
 31
0.0
  0
LINE
  5
7C63
330
19
100
AcDbEntity
  8
1
  6
Continuous
 62
     4
100
AcDbLine
 10
1487.386269354494
 20
1061.689671053583
 30
0.0
 11
1487.386269354494
 21
909.9896710535832
 31
0.0
  0
LINE
  5
7C64
330
19
100
AcDbEntity
  8
1
  6
Continuous
 62
     4
100
AcDbLine
 10
1686.386269354494
 20
909.9896710535832
 30
0.0
 11
1686.386269354494
 21
859.9896710535832
 31
0.0
  0
LINE
  5
7C65
330
19
100
AcDbEntity
  8
1
  6
Continuous
 62
     4
100
AcDbLine
 10
1686.386269354494
 20
789.9896710535831
 30
0.0
 11
1686.386269354494
 21
764.9896710535831
 31
0.0
  0
LINE
  5
7C66
330
19
100
AcDbEntity
  8
1
  6
Continuous
 62
     4
100
AcDbLine
 10
1808.386269354494
 20
764.9896710535831
 30
0.0
 11
1808.386269354494
 21
739.9896710535831
 31
0.0
  0
LINE
  5
7C67
330
19
100
AcDbEntity
  8
1
  6
Continuous
 62
     4
100
AcDbLine
 10
1714.386269354494
 20
1194.989671053583
 30
0.0
 11
1705.986269354494
 21
1194.989671053583
 31
0.0
  0
LINE
  5
7C68
330
19
100
AcDbEntity
  8
1
  6
Continuous
 62
     4
100
AcDbLine
 10
1714.386269354494
 20
994.989671053583
 30
0.0
 11
1705.986269354494
 21
994.989671053583
 31
0.0
  0
ARC
  5
7C69
330
19
100
AcDbEntity
  8
1
  6
Continuous
 62
     4
100
AcDbCircle
 10
1694.386269354494
 20
972.8896710535831
 30
0.0
 40
12.0
100
AcDbArc
 50
270.0
 51
0.0
  0
LINE
  5
7C6A
330
19
100
AcDbEntity
  8
1
  6
Continuous
 62
     4
100
AcDbLine
 10
1706.386269354494
 20
972.8896710535831
 30
0.0
 11
1706.386269354494
 21
1254.989671053583
 31
0.0
  0
LINE
  5
7C6B
330
19
100
AcDbEntity
  8
1
  6
Continuous
 62
     4
100
AcDbLine
 10
1594.386269354494
 20
1254.989671053583
 30
0.0
 11
1594.386269354494
 21
972.8896710535831
 31
0.0
  0
LINE
  5
7C6C
330
19
100
AcDbEntity
  8
1
  6
Continuous
 62
     4
100
AcDbLine
 10
1706.386269354494
 20
1094.989671053583
 30
0.0
 11
1594.386269354494
 21
1254.989671053583
 31
0.0
  0
LINE
  5
7C6D
330
19
100
AcDbEntity
  8
1
  6
Continuous
 62
     4
100
AcDbLine
 10
1706.386269354494
 20
1254.989671053583
 30
0.0
 11
1594.386269354494
 21
1094.989671053583
 31
0.0
  0
LINE
  5
7C6E
330
19
100
AcDbEntity
  8
1
  6
Continuous
 62
     4
100
AcDbLine
 10
1594.386269354494
 20
1094.989671053583
 30
0.0
 11
1706.386269354494
 21
1094.989671053583
 31
0.0
  0
ARC
  5
7C6F
330
19
100
AcDbEntity
  8
1
  6
Continuous
 62
     4
100
AcDbCircle
 10
1606.386269354494
 20
972.8896710535831
 30
0.0
 40
12.0
100
AcDbArc
 50
180.0
 51
270.0
  0
LINE
  5
7C70
330
19
100
AcDbEntity
  8
1
  6
Continuous
 62
     4
100
AcDbLine
 10
1586.786269354494
 20
994.989671053583
 30
0.0
 11
1594.786269354494
 21
994.989671053583
 31
0.0
  0
LINE
  5
7C71
330
19
100
AcDbEntity
  8
1
  6
Continuous
 62
     4
100
AcDbLine
 10
1586.786269354494
 20
1194.989671053583
 30
0.0
 11
1594.786269354494
 21
1194.989671053583
 31
0.0
  0
LINE
  5
7C72
330
19
100
AcDbEntity
  8
1
  6
Continuous
 62
     4
100
AcDbLine
 10
1586.786269354494
 20
1194.989671053583
 30
0.0
 11
1586.786269354494
 21
909.9896710535832
 31
0.0
  0
LINE
  5
7C73
330
19
100
AcDbEntity
  8
1
  6
Continuous
 62
     4
100
AcDbLine
 10
1606.386269354494
 20
960.889671053583
 30
0.0
 11
1694.386269354494
 21
960.889671053583
 31
0.0
  0
LINE
  5
7C74
330
19
100
AcDbEntity
  8
1
  6
Continuous
 62
     4
100
AcDbLine
 10
1706.386269354494
 20
1254.989671053583
 30
0.0
 11
1594.386269354494
 21
1254.989671053583
 31
0.0
  0
LINE
  5
7C75
330
19
100
AcDbEntity
  8
1
  6
Continuous
 62
     4
100
AcDbLine
 10
1714.386269354494
 20
1194.989671053583
 30
0.0
 11
1714.386269354494
 21
994.989671053583
 31
0.0
  0
DIMENSION
  5
7CAC
330
19
100
AcDbEntity
  8
3
  6
Continuous
100
AcDbDimension
280
     0
  2
*D1
 10
833.1034519999999
 20
684.9804710535831
 30
0.0
 11
616.427565
 21
684.9804710535831
 31
0.0
 70
   160
 71
     5
 42
449.9999999999999
 73
     0
 74
     0
 75
     0
  3
IGA
100
AcDbAlignedDimension
 13
383.1034520000001
 23
739.5216870535831
 33
0.0
 14
833.1034519999999
 24
764.5216870535831
 34
0.0
100
AcDbRotatedDimension
1001
ACAD
1000
DSTYLE
1002
{
1070
   287
1070
     3
1070
    40
1040
10.0
1070
   143
1040
0.039
1070
   172
1070
     1
1070
   271
1070
     0
1070
   279
1070
     0
1070
   288
1070
     1
1002
}
  0
DIMENSION
  5
7CB8
330
19
100
AcDbEntity
  8
3
  6
Continuous
100
AcDbDimension
280
     0
  2
*D2
 10
993.1034519999998
 20
684.9804710535831
 30
0.0
 11
913.103452
 21
709.9804710535831
 31
0.0
 70
    32
 71
     5
 42
160.0
 73
     0
 74
     0
 75
     0
  3
IGA
100
AcDbAlignedDimension
 13
833.1034519999999
 23
764.5216870535831
 33
0.0
 14
993.1034519999998
 24
739.5216870535831
 34
0.0
100
AcDbRotatedDimension
1001
ACAD
1000
DSTYLE
1002
{
1070
   287
1070
     4
1070
    40
1040
10.0
1070
    75
1070
     1
1070
   143
1040
0.039
1070
   172
1070
     1
1070
   271
1070
     0
1070
   279
1070
     1
1070
   288
1070
     1
1002
}
  0
DIMENSION
  5
7CC5
330
19
100
AcDbEntity
  8
3
  6
Continuous
100
AcDbDimension
280
     0
  2
*D3
 10
1031.378064
 20
1094.521687053583
 30
0.0
 11
1031.378064
 21
1171.994021053583
 31
0.0
 70
   160
 71
     5
 42
-1.0
 73
     0
 74
     0
 75
     0
  3
IGA
100
AcDbAlignedDimension
 13
963.103452
 23
1254.521687053583
 33
0.0
 14
963.103452
 24
1094.521687053583
 34
0.0
 50
90.0
100
AcDbRotatedDimension
1001
ACAD
1000
DSTYLE
1002
{
1070
   287
1070
     3
1070
    40
1040
10.0
1070
   143
1040
0.039
1070
   172
1070
     1
1070
   271
1070
     0
1070
   279
1070
     0
1070
   288
1070
     1
1002
}
  0
DIMENSION
  5
7CDD
330
19
100
AcDbEntity
  8
3
  6
Continuous
100
AcDbDimension
280
     0
  2
*D4
 10
1104.80325
 20
1094.521687053583
 30
0.0
 11
1104.80325
 21
1166.587336053583
 31
0.0
 70
   160
 71
     5
 42
-1.0
 73
     0
 74
     0
 75
     0
  3
IGA
100
AcDbAlignedDimension
 13
948.1034519999999
 23
1265.521687053583
 33
0.0
 14
963.103452
 24
1094.521687053583
 34
0.0
 50
90.0
100
AcDbRotatedDimension
1001
ACAD
1000
DSTYLE
1002
{
1070
   287
1070
     3
1070
    40
1040
10.0
1070
   143
1040
0.039
1070
   172
1070
     1
1070
   271
1070
     0
1070
   279
1070
     0
1070
   288
1070
     1
1002
}
  0
DIMENSION
  5
7CE9
330
19
100
AcDbEntity
  8
3
  6
Continuous
100
AcDbDimension
280
     0
  2
*D5
 10
1104.80325
 20
859.5216870535832
 30
0.0
 11
1079.80325
 21
977.0216870535831
 31
0.0
 70
    32
 71
     5
 42
-1.0
 73
     0
 74
     0
 75
     0
  3
IGA
100
AcDbAlignedDimension
 13
963.103452
 23
1094.521687053583
 33
0.0
 14
968.1034519999998
 24
859.5216870535832
 34
0.0
 50
90.0
100
AcDbRotatedDimension
1001
ACAD
1000
DSTYLE
1002
{
1070
   287
1070
     4
1070
    40
1040
10.0
1070
    75
1070
     1
1070
   143
1040
0.039
1070
   172
1070
     1
1070
   271
1070
     0
1070
   279
1070
     1
1070
   288
1070
     1
1002
}
  0
DIMENSION
  5
7D35
330
19
100
AcDbEntity
  8
3
  6
Continuous
100
AcDbDimension
280
     0
  2
*D6
 10
963.103452
 20
1306.329838053583
 30
0.0
 11
895.6940136469583
 21
1333.613190990229
 31
0.0
 70
   160
 71
     5
 42
-1.0
 73
     0
 74
     0
 75
     0
  3
IGA
100
AcDbAlignedDimension
 13
833.1034519999999
 23
1264.985969053583
 33
0.0
 14
963.103452
 24
1276.521687053583
 34
0.0
100
AcDbRotatedDimension
1001
ACAD
1000
DSTYLE
1002
{
1070
   288
1070
     1
1070
   172
1070
     1
1070
    40
1040
10.0
1070
   271
1070
     0
1070
   143
1040
0.039
1002
}
  0
DIMENSION
  5
7D65
330
19
100
AcDbEntity
  8
3
  6
Continuous
100
AcDbDimension
280
     0
  2
*D7
 10
993.1034519999998
 20
1617.188417109764
 30
0.0
 11
660.6017839999999
 21
1617.188417109764
 31
0.0
 70
   160
 71
     5
 42
-1.0
 73
     0
 74
     0
 75
     0
  3
IGA
100
AcDbAlignedDimension
 13
383.103452
 23
1696.444948109764
 33
0.0
 14
993.1034519999998
 24
1696.444948109764
 34
0.0
100
AcDbRotatedDimension
1001
ACAD
1000
DSTYLE
1002
{
1070
   287
1070
     3
1070
    40
1040
10.0
1070
   143
1040
0.039
1070
   172
1070
     1
1070
   271
1070
     0
1070
   279
1070
     0
1070
   288
1070
     1
1002
}
  0
DIMENSION
  5
7D72
330
19
100
AcDbEntity
  8
3
  6
Continuous
100
AcDbDimension
280
     0
  2
*D8
 10
1082.326376
 20
1696.444948109764
 30
0.0
 11
1082.326376
 21
1912.097747109764
 31
0.0
 70
   160
 71
     5
 42
-1.0
 73
     0
 74
     0
 75
     0
  3
IGA
100
AcDbAlignedDimension
 13
993.1034519999998
 23
2126.444948109764
 33
0.0
 14
993.1034519999998
 24
1696.444948109764
 34
0.0
 50
90.0
100
AcDbRotatedDimension
1001
ACAD
1000
DSTYLE
1002
{
1070
   287
1070
     3
1070
    40
1040
10.0
1070
   143
1040
0.039
1070
   172
1070
     1
1070
   271
1070
     0
1070
   279
1070
     0
1070
   288
1070
     1
1002
}
  0
LINE
  5
7D73
330
19
100
AcDbEntity
  8
2
  6
CENTER
100
AcDbLine
 10
833.1034519999999
 20
1650.789318109763
 30
0.0
 11
833.1034519999999
 21
2078.235540109764
 31
0.0
  0
LINE
  5
7D74
330
19
100
AcDbEntity
  8
2
  6
CENTER
100
AcDbLine
 10
981.73793
 20
1968.944948109763
 30
0.0
 11
676.1254019999999
 21
1968.944948109763
 31
0.0
  0
LINE
  5
7D75
330
19
100
AcDbEntity
  8
2
  6
CENTER
100
AcDbLine
 10
1650.386269354494
 20
1298.384270053583
 30
0.0
 11
1650.386269354494
 21
743.2353160535832
 31
0.0
  0
DIMENSION
  5
7D83
330
19
100
AcDbEntity
  8
3
  6
Continuous
100
AcDbDimension
280
     0
  2
*D9
 10
1650.386269354494
 20
668.5498970535831
 30
0.0
 11
1514.695604354494
 21
668.5498970535831
 31
0.0
 70
   160
 71
     5
 42
272.0000000000002
 73
     0
 74
     0
 75
     0
  3
IGA
100
AcDbAlignedDimension
 13
1378.386269354494
 23
739.9896710535831
 33
0.0
 14
1650.386269354494
 24
739.9896710535831
 34
0.0
100
AcDbRotatedDimension
1001
ACAD
1000
DSTYLE
1002
{
1070
   287
1070
     3
1070
    40
1040
10.0
1070
   143
1040
0.039
1070
   172
1070
     1
1070
   271
1070
     0
1070
   279
1070
     0
1070
   288
1070
     1
1002
}
  0
DIMENSION
  5
7D8F
330
19
100
AcDbEntity
  8
3
  6
Continuous
100
AcDbDimension
280
     0
  2
*D10
 10
1808.386269354494
 20
668.5498970535831
 30
0.0
 11
1729.386269354494
 21
693.5498970535831
 31
0.0
 70
    32
 71
     5
 42
158.0
 73
     0
 74
     0
 75
     0
  3
IGA
100
AcDbAlignedDimension
 13
1650.386269354494
 23
739.9896710535831
 33
0.0
 14
1808.386269354494
 24
739.9896710535831
 34
0.0
100
AcDbRotatedDimension
1001
ACAD
1000
DSTYLE
1002
{
1070
   287
1070
     4
1070
    40
1040
10.0
1070
    75
1070
     1
1070
   143
1040
0.039
1070
   172
1070
     1
1070
   271
1070
     0
1070
   279
1070
     1
1070
   288
1070
     1
1002
}
  0
DIMENSION
  5
7D9E
330
19
100
AcDbEntity
  8
3
  6
Continuous
100
AcDbDimension
280
     0
  2
*D11
 10
1706.386269354494
 20
1293.670869053583
 30
0.0
 11
1651.607330257617
 21
1315.459493550375
 31
0.0
 70
   160
 71
     5
 42
-1.0
 73
     0
 74
     0
 75
     0
  3
IGA
100
AcDbAlignedDimension
 13
1594.386269354494
 23
1254.989671053583
 33
0.0
 14
1706.386269354494
 24
1254.989671053583
 34
0.0
100
AcDbRotatedDimension
1001
ACAD
1000
DSTYLE
1002
{
1070
   288
1070
     1
1070
   172
1070
     1
1070
    40
1040
10.0
1070
   271
1070
     0
1070
   143
1040
0.039
1002
}
  0
DIMENSION
  5
7DAB
330
19
100
AcDbEntity
  8
3
  6
Continuous
100
AcDbDimension
280
     0
  2
*D12
 10
1650.386269354494
 20
1353.599502167309
 30
0.0
 11
1521.737305354494
 21
1353.599502167309
 31
0.0
 70
   160
  1
(260)
 71
     5
 42
260.0000000000002
 73
     0
 74
     0
 75
     0
  3
IGA
100
AcDbAlignedDimension
 13
1390.386269354494
 23
1189.989671053583
 33
0.0
 14
1650.386269354494
 24
1336.629073053583
 34
0.0
100
AcDbRotatedDimension
1001
ACAD
1000
DSTYLE
1002
{
1070
   287
1070
     3
1070
    40
1040
10.0
1070
   143
1040
0.039
1070
   172
1070
     1
1070
   271
1070
     0
1070
   279
1070
     0
1070
   288
1070
     1
1002
}
  0
DIMENSION
  5
7DB9
330
19
100
AcDbEntity
  8
3
  6
Continuous
100
AcDbDimension
280
     0
  2
*D13
 10
1714.386269354494
 20
1353.599502167309
 30
0.0
 11
1683.696421354494
 21
1353.738459167309
 31
0.0
 70
   160
 71
     5
 42
-1.0
 73
     0
 74
     0
 75
     0
  3
IGA
100
AcDbAlignedDimension
 13
1650.386269354494
 23
1336.629073053583
 33
0.0
 14
1714.386269354494
 24
1194.989671053583
 34
0.0
100
AcDbRotatedDimension
1001
ACAD
1000
DSTYLE
1002
{
1070
   287
1070
     4
1070
    40
1040
10.0
1070
    75
1070
     1
1070
   143
1040
0.039
1070
   172
1070
     1
1070
   271
1070
     0
1070
   279
1070
     1
1070
   288
1070
     1
1002
}
  0
LINE
  5
7DD0
330
19
100
AcDbEntity
  8
3
  6
Continuous
100
AcDbLine
 10
1714.386269354494
 20
1094.989671053583
 30
0.0
 11
1714.386269354494
 21
1174.989671053583
 31
0.0
  0
LINE
  5
7DD3
330
19
100
AcDbEntity
  8
3
  6
Continuous
100
AcDbLine
 10
1714.386269354494
 20
1014.521687053583
 30
0.0
 11
1714.386269354494
 21
1024.529557053583
 31
0.0
  0
LINE
  5
7DD4
330
19
100
AcDbEntity
  8
3
  6
Continuous
100
AcDbLine
 10
1714.386269354494
 20
1094.521687053583
 30
0.0
 11
1714.386269354494
 21
1174.521687053583
 31
0.0
  0
LINE
  5
7DD5
330
19
100
AcDbEntity
  8
3
  6
Continuous
100
AcDbLine
 10
1714.386269354494
 20
1174.521687053583
 30
0.0
 11
1728.763306354494
 21
1174.521687053583
 31
0.0
  0
LINE
  5
7DD6
330
19
100
AcDbEntity
  8
3
  6
Continuous
100
AcDbLine
 10
1714.386269354494
 20
1094.521687053583
 30
0.0
 11
1714.386269354494
 21
1014.521687053583
 31
0.0
  0
LINE
  5
7DD7
330
19
100
AcDbEntity
  8
3
  6
Continuous
100
AcDbLine
 10
1714.386269354494
 20
1014.521687053583
 30
0.0
 11
1727.354965354494
 21
1014.521687053583
 31
0.0
  0
DIMENSION
  5
7DE4
330
19
100
AcDbEntity
  8
3
  6
Continuous
100
AcDbDimension
280
     0
  2
*D14
 10
1787.913591354494
 20
1014.521687053583
 30
0.0
 11
1763.76213526339
 21
1096.722592961617
 31
0.0
 70
   160
 71
     5
 42
-1.0
 73
     0
 74
     0
 75
     0
  3
IGA
100
AcDbAlignedDimension
 13
1714.386269354494
 23
1174.521687053583
 33
0.0
 14
1714.386269354494
 24
1014.521687053583
 34
0.0
 50
90.0
100
AcDbRotatedDimension
1001
ACAD
1000
DSTYLE
1002
{
1070
   288
1070
     1
1070
   172
1070
     1
1070
    40
1040
10.0
1070
     3
1000
φ<>
1070
   271
1070
     0
1070
   143
1040
0.039
1002
}
  0
LINE
  5
7DE6
330
19
100
AcDbEntity
  8
2
  6
CENTER
100
AcDbLine
 10
1370.624090354494
 20
1094.521687053583
 30
0.0
 11
1728.763306354494
 21
1094.521687053583
 31
0.0
  0
DIMENSION
  5
7E68
330
19
100
AcDbEntity
  8
3
  6
Continuous
100
AcDbDimension
280
     0
  2
*D15
 10
688.103452
 20
1306.329838053583
 30
0.0
 11
760.6034519999999
 21
1331.329838053583
 31
0.0
 70
    32
 71
     5
 42
-1.0
 73
     0
 74
     0
 75
     0
  3
IGA
100
AcDbAlignedDimension
 13
833.1034519999999
 23
1264.985969053583
 33
0.0
 14
688.103452
 24
1094.521687053583
 34
0.0
100
AcDbRotatedDimension
1001
ACAD
1000
DSTYLE
1002
{
1070
   287
1070
     4
1070
    40
1040
10.0
1070
    75
1070
     1
1070
   143
1040
0.039
1070
   172
1070
     1
1070
   271
1070
     0
1070
   279
1070
     1
1070
   288
1070
     1
1002
}
  0
DIMENSION
  5
7FB7
330
19
100
AcDbEntity
  8
3
100
AcDbDimension
280
     0
  2
*D17
 10
1104.824254427787
 20
739.5216870535831
 30
0.0
 11
1104.824254427787
 21
664.9840786750504
 31
0.0
 70
   160
 71
     5
 42
50.0
 73
     0
 74
     0
 75
     0
  3
IGA
100
AcDbAlignedDimension
 13
993.1034519999998
 23
789.5216870535831
 33
0.0
 14
993.1034519999998
 24
739.5216870535831
 34
0.0
 50
90.0
100
AcDbRotatedDimension
1001
ACAD
1000
DSTYLE
1002
{
1070
    40
1040
10.0
1070
   143
1040
0.039
1070
   172
1070
     1
1070
   271
1070
     0
1070
   279
1070
     0
1070
   288
1070
     1
1070
   343
1005
7F5F
1002
}
  0
DIMENSION
  5
7FC4
330
19
100
AcDbEntity
  8
3
100
AcDbDimension
280
     0
  2
*D18
 10
1104.824254427787
 20
859.5216870535832
 30
0.0
 11
1144.813353577043
 21
824.0800150439154
 31
0.0
 70
   160
 71
     5
 42
70.0
 73
     0
 74
     0
 75
     0
  3
IGA
100
AcDbAlignedDimension
 13
993.1034519999998
 23
789.5216870535831
 33
0.0
 14
968.1034519999998
 24
859.5216870535832
 34
0.0
 50
90.0
100
AcDbRotatedDimension
1001
ACAD
1000
DSTYLE
1002
{
1070
     3
1000
(<>)
1070
    40
1040
10.0
1070
   143
1040
0.039
1070
   172
1070
     1
1070
   271
1070
     0
1070
   343
1005
7F5F
1002
}
  0
DIMENSION
  5
7FD1
330
19
100
AcDbEntity
  8
3
100
AcDbDimension
280
     0
  2
*D19
 10
1195.818221214666
 20
739.5216870535831
 30
0.0
 11
1162.961078357523
 21
1008.021687053583
 31
0.0
 70
    32
 71
     5
 42
536.9999999999999
 73
     0
 74
     0
 75
     0
  3
IGA
100
AcDbAlignedDimension
 13
963.103452
 23
1276.521687053583
 33
0.0
 14
993.1034519999998
 24
739.5216870535831
 34
0.0
 50
90.0
100
AcDbRotatedDimension
1001
ACAD
1000
DSTYLE
1002
{
1070
   287
1070
     3
1070
     3
1000
(<>)
1070
    40
1040
10.0
1070
   143
1040
0.039
1070
   172
1070
     1
1070
   271
1070
     0
1070
   279
1070
     0
1002
}
  0
ENDSEC
  0
SECTION
  2
OBJECTS
  0
DICTIONARY
  5
C
330
0
100
AcDbDictionary
281
     1
  3
ACAD_CIP_PREVIOUS_PRODUCT_INFO
350
80F7
  3
ACAD_COLOR
350
80DA
  3
ACAD_DETAILVIEWSTYLE
350
80F3
  3
ACAD_GROUP
350
D
  3
ACAD_LAYOUT
350
7FE7
  3
ACAD_MATERIAL
350
80A8
  3
ACAD_MLEADERSTYLE
350
80EF
  3
ACAD_MLINESTYLE
350
E
  3
ACAD_PLOTSETTINGS
350
7FE8
  3
ACAD_PLOTSTYLENAME
350
7FE5
  3
ACAD_SCALELIST
350
80DD
  3
ACAD_SECTIONVIEWSTYLE
350
80F1
  3
ACAD_TABLESTYLE
350
80DB
  3
ACAD_VISUALSTYLE
350
80C1
  3
ACDB_RECOMPOSE_DATA
350
81DF
  3
AcDbVariableDictionary
350
809A
  0
DICTIONARY
  5
8150
330
2
100
AcDbDictionary
280
     1
281
     1
  3
ACAD_LAYERSTATES
360
8151
  0
DICTIONARY
  5
8143
330
F
100
AcDbDictionary
280
     1
281
     1
  3
ADSK_XREC_LAYER_RECONCILED
360
8144
  0
DICTIONARY
  5
8145
330
31
100
AcDbDictionary
280
     1
281
     1
  3
ADSK_XREC_LAYER_RECONCILED
360
8146
  0
DICTIONARY
  5
8147
330
76D0
100
AcDbDictionary
280
     1
281
     1
  3
ADSK_XREC_LAYER_RECONCILED
360
8148
  0
DICTIONARY
  5
8149
330
76D1
100
AcDbDictionary
280
     1
281
     1
  3
ADSK_XREC_LAYER_RECONCILED
360
814A
  0
DICTIONARY
  5
814B
330
76D2
100
AcDbDictionary
280
     1
281
     1
  3
ADSK_XREC_LAYER_RECONCILED
360
814C
  0
DICTIONARY
  5
8014
330
19
100
AcDbDictionary
280
     1
281
     1
  3
ACAD_LAYOUTSELFREF
360
8015
  3
ACAD_SORTENTS
360
80F9
  0
DICTIONARY
  5
8012
330
16
100
AcDbDictionary
280
     1
281
     1
  3
ACAD_LAYOUTSELFREF
360
8013
  0
XRECORD
  5
80F7
102
{ACAD_REACTORS
330
C
102
}
330
C
100
AcDbXrecord
280
     1
300
ACDLT
300
2015
300
INVLTS_F_S
  0
DICTIONARY
  5
80DA
102
{ACAD_REACTORS
330
C
102
}
330
C
100
AcDbDictionary
281
     1
  0
DICTIONARY
  5
80F3
102
{ACAD_REACTORS
330
C
102
}
330
C
100
AcDbDictionary
281
     1
  3
Imperial24
350
80F4
  0
DICTIONARY
  5
D
102
{ACAD_REACTORS
330
C
102
}
330
0
100
AcDbDictionary
281
     1
  0
DICTIONARY
  5
7FE7
102
{ACAD_REACTORS
330
C
102
}
330
C
100
AcDbDictionary
281
     1
  3
Model
350
7FE9
  3
ﾚｲｱｳﾄ1
350
7FEA
  0
DICTIONARY
  5
80A8
102
{ACAD_REACTORS
330
C
102
}
330
C
100
AcDbDictionary
281
     1
  3
ByBlock
350
80B1
  3
ByLayer
350
80A9
  3
Global
350
80B9
  0
DICTIONARY
  5
80EF
102
{ACAD_REACTORS
330
C
102
}
330
C
100
AcDbDictionary
281
     1
  3
Standard
350
80F0
  0
DICTIONARY
  5
E
102
{ACAD_REACTORS
330
C
102
}
330
0
100
AcDbDictionary
281
     1
  3
STANDARD
350
1C
  0
DICTIONARY
  5
7FE8
102
{ACAD_REACTORS
330
C
102
}
330
C
100
AcDbDictionary
281
     1
  0
ACDBDICTIONARYWDFLT
  5
7FE5
102
{ACAD_REACTORS
330
C
102
}
330
C
100
AcDbDictionary
281
     1
  3
Normal
350
7FE6
100
AcDbDictionaryWithDefault
340
7FE6
1001
ACAD
1000
TREAT_AS_HARD
1070
     0
  0
DICTIONARY
  5
80DD
102
{ACAD_REACTORS
330
C
102
}
330
C
100
AcDbDictionary
281
     1
  3
A0
350
80DE
  3
A1
350
80DF
  3
A2
350
80E0
  3
A3
350
80E1
  3
A4
350
80E2
  3
A5
350
80E3
  3
A6
350
80E4
  3
A7
350
80E5
  3
A8
350
80E6
  3
A9
350
80E7
  3
B0
350
80E8
  3
B1
350
80E9
  3
B2
350
80EA
  3
B3
350
80EB
  3
B4
350
80EC
  3
B5
350
80ED
  3
B6
350
80EE
  0
DICTIONARY
  5
80F1
102
{ACAD_REACTORS
330
C
102
}
330
C
100
AcDbDictionary
281
     1
  3
Imperial24
350
80F2
  0
DICTIONARY
  5
80DB
102
{ACAD_REACTORS
330
C
102
}
330
C
100
AcDbDictionary
281
     1
  3
Standard
350
80DC
  0
DICTIONARY
  5
80C1
102
{ACAD_REACTORS
330
C
102
}
330
C
100
AcDbDictionary
281
     1
  3
2dWireframe
350
80C7
  3
Basic
350
80C6
  3
Brighten
350
80CD
  3
ColorChange
350
80D1
  3
Conceptual
350
80CA
  3
Dim
350
80CC
  3
EdgeColorOff
350
80D9
  3
Facepattern
350
80D0
  3
Flat
350
80C2
  3
FlatWithEdges
350
80C3
  3
Gouraud
350
80C4
  3
GouraudWithEdges
350
80C5
  3
Hidden
350
80C9
  3
JitterOff
350
80D7
  3
Linepattern
350
80CF
  3
OverhangOff
350
80D8
  3
Realistic
350
80CB
  3
Shaded
350
80D6
  3
Shaded with edges
350
80D5
  3
Shades of Gray
350
80D2
  3
Sketchy
350
80D3
  3
Thicken
350
80CE
  3
Wireframe
350
80C8
  3
X-Ray
350
80D4
  0
XRECORD
  5
81DF
102
{ACAD_REACTORS
330
C
102
}
330
C
100
AcDbXrecord
280
     1
 90
        1
330
80DC
330
80F2
330
80F4
  0
DICTIONARY
  5
809A
102
{ACAD_REACTORS
330
C
102
}
330
C
100
AcDbDictionary
281
     1
  3
CANNOSCALE
350
8175
  3
CMLEADERSTYLE
350
8171
  3
CTABLESTYLE
350
8170
  3
CVIEWDETAILSTYLE
350
8172
  3
CVIEWSECTIONSTYLE
350
8173
  3
DIMASSOC
350
809B
  3
LAYEREVAL
350
8177
  3
LAYERNOTIFY
350
8178
  3
LIGHTINGUNITS
350
8176
  3
MSLTSCALE
350
8174
  0
DICTIONARY
  5
8151
102
{ACAD_REACTORS
330
8150
102
}
330
8150
100
AcDbDictionary
281
     1
  0
XRECORD
  5
8144
102
{ACAD_REACTORS
330
8143
102
}
330
8143
100
AcDbXrecord
280
     1
290
     1
  0
XRECORD
  5
8146
102
{ACAD_REACTORS
330
8145
102
}
330
8145
100
AcDbXrecord
280
     1
290
     1
  0
XRECORD
  5
8148
102
{ACAD_REACTORS
330
8147
102
}
330
8147
100
AcDbXrecord
280
     1
290
     1
  0
XRECORD
  5
814A
102
{ACAD_REACTORS
330
8149
102
}
330
8149
100
AcDbXrecord
280
     1
290
     1
  0
XRECORD
  5
814C
102
{ACAD_REACTORS
330
814B
102
}
330
814B
100
AcDbXrecord
280
     1
290
     1
  0
XRECORD
  5
8015
102
{ACAD_REACTORS
330
8014
102
}
330
8014
100
AcDbXrecord
280
     1
340
19
  0
SORTENTSTABLE
  5
80F9
102
{ACAD_REACTORS
330
8014
102
}
330
8014
100
AcDbSortentsTable
330
19
331
7C45
  5
7C46
331
7C41
  5
7C42
331
7B37
  5
7B37
331
7C3D
  5
7C3E
331
7B33
  5
7B33
331
7C39
  5
7C3A
331
7B2F
  5
7B2F
331
7C06
  5
7C07
331
7C02
  5
7C03
331
7B2B
  5
7B2B
331
7DD6
  5
7DD7
331
7D72
  5
7D73
331
7C35
  5
7C36
331
7C74
  5
7C75
331
7C70
  5
7C71
331
7C31
  5
7C32
331
7C6C
  5
7C6D
331
7BFE
  5
7BFF
331
7C2D
  5
7C2E
331
7C68
  5
7C69
331
7BFA
  5
7BFB
331
7C29
  5
7C2A
331
7BF6
  5
7BF7
331
7BF2
  5
7BF3
331
7FB7
  5
7FC4
331
7C25
  5
7C26
331
7C64
  5
7C65
331
7C60
  5
7C61
331
7C21
  5
7C22
331
7C5C
  5
7C5D
331
7BEE
  5
7BEF
331
7C1D
  5
7C1E
331
7C58
  5
7C59
331
7BEA
  5
7BEB
331
7C19
  5
7C1A
331
7BE6
  5
7BE6
331
7BE2
  5
7BE2
331
7D9E
  5
7DAB
331
7C15
  5
7C16
331
7C54
  5
7C55
331
7C11
  5
7C12
331
7C4C
  5
7C4D
331
7C0D
  5
7C0E
331
7C48
  5
7C49
331
7B42
  5
7B42
331
7C09
  5
7C0A
331
7B3E
  5
7B3E
331
7B3A
  5
7B3A
331
7C44
  5
7C45
331
7C40
  5
7C41
331
7B36
  5
7B36
331
7C3C
  5
7C3D
331
7B32
  5
7B32
331
7C38
  5
7C39
331
7B2E
  5
7B2E
331
7C05
  5
7C06
331
7C01
  5
7C02
331
7B2A
  5
7B2A
331
7DD5
  5
7DD6
331
7D75
  5
7D83
331
7C73
  5
7C74
331
7C34
  5
7C35
331
7C6F
  5
7C70
331
7C30
  5
7C31
331
7D65
  5
7D72
331
7C6B
  5
7C6C
331
7BFD
  5
7BFE
331
7C2C
  5
7C2D
331
7BF9
  5
7BFA
331
7C28
  5
7C29
331
7BF5
  5
7BF6
331
7BF1
  5
7BF2
331
7DB9
  5
7DD0
331
7C67
  5
7C68
331
7C24
  5
7C25
331
7C63
  5
7C64
331
7C5F
  5
7C60
331
7C20
  5
7C21
331
7D35
  5
7D65
331
7C5B
  5
7C5C
331
7C1C
  5
7C1D
331
7BED
  5
7BEE
331
7C18
  5
7C19
331
7BE9
  5
7BEA
331
7BE5
  5
7BE5
331
7BE1
  5
7BE1
331
7E68
  5
7FB7
331
7C57
  5
7C58
331
7C14
  5
7C15
331
7C4F
  5
7C54
331
7C10
  5
7C11
331
7C4B
  5
7C4C
331
7C0C
  5
7C0D
331
7CE9
  5
7D35
331
7C08
  5
7C09
331
7B41
  5
7B41
331
7B3D
  5
7B3D
331
7B39
  5
7B39
331
7DE4
  5
7DE6
331
7FD1
  5
80F8
331
7C47
  5
7C48
331
7CDD
  5
7CE9
331
7C43
  5
7C44
331
7C3F
  5
7C40
331
7C3B
  5
7C3C
331
7B35
  5
7B35
331
7B31
  5
7B31
331
7C04
  5
7C05
331
7C00
  5
7C01
331
7B29
  5
7B29
331
7DD4
  5
7DD5
331
7DD0
  5
7DD3
331
7D74
  5
7D75
331
7C37
  5
7C38
331
7CC5
  5
7CDD
331
7C72
  5
7C73
331
7C33
  5
7C34
331
7C6E
  5
7C6F
331
7C2F
  5
7C30
331
7C6A
  5
7C6B
331
7C2B
  5
7C2C
331
7BFC
  5
7BFD
331
7BF8
  5
7BF9
331
7BF4
  5
7BF5
331
7BF0
  5
7BF1
331
7C27
  5
7C28
331
7C66
  5
7C67
331
7C62
  5
7C63
331
7C23
  5
7C24
331
7C5E
  5
7C5F
331
7C1F
  5
7C20
331
7C5A
  5
7C5B
331
7C1B
  5
7C1C
331
7BEC
  5
7BED
331
7BE8
  5
7BE8
331
7BE4
  5
7BE4
331
7C17
  5
7C18
331
7C56
  5
7C57
331
7C13
  5
7C14
331
7C4E
  5
7C4F
331
7C0F
  5
7C10
331
7C4A
  5
7C4B
331
7C0B
  5
7C0C
331
7B40
  5
7B40
331
7B3C
  5
7B3C
331
7B38
  5
7B38
331
7C46
  5
7C47
331
7C42
  5
7C43
331
7C3E
  5
7C3F
331
7C3A
  5
7C3B
331
7B30
  5
7B30
331
7C07
  5
7C08
331
7C03
  5
7C04
331
7DD7
  5
7DE4
331
7FC4
  5
7FD1
331
7DD3
  5
7DD4
331
7D73
  5
7D74
331
7C36
  5
7C37
331
7C75
  5
7CAC
331
7C71
  5
7C72
331
7C32
  5
7C33
331
7C6D
  5
7C6E
331
7C2E
  5
7C2F
331
7BFF
  5
7C00
331
7C69
  5
7C6A
331
7C2A
  5
7C2B
331
7CB8
  5
7CC5
331
7BFB
  5
7BFC
331
7BF7
  5
7BF8
331
7BF3
  5
7BF4
331
7DAB
  5
7DB9
331
7C26
  5
7C27
331
7C65
  5
7C66
331
7C61
  5
7C62
331
7C22
  5
7C23
331
7CAC
  5
7CB8
331
7C5D
  5
7C5E
331
7BEF
  5
7BF0
331
7C1E
  5
7C1F
331
7C59
  5
7C5A
331
7BEB
  5
7BEC
331
7C1A
  5
7C1B
331
7BE7
  5
7BE7
331
7BE3
  5
7BE3
331
7C16
  5
7C17
331
7C55
  5
7C56
331
7C12
  5
7C13
331
7C4D
  5
7C4E
331
7C0E
  5
7C0F
331
7C49
  5
7C4A
331
7B43
  5
7B43
331
7C0A
  5
7C0B
331
7B3B
  5
7B3B
331
7D8F
  5
7D9E
331
7DE6
  5
7E68
331
7D83
  5
7D8F
  0
XRECORD
  5
8013
102
{ACAD_REACTORS
330
8012
102
}
330
8012
100
AcDbXrecord
280
     1
340
16
  0
ACDBDETAILVIEWSTYLE
  5
80F4
102
{ACAD_XDICTIONARY
360
816D
102
}
102
{ACAD_REACTORS
330
80F3
102
}
330
80F3
100
AcDbModelDocViewStyle
 70
     0
  3
Imperial24
290
     0
100
AcDbDetailViewStyle
 70
     0
 71
     0
 90
        3
 71
     1
340
10
 62
   256
 40
0.24
340
0
 62
   256
 40
0.24
300

 40
0.36
280
     3
 71
     2
340
15
 90
       25
 62
   256
 71
     3
340
10
 62
   256
 40
0.24
 90
        1
 40
0.75
 90
        1
300
%<\AcVar ViewType \f "%tc1">% %<\AcVar ViewDetailId>%\PSCALE %<\AcVar ViewScale \f "%sn">%
 71
     4
340
15
 90
       25
 62
   256
340
15
 90
       25
 62
   256
280
     0
  0
LAYOUT
  5
7FE9
102
{ACAD_REACTORS
330
7FE7
102
}
330
7FE7
100
AcDbPlotSettings
  1

  2
\\Txbo34x8944cqyd\EPSON LP-6100
  4

  6

 40
0.0
 41
0.0
 42
0.0
 43
0.0
 44
0.0
 45
0.0
 46
0.0
 47
0.0
 48
0.0
 49
0.0
140
0.0
141
0.0
142
1.0
143
1.0
 70
  1712
 72
     0
 73
     0
 74
     0
  7
GOD2000TABLE.ctb
 75
     0
147
1.0
 76
     0
 77
     2
 78
   300
148
0.0
149
0.0
100
AcDbLayout
  1
Model
 70
     1
 71
     0
 10
0.0
 20
0.0
 11
12.0
 21
9.0
 12
0.0
 22
0.0
 32
0.0
 14
0.0
 24
0.0
 34
0.0
 15
0.0
 25
0.0
 35
0.0
146
0.0
 13
0.0
 23
0.0
 33
0.0
 16
1.0
 26
0.0
 36
0.0
 17
0.0
 27
1.0
 37
0.0
 76
     0
330
19
331
80A6
  0
LAYOUT
  5
7FEA
102
{ACAD_REACTORS
330
7FE7
102
}
330
7FE7
100
AcDbPlotSettings
  1

  2
\\Txbo34x8944cqyd\EPSON LP-6100
  4

  6

 40
0.0
 41
0.0
 42
0.0
 43
0.0
 44
0.0
 45
0.0
 46
0.0
 47
0.0
 48
0.0
 49
0.0
140
0.0
141
0.0
142
1.0
143
1.0
 70
   688
 72
     0
 73
     0
 74
     5
  7
GOD2000TABLE.ctb
 75
    16
147
1.0
 76
     0
 77
     2
 78
   300
148
0.0
149
0.0
100
AcDbLayout
  1
ﾚｲｱｳﾄ1
 70
     1
 71
     1
 10
0.0
 20
0.0
 11
12.0
 21
9.0
 12
0.0
 22
0.0
 32
0.0
 14
1.000000000000000E+20
 24
1.000000000000000E+20
 34
1.000000000000000E+20
 15
-1.000000000000000E+20
 25
-1.000000000000000E+20
 35
-1.000000000000000E+20
146
0.0
 13
0.0
 23
0.0
 33
0.0
 16
1.0
 26
0.0
 36
0.0
 17
0.0
 27
1.0
 37
0.0
 76
     0
330
16
  0
MATERIAL
  5
80B1
102
{ACAD_XDICTIONARY
360
80B2
102
}
102
{ACAD_REACTORS
330
80A8
102
}
330
80A8
100
AcDbMaterial
  1
ByBlock
 72
     0
 43
0.0208333333333333
 43
0.0
 43
0.0
 43
0.0
 43
0.0
 43
0.0208333333333333
 43
0.0
 43
0.0
 43
0.0
 43
0.0
 43
1.0
 43
0.0
 43
0.0
 43
0.0
 43
0.0
 43
1.0
 77
     0
 47
0.0208333333333333
 47
0.0
 47
0.0
 47
0.0
 47
0.0
 47
0.0208333333333333
 47
0.0
 47
0.0
 47
0.0
 47
0.0
 47
1.0
 47
0.0
 47
0.0
 47
0.0
 47
0.0
 47
1.0
171
     0
 49
0.0208333333333333
 49
0.0
 49
0.0
 49
0.0
 49
0.0
 49
0.0208333333333333
 49
0.0
 49
0.0
 49
0.0
 49
0.0
 49
1.0
 49
0.0
 49
0.0
 49
0.0
 49
0.0
 49
1.0
175
     0
142
0.0208333333333333
142
0.0
142
0.0
142
0.0
142
0.0
142
0.0208333333333333
142
0.0
142
0.0
142
0.0
142
0.0
142
1.0
142
0.0
142
0.0
142
0.0
142
0.0
142
1.0
179
     0
144
0.0208333333333333
144
0.0
144
0.0
144
0.0
144
0.0
144
0.0208333333333333
144
0.0
144
0.0
144
0.0
144
0.0
144
1.0
144
0.0
144
0.0
144
0.0
144
0.0
144
1.0
147
0.0208333333333333
147
0.0
147
0.0
147
0.0
147
0.0
147
0.0208333333333333
147
0.0
147
0.0
147
0.0
147
0.0
147
1.0
147
0.0
147
0.0
147
0.0
147
0.0
147
1.0
  0
MATERIAL
  5
80A9
102
{ACAD_XDICTIONARY
360
80AA
102
}
102
{ACAD_REACTORS
330
80A8
102
}
330
80A8
100
AcDbMaterial
  1
ByLayer
 72
     0
 43
0.0208333333333333
 43
0.0
 43
0.0
 43
0.0
 43
0.0
 43
0.0208333333333333
 43
0.0
 43
0.0
 43
0.0
 43
0.0
 43
1.0
 43
0.0
 43
0.0
 43
0.0
 43
0.0
 43
1.0
 77
     0
 47
0.0208333333333333
 47
0.0
 47
0.0
 47
0.0
 47
0.0
 47
0.0208333333333333
 47
0.0
 47
0.0
 47
0.0
 47
0.0
 47
1.0
 47
0.0
 47
0.0
 47
0.0
 47
0.0
 47
1.0
171
     0
 49
0.0208333333333333
 49
0.0
 49
0.0
 49
0.0
 49
0.0
 49
0.0208333333333333
 49
0.0
 49
0.0
 49
0.0
 49
0.0
 49
1.0
 49
0.0
 49
0.0
 49
0.0
 49
0.0
 49
1.0
175
     0
142
0.0208333333333333
142
0.0
142
0.0
142
0.0
142
0.0
142
0.0208333333333333
142
0.0
142
0.0
142
0.0
142
0.0
142
1.0
142
0.0
142
0.0
142
0.0
142
0.0
142
1.0
179
     0
144
0.0208333333333333
144
0.0
144
0.0
144
0.0
144
0.0
144
0.0208333333333333
144
0.0
144
0.0
144
0.0
144
0.0
144
1.0
144
0.0
144
0.0
144
0.0
144
0.0
144
1.0
147
0.0208333333333333
147
0.0
147
0.0
147
0.0
147
0.0
147
0.0208333333333333
147
0.0
147
0.0
147
0.0
147
0.0
147
1.0
147
0.0
147
0.0
147
0.0
147
0.0
147
1.0
  0
MATERIAL
  5
80B9
102
{ACAD_XDICTIONARY
360
80BA
102
}
102
{ACAD_REACTORS
330
80A8
102
}
330
80A8
100
AcDbMaterial
  1
Global
 72
     0
 43
0.0208333333333333
 43
0.0
 43
0.0
 43
0.0
 43
0.0
 43
0.0208333333333333
 43
0.0
 43
0.0
 43
0.0
 43
0.0
 43
1.0
 43
0.0
 43
0.0
 43
0.0
 43
0.0
 43
1.0
 77
     0
 47
0.0208333333333333
 47
0.0
 47
0.0
 47
0.0
 47
0.0
 47
0.0208333333333333
 47
0.0
 47
0.0
 47
0.0
 47
0.0
 47
1.0
 47
0.0
 47
0.0
 47
0.0
 47
0.0
 47
1.0
171
     0
 49
0.0208333333333333
 49
0.0
 49
0.0
 49
0.0
 49
0.0
 49
0.0208333333333333
 49
0.0
 49
0.0
 49
0.0
 49
0.0
 49
1.0
 49
0.0
 49
0.0
 49
0.0
 49
0.0
 49
1.0
175
     0
142
0.0208333333333333
142
0.0
142
0.0
142
0.0
142
0.0
142
0.0208333333333333
142
0.0
142
0.0
142
0.0
142
0.0
142
1.0
142
0.0
142
0.0
142
0.0
142
0.0
142
1.0
179
     0
144
0.0208333333333333
144
0.0
144
0.0
144
0.0
144
0.0
144
0.0208333333333333
144
0.0
144
0.0
144
0.0
144
0.0
144
1.0
144
0.0
144
0.0
144
0.0
144
0.0
144
1.0
147
0.0208333333333333
147
0.0
147
0.0
147
0.0
147
0.0
147
0.0208333333333333
147
0.0
147
0.0
147
0.0
147
0.0
147
1.0
147
0.0
147
0.0
147
0.0
147
0.0
147
1.0
  0
MLEADERSTYLE
  5
80F0
102
{ACAD_REACTORS
330
80EF
102
}
330
80EF
100
AcDbMLeaderStyle
179
     2
170
     2
171
     1
172
     0
 90
        2
 40
0.0
 41
0.0
173
     1
 91
-1056964608
340
13
 92
       -2
290
     1
 42
0.09
291
     1
 43
0.36
  3
Standard
 44
0.18
300

342
10
174
     1
178
     6
175
     1
176
     0
 93
-1056964608
 45
0.18
292
     0
297
     0
 46
0.18
 94
-1056964608
 47
1.0
 49
1.0
140
1.0
293
     1
141
0.0
294
     1
177
     0
142
1.0
295
     1
296
     0
143
0.125
271
     0
272
     9
273
     9
298
     1
  0
MLINESTYLE
  5
1C
102
{ACAD_REACTORS
330
E
102
}
330
0
100
AcDbMlineStyle
  2
STANDARD
 70
     0
  3

 62
     0
 51
90.0
 52
90.0
 71
     2
 49
0.5
 62
   256
  6
BYLAYER
 49
-0.5
 62
   256
  6
BYLAYER
  0
ACDBPLACEHOLDER
  5
7FE6
102
{ACAD_REACTORS
330
7FE5
102
}
330
7FE5
  0
SCALE
  5
80DE
102
{ACAD_REACTORS
330
80DD
102
}
330
80DD
100
AcDbScale
 70
     0
300
1:1
140
1.0
141
1.0
290
     1
  0
SCALE
  5
80DF
102
{ACAD_REACTORS
330
80DD
102
}
330
80DD
100
AcDbScale
 70
     0
300
1/128" = 1'-0"
140
0.0078125
141
12.0
290
     0
  0
SCALE
  5
80E0
102
{ACAD_REACTORS
330
80DD
102
}
330
80DD
100
AcDbScale
 70
     0
300
1/64" = 1'-0"
140
0.015625
141
12.0
290
     0
  0
SCALE
  5
80E1
102
{ACAD_REACTORS
330
80DD
102
}
330
80DD
100
AcDbScale
 70
     0
300
1/32" = 1'-0"
140
0.03125
141
12.0
290
     0
  0
SCALE
  5
80E2
102
{ACAD_REACTORS
330
80DD
102
}
330
80DD
100
AcDbScale
 70
     0
300
1/16" = 1'-0"
140
0.0625
141
12.0
290
     0
  0
SCALE
  5
80E3
102
{ACAD_REACTORS
330
80DD
102
}
330
80DD
100
AcDbScale
 70
     0
300
3/32" = 1'-0"
140
0.09375
141
12.0
290
     0
  0
SCALE
  5
80E4
102
{ACAD_REACTORS
330
80DD
102
}
330
80DD
100
AcDbScale
 70
     0
300
1/8" = 1'-0"
140
0.125
141
12.0
290
     0
  0
SCALE
  5
80E5
102
{ACAD_REACTORS
330
80DD
102
}
330
80DD
100
AcDbScale
 70
     0
300
3/16" = 1'-0"
140
0.1875
141
12.0
290
     0
  0
SCALE
  5
80E6
102
{ACAD_REACTORS
330
80DD
102
}
330
80DD
100
AcDbScale
 70
     0
300
1/4" = 1'-0"
140
0.25
141
12.0
290
     0
  0
SCALE
  5
80E7
102
{ACAD_REACTORS
330
80DD
102
}
330
80DD
100
AcDbScale
 70
     0
300
3/8" = 1'-0"
140
0.375
141
12.0
290
     0
  0
SCALE
  5
80E8
102
{ACAD_REACTORS
330
80DD
102
}
330
80DD
100
AcDbScale
 70
     0
300
1/2" = 1'-0"
140
0.5
141
12.0
290
     0
  0
SCALE
  5
80E9
102
{ACAD_REACTORS
330
80DD
102
}
330
80DD
100
AcDbScale
 70
     0
300
3/4" = 1'-0"
140
0.75
141
12.0
290
     0
  0
SCALE
  5
80EA
102
{ACAD_REACTORS
330
80DD
102
}
330
80DD
100
AcDbScale
 70
     0
300
1" = 1'-0"
140
1.0
141
12.0
290
     0
  0
SCALE
  5
80EB
102
{ACAD_REACTORS
330
80DD
102
}
330
80DD
100
AcDbScale
 70
     0
300
1-1/2" = 1'-0"
140
1.5
141
12.0
290
     0
  0
SCALE
  5
80EC
102
{ACAD_REACTORS
330
80DD
102
}
330
80DD
100
AcDbScale
 70
     0
300
3" = 1'-0"
140
3.0
141
12.0
290
     0
  0
SCALE
  5
80ED
102
{ACAD_REACTORS
330
80DD
102
}
330
80DD
100
AcDbScale
 70
     0
300
6" = 1'-0"
140
6.0
141
12.0
290
     0
  0
SCALE
  5
80EE
102
{ACAD_REACTORS
330
80DD
102
}
330
80DD
100
AcDbScale
 70
     0
300
1'-0" = 1'-0"
140
12.0
141
12.0
290
     0
  0
ACDBSECTIONVIEWSTYLE
  5
80F2
102
{ACAD_XDICTIONARY
360
816B
102
}
102
{ACAD_REACTORS
330
80F1
102
}
330
80F1
100
AcDbModelDocViewStyle
 70
     0
  3
Imperial24
290
     0
100
AcDbSectionViewStyle
 70
     0
 71
     0
 90
       78
 71
     1
340
10
 62
   256
 40
0.24
340
0
340
0
 62
   256
 40
0.24
300
I, O, Q, S, X, Z
 40
0.48
 90
        3
 40
0.18
 90
        1
 71
     2
340
15
 90
       25
 62
   256
340
15
 90
       50
 62
   256
 40
0.24
 40
0.0
 40
0.24
 71
     3
340
10
 62
   256
 40
0.24
 90
        1
 40
0.75
 90
        1
300
%<\AcVar ViewType \f "%tc1">% %<\AcVar ViewSectionStartId>%-%<\AcVar ViewSectionEndId>%\PSCALE %<\AcVar ViewScale \f "%sn">%
 71
     4
 62
   256
 62
   257
300
ANSI31
 40
1.0
 90
        0
290
     0
290
     0
 90
        6
 40
0.0
 40
1.570796326794896
 40
0.2617993877991494
 40
1.308996938995747
 40
-0.2617993877991494
 40
1.832595714594046
  0
TABLESTYLE
  5
80DC
102
{ACAD_XDICTIONARY
360
81DB
102
}
102
{ACAD_REACTORS
330
80DB
102
}
330
80DB
100
AcDbTableStyle
280
     0
  3
Standard
 70
     0
 71
     0
 40
0.06
 41
0.06
280
     0
281
     0
  7
STANDARD
140
0.18
170
     2
 62
     0
 63
     7
283
     0
 90
      512
 91
        0
  1

274
    -2
284
     1
 64
     0
275
    -2
285
     1
 65
     0
276
    -2
286
     1
 66
     0
277
    -2
287
     1
 67
     0
278
    -2
288
     1
 68
     0
279
    -2
289
     1
 69
     0
  7
STANDARD
140
0.25
170
     5
 62
     0
 63
     7
283
     0
 90
      512
 91
        0
  1

274
    -2
284
     1
 64
     0
275
    -2
285
     1
 65
     0
276
    -2
286
     1
 66
     0
277
    -2
287
     1
 67
     0
278
    -2
288
     1
 68
     0
279
    -2
289
     1
 69
     0
  7
STANDARD
140
0.18
170
     5
 62
     0
 63
     7
283
     0
 90
      512
 91
        0
  1

274
    -2
284
     1
 64
     0
275
    -2
285
     1
 65
     0
276
    -2
286
     1
 66
     0
277
    -2
287
     1
 67
     0
278
    -2
288
     1
 68
     0
279
    -2
289
     1
 69
     0
  0
VISUALSTYLE
  5
80C7
102
{ACAD_REACTORS
330
80C1
102
}
330
80C1
100
AcDbVisualStyle
  2
2dWireframe
 70
     4
177
     3
291
     0
 70
    58
 90
        0
176
     1
 90
        2
176
     1
 90
        0
176
     1
 90
        0
176
     1
 40
0.6
176
     1
 40
30.0
176
     1
 62
     7
420
 16777215
176
     1
 90
        1
176
     1
 90
        4
176
     1
 62
     7
176
     1
 62
   257
176
     1
 90
        1
176
     1
 90
        1
176
     1
 40
1.0
176
     1
 90
        0
176
     1
 62
   257
176
     1
 40
1.0
176
     1
 90
        1
176
     1
 90
        6
176
     1
 90
        2
176
     1
 62
     7
176
     1
 90
        5
176
     1
 90
        0
176
     1
 90
        0
176
     1
290
     0
176
     1
 90
        1
176
     1
 40
0.0
176
     1
 90
        0
176
     1
290
     1
176
     1
290
     1
176
     1
290
     0
176
     1
290
     0
176
     1
290
     0
176
     1
290
     0
176
     1
290
     0
176
     1
290
     0
176
     1
290
     0
176
     1
 90
       50
176
     1
 40
0.0
176
     1
 40
1.0
176
     1
 90
        0
176
     1
 62
    18
420
        0
176
     1
 90
       50
176
     1
 90
        3
176
     1
 62
     5
420
      255
176
     1
290
     0
176
     1
 90
       50
176
     1
 90
       50
176
     1
 90
       50
176
     1
290
     0
176
     1
 90
       50
176
     1
 62
   256
176
     0
 40
1.0
176
     0
 90
        2
176
     1
  1
strokes_ogs.tif
176
     1
290
     0
176
     1
 40
1.0
176
     1
 40
1.0
176
     1
  0
VISUALSTYLE
  5
80C6
102
{ACAD_REACTORS
330
80C1
102
}
330
80C1
100
AcDbVisualStyle
  2
Basic
 70
     7
177
     3
291
     1
 70
    58
 90
        1
176
     1
 90
        0
176
     1
 90
        1
176
     1
 90
        0
176
     1
 40
0.6
176
     1
 40
30.0
176
     1
 62
     7
420
 16777215
176
     1
 90
        0
176
     1
 90
        4
176
     1
 62
     7
176
     1
 62
   257
176
     1
 90
        1
176
     1
 90
        1
176
     1
 40
1.0
176
     1
 90
        8
176
     1
 62
     7
176
     1
 40
1.0
176
     1
 90
        1
176
     1
 90
        6
176
     1
 90
        2
176
     1
 62
     7
176
     1
 90
        5
176
     1
 90
        0
176
     1
 90
        0
176
     1
290
     0
176
     1
 90
        1
176
     1
 40
0.0
176
     1
 90
        0
176
     1
290
     0
176
     1
290
     1
176
     1
290
     1
176
     1
290
     0
176
     1
290
     0
176
     1
290
     0
176
     1
290
     0
176
     1
290
     0
176
     1
290
     0
176
     1
 90
       50
176
     1
 40
0.0
176
     1
 40
1.0
176
     1
 90
        0
176
     1
 62
    18
420
        0
176
     1
 90
       50
176
     1
 90
        3
176
     1
 62
     5
420
      255
176
     1
290
     0
176
     1
 90
       50
176
     1
 90
       50
176
     1
 90
       50
176
     1
290
     0
176
     1
 90
       50
176
     1
 62
   256
176
     0
 40
1.0
176
     0
 90
        2
176
     1
  1
strokes_ogs.tif
176
     1
290
     0
176
     1
 40
1.0
176
     1
 40
1.0
176
     1
  0
VISUALSTYLE
  5
80CD
102
{ACAD_REACTORS
330
80C1
102
}
330
80C1
100
AcDbVisualStyle
  2
Brighten
 70
    12
177
     3
291
     1
 70
    58
 90
        2
176
     1
 90
        2
176
     1
 90
        0
176
     1
 90
        0
176
     1
 40
0.6
176
     1
 40
30.0
176
     1
 62
     7
420
 16777215
176
     1
 90
        1
176
     1
 90
        4
176
     1
 62
     7
176
     1
 62
   257
176
     1
 90
        1
176
     1
 90
        1
176
     1
 40
1.0
176
     1
 90
        8
176
     1
 62
     7
176
     1
 40
1.0
176
     1
 90
        1
176
     1
 90
        6
176
     1
 90
        2
176
     1
 62
     7
176
     1
 90
        5
176
     1
 90
        0
176
     1
 90
        0
176
     1
290
     0
176
     1
 90
        1
176
     1
 40
50.0
176
     1
 90
        0
176
     1
290
     0
176
     1
290
     1
176
     1
290
     1
176
     1
290
     0
176
     1
290
     0
176
     1
290
     0
176
     1
290
     0
176
     1
290
     0
176
     1
290
     0
176
     1
 90
       50
176
     1
 40
0.0
176
     1
 40
1.0
176
     1
 90
        0
176
     1
 62
    18
420
        0
176
     1
 90
       50
176
     1
 90
        3
176
     1
 62
     5
420
      255
176
     1
290
     0
176
     1
 90
       50
176
     1
 90
       50
176
     1
 90
       50
176
     1
290
     0
176
     1
 90
       50
176
     1
 62
   256
176
     0
 40
1.0
176
     0
 90
        2
176
     1
  1
strokes_ogs.tif
176
     1
290
     0
176
     1
 40
1.0
176
     1
 40
1.0
176
     1
  0
VISUALSTYLE
  5
80D1
102
{ACAD_REACTORS
330
80C1
102
}
330
80C1
100
AcDbVisualStyle
  2
ColorChange
 70
    16
177
     3
291
     1
 70
    58
 90
        2
176
     1
 90
        2
176
     1
 90
        3
176
     1
 90
        0
176
     1
 40
0.6
176
     1
 40
30.0
176
     1
 62
     8
420
  8421504
176
     1
 90
        1
176
     1
 90
        4
176
     1
 62
     7
176
     1
 62
   257
176
     1
 90
        1
176
     1
 90
        1
176
     1
 40
1.0
176
     1
 90
        8
176
     1
 62
     8
420
  8421504
176
     1
 40
1.0
176
     1
 90
        1
176
     1
 90
        6
176
     1
 90
        2
176
     1
 62
     7
176
     1
 90
        5
176
     1
 90
        0
176
     1
 90
        0
176
     1
290
     0
176
     1
 90
        1
176
     1
 40
0.0
176
     1
 90
        0
176
     1
290
     0
176
     1
290
     1
176
     1
290
     1
176
     1
290
     0
176
     1
290
     0
176
     1
290
     0
176
     1
290
     0
176
     1
290
     0
176
     1
290
     0
176
     1
 90
       50
176
     1
 40
0.0
176
     1
 40
1.0
176
     1
 90
        0
176
     1
 62
    18
420
        0
176
     1
 90
       50
176
     1
 90
        3
176
     1
 62
     5
420
      255
176
     1
290
     0
176
     1
 90
       50
176
     1
 90
       50
176
     1
 90
       50
176
     1
290
     0
176
     1
 90
       50
176
     1
 62
   256
176
     0
 40
1.0
176
     0
 90
        2
176
     1
  1
strokes_ogs.tif
176
     1
290
     0
176
     1
 40
1.0
176
     1
 40
1.0
176
     1
  0
VISUALSTYLE
  5
80CA
102
{ACAD_REACTORS
330
80C1
102
}
330
80C1
100
AcDbVisualStyle
  2
Conceptual
 70
     9
177
     3
291
     0
 70
    58
 90
        3
176
     1
 90
        2
176
     1
 90
        0
176
     1
 90
        0
176
     1
 40
0.6
176
     1
 40
30.0
176
     1
 62
     7
420
 16777215
176
     1
 90
        2
176
     1
 90
        2
176
     1
 62
     7
176
     1
 62
   257
176
     1
 90
        1
176
     1
 90
        1
176
     1
 40
179.0
176
     1
 90
        8
176
     1
 62
     7
176
     1
 40
1.0
176
     1
 90
        1
176
     1
 90
        6
176
     1
 90
        2
176
     1
 62
     7
176
     1
 90
        3
176
     1
 90
        0
176
     1
 90
        0
176
     1
290
     0
176
     1
 90
        1
176
     1
 40
0.0
176
     1
 90
        0
176
     1
290
     0
176
     1
290
     1
176
     1
290
     1
176
     1
290
     0
176
     1
290
     0
176
     1
290
     0
176
     1
290
     0
176
     1
290
     0
176
     1
290
     0
176
     1
 90
       50
176
     1
 40
0.0
176
     1
 40
1.0
176
     1
 90
        0
176
     1
 62
    18
420
        0
176
     1
 90
       50
176
     1
 90
        3
176
     1
 62
     5
420
      255
176
     1
290
     0
176
     1
 90
       50
176
     1
 90
       50
176
     1
 90
       50
176
     1
290
     0
176
     1
 90
       50
176
     1
 62
   256
176
     0
 40
1.0
176
     0
 90
        2
176
     1
  1
strokes_ogs.tif
176
     1
290
     0
176
     1
 40
1.0
176
     1
 40
1.0
176
     1
  0
VISUALSTYLE
  5
80CC
102
{ACAD_REACTORS
330
80C1
102
}
330
80C1
100
AcDbVisualStyle
  2
Dim
 70
    11
177
     3
291
     1
 70
    58
 90
        2
176
     1
 90
        2
176
     1
 90
        0
176
     1
 90
        0
176
     1
 40
0.6
176
     1
 40
30.0
176
     1
 62
     7
420
 16777215
176
     1
 90
        1
176
     1
 90
        4
176
     1
 62
     7
176
     1
 62
   257
176
     1
 90
        1
176
     1
 90
        1
176
     1
 40
1.0
176
     1
 90
        8
176
     1
 62
     7
176
     1
 40
1.0
176
     1
 90
        1
176
     1
 90
        6
176
     1
 90
        2
176
     1
 62
     7
176
     1
 90
        5
176
     1
 90
        0
176
     1
 90
        0
176
     1
290
     0
176
     1
 90
        1
176
     1
 40
-50.0
176
     1
 90
        0
176
     1
290
     0
176
     1
290
     1
176
     1
290
     1
176
     1
290
     0
176
     1
290
     0
176
     1
290
     0
176
     1
290
     0
176
     1
290
     0
176
     1
290
     0
176
     1
 90
       50
176
     1
 40
0.0
176
     1
 40
1.0
176
     1
 90
        0
176
     1
 62
    18
420
        0
176
     1
 90
       50
176
     1
 90
        3
176
     1
 62
     5
420
      255
176
     1
290
     0
176
     1
 90
       50
176
     1
 90
       50
176
     1
 90
       50
176
     1
290
     0
176
     1
 90
       50
176
     1
 62
   256
176
     0
 40
1.0
176
     0
 90
        2
176
     1
  1
strokes_ogs.tif
176
     1
290
     0
176
     1
 40
1.0
176
     1
 40
1.0
176
     1
  0
VISUALSTYLE
  5
80D9
102
{ACAD_REACTORS
330
80C1
102
}
330
80C1
100
AcDbVisualStyle
  2
EdgeColorOff
 70
    22
177
     3
291
     1
 70
    58
 90
        2
176
     0
 90
        2
176
     0
 90
        0
176
     0
 90
        0
176
     0
 40
0.6
176
     0
 40
30.0
176
     0
 62
     7
420
 16777215
176
     0
 90
        1
176
     0
 90
        4
176
     0
 62
     7
176
     0
 62
   257
176
     0
 90
        1
176
     0
 90
        1
176
     0
 40
1.0
176
     0
 90
        8
176
     2
 62
     7
176
     0
 40
1.0
176
     0
 90
        1
176
     0
 90
        6
176
     0
 90
        2
176
     0
 62
     7
176
     0
 90
        5
176
     0
 90
        0
176
     0
 90
        0
176
     0
290
     0
176
     0
 90
        1
176
     0
 40
0.0
176
     0
 90
        0
176
     0
290
     0
176
     0
290
     1
176
     0
290
     1
176
     0
290
     0
176
     0
290
     0
176
     0
290
     0
176
     0
290
     0
176
     0
290
     0
176
     0
290
     0
176
     0
 90
       50
176
     0
 40
0.0
176
     0
 40
1.0
176
     0
 90
        0
176
     0
 62
    18
420
        0
176
     0
 90
       50
176
     0
 90
        3
176
     0
 62
     5
420
      255
176
     0
290
     0
176
     0
 90
       50
176
     0
 90
       50
176
     0
 90
       50
176
     0
290
     0
176
     0
 90
       50
176
     0
 62
   256
176
     0
 40
1.0
176
     0
 90
        2
176
     0
  1
strokes_ogs.tif
176
     0
290
     0
176
     0
 40
1.0
176
     0
 40
1.0
176
     0
  0
VISUALSTYLE
  5
80D0
102
{ACAD_REACTORS
330
80C1
102
}
330
80C1
100
AcDbVisualStyle
  2
Facepattern
 70
    15
177
     3
291
     1
 70
    58
 90
        2
176
     1
 90
        2
176
     1
 90
        0
176
     1
 90
        0
176
     1
 40
0.6
176
     1
 40
30.0
176
     1
 62
     7
420
 16777215
176
     1
 90
        1
176
     1
 90
        4
176
     1
 62
     7
176
     1
 62
   257
176
     1
 90
        1
176
     1
 90
        1
176
     1
 40
1.0
176
     1
 90
        8
176
     1
 62
     7
176
     1
 40
1.0
176
     1
 90
        1
176
     1
 90
        6
176
     1
 90
        2
176
     1
 62
     7
176
     1
 90
        5
176
     1
 90
        0
176
     1
 90
        0
176
     1
290
     0
176
     1
 90
        1
176
     1
 40
0.0
176
     1
 90
        0
176
     1
290
     0
176
     1
290
     1
176
     1
290
     1
176
     1
290
     0
176
     1
290
     0
176
     1
290
     0
176
     1
290
     0
176
     1
290
     0
176
     1
290
     0
176
     1
 90
       50
176
     1
 40
0.0
176
     1
 40
1.0
176
     1
 90
        0
176
     1
 62
    18
420
        0
176
     1
 90
       50
176
     1
 90
        3
176
     1
 62
     5
420
      255
176
     1
290
     0
176
     1
 90
       50
176
     1
 90
       50
176
     1
 90
       50
176
     1
290
     0
176
     1
 90
       50
176
     1
 62
   256
176
     0
 40
1.0
176
     0
 90
        2
176
     1
  1
strokes_ogs.tif
176
     1
290
     0
176
     1
 40
1.0
176
     1
 40
1.0
176
     1
  0
VISUALSTYLE
  5
80C2
102
{ACAD_REACTORS
330
80C1
102
}
330
80C1
100
AcDbVisualStyle
  2
Flat
 70
     0
177
     3
291
     1
 70
    58
 90
        2
176
     1
 90
        1
176
     1
 90
        1
176
     1
 90
        2
176
     1
 40
0.6
176
     1
 40
30.0
176
     1
 62
     7
420
 16777215
176
     1
 90
        0
176
     1
 90
        0
176
     1
 62
     7
176
     1
 62
   257
176
     1
 90
        1
176
     1
 90
        1
176
     1
 40
1.0
176
     1
 90
        8
176
     1
 62
     7
176
     1
 40
1.0
176
     1
 90
        1
176
     1
 90
        6
176
     1
 90
        2
176
     1
 62
     7
176
     1
 90
        5
176
     1
 90
        0
176
     1
 90
        0
176
     1
290
     0
176
     1
 90
       13
176
     1
 40
0.0
176
     1
 90
        0
176
     1
290
     0
176
     1
290
     1
176
     1
290
     1
176
     1
290
     0
176
     1
290
     0
176
     1
290
     0
176
     1
290
     0
176
     1
290
     0
176
     1
290
     0
176
     1
 90
       50
176
     1
 40
0.0
176
     1
 40
1.0
176
     1
 90
        0
176
     1
 62
    18
420
        0
176
     1
 90
       50
176
     1
 90
        3
176
     1
 62
     5
420
      255
176
     1
290
     0
176
     1
 90
       50
176
     1
 90
       50
176
     1
 90
       50
176
     1
290
     0
176
     1
 90
       50
176
     1
 62
   256
176
     0
 40
1.0
176
     0
 90
        2
176
     1
  1
strokes_ogs.tif
176
     1
290
     0
176
     1
 40
1.0
176
     1
 40
1.0
176
     1
  0
VISUALSTYLE
  5
80C3
102
{ACAD_REACTORS
330
80C1
102
}
330
80C1
100
AcDbVisualStyle
  2
FlatWithEdges
 70
     1
177
     3
291
     1
 70
    58
 90
        2
176
     1
 90
        1
176
     1
 90
        1
176
     1
 90
        2
176
     1
 40
0.6
176
     1
 40
30.0
176
     1
 62
     7
420
 16777215
176
     1
 90
        1
176
     1
 90
        0
176
     1
 62
     7
176
     1
 62
   257
176
     1
 90
        1
176
     1
 90
        1
176
     1
 40
1.0
176
     1
 90
        0
176
     1
 62
   257
176
     1
 40
1.0
176
     1
 90
        1
176
     1
 90
        6
176
     1
 90
        2
176
     1
 62
     7
176
     1
 90
        5
176
     1
 90
        0
176
     1
 90
        0
176
     1
290
     0
176
     1
 90
       13
176
     1
 40
0.0
176
     1
 90
        0
176
     1
290
     0
176
     1
290
     1
176
     1
290
     1
176
     1
290
     0
176
     1
290
     0
176
     1
290
     0
176
     1
290
     0
176
     1
290
     0
176
     1
290
     0
176
     1
 90
       50
176
     1
 40
0.0
176
     1
 40
1.0
176
     1
 90
        0
176
     1
 62
    18
420
        0
176
     1
 90
       50
176
     1
 90
        3
176
     1
 62
     5
420
      255
176
     1
290
     0
176
     1
 90
       50
176
     1
 90
       50
176
     1
 90
       50
176
     1
290
     0
176
     1
 90
       50
176
     1
 62
   256
176
     0
 40
1.0
176
     0
 90
        2
176
     1
  1
strokes_ogs.tif
176
     1
290
     0
176
     1
 40
1.0
176
     1
 40
1.0
176
     1
  0
VISUALSTYLE
  5
80C4
102
{ACAD_REACTORS
330
80C1
102
}
330
80C1
100
AcDbVisualStyle
  2
Gouraud
 70
     2
177
     3
291
     1
 70
    58
 90
        2
176
     1
 90
        2
176
     1
 90
        1
176
     1
 90
        2
176
     1
 40
0.6
176
     1
 40
30.0
176
     1
 62
     7
420
 16777215
176
     1
 90
        0
176
     1
 90
        0
176
     1
 62
     7
176
     1
 62
   257
176
     1
 90
        1
176
     1
 90
        1
176
     1
 40
1.0
176
     1
 90
        0
176
     1
 62
     7
176
     1
 40
1.0
176
     1
 90
        1
176
     1
 90
        6
176
     1
 90
        2
176
     1
 62
     7
176
     1
 90
        5
176
     1
 90
        0
176
     1
 90
        0
176
     1
290
     0
176
     1
 90
       13
176
     1
 40
0.0
176
     1
 90
        0
176
     1
290
     0
176
     1
290
     1
176
     1
290
     1
176
     1
290
     0
176
     1
290
     0
176
     1
290
     0
176
     1
290
     0
176
     1
290
     0
176
     1
290
     0
176
     1
 90
       50
176
     1
 40
0.0
176
     1
 40
1.0
176
     1
 90
        0
176
     1
 62
    18
420
        0
176
     1
 90
       50
176
     1
 90
        3
176
     1
 62
     5
420
      255
176
     1
290
     0
176
     1
 90
       50
176
     1
 90
       50
176
     1
 90
       50
176
     1
290
     0
176
     1
 90
       50
176
     1
 62
   256
176
     0
 40
1.0
176
     0
 90
        2
176
     1
  1
strokes_ogs.tif
176
     1
290
     0
176
     1
 40
1.0
176
     1
 40
1.0
176
     1
  0
VISUALSTYLE
  5
80C5
102
{ACAD_REACTORS
330
80C1
102
}
330
80C1
100
AcDbVisualStyle
  2
GouraudWithEdges
 70
     3
177
     3
291
     1
 70
    58
 90
        2
176
     1
 90
        2
176
     1
 90
        1
176
     1
 90
        2
176
     1
 40
0.6
176
     1
 40
30.0
176
     1
 62
     7
420
 16777215
176
     1
 90
        1
176
     1
 90
        0
176
     1
 62
     7
176
     1
 62
   257
176
     1
 90
        1
176
     1
 90
        1
176
     1
 40
1.0
176
     1
 90
        0
176
     1
 62
   257
176
     1
 40
1.0
176
     1
 90
        1
176
     1
 90
        6
176
     1
 90
        2
176
     1
 62
     7
176
     1
 90
        5
176
     1
 90
        0
176
     1
 90
        0
176
     1
290
     0
176
     1
 90
       13
176
     1
 40
0.0
176
     1
 90
        0
176
     1
290
     0
176
     1
290
     1
176
     1
290
     1
176
     1
290
     0
176
     1
290
     0
176
     1
290
     0
176
     1
290
     0
176
     1
290
     0
176
     1
290
     0
176
     1
 90
       50
176
     1
 40
0.0
176
     1
 40
1.0
176
     1
 90
        0
176
     1
 62
    18
420
        0
176
     1
 90
       50
176
     1
 90
        3
176
     1
 62
     5
420
      255
176
     1
290
     0
176
     1
 90
       50
176
     1
 90
       50
176
     1
 90
       50
176
     1
290
     0
176
     1
 90
       50
176
     1
 62
   256
176
     0
 40
1.0
176
     0
 90
        2
176
     1
  1
strokes_ogs.tif
176
     1
290
     0
176
     1
 40
1.0
176
     1
 40
1.0
176
     1
  0
VISUALSTYLE
  5
80C9
102
{ACAD_REACTORS
330
80C1
102
}
330
80C1
100
AcDbVisualStyle
  2
Hidden
 70
     6
177
     3
291
     0
 70
    58
 90
        1
176
     1
 90
        2
176
     1
 90
        2
176
     1
 90
        0
176
     1
 40
0.6
176
     1
 40
30.0
176
     1
 62
     7
420
 16777215
176
     1
 90
        2
176
     1
 90
        2
176
     1
 62
     7
176
     1
 62
   257
176
     1
 90
        2
176
     1
 90
        1
176
     1
 40
40.0
176
     1
 90
        0
176
     1
 62
   257
176
     1
 40
1.0
176
     1
 90
        1
176
     1
 90
        6
176
     1
 90
        2
176
     1
 62
     7
176
     1
 90
        3
176
     1
 90
        0
176
     1
 90
        0
176
     1
290
     0
176
     1
 90
        1
176
     1
 40
0.0
176
     1
 90
        0
176
     1
290
     0
176
     1
290
     1
176
     1
290
     1
176
     1
290
     0
176
     1
290
     0
176
     1
290
     0
176
     1
290
     0
176
     1
290
     0
176
     1
290
     0
176
     1
 90
       50
176
     1
 40
0.0
176
     1
 40
1.0
176
     1
 90
        0
176
     1
 62
    18
420
        0
176
     1
 90
       50
176
     1
 90
        3
176
     1
 62
     5
420
      255
176
     1
290
     0
176
     1
 90
       50
176
     1
 90
       50
176
     1
 90
       50
176
     1
290
     0
176
     1
 90
       50
176
     1
 62
   256
176
     0
 40
1.0
176
     0
 90
        2
176
     1
  1
strokes_ogs.tif
176
     1
290
     0
176
     1
 40
1.0
176
     1
 40
1.0
176
     1
  0
VISUALSTYLE
  5
80D7
102
{ACAD_REACTORS
330
80C1
102
}
330
80C1
100
AcDbVisualStyle
  2
JitterOff
 70
    20
177
     3
291
     1
 70
    58
 90
        2
176
     0
 90
        2
176
     0
 90
        0
176
     0
 90
        0
176
     0
 40
0.6
176
     0
 40
30.0
176
     0
 62
     7
420
 16777215
176
     0
 90
        1
176
     0
 90
        4
176
     0
 62
     7
176
     0
 62
   257
176
     0
 90
        1
176
     0
 90
        1
176
     0
 40
1.0
176
     0
 90
       10
176
     2
 62
     7
176
     0
 40
1.0
176
     0
 90
        1
176
     0
 90
        6
176
     0
 90
        2
176
     0
 62
     7
176
     0
 90
        5
176
     0
 90
        0
176
     0
 90
        0
176
     0
290
     0
176
     0
 90
        1
176
     0
 40
0.0
176
     0
 90
        0
176
     0
290
     0
176
     0
290
     1
176
     0
290
     1
176
     0
290
     0
176
     0
290
     0
176
     0
290
     0
176
     0
290
     0
176
     0
290
     0
176
     0
290
     0
176
     0
 90
       50
176
     0
 40
0.0
176
     0
 40
1.0
176
     0
 90
        0
176
     0
 62
    18
420
        0
176
     0
 90
       50
176
     0
 90
        3
176
     0
 62
     5
420
      255
176
     0
290
     0
176
     0
 90
       50
176
     0
 90
       50
176
     0
 90
       50
176
     0
290
     0
176
     0
 90
       50
176
     0
 62
   256
176
     0
 40
1.0
176
     0
 90
        2
176
     0
  1
strokes_ogs.tif
176
     0
290
     0
176
     0
 40
1.0
176
     0
 40
1.0
176
     0
  0
VISUALSTYLE
  5
80CF
102
{ACAD_REACTORS
330
80C1
102
}
330
80C1
100
AcDbVisualStyle
  2
Linepattern
 70
    14
177
     3
291
     1
 70
    58
 90
        2
176
     1
 90
        2
176
     1
 90
        0
176
     1
 90
        0
176
     1
 40
0.6
176
     1
 40
30.0
176
     1
 62
     7
420
 16777215
176
     1
 90
        1
176
     1
 90
        4
176
     1
 62
     7
176
     1
 62
   257
176
     1
 90
        7
176
     1
 90
        7
176
     1
 40
1.0
176
     1
 90
        8
176
     1
 62
     7
176
     1
 40
1.0
176
     1
 90
        1
176
     1
 90
        6
176
     1
 90
        2
176
     1
 62
     7
176
     1
 90
        5
176
     1
 90
        0
176
     1
 90
        0
176
     1
290
     0
176
     1
 90
        1
176
     1
 40
0.0
176
     1
 90
        0
176
     1
290
     0
176
     1
290
     1
176
     1
290
     1
176
     1
290
     0
176
     1
290
     0
176
     1
290
     0
176
     1
290
     0
176
     1
290
     0
176
     1
290
     0
176
     1
 90
       50
176
     1
 40
0.0
176
     1
 40
1.0
176
     1
 90
        0
176
     1
 62
    18
420
        0
176
     1
 90
       50
176
     1
 90
        3
176
     1
 62
     5
420
      255
176
     1
290
     0
176
     1
 90
       50
176
     1
 90
       50
176
     1
 90
       50
176
     1
290
     0
176
     1
 90
       50
176
     1
 62
   256
176
     0
 40
1.0
176
     0
 90
        2
176
     1
  1
strokes_ogs.tif
176
     1
290
     0
176
     1
 40
1.0
176
     1
 40
1.0
176
     1
  0
VISUALSTYLE
  5
80D8
102
{ACAD_REACTORS
330
80C1
102
}
330
80C1
100
AcDbVisualStyle
  2
OverhangOff
 70
    21
177
     3
291
     1
 70
    58
 90
        2
176
     0
 90
        2
176
     0
 90
        0
176
     0
 90
        0
176
     0
 40
0.6
176
     0
 40
30.0
176
     0
 62
     7
420
 16777215
176
     0
 90
        1
176
     0
 90
        4
176
     0
 62
     7
176
     0
 62
   257
176
     0
 90
        1
176
     0
 90
        1
176
     0
 40
1.0
176
     0
 90
        9
176
     2
 62
     7
176
     0
 40
1.0
176
     0
 90
        1
176
     0
 90
        6
176
     0
 90
        2
176
     0
 62
     7
176
     0
 90
        5
176
     0
 90
        0
176
     0
 90
        0
176
     0
290
     0
176
     0
 90
        1
176
     0
 40
0.0
176
     0
 90
        0
176
     0
290
     0
176
     0
290
     1
176
     0
290
     1
176
     0
290
     0
176
     0
290
     0
176
     0
290
     0
176
     0
290
     0
176
     0
290
     0
176
     0
290
     0
176
     0
 90
       50
176
     0
 40
0.0
176
     0
 40
1.0
176
     0
 90
        0
176
     0
 62
    18
420
        0
176
     0
 90
       50
176
     0
 90
        3
176
     0
 62
     5
420
      255
176
     0
290
     0
176
     0
 90
       50
176
     0
 90
       50
176
     0
 90
       50
176
     0
290
     0
176
     0
 90
       50
176
     0
 62
   256
176
     0
 40
1.0
176
     0
 90
        2
176
     0
  1
strokes_ogs.tif
176
     0
290
     0
176
     0
 40
1.0
176
     0
 40
1.0
176
     0
  0
VISUALSTYLE
  5
80CB
102
{ACAD_REACTORS
330
80C1
102
}
330
80C1
100
AcDbVisualStyle
  2
Realistic
 70
     8
177
     3
291
     0
 70
    58
 90
        2
176
     1
 90
        3
176
     1
 90
        0
176
     1
 90
        2
176
     1
 40
0.6
176
     1
 40
30.0
176
     1
 62
     7
420
 16777215
176
     1
 90
        0
176
     1
 90
        0
176
     1
 62
     7
176
     1
 62
   257
176
     1
 90
        1
176
     1
 90
        1
176
     1
 40
1.0
176
     1
 90
        8
176
     1
 62
   257
176
     1
 40
1.0
176
     1
 90
        1
176
     1
 90
        6
176
     1
 90
        2
176
     1
 62
     7
176
     1
 90
        3
176
     1
 90
        0
176
     1
 90
        0
176
     1
290
     0
176
     1
 90
       13
176
     1
 40
0.0
176
     1
 90
        0
176
     1
290
     0
176
     1
290
     1
176
     1
290
     1
176
     1
290
     0
176
     1
290
     0
176
     1
290
     0
176
     1
290
     0
176
     1
290
     0
176
     1
290
     0
176
     1
 90
       50
176
     1
 40
0.0
176
     1
 40
1.0
176
     1
 90
        0
176
     1
 62
    18
420
        0
176
     1
 90
       50
176
     1
 90
        3
176
     1
 62
     5
420
      255
176
     1
290
     0
176
     1
 90
       50
176
     1
 90
       50
176
     1
 90
       50
176
     1
290
     0
176
     1
 90
       50
176
     1
 62
   256
176
     0
 40
1.0
176
     0
 90
        2
176
     1
  1
strokes_ogs.tif
176
     1
290
     0
176
     1
 40
1.0
176
     1
 40
1.0
176
     1
  0
VISUALSTYLE
  5
80D6
102
{ACAD_REACTORS
330
80C1
102
}
330
80C1
100
AcDbVisualStyle
  2
Shaded
 70
    27
177
     3
291
     0
 70
    58
 90
        2
176
     1
 90
        2
176
     1
 90
        1
176
     1
 90
        2
176
     1
 40
0.6
176
     1
 40
30.0
176
     1
 62
     7
420
 16777215
176
     1
 90
        0
176
     1
 90
        4
176
     1
 62
     7
176
     1
 62
   257
176
     1
 90
        1
176
     1
 90
        1
176
     1
 40
1.0
176
     1
 90
        8
176
     1
 62
   257
176
     1
 40
1.0
176
     1
 90
        1
176
     1
 90
        6
176
     1
 90
        2
176
     1
 62
     8
420
  7895160
176
     1
 90
        3
176
     1
 90
        0
176
     1
 90
        0
176
     1
290
     0
176
     1
 90
        5
176
     1
 40
0.0
176
     1
 90
        0
176
     1
290
     0
176
     1
290
     1
176
     1
290
     1
176
     1
290
     0
176
     1
290
     0
176
     1
290
     0
176
     1
290
     0
176
     1
290
     0
176
     1
290
     0
176
     1
 90
       50
176
     1
 40
0.0
176
     1
 40
1.0
176
     1
 90
        0
176
     1
 62
    18
420
        0
176
     1
 90
       50
176
     1
 90
        3
176
     1
 62
     5
420
      255
176
     1
290
     0
176
     1
 90
       50
176
     1
 90
       50
176
     1
 90
       50
176
     1
290
     0
176
     1
 90
       50
176
     1
 62
   256
176
     0
 40
1.0
176
     0
 90
        2
176
     1
  1
strokes_ogs.tif
176
     1
290
     0
176
     1
 40
1.0
176
     1
 40
1.0
176
     1
  0
VISUALSTYLE
  5
80D5
102
{ACAD_REACTORS
330
80C1
102
}
330
80C1
100
AcDbVisualStyle
  2
Shaded with edges
 70
    26
177
     3
291
     0
 70
    58
 90
        2
176
     1
 90
        2
176
     1
 90
        1
176
     1
 90
        2
176
     1
 40
0.6
176
     1
 40
30.0
176
     1
 62
     7
420
 16777215
176
     1
 90
        1
176
     1
 90
       10
176
     1
 62
     7
176
     1
 62
   257
176
     1
 90
        2
176
     1
 90
        1
176
     1
 40
1.0
176
     1
 90
        8
176
     1
 62
   257
176
     1
 40
1.0
176
     1
 90
        1
176
     1
 90
        6
176
     1
 90
        2
176
     1
 62
     7
176
     1
 90
        3
176
     1
 90
        0
176
     1
 90
        0
176
     1
290
     0
176
     1
 90
        5
176
     1
 40
0.0
176
     1
 90
        0
176
     1
290
     0
176
     1
290
     1
176
     1
290
     1
176
     1
290
     0
176
     1
290
     0
176
     1
290
     0
176
     1
290
     0
176
     1
290
     0
176
     1
290
     0
176
     1
 90
       50
176
     1
 40
0.0
176
     1
 40
1.0
176
     1
 90
        0
176
     1
 62
    18
420
        0
176
     1
 90
       50
176
     1
 90
        3
176
     1
 62
     5
420
      255
176
     1
290
     0
176
     1
 90
       50
176
     1
 90
       50
176
     1
 90
       50
176
     1
290
     0
176
     1
 90
       50
176
     1
 62
   256
176
     0
 40
1.0
176
     0
 90
        2
176
     1
  1
strokes_ogs.tif
176
     1
290
     0
176
     1
 40
1.0
176
     1
 40
1.0
176
     1
  0
VISUALSTYLE
  5
80D2
102
{ACAD_REACTORS
330
80C1
102
}
330
80C1
100
AcDbVisualStyle
  2
Shades of Gray
 70
    23
177
     3
291
     0
 70
    58
 90
        2
176
     1
 90
        2
176
     1
 90
        3
176
     1
 90
        0
176
     1
 40
0.6
176
     1
 40
30.0
176
     1
 62
     7
420
 16777215
176
     1
 90
        2
176
     1
 90
        2
176
     1
 62
     7
176
     1
 62
     7
176
     1
 90
        1
176
     1
 90
        1
176
     1
 40
40.0
176
     1
 90
        8
176
     1
 62
     7
176
     1
 40
1.0
176
     1
 90
        1
176
     1
 90
        6
176
     1
 90
        2
176
     1
 62
     7
176
     1
 90
        3
176
     1
 90
        0
176
     1
 90
        0
176
     1
290
     0
176
     1
 90
        1
176
     1
 40
0.0
176
     1
 90
        0
176
     1
290
     0
176
     1
290
     1
176
     1
290
     1
176
     1
290
     0
176
     1
290
     0
176
     1
290
     0
176
     1
290
     0
176
     1
290
     0
176
     1
290
     0
176
     1
 90
       50
176
     1
 40
0.0
176
     1
 40
1.0
176
     1
 90
        0
176
     1
 62
    18
420
        0
176
     1
 90
       50
176
     1
 90
        3
176
     1
 62
     5
420
      255
176
     1
290
     0
176
     1
 90
       50
176
     1
 90
       50
176
     1
 90
       50
176
     1
290
     0
176
     1
 90
       50
176
     1
 62
   256
176
     0
 40
1.0
176
     0
 90
        2
176
     1
  1
strokes_ogs.tif
176
     1
290
     0
176
     1
 40
1.0
176
     1
 40
1.0
176
     1
  0
VISUALSTYLE
  5
80D3
102
{ACAD_REACTORS
330
80C1
102
}
330
80C1
100
AcDbVisualStyle
  2
Sketchy
 70
    24
177
     3
291
     0
 70
    58
 90
        1
176
     1
 90
        2
176
     1
 90
        2
176
     1
 90
        0
176
     1
 40
0.6
176
     1
 40
30.0
176
     1
 62
     7
420
 16777215
176
     1
 90
        2
176
     1
 90
        2
176
     1
 62
     7
176
     1
 62
     7
176
     1
 90
        1
176
     1
 90
        1
176
     1
 40
40.0
176
     1
 90
       11
176
     1
 62
     7
176
     1
 40
1.0
176
     1
 90
        1
176
     1
 90
        6
176
     1
 90
        2
176
     1
 62
     7
176
     1
 90
        6
176
     1
 90
        0
176
     1
 90
        0
176
     1
290
     0
176
     1
 90
        1
176
     1
 40
0.0
176
     1
 90
        0
176
     1
290
     0
176
     1
290
     1
176
     1
290
     1
176
     1
290
     0
176
     1
290
     0
176
     1
290
     0
176
     1
290
     0
176
     1
290
     0
176
     1
290
     0
176
     1
 90
       50
176
     1
 40
0.0
176
     1
 40
1.0
176
     1
 90
        0
176
     1
 62
    18
420
        0
176
     1
 90
       50
176
     1
 90
        3
176
     1
 62
     5
420
      255
176
     1
290
     0
176
     1
 90
       50
176
     1
 90
       50
176
     1
 90
       50
176
     1
290
     0
176
     1
 90
       50
176
     1
 62
   256
176
     0
 40
1.0
176
     0
 90
        2
176
     1
  1
strokes_ogs.tif
176
     1
290
     0
176
     1
 40
1.0
176
     1
 40
1.0
176
     1
  0
VISUALSTYLE
  5
80CE
102
{ACAD_REACTORS
330
80C1
102
}
330
80C1
100
AcDbVisualStyle
  2
Thicken
 70
    13
177
     3
291
     1
 70
    58
 90
        2
176
     1
 90
        2
176
     1
 90
        0
176
     1
 90
        0
176
     1
 40
0.6
176
     1
 40
30.0
176
     1
 62
     7
420
 16777215
176
     1
 90
        1
176
     1
 90
        4
176
     1
 62
     7
176
     1
 62
   257
176
     1
 90
        1
176
     1
 90
        1
176
     1
 40
1.0
176
     1
 90
       12
176
     1
 62
     7
176
     1
 40
1.0
176
     1
 90
        1
176
     1
 90
        6
176
     1
 90
        2
176
     1
 62
     7
176
     1
 90
        5
176
     1
 90
        0
176
     1
 90
        0
176
     1
290
     0
176
     1
 90
        1
176
     1
 40
0.0
176
     1
 90
        0
176
     1
290
     0
176
     1
290
     1
176
     1
290
     1
176
     1
290
     0
176
     1
290
     0
176
     1
290
     0
176
     1
290
     0
176
     1
290
     0
176
     1
290
     0
176
     1
 90
       50
176
     1
 40
0.0
176
     1
 40
1.0
176
     1
 90
        0
176
     1
 62
    18
420
        0
176
     1
 90
       50
176
     1
 90
        3
176
     1
 62
     5
420
      255
176
     1
290
     0
176
     1
 90
       50
176
     1
 90
       50
176
     1
 90
       50
176
     1
290
     0
176
     1
 90
       50
176
     1
 62
   256
176
     0
 40
1.0
176
     0
 90
        2
176
     1
  1
strokes_ogs.tif
176
     1
290
     0
176
     1
 40
1.0
176
     1
 40
1.0
176
     1
  0
VISUALSTYLE
  5
80C8
102
{ACAD_REACTORS
330
80C1
102
}
330
80C1
100
AcDbVisualStyle
  2
Wireframe
 70
     5
177
     3
291
     0
 70
    58
 90
        0
176
     1
 90
        2
176
     1
 90
        0
176
     1
 90
        0
176
     1
 40
0.6
176
     1
 40
30.0
176
     1
 62
     7
420
 16777215
176
     1
 90
        1
176
     1
 90
        4
176
     1
 62
     7
176
     1
 62
   257
176
     1
 90
        1
176
     1
 90
        1
176
     1
 40
1.0
176
     1
 90
        0
176
     1
 62
   257
176
     1
 40
1.0
176
     1
 90
        1
176
     1
 90
        6
176
     1
 90
        2
176
     1
 62
     7
176
     1
 90
        3
176
     1
 90
        0
176
     1
 90
        0
176
     1
290
     0
176
     1
 90
        1
176
     1
 40
0.0
176
     1
 90
        0
176
     1
290
     0
176
     1
290
     1
176
     1
290
     1
176
     1
290
     0
176
     1
290
     0
176
     1
290
     0
176
     1
290
     0
176
     1
290
     0
176
     1
290
     0
176
     1
 90
       50
176
     1
 40
0.0
176
     1
 40
1.0
176
     1
 90
        0
176
     1
 62
    18
420
        0
176
     1
 90
       50
176
     1
 90
        3
176
     1
 62
     5
420
      255
176
     1
290
     0
176
     1
 90
       50
176
     1
 90
       50
176
     1
 90
       50
176
     1
290
     0
176
     1
 90
       50
176
     1
 62
   256
176
     0
 40
1.0
176
     0
 90
        2
176
     1
  1
strokes_ogs.tif
176
     1
290
     0
176
     1
 40
1.0
176
     1
 40
1.0
176
     1
  0
VISUALSTYLE
  5
80D4
102
{ACAD_REACTORS
330
80C1
102
}
330
80C1
100
AcDbVisualStyle
  2
X-Ray
 70
    25
177
     3
291
     0
 70
    58
 90
        2
176
     1
 90
        2
176
     1
 90
        1
176
     1
 90
        1
176
     1
 40
0.5
176
     1
 40
30.0
176
     1
 62
     7
420
 16777215
176
     1
 90
        1
176
     1
 90
        0
176
     1
 62
     7
176
     1
 62
   257
176
     1
 90
        1
176
     1
 90
        1
176
     1
 40
1.0
176
     1
 90
        8
176
     1
 62
     7
176
     1
 40
1.0
176
     1
 90
        1
176
     1
 90
        6
176
     1
 90
        2
176
     1
 62
     7
176
     1
 90
        3
176
     1
 90
        0
176
     1
 90
        0
176
     1
290
     0
176
     1
 90
       13
176
     1
 40
0.0
176
     1
 90
        0
176
     1
290
     0
176
     1
290
     1
176
     1
290
     1
176
     1
290
     0
176
     1
290
     0
176
     1
290
     0
176
     1
290
     0
176
     1
290
     0
176
     1
290
     0
176
     1
 90
       50
176
     1
 40
0.0
176
     1
 40
1.0
176
     1
 90
        0
176
     1
 62
    18
420
        0
176
     1
 90
       50
176
     1
 90
        3
176
     1
 62
     5
420
      255
176
     1
290
     0
176
     1
 90
       50
176
     1
 90
       50
176
     1
 90
       50
176
     1
290
     0
176
     1
 90
       50
176
     1
 62
   256
176
     0
 40
1.0
176
     0
 90
        2
176
     1
  1
strokes_ogs.tif
176
     1
290
     0
176
     1
 40
1.0
176
     1
 40
1.0
176
     1
  0
DICTIONARYVAR
  5
8175
102
{ACAD_REACTORS
330
809A
102
}
330
809A
100
DictionaryVariables
280
     0
  1
1:1
  0
DICTIONARYVAR
  5
8171
102
{ACAD_REACTORS
330
809A
102
}
330
809A
100
DictionaryVariables
280
     0
  1
STANDARD
  0
DICTIONARYVAR
  5
8170
102
{ACAD_REACTORS
330
809A
102
}
330
809A
100
DictionaryVariables
280
     0
  1
STANDARD
  0
DICTIONARYVAR
  5
8172
102
{ACAD_REACTORS
330
809A
102
}
330
809A
100
DictionaryVariables
280
     0
  1
Imperial24
  0
DICTIONARYVAR
  5
8173
102
{ACAD_REACTORS
330
809A
102
}
330
809A
100
DictionaryVariables
280
     0
  1
Imperial24
  0
DICTIONARYVAR
  5
809B
102
{ACAD_REACTORS
330
809A
102
}
330
809A
100
DictionaryVariables
280
     0
  1
1
  0
DICTIONARYVAR
  5
8177
102
{ACAD_REACTORS
330
809A
102
}
330
809A
100
DictionaryVariables
280
     0
  1
1
  0
DICTIONARYVAR
  5
8178
102
{ACAD_REACTORS
330
809A
102
}
330
809A
100
DictionaryVariables
280
     0
  1
15
  0
DICTIONARYVAR
  5
8176
102
{ACAD_REACTORS
330
809A
102
}
330
809A
100
DictionaryVariables
280
     0
  1
0
  0
DICTIONARYVAR
  5
8174
102
{ACAD_REACTORS
330
809A
102
}
330
809A
100
DictionaryVariables
280
     0
  1
0
  0
DICTIONARY
  5
816D
330
80F4
100
AcDbDictionary
280
     1
281
     1
  3
ACAD_XREC_ROUNDTRIP
360
81DE
  0
DICTIONARY
  5
80B2
330
80B1
100
AcDbDictionary
280
     1
281
     1
  3
BUMPTILE
360
80B4
  3
DIFFUSETILE
360
80B3
  3
OPACITYTILE
360
80B7
  3
REFLECTIONTILE
360
80B6
  3
REFRACTIONTILE
360
80B8
  3
SPECULARTILE
360
80B5
  0
DICTIONARY
  5
80AA
330
80A9
100
AcDbDictionary
280
     1
281
     1
  3
BUMPTILE
360
80AC
  3
DIFFUSETILE
360
80AB
  3
OPACITYTILE
360
80AF
  3
REFLECTIONTILE
360
80AE
  3
REFRACTIONTILE
360
80B0
  3
SPECULARTILE
360
80AD
  0
DICTIONARY
  5
80BA
330
80B9
100
AcDbDictionary
280
     1
281
     1
  3
BUMPTILE
360
80BC
  3
DIFFUSETILE
360
80BB
  3
OPACITYTILE
360
80BF
  3
REFLECTIONTILE
360
80BE
  3
REFRACTIONTILE
360
80C0
  3
SPECULARTILE
360
80BD
  0
DICTIONARY
  5
816B
330
80F2
100
AcDbDictionary
280
     1
281
     1
  3
ACAD_XREC_ROUNDTRIP
360
81DD
  0
DICTIONARY
  5
81DB
330
80DC
100
AcDbDictionary
280
     1
281
     1
  3
ACAD_ROUNDTRIP_2008_TABLESTYLE_CELLSTYLEMAP
360
81DC
  0
XRECORD
  5
81DE
102
{ACAD_REACTORS
330
816D
102
}
330
816D
100
AcDbXrecord
280
     1
102
DISPLAYNAME
  1
Imperial24
102
FLAGS
 90
        0
  0
XRECORD
  5
80B4
102
{ACAD_REACTORS
330
80B2
102
}
330
80B2
100
AcDbXrecord
280
     1
270
     1
271
     1
  0
XRECORD
  5
80B3
102
{ACAD_REACTORS
330
80B2
102
}
330
80B2
100
AcDbXrecord
280
     1
270
     1
271
     1
  0
XRECORD
  5
80B7
102
{ACAD_REACTORS
330
80B2
102
}
330
80B2
100
AcDbXrecord
280
     1
270
     1
271
     1
  0
XRECORD
  5
80B6
102
{ACAD_REACTORS
330
80B2
102
}
330
80B2
100
AcDbXrecord
280
     1
270
     1
271
     1
  0
XRECORD
  5
80B8
102
{ACAD_REACTORS
330
80B2
102
}
330
80B2
100
AcDbXrecord
280
     1
270
     1
271
     1
  0
XRECORD
  5
80B5
102
{ACAD_REACTORS
330
80B2
102
}
330
80B2
100
AcDbXrecord
280
     1
270
     1
271
     1
  0
XRECORD
  5
80AC
102
{ACAD_REACTORS
330
80AA
102
}
330
80AA
100
AcDbXrecord
280
     1
270
     1
271
     1
  0
XRECORD
  5
80AB
102
{ACAD_REACTORS
330
80AA
102
}
330
80AA
100
AcDbXrecord
280
     1
270
     1
271
     1
  0
XRECORD
  5
80AF
102
{ACAD_REACTORS
330
80AA
102
}
330
80AA
100
AcDbXrecord
280
     1
270
     1
271
     1
  0
XRECORD
  5
80AE
102
{ACAD_REACTORS
330
80AA
102
}
330
80AA
100
AcDbXrecord
280
     1
270
     1
271
     1
  0
XRECORD
  5
80B0
102
{ACAD_REACTORS
330
80AA
102
}
330
80AA
100
AcDbXrecord
280
     1
270
     1
271
     1
  0
XRECORD
  5
80AD
102
{ACAD_REACTORS
330
80AA
102
}
330
80AA
100
AcDbXrecord
280
     1
270
     1
271
     1
  0
XRECORD
  5
80BC
102
{ACAD_REACTORS
330
80BA
102
}
330
80BA
100
AcDbXrecord
280
     1
270
     1
271
     1
  0
XRECORD
  5
80BB
102
{ACAD_REACTORS
330
80BA
102
}
330
80BA
100
AcDbXrecord
280
     1
270
     1
271
     1
  0
XRECORD
  5
80BF
102
{ACAD_REACTORS
330
80BA
102
}
330
80BA
100
AcDbXrecord
280
     1
270
     1
271
     1
  0
XRECORD
  5
80BE
102
{ACAD_REACTORS
330
80BA
102
}
330
80BA
100
AcDbXrecord
280
     1
270
     1
271
     1
  0
XRECORD
  5
80C0
102
{ACAD_REACTORS
330
80BA
102
}
330
80BA
100
AcDbXrecord
280
     1
270
     1
271
     1
  0
XRECORD
  5
80BD
102
{ACAD_REACTORS
330
80BA
102
}
330
80BA
100
AcDbXrecord
280
     1
270
     1
271
     1
  0
XRECORD
  5
81DD
102
{ACAD_REACTORS
330
816B
102
}
330
816B
100
AcDbXrecord
280
     1
102
DISPLAYNAME
  1
Imperial24
102
FLAGS
 90
        0
  0
CELLSTYLEMAP
  5
81DC
102
{ACAD_REACTORS
330
81DB
102
}
330
81DB
100
AcDbCellStyleMap
 90
        3
300
CELLSTYLE
  1
TABLEFORMAT_BEGIN
 90
        5
170
     1
 91
        0
 92
    32768
 62
   257
 93
        1
300
CONTENTFORMAT
  1
CONTENTFORMAT_BEGIN
 90
        0
 91
        0
 92
      512
 93
        0
300

 40
0.0
140
1.0
 94
        5
 62
     0
340
10
144
0.25
309
CONTENTFORMAT_END
171
     0
 94
        0
309
TABLEFORMAT_END
  1
CELLSTYLE_BEGIN
 90
        1
 91
        1
300
_TITLE
309
CELLSTYLE_END
300
CELLSTYLE
  1
TABLEFORMAT_BEGIN
 90
        5
170
     1
 91
        0
 92
        0
 62
   257
 93
        1
300
CONTENTFORMAT
  1
CONTENTFORMAT_BEGIN
 90
        0
 91
        0
 92
      512
 93
        0
300

 40
0.0
140
1.0
 94
        5
 62
     0
340
10
144
0.18
309
CONTENTFORMAT_END
171
     0
 94
        0
309
TABLEFORMAT_END
  1
CELLSTYLE_BEGIN
 90
        2
 91
        1
300
_HEADER
309
CELLSTYLE_END
300
CELLSTYLE
  1
TABLEFORMAT_BEGIN
 90
        5
170
     1
 91
        0
 92
        0
 62
   257
 93
        1
300
CONTENTFORMAT
  1
CONTENTFORMAT_BEGIN
 90
        0
 91
        0
 92
      512
 93
        0
300

 40
0.0
140
1.0
 94
        2
 62
     0
340
10
144
0.18
309
CONTENTFORMAT_END
171
     0
 94
        0
309
TABLEFORMAT_END
  1
CELLSTYLE_BEGIN
 90
        3
 91
        2
300
_DATA
309
CELLSTYLE_END
  0
ENDSEC
  0
SECTION
  2
ACDSDATA
 70
     2
 71
     8
  0
ACDSSCHEMA
 90
        0
  1
AcDb_Thumbnail_Schema
  2
AcDbDs::ID
280
    10
 91
        8
  2
Thumbnail_Data
280
    15
 91
        0
101
ACDSRECORD
 95
        0
 90
        1
  2
AcDbDs::TreatedAsObjectData
280
     1
291
     1
101
ACDSRECORD
 95
        0
 90
        2
  2
AcDbDs::Legacy
280
     1
291
     1
101
ACDSRECORD
  1
AcDbDs::ID
 90
        3
  2
AcDs:Indexable
280
     1
291
     1
101
ACDSRECORD
  1
AcDbDs::ID
 90
        4
  2
AcDbDs::HandleAttribute
280
     7
282
     1
  0
ACDSSCHEMA
 90
        1
  1
AcDbDs::TreatedAsObjectDataSchema
  2
AcDbDs::TreatedAsObjectData
280
     1
 91
        0
  0
ACDSSCHEMA
 90
        2
  1
AcDbDs::LegacySchema
  2
AcDbDs::Legacy
280
     1
 91
        0
  0
ACDSSCHEMA
 90
        3
  1
AcDbDs::IndexedPropertySchema
  2
AcDs:Indexable
280
     1
 91
        0
  0
ACDSSCHEMA
 90
        4
  1
AcDbDs::HandleAttributeSchema
  2
AcDbDs::HandleAttribute
280
     7
 91
        1
284
     1
  0
ACDSRECORD
 90
        0
  2
AcDbDs::ID
280
    10
320
7FE9
  2
Thumbnail_Data
280
    15
 94
     1772
310
89504E470D0A1A0A0000000D49484452000001000000007C0803000000B13B9E5A00000300504C5445000000000000C8C8C80000000000000000000000000000000000000000000000000000330000660000990000CC0000FF0033000033330033660033990033CC0033FF0066000066330066660066990066CC0066FF0099
310
000099330099660099990099CC0099FF00CC0000CC3300CC6600CC9900CCCC00CCFF00FF0000FF3300FF6600FF9900FFCC00FFFF3300003300333300663300993300CC3300FF3333003333333333663333993333CC3333FF3366003366333366663366993366CC3366FF3399003399333399663399993399CC3399FF33CC00
310
33CC3333CC6633CC9933CCCC33CCFF33FF0033FF3333FF6633FF9933FFCC33FFFF6600006600336600666600996600CC6600FF6633006633336633666633996633CC6633FF6666006666336666666666996666CC6666FF6699006699336699666699996699CC6699FF66CC0066CC3366CC6666CC9966CCCC66CCFF66FF0066
310
FF3366FF6666FF9966FFCC66FFFF9900009900339900669900999900CC9900FF9933009933339933669933999933CC9933FF9966009966339966669966999966CC9966FF9999009999339999669999999999CC9999FF99CC0099CC3399CC6699CC9999CCCC99CCFF99FF0099FF3399FF6699FF9999FFCC99FFFFCC0000CC00
310
33CC0066CC0099CC00CCCC00FFCC3300CC3333CC3366CC3399CC33CCCC33FFCC6600CC6633CC6666CC6699CC66CCCC66FFCC9900CC9933CC9966CC9999CC99CCCC99FFCCCC00CCCC33CCCC66CCCC99CCCCCCCCCCFFCCFF00CCFF33CCFF66CCFF99CCFFCCCCFFFFFF0000FF0033FF0066FF0099FF00CCFF00FFFF3300FF3333
310
FF3366FF3399FF33CCFF33FFFF6600FF6633FF6666FF6699FF66CCFF66FFFF9900FF9933FF9966FF9999FF99CCFF99FFFFCC00FFCC33FFCC66FFCC99FFCCCCFFCCFFFFFF00FFFF33FFFF66FFFF99FFFFCCFFFFFF0000000D0D0D1A1A1A2828283535354343435050505D5D5D6B6B6B787878868686939393A1A1A1AEAEAEBB
310
BBBBC9C9C9D6D6D6E4E4E4F1F1F1FFFFFF00000000000000000000000000000000000000000000000000000000000008F1915C000003664944415478DAED9D5B8EE4200C45EF72F8F1FE37E36DF03F15C2C380936A8D469AC6F655ABD2152A25F9606C5E2580DFA7AC098E947F78CF2E80BCDBEB0CC0EEF4EE3C60251031E0
310
543FFE6732518DBFE7EB02C07F0270BB722E71AEBCB9DFB61BB5E5D801504CEC26CB062DAE500BEA77E4D301D44A5FCD9437DA2764B8AB2E817C380074F3760FC0A870E491FA5B69F79CE363C0D4046A2FB7BD761CD2EE1E1926AB230B0480E809BAD4D176EBF5B8DDA9959BA7A75A1F60949F4E006F007ADA5B01D40C69D0
310
0320EFF47EB09C0D3100C07904088542A15028140A855C8B88DE0AB9C83400D0B7428643002900F80540975279F508E036DC178059A209B8F10069BD4F00E34D5AF429625700A688503C80BD015883A037000800E59FE4B6096C009C658100E01380EC063A04A0C9D760A8A67F39204AA55B1C00DCC500874D80E96D46C8C1
310
A4E88371E9BDD8280051DBEE01C00F802F4228140A8542A15028B4F71F0300E010034B00061DE1AB65E6074C5F01AC9F658BADFBA56ED9762C6479710B8088AF3961DD1B24806BEACC1E806B9EF85E1A6B0171B25B02B8A6CFCD0128D3E46D6D10AF0088D2E52DF6008C95217601402E09F1BC32349AFF00D097D13E9744B0
310
0060F18005C0E2017D0DBD03383E134C00EEA5C254D74B150F20E901540118F280DE04EA6F29B618709B5D49A4BA7E6806408901D78E515400AC03B8978E8D0098F6C67E527BA2B249F6F3273B41BC7C9AC433C77B40F3686C3B456B609495DC1B470982301103A86E8BA2EEE049FE9CEA02B004C109000C0028096DDE2B8C
310
EE003FF080E3D3E0D5945123DBE807B421DF3B0032D013AC9DDFBB8F43A583436D03E50E606902B00060A443B951520720C366223209001B006800C6561A2B43215200401B0B9805A0FE844C190B88FD84A6C682A377288B78990610CF24904D0FB8D3A09C1164F5190B1E80670F6831E079F63F013E00C03900D8F58087F0
310
9FDA14A1F918F0008065227C4F8332611EA887EDF25C6DD556863450E78E0697953E609E03D9BB00F33BD66E1E0A809F00B00260CC15F3E14BE4DF778BAFB31DEE7695EF00F632570042A1502814322AF7072CAC87ED8CFBF3557DD4388071F20E208F616AE70F5807308E1E6A0CBAE1B600FC857F674B4D2082A06E51F3F4
310
76BA5A361B04F3730C68276E01EAA9221E00C8B3C73CA4C1AD090CDB9D78C0EF08827F0052C8F98470DDC0DC0000000049454E44AE426082466581D53BAFA7B04410546C017F0970F663403F9ED0ECD9E3AF00B26F00EC042EB3005ED1806D0BF8C65EE0075AFA4F01DE44127A0000000049454E44AE426082
  0
ENDSEC
  0
EOF
