  0
SECTION
  2
HEADER
  9
$ACADVER
  1
AC1027
  9
$ACADMAINTVER
 70
    81
  9
$DWGCODEPAGE
  3
ANSI_932
  9
$LASTSAVEDBY
  1
reiko.miyawaki
  9
$REQUIREDVERSIONS
160
                 0
  9
$INSBASE
 10
0.0
 20
0.0
 30
0.0
  9
$EXTMIN
 10
250.0
 20
300.0
 30
0.0
  9
$EXTMAX
 10
1850.0
 20
2786.652262
 30
0.0
  9
$LIMMIN
 10
0.0
 20
0.0
  9
$LIMMAX
 10
297.0
 20
210.0
  9
$ORTHOMODE
 70
     1
  9
$REGENMODE
 70
     1
  9
$FILLMODE
 70
     0
  9
$QTEXTMODE
 70
     0
  9
$MIRRTEXT
 70
     1
  9
$LTSCALE
 40
100.0
  9
$ATTMODE
 70
     1
  9
$TEXTSIZE
 40
180.0
  9
$TRACEWID
 40
0.05
  9
$TEXTSTYLE
  7
STANDARD
  9
$CLAYER
  8
3
  9
$CELTYPE
  6
BYLAYER
  9
$CECOLOR
 62
   256
  9
$CELTSCALE
 40
1.0
  9
$DISPSILH
 70
     0
  9
$DIMSCALE
 40
10.0
  9
$DIMASZ
 40
2.0
  9
$DIMEXO
 40
0.5
  9
$DIMDLI
 40
10.0
  9
$DIMRND
 40
0.0
  9
$DIMDLE
 40
0.0
  9
$DIMEXE
 40
1.0
  9
$DIMTP
 40
1.0
  9
$DIMTM
 40
1.0
  9
$DIMTXT
 40
3.0
  9
$DIMCEN
 40
0.0
  9
$DIMTSZ
 40
0.0
  9
$DIMTOL
 70
     0
  9
$DIMLIM
 70
     0
  9
$DIMTIH
 70
     0
  9
$DIMTOH
 70
     0
  9
$DIMSE1
 70
     0
  9
$DIMSE2
 70
     0
  9
$DIMTAD
 70
     1
  9
$DIMZIN
 70
     8
  9
$DIMBLK
  1

  9
$DIMASO
 70
     1
  9
$DIMSHO
 70
     1
  9
$DIMPOST
  1
(<>)
  9
$DIMAPOST
  1

  9
$DIMALT
 70
     0
  9
$DIMALTD
 70
     2
  9
$DIMALTF
 40
0.039
  9
$DIMLFAC
 40
1.0
  9
$DIMTOFL
 70
     1
  9
$DIMTVP
 40
0.0
  9
$DIMTIX
 70
     0
  9
$DIMSOXD
 70
     0
  9
$DIMSAH
 70
     1
  9
$DIMBLK1
  1
OPEN
  9
$DIMBLK2
  1
OPEN
  9
$DIMSTYLE
  2
IGA
  9
$DIMCLRD
 70
     0
  9
$DIMCLRE
 70
     0
  9
$DIMCLRT
 70
     0
  9
$DIMTFAC
 40
10.0
  9
$DIMGAP
 40
1.0
  9
$DIMJUST
 70
     0
  9
$DIMSD1
 70
     0
  9
$DIMSD2
 70
     0
  9
$DIMTOLJ
 70
     1
  9
$DIMTZIN
 70
     8
  9
$DIMALTZ
 70
     0
  9
$DIMALTTZ
 70
     0
  9
$DIMUPT
 70
     0
  9
$DIMDEC
 70
     0
  9
$DIMTDEC
 70
     0
  9
$DIMALTU
 70
     2
  9
$DIMALTTD
 70
     2
  9
$DIMTXSTY
  7
STANDARD
  9
$DIMAUNIT
 70
     0
  9
$DIMADEC
 70
     0
  9
$DIMALTRND
 40
0.0
  9
$DIMAZIN
 70
     0
  9
$DIMDSEP
 70
    46
  9
$DIMATFIT
 70
     3
  9
$DIMFRAC
 70
     0
  9
$DIMLDRBLK
  1
OPEN
  9
$DIMLUNIT
 70
     2
  9
$DIMLWD
 70
    -2
  9
$DIMLWE
 70
    -2
  9
$DIMTMOVE
 70
     0
  9
$DIMFXL
 40
1.0
  9
$DIMFXLON
 70
     0
  9
$DIMJOGANG
 40
0.7853981633974483
  9
$DIMTFILL
 70
     0
  9
$DIMTFILLCLR
 70
     0
  9
$DIMARCSYM
 70
     0
  9
$DIMLTYPE
  6

  9
$DIMLTEX1
  6

  9
$DIMLTEX2
  6

  9
$DIMTXTDIRECTION
 70
     0
  9
$LUNITS
 70
     2
  9
$LUPREC
 70
     3
  9
$SKETCHINC
 40
0.1
  9
$FILLETRAD
 40
50.0
  9
$AUNITS
 70
     0
  9
$AUPREC
 70
     0
  9
$MENU
  1
acad
  9
$ELEVATION
 40
0.0
  9
$PELEVATION
 40
0.0
  9
$THICKNESS
 40
0.0
  9
$LIMCHECK
 70
     0
  9
$CHAMFERA
 40
0.5
  9
$CHAMFERB
 40
0.5
  9
$CHAMFERC
 40
20.0
  9
$CHAMFERD
 40
0.0
  9
$SKPOLY
 70
     0
  9
$TDCREATE
 40
2450773.541737615
  9
$TDUCREATE
 40
2450773.166737616
  9
$TDUPDATE
 40
2459024.534661585
  9
$TDUUPDATE
 40
2459024.159661586
  9
$TDINDWG
 40
0.0092272801
  9
$TDUSRTIMER
 40
0.0092272801
  9
$USRTIMER
 70
     1
  9
$ANGBASE
 50
0.0
  9
$ANGDIR
 70
     0
  9
$PDMODE
 70
     0
  9
$PDSIZE
 40
0.0
  9
$PLINEWID
 40
0.0
  9
$SPLFRAME
 70
     0
  9
$SPLINETYPE
 70
     6
  9
$SPLINESEGS
 70
     8
  9
$HANDSEED
  5
7FC7
  9
$SURFTAB1
 70
     6
  9
$SURFTAB2
 70
     6
  9
$SURFTYPE
 70
     6
  9
$SURFU
 70
     6
  9
$SURFV
 70
     6
  9
$UCSBASE
  2

  9
$UCSNAME
  2

  9
$UCSORG
 10
0.0
 20
0.0
 30
0.0
  9
$UCSXDIR
 10
1.0
 20
0.0
 30
0.0
  9
$UCSYDIR
 10
0.0
 20
1.0
 30
0.0
  9
$UCSORTHOREF
  2

  9
$UCSORTHOVIEW
 70
     0
  9
$UCSORGTOP
 10
0.0
 20
0.0
 30
0.0
  9
$UCSORGBOTTOM
 10
0.0
 20
0.0
 30
0.0
  9
$UCSORGLEFT
 10
0.0
 20
0.0
 30
0.0
  9
$UCSORGRIGHT
 10
0.0
 20
0.0
 30
0.0
  9
$UCSORGFRONT
 10
0.0
 20
0.0
 30
0.0
  9
$UCSORGBACK
 10
0.0
 20
0.0
 30
0.0
  9
$PUCSBASE
  2

  9
$PUCSNAME
  2

  9
$PUCSORG
 10
0.0
 20
0.0
 30
0.0
  9
$PUCSXDIR
 10
1.0
 20
0.0
 30
0.0
  9
$PUCSYDIR
 10
0.0
 20
1.0
 30
0.0
  9
$PUCSORTHOREF
  2

  9
$PUCSORTHOVIEW
 70
     0
  9
$PUCSORGTOP
 10
0.0
 20
0.0
 30
0.0
  9
$PUCSORGBOTTOM
 10
0.0
 20
0.0
 30
0.0
  9
$PUCSORGLEFT
 10
0.0
 20
0.0
 30
0.0
  9
$PUCSORGRIGHT
 10
0.0
 20
0.0
 30
0.0
  9
$PUCSORGFRONT
 10
0.0
 20
0.0
 30
0.0
  9
$PUCSORGBACK
 10
0.0
 20
0.0
 30
0.0
  9
$USERI1
 70
     0
  9
$USERI2
 70
     0
  9
$USERI3
 70
     0
  9
$USERI4
 70
     0
  9
$USERI5
 70
     0
  9
$USERR1
 40
0.0
  9
$USERR2
 40
0.0
  9
$USERR3
 40
0.0
  9
$USERR4
 40
0.0
  9
$USERR5
 40
0.0
  9
$WORLDVIEW
 70
     1
  9
$SHADEDGE
 70
     3
  9
$SHADEDIF
 70
    70
  9
$TILEMODE
 70
     1
  9
$MAXACTVP
 70
    16
  9
$PINSBASE
 10
0.0
 20
0.0
 30
0.0
  9
$PLIMCHECK
 70
     0
  9
$PEXTMIN
 10
1.000000000000000E+20
 20
1.000000000000000E+20
 30
1.000000000000000E+20
  9
$PEXTMAX
 10
-1.000000000000000E+20
 20
-1.000000000000000E+20
 30
-1.000000000000000E+20
  9
$PLIMMIN
 10
0.0
 20
0.0
  9
$PLIMMAX
 10
12.0
 20
9.0
  9
$UNITMODE
 70
     0
  9
$VISRETAIN
 70
     0
  9
$PLINEGEN
 70
     0
  9
$PSLTSCALE
 70
     1
  9
$TREEDEPTH
 70
  3020
  9
$CMLSTYLE
  2
STANDARD
  9
$CMLJUST
 70
     0
  9
$CMLSCALE
 40
20.0
  9
$PROXYGRAPHICS
 70
     1
  9
$MEASUREMENT
 70
     0
  9
$CELWEIGHT
370
    -1
  9
$ENDCAPS
280
     0
  9
$JOINSTYLE
280
     0
  9
$LWDISPLAY
290
     0
  9
$INSUNITS
 70
     0
  9
$HYPERLINKBASE
  1

  9
$STYLESHEET
  1

  9
$XEDIT
290
     1
  9
$CEPSNTYPE
380
     0
  9
$PSTYLEMODE
290
     1
  9
$FINGERPRINTGUID
  2
{785BBEB1-8D80-4684-9F20-9E4BA7031BB1}
  9
$VERSIONGUID
  2
{9F38AE9F-6B42-4BA9-838E-336D9B06051B}
  9
$EXTNAMES
290
     1
  9
$PSVPSCALE
 40
0.0
  9
$OLESTARTUP
290
     0
  9
$SORTENTS
280
   127
  9
$INDEXCTL
280
     0
  9
$HIDETEXT
280
     0
  9
$XCLIPFRAME
280
     2
  9
$HALOGAP
280
     0
  9
$OBSCOLOR
 70
   257
  9
$OBSLTYPE
280
     0
  9
$INTERSECTIONDISPLAY
280
     0
  9
$INTERSECTIONCOLOR
 70
   257
  9
$DIMASSOC
280
     1
  9
$PROJECTNAME
  1

  9
$CAMERADISPLAY
290
     0
  9
$LENSLENGTH
 40
50.0
  9
$CAMERAHEIGHT
 40
0.0
  9
$STEPSPERSEC
 40
2.0
  9
$STEPSIZE
 40
6.0
  9
$3DDWFPREC
 40
2.0
  9
$PSOLWIDTH
 40
0.25
  9
$PSOLHEIGHT
 40
4.0
  9
$LOFTANG1
 40
1.570796326794896
  9
$LOFTANG2
 40
1.570796326794896
  9
$LOFTMAG1
 40
0.0
  9
$LOFTMAG2
 40
0.0
  9
$LOFTPARAM
 70
     7
  9
$LOFTNORMALS
280
     1
  9
$LATITUDE
 40
37.795
  9
$LONGITUDE
 40
-122.394
  9
$NORTHDIRECTION
 40
0.0
  9
$TIMEZONE
 70
 -8000
  9
$LIGHTGLYPHDISPLAY
280
     1
  9
$TILEMODELIGHTSYNCH
280
     1
  9
$CMATERIAL
347
7EC2
  9
$SOLIDHIST
280
     0
  9
$SHOWHIST
280
     1
  9
$DWFFRAME
280
     2
  9
$DGNFRAME
280
     0
  9
$REALWORLDSCALE
290
     1
  9
$INTERFERECOLOR
 62
     1
  9
$INTERFEREOBJVS
345
7EE4
  9
$INTERFEREVPVS
346
7EE1
  9
$CSHADOW
280
     0
  9
$SHADOWPLANELOCATION
 40
0.0
  0
ENDSEC
  0
SECTION
  2
CLASSES
  0
CLASS
  1
ACDBDICTIONARYWDFLT
  2
AcDbDictionaryWithDefault
  3
ObjectDBX Classes
 90
        0
 91
        1
280
     0
281
     0
  0
CLASS
  1
DICTIONARYVAR
  2
AcDbDictionaryVar
  3
ObjectDBX Classes
 90
        0
 91
       10
280
     0
281
     0
  0
CLASS
  1
MATERIAL
  2
AcDbMaterial
  3
ObjectDBX Classes
 90
     1153
 91
        3
280
     0
281
     0
  0
CLASS
  1
VISUALSTYLE
  2
AcDbVisualStyle
  3
ObjectDBX Classes
 90
     4095
 91
       24
280
     0
281
     0
  0
CLASS
  1
TABLESTYLE
  2
AcDbTableStyle
  3
ObjectDBX Classes
 90
     4095
 91
        1
280
     0
281
     0
  0
CLASS
  1
SCALE
  2
AcDbScale
  3
ObjectDBX Classes
 90
     1153
 91
       17
280
     0
281
     0
  0
CLASS
  1
MLEADERSTYLE
  2
AcDbMLeaderStyle
  3
ACDB_MLEADERSTYLE_CLASS
 90
     4095
 91
        1
280
     0
281
     0
  0
CLASS
  1
ACDBSECTIONVIEWSTYLE
  2
AcDbSectionViewStyle
  3
ObjectDBX Classes
 90
     1025
 91
        1
280
     0
281
     0
  0
CLASS
  1
ACDBDETAILVIEWSTYLE
  2
AcDbDetailViewStyle
  3
ObjectDBX Classes
 90
     1025
 91
        1
280
     0
281
     0
  0
CLASS
  1
SORTENTSTABLE
  2
AcDbSortentsTable
  3
ObjectDBX Classes
 90
        0
 91
        1
280
     0
281
     0
  0
CLASS
  1
CELLSTYLEMAP
  2
AcDbCellStyleMap
  3
ObjectDBX Classes
 90
     1152
 91
        1
280
     0
281
     0
  0
ENDSEC
  0
SECTION
  2
TABLES
  0
TABLE
  2
VPORT
  5
8
330
0
100
AcDbSymbolTable
 70
     1
  0
VPORT
  5
7EBF
330
8
100
AcDbSymbolTableRecord
100
AcDbViewportTableRecord
  2
*Active
 70
     0
 10
0.0
 20
0.0
 11
1.0
 21
1.0
 12
1049.982838315171
 22
1602.850901348136
 13
0.0
 23
0.0
 14
10.0
 24
10.0
 15
10.0
 25
10.0
 16
0.0
 26
0.0
 36
1.0
 17
0.0
 27
0.0
 37
0.0
 40
2621.825673196056
 41
1.957107843137254
 42
50.0
 43
0.0
 44
0.0
 50
0.0
 51
0.0
 71
     0
 72
   100
 73
     1
 74
     0
 75
     0
 76
     0
 77
     0
 78
     0
281
     0
 65
     1
110
0.0
120
0.0
130
0.0
111
1.0
121
0.0
131
0.0
112
0.0
122
1.0
132
0.0
 79
     0
146
0.0
348
7EE0
 60
     3
 61
     5
292
     1
282
     1
141
0.0
142
0.0
 63
   250
421
  3355443
1001
ACAD_NAV_VCDISPLAY
1070
     3
  0
ENDTAB
  0
TABLE
  2
LTYPE
  5
5
330
0
100
AcDbSymbolTable
 70
     2
  0
LTYPE
  5
13
330
5
100
AcDbSymbolTableRecord
100
AcDbLinetypeTableRecord
  2
BYBLOCK
 70
     0
  3

 72
    65
 73
     0
 40
0.0
  0
LTYPE
  5
14
330
5
100
AcDbSymbolTableRecord
100
AcDbLinetypeTableRecord
  2
BYLAYER
 70
     0
  3

 72
    65
 73
     0
 40
0.0
  0
LTYPE
  5
15
330
5
100
AcDbSymbolTableRecord
100
AcDbLinetypeTableRecord
  2
CONTINUOUS
 70
     0
  3
Solid line
 72
    65
 73
     0
 40
0.0
  0
LTYPE
  5
1F
330
5
100
AcDbSymbolTableRecord
100
AcDbLinetypeTableRecord
  2
CENTER
 70
     0
  3
____ _ ____ _ ____ _ ____ _ ____ _ ____ _ ____ 
 72
    65
 73
     4
 40
2.0
 49
1.25
 74
     0
 49
-0.25
 74
     0
 49
0.25
 74
     0
 49
-0.25
 74
     0
  0
ENDTAB
  0
TABLE
  2
LAYER
  5
2
102
{ACAD_XDICTIONARY
360
7F6B
102
}
330
0
100
AcDbSymbolTable
 70
     6
  0
LAYER
  5
F
102
{ACAD_XDICTIONARY
360
7F5E
102
}
330
2
100
AcDbSymbolTableRecord
100
AcDbLayerTableRecord
  2
0
 70
     0
 62
     7
  6
CONTINUOUS
370
    -3
390
7E07
347
7ED2
348
0
  0
LAYER
  5
31
102
{ACAD_XDICTIONARY
360
7F60
102
}
330
2
100
AcDbSymbolTableRecord
100
AcDbLayerTableRecord
  2
3
 70
     0
 62
     2
  6
CONTINUOUS
370
    -3
390
7E07
347
7ED2
348
0
  0
LAYER
  5
76D0
102
{ACAD_XDICTIONARY
360
7F62
102
}
330
2
100
AcDbSymbolTableRecord
100
AcDbLayerTableRecord
  2
2
 70
     0
 62
     3
  6
CENTER
370
    -3
390
7E07
347
7ED2
348
0
  0
LAYER
  5
76D1
102
{ACAD_XDICTIONARY
360
7F64
102
}
330
2
100
AcDbSymbolTableRecord
100
AcDbLayerTableRecord
  2
1
 70
     0
 62
     4
  6
CONTINUOUS
370
    -3
390
7E07
347
7ED2
348
0
  0
LAYER
  5
76D2
102
{ACAD_XDICTIONARY
360
7F66
102
}
330
2
100
AcDbSymbolTableRecord
100
AcDbLayerTableRecord
  2
4
 70
     0
 62
     7
  6
CONTINUOUS
370
    -3
390
7E07
347
7ED2
348
0
  0
LAYER
  5
7B61
330
2
100
AcDbSymbolTableRecord
100
AcDbLayerTableRecord
  2
DEFPOINTS
 70
     0
 62
     7
  6
CONTINUOUS
290
     0
370
    -3
390
7E07
347
7ED2
348
0
  0
ENDTAB
  0
TABLE
  2
STYLE
  5
3
330
0
100
AcDbSymbolTable
 70
     1
  0
STYLE
  5
10
330
3
100
AcDbSymbolTableRecord
100
AcDbTextStyleTableRecord
  2
STANDARD
 70
     0
 40
0.0
 41
1.0
 50
0.0
 71
     0
 42
180.0
  3
simplex.shx
  4
extfont.shx
  0
ENDTAB
  0
TABLE
  2
VIEW
  5
6
330
0
100
AcDbSymbolTable
 70
     0
  0
ENDTAB
  0
TABLE
  2
UCS
  5
7
330
0
100
AcDbSymbolTable
 70
     0
  0
ENDTAB
  0
TABLE
  2
APPID
  5
9
330
0
100
AcDbSymbolTable
 70
     4
  0
APPID
  5
11
330
9
100
AcDbSymbolTableRecord
100
AcDbRegAppTableRecord
  2
ACAD
 70
     0
  0
APPID
  5
7F13
330
9
100
AcDbSymbolTableRecord
100
AcDbRegAppTableRecord
  2
ACAD_NAV_VCDISPLAY
 70
     0
  0
APPID
  5
7F83
330
9
100
AcDbSymbolTableRecord
100
AcDbRegAppTableRecord
  2
AcadAnnoMonitorAlertIconDisabled
 70
     0
  0
APPID
  5
7F84
330
9
100
AcDbSymbolTableRecord
100
AcDbRegAppTableRecord
  2
ACAD_EXEMPT_FROM_CAD_STANDARDS
 70
     0
  0
ENDTAB
  0
TABLE
  2
DIMSTYLE
  5
A
330
0
100
AcDbSymbolTable
 70
     1
100
AcDbDimStyleTable
 71
     1
340
1D
  0
DIMSTYLE
105
1D
102
{ACAD_REACTORS
330
7B66
330
7B73
330
7B82
330
7B8E
330
7BF0
330
7BFC
330
7C40
330
7C4F
330
7C5D
330
7C69
330
7C8C
330
7C99
330
7DAE
330
7DBB
330
7DC8
330
7DD5
330
7DE4
330
7DF1
330
7DFE
102
}
330
A
100
AcDbSymbolTableRecord
100
AcDbDimStyleTableRecord
  2
IGA
 70
     0
 40
2.0
 41
2.0
 42
0.5
 43
10.0
 44
1.0
 47
1.0
 48
1.0
 73
     0
 74
     0
 77
     1
 78
     8
140
3.0
141
0.0
143
0.03937
146
10.0
147
1.0
173
     1
271
     1
272
     0
279
     2
284
     8
340
10
341
7B53
343
7B53
344
7B53
  0
ENDTAB
  0
TABLE
  2
BLOCK_RECORD
  5
1
330
0
100
AcDbSymbolTable
 70
    21
  0
BLOCK_RECORD
  5
19
102
{ACAD_XDICTIONARY
360
7E35
102
}
330
1
100
AcDbSymbolTableRecord
100
AcDbBlockTableRecord
  2
*MODEL_SPACE
340
7E0A
 70
     0
280
     1
281
     0
  0
BLOCK_RECORD
  5
16
102
{ACAD_XDICTIONARY
360
7E33
102
}
330
1
100
AcDbSymbolTableRecord
100
AcDbBlockTableRecord
  2
*PAPER_SPACE
340
7E0B
 70
     0
280
     1
281
     0
  0
BLOCK_RECORD
  5
7B53
330
1
100
AcDbSymbolTableRecord
100
AcDbBlockTableRecord
  2
_OPEN
340
0
102
{BLKREFS
331
7D00
331
7D01
331
7D0B
331
7D0C
331
7D16
331
7D17
331
7D21
331
7D22
331
7D38
331
7D39
331
7E3E
331
7E3F
331
7E47
331
7E48
331
7E4F
331
7E50
331
7E57
331
7E58
331
7E68
331
7E69
331
7E71
331
7E72
331
7F17
331
7F18
331
7F20
331
7F21
331
7F29
331
7F2A
331
7F32
331
7F33
331
7F3E
331
7F4F
331
7F50
331
7F5A
331
7FA0
331
7FA1
102
}
 70
     0
280
     1
281
     0
  0
BLOCK_RECORD
  5
7B59
330
1
100
AcDbSymbolTableRecord
100
AcDbBlockTableRecord
  2
*D1
340
0
 70
     0
280
     1
281
     0
  0
BLOCK_RECORD
  5
7B67
330
1
100
AcDbSymbolTableRecord
100
AcDbBlockTableRecord
  2
*D2
340
0
 70
     0
280
     1
281
     0
  0
BLOCK_RECORD
  5
7B74
330
1
100
AcDbSymbolTableRecord
100
AcDbBlockTableRecord
  2
*D3
340
0
 70
     0
280
     1
281
     0
  0
BLOCK_RECORD
  5
7B83
330
1
100
AcDbSymbolTableRecord
100
AcDbBlockTableRecord
  2
*D4
340
0
 70
     0
280
     1
281
     0
  0
BLOCK_RECORD
  5
7BE2
330
1
100
AcDbSymbolTableRecord
100
AcDbBlockTableRecord
  2
*D5
340
0
 70
     0
280
     1
281
     0
  0
BLOCK_RECORD
  5
7BF1
330
1
100
AcDbSymbolTableRecord
100
AcDbBlockTableRecord
  2
*D6
340
0
 70
     0
280
     1
281
     0
  0
BLOCK_RECORD
  5
7C32
330
1
100
AcDbSymbolTableRecord
100
AcDbBlockTableRecord
  2
*D7
340
0
 70
     0
280
     1
281
     0
  0
BLOCK_RECORD
  5
7C43
330
1
100
AcDbSymbolTableRecord
100
AcDbBlockTableRecord
  2
*D8
340
0
 70
     0
280
     1
281
     0
  0
BLOCK_RECORD
  5
7C50
330
1
100
AcDbSymbolTableRecord
100
AcDbBlockTableRecord
  2
*D9
340
0
 70
     0
280
     1
281
     0
  0
BLOCK_RECORD
  5
7C5E
330
1
100
AcDbSymbolTableRecord
100
AcDbBlockTableRecord
  2
*D10
340
0
 70
     0
280
     1
281
     0
  0
BLOCK_RECORD
  5
7C80
330
1
100
AcDbSymbolTableRecord
100
AcDbBlockTableRecord
  2
*D11
340
0
 70
     0
280
     1
281
     0
  0
BLOCK_RECORD
  5
7C8D
330
1
100
AcDbSymbolTableRecord
100
AcDbBlockTableRecord
  2
*D12
340
0
 70
     0
280
     1
281
     0
  0
BLOCK_RECORD
  5
7D52
330
1
100
AcDbSymbolTableRecord
100
AcDbBlockTableRecord
  2
_DOT
340
0
102
{BLKREFS
331
7F3D
331
7F59
102
}
 70
     0
280
     1
281
     0
  0
BLOCK_RECORD
  5
7DA2
330
1
100
AcDbSymbolTableRecord
100
AcDbBlockTableRecord
  2
*D14
340
0
 70
     0
280
     1
281
     0
  0
BLOCK_RECORD
  5
7DAF
330
1
100
AcDbSymbolTableRecord
100
AcDbBlockTableRecord
  2
*D15
340
0
 70
     0
280
     1
281
     0
  0
BLOCK_RECORD
  5
7DBC
330
1
100
AcDbSymbolTableRecord
100
AcDbBlockTableRecord
  2
*D16
340
0
 70
     0
280
     1
281
     0
  0
BLOCK_RECORD
  5
7DC9
330
1
100
AcDbSymbolTableRecord
100
AcDbBlockTableRecord
  2
*D17
340
0
 70
     0
280
     1
281
     0
  0
BLOCK_RECORD
  5
7DD6
330
1
100
AcDbSymbolTableRecord
100
AcDbBlockTableRecord
  2
*D18
340
0
 70
     0
280
     1
281
     0
  0
BLOCK_RECORD
  5
7DE5
330
1
100
AcDbSymbolTableRecord
100
AcDbBlockTableRecord
  2
*D19
340
0
 70
     0
280
     1
281
     0
  0
BLOCK_RECORD
  5
7DF2
330
1
100
AcDbSymbolTableRecord
100
AcDbBlockTableRecord
  2
*D20
340
0
 70
     0
280
     1
281
     0
  0
ENDTAB
  0
ENDSEC
  0
SECTION
  2
BLOCKS
  0
BLOCK
  5
1A
330
19
100
AcDbEntity
  8
0
100
AcDbBlockBegin
  2
*MODEL_SPACE
 70
     0
 10
0.0
 20
0.0
 30
0.0
  3
*MODEL_SPACE
  1

  0
ENDBLK
  5
1B
330
19
100
AcDbEntity
  8
0
100
AcDbBlockEnd
  0
BLOCK
  5
17
330
16
100
AcDbEntity
 67
     1
  8
0
100
AcDbBlockBegin
  2
*PAPER_SPACE
 70
     0
 10
0.0
 20
0.0
 30
0.0
  3
*PAPER_SPACE
  1

  0
ENDBLK
  5
18
330
16
100
AcDbEntity
 67
     1
  8
0
100
AcDbBlockEnd
  0
BLOCK
  5
7B54
330
7B53
100
AcDbEntity
  8
0
100
AcDbBlockBegin
  2
_OPEN
 70
     0
 10
0.0
 20
0.0
 30
0.0
  3
_OPEN
  1

  0
LINE
  5
7B55
330
7B53
100
AcDbEntity
  8
0
  6
ByBlock
 62
     0
100
AcDbLine
 10
-1.0
 20
0.166667
 30
0.0
 11
0.0
 21
0.0
 31
0.0
  0
LINE
  5
7B56
330
7B53
100
AcDbEntity
  8
0
  6
ByBlock
 62
     0
100
AcDbLine
 10
0.0
 20
0.0
 30
0.0
 11
-1.0
 21
-0.166667
 31
0.0
  0
LINE
  5
7B57
330
7B53
100
AcDbEntity
  8
0
  6
ByBlock
 62
     0
100
AcDbLine
 10
0.0
 20
0.0
 30
0.0
 11
-1.0
 21
0.0
 31
0.0
  0
ENDBLK
  5
7B58
330
7B53
100
AcDbEntity
  8
0
100
AcDbBlockEnd
  0
BLOCK
  5
7B5A
330
7B59
100
AcDbEntity
  8
0
100
AcDbBlockBegin
  2
*D1
 70
     1
 10
0.0
 20
0.0
 30
0.0
  3
*D1
  1

  0
LINE
  5
7E3B
330
7B59
100
AcDbEntity
  8
3
  6
Continuous
 62
     0
440
 16777216
100
AcDbLine
 10
973.4443492363139
 20
1127.909630179475
 30
0.0
 11
1045.293686236314
 21
1127.909630179475
 31
0.0
  0
LINE
  5
7E3C
330
7B59
100
AcDbEntity
  8
3
  6
Continuous
 62
     0
440
 16777216
100
AcDbLine
 10
973.4443492363139
 20
967.9096301794757
 30
0.0
 11
1045.293686236314
 21
967.9096301794757
 31
0.0
  0
LINE
  5
7E3D
330
7B59
100
AcDbEntity
  8
3
  6
Continuous
 62
     0
440
 16777216
100
AcDbLine
 10
1035.293686236314
 20
1107.909630179475
 30
0.0
 11
1035.293686236314
 21
987.9096301794758
 31
0.0
  0
INSERT
  5
7E3E
330
7B59
100
AcDbEntity
  8
3
  6
Continuous
 62
     0
440
 16777216
100
AcDbBlockReference
  2
_OPEN
 10
1035.293686236314
 20
1127.909630179475
 30
0.0
 41
20.0
 42
20.0
 43
20.0
 50
90.0
  0
INSERT
  5
7E3F
330
7B59
100
AcDbEntity
  8
3
  6
Continuous
 62
     0
440
 16777216
100
AcDbBlockReference
  2
_OPEN
 10
1035.293686236314
 20
967.9096301794757
 30
0.0
 41
20.0
 42
20.0
 43
20.0
 50
270.0
  0
MTEXT
  5
7E40
330
7B59
100
AcDbEntity
  8
3
  6
Continuous
 62
     0
440
 16777216
100
AcDbMText
 10
1010.293686236314
 20
1033.623915179475
 30
0.0
 40
30.0
 41
0.0
 46
0.0
 71
     5
 72
     5
  1
\A1;160
 11
0.0000000000000001
 21
1.0
 31
0.0
 73
     1
 44
1.0
  0
POINT
  5
7E41
330
7B59
100
AcDbEntity
  8
DEFPOINTS
  6
Continuous
 62
     0
440
 16777216
100
AcDbPoint
 10
968.4443492363138
 20
1127.909630179475
 30
0.0
  0
POINT
  5
7E42
330
7B59
100
AcDbEntity
  8
DEFPOINTS
  6
Continuous
 62
     0
440
 16777216
100
AcDbPoint
 10
968.4443492363138
 20
967.9096301794757
 30
0.0
  0
POINT
  5
7E43
330
7B59
100
AcDbEntity
  8
DEFPOINTS
  6
Continuous
 62
     0
440
 16777216
100
AcDbPoint
 10
1035.293686236314
 20
967.9096301794757
 30
0.0
  0
ENDBLK
  5
7B65
330
7B59
100
AcDbEntity
  8
0
100
AcDbBlockEnd
  0
BLOCK
  5
7B68
330
7B67
100
AcDbEntity
  8
0
100
AcDbBlockBegin
  2
*D2
 70
     1
 10
0.0
 20
0.0
 30
0.0
  3
*D2
  1

  0
LINE
  5
7E44
330
7B67
100
AcDbEntity
  8
3
  6
Continuous
 62
     0
440
 16777216
100
AcDbLine
 10
1034.386745236314
 20
1127.909630179475
 30
0.0
 11
1112.639795236314
 21
1127.909630179475
 31
0.0
  0
LINE
  5
7E45
330
7B67
100
AcDbEntity
  8
3
  6
Continuous
 62
     0
440
 16777216
100
AcDbLine
 10
958.4443492363138
 20
956.9096301794758
 30
0.0
 11
1112.639795236314
 21
956.9096301794758
 31
0.0
  0
LINE
  5
7E46
330
7B67
100
AcDbEntity
  8
3
  6
Continuous
 62
     0
440
 16777216
100
AcDbLine
 10
1102.639795236314
 20
1107.909630179475
 30
0.0
 11
1102.639795236314
 21
976.9096301794759
 31
0.0
  0
INSERT
  5
7E47
330
7B67
100
AcDbEntity
  8
3
  6
Continuous
 62
     0
440
 16777216
100
AcDbBlockReference
  2
_OPEN
 10
1102.639795236314
 20
1127.909630179475
 30
0.0
 41
20.0
 42
20.0
 43
20.0
 50
90.0
  0
INSERT
  5
7E48
330
7B67
100
AcDbEntity
  8
3
  6
Continuous
 62
     0
440
 16777216
100
AcDbBlockReference
  2
_OPEN
 10
1102.639795236314
 20
956.9096301794758
 30
0.0
 41
20.0
 42
20.0
 43
20.0
 50
270.0
  0
MTEXT
  5
7E49
330
7B67
100
AcDbEntity
  8
3
  6
Continuous
 62
     0
440
 16777216
100
AcDbMText
 10
1077.639795236314
 20
1032.367062179476
 30
0.0
 40
30.0
 41
0.0
 46
0.0
 71
     5
 72
     5
  1
\A1;171
 11
0.0000000000000001
 21
1.0
 31
0.0
 73
     1
 44
1.0
  0
POINT
  5
7E4A
330
7B67
100
AcDbEntity
  8
DEFPOINTS
  6
Continuous
 62
     0
440
 16777216
100
AcDbPoint
 10
1029.386745236314
 20
1127.909630179475
 30
0.0
  0
POINT
  5
7E4B
330
7B67
100
AcDbEntity
  8
DEFPOINTS
  6
Continuous
 62
     0
440
 16777216
100
AcDbPoint
 10
953.4443492363138
 20
956.9096301794758
 30
0.0
  0
POINT
  5
7E4C
330
7B67
100
AcDbEntity
  8
DEFPOINTS
  6
Continuous
 62
     0
440
 16777216
100
AcDbPoint
 10
1102.639795236314
 20
956.9096301794758
 30
0.0
  0
ENDBLK
  5
7B72
330
7B67
100
AcDbEntity
  8
0
100
AcDbBlockEnd
  0
BLOCK
  5
7D1C
330
7B74
100
AcDbEntity
  8
0
100
AcDbBlockBegin
  2
*D3
 70
     1
 10
0.0
 20
0.0
 30
0.0
  3
*D3
  1

  0
LINE
  5
7D1D
330
7B74
100
AcDbEntity
  8
0
  6
ByBlock
 62
     0
440
 16777216
100
AcDbLine
 10
832.4443492363139
 20
1250.909630179475
 30
0.0
 11
1190.189868236314
 21
1250.909630179475
 31
0.0
  0
LINE
  5
7D1E
330
7B74
100
AcDbEntity
  8
0
  6
ByBlock
 62
     0
440
 16777216
100
AcDbLine
 10
1034.386745236314
 20
1127.909630179475
 30
0.0
 11
1190.189868236314
 21
1127.909630179475
 31
0.0
  0
LINE
  5
7D1F
330
7B74
100
AcDbEntity
  8
0
  6
ByBlock
 62
     0
440
 16777216
100
AcDbLine
 10
1180.189868236314
 20
1230.909630179475
 30
0.0
 11
1180.189868236314
 21
1147.909630179476
 31
0.0
  0
MTEXT
  5
7D20
330
7B74
100
AcDbEntity
  8
0
  6
ByBlock
 62
     0
440
 16777216
100
AcDbMText
 10
1152.919432065566
 20
1189.409630179476
 30
0.0
 40
30.0
 41
0.0
 46
0.0
 71
     5
 72
     5
  1
\A1;123
 11
0.0
 21
1.0
 31
0.0
 73
     1
 44
1.0
  0
INSERT
  5
7D21
330
7B74
100
AcDbEntity
  8
0
  6
ByBlock
 62
     0
440
 16777216
100
AcDbBlockReference
  2
_OPEN
 10
1180.189868236314
 20
1250.909630179475
 30
0.0
 41
20.0
 42
20.0
 43
20.0
 50
90.0
  0
INSERT
  5
7D22
330
7B74
100
AcDbEntity
  8
0
  6
ByBlock
 62
     0
440
 16777216
100
AcDbBlockReference
  2
_OPEN
 10
1180.189868236314
 20
1127.909630179475
 30
0.0
 41
20.0
 42
20.0
 43
20.0
 50
270.0
  0
POINT
  5
7D23
330
7B74
100
AcDbEntity
  8
DEFPOINTS
  6
ByBlock
 62
     0
440
 16777216
100
AcDbPoint
 10
827.4443492363138
 20
1250.909630179475
 30
0.0
  0
POINT
  5
7D24
330
7B74
100
AcDbEntity
  8
DEFPOINTS
  6
ByBlock
 62
     0
440
 16777216
100
AcDbPoint
 10
1029.386745236314
 20
1127.909630179475
 30
0.0
  0
POINT
  5
7D25
330
7B74
100
AcDbEntity
  8
DEFPOINTS
  6
ByBlock
 62
     0
440
 16777216
100
AcDbPoint
 10
1180.189868236314
 20
1127.909630179475
 30
0.0
  0
ENDBLK
  5
7D26
330
7B74
100
AcDbEntity
  8
0
100
AcDbBlockEnd
  0
BLOCK
  5
7B84
330
7B83
100
AcDbEntity
  8
0
100
AcDbBlockBegin
  2
*D4
 70
     1
 10
0.0
 20
0.0
 30
0.0
  3
*D4
  1

  0
LINE
  5
7E4D
330
7B83
100
AcDbEntity
  8
3
  6
Continuous
 62
     0
440
 16777216
100
AcDbLine
 10
978.4443492363138
 20
892.9096301794757
 30
0.0
 11
1190.189868236314
 21
892.9096301794757
 31
0.0
  0
LINE
  5
7E4E
330
7B83
100
AcDbEntity
  8
3
  6
Continuous
 62
     0
440
 16777216
100
AcDbLine
 10
1180.189868236314
 20
1107.909630179475
 30
0.0
 11
1180.189868236314
 21
912.9096301794758
 31
0.0
  0
INSERT
  5
7E4F
330
7B83
100
AcDbEntity
  8
3
  6
Continuous
 62
     0
440
 16777216
100
AcDbBlockReference
  2
_OPEN
 10
1180.189868236314
 20
1127.909630179475
 30
0.0
 41
20.0
 42
20.0
 43
20.0
 50
90.0
  0
INSERT
  5
7E50
330
7B83
100
AcDbEntity
  8
3
  6
Continuous
 62
     0
440
 16777216
100
AcDbBlockReference
  2
_OPEN
 10
1180.189868236314
 20
892.9096301794757
 30
0.0
 41
20.0
 42
20.0
 43
20.0
 50
270.0
  0
MTEXT
  5
7E51
330
7B83
100
AcDbEntity
  8
3
  6
Continuous
 62
     0
440
 16777216
100
AcDbMText
 10
1155.189868236313
 20
1010.409630179476
 30
0.0
 40
30.0
 41
0.0
 46
0.0
 71
     5
 72
     5
  1
\A1;235
 11
0.0000000000000001
 21
1.0
 31
0.0
 73
     1
 44
1.0
  0
POINT
  5
7E52
330
7B83
100
AcDbEntity
  8
DEFPOINTS
  6
Continuous
 62
     0
440
 16777216
100
AcDbPoint
 10
1029.386745236314
 20
1127.909630179475
 30
0.0
  0
POINT
  5
7E53
330
7B83
100
AcDbEntity
  8
DEFPOINTS
  6
Continuous
 62
     0
440
 16777216
100
AcDbPoint
 10
973.4443492363139
 20
892.9096301794757
 30
0.0
  0
POINT
  5
7E54
330
7B83
100
AcDbEntity
  8
DEFPOINTS
  6
Continuous
 62
     0
440
 16777216
100
AcDbPoint
 10
1180.189868236314
 20
892.9096301794757
 30
0.0
  0
ENDBLK
  5
7B8D
330
7B83
100
AcDbEntity
  8
0
100
AcDbBlockEnd
  0
BLOCK
  5
7D11
330
7BE2
100
AcDbEntity
  8
0
100
AcDbBlockBegin
  2
*D5
 70
     1
 10
0.0
 20
0.0
 30
0.0
  3
*D5
  1

  0
LINE
  5
7D12
330
7BE2
100
AcDbEntity
  8
0
  6
ByBlock
 62
     0
440
 16777216
100
AcDbLine
 10
968.4443492363138
 20
1154.909630179475
 30
0.0
 11
968.4443492363138
 21
1329.945850179475
 31
0.0
  0
LINE
  5
7D13
330
7BE2
100
AcDbEntity
  8
0
  6
ByBlock
 62
     0
440
 16777216
100
AcDbLine
 10
838.4443492363139
 20
1310.120684179475
 30
0.0
 11
838.4443492363139
 21
1329.945850179475
 31
0.0
  0
LINE
  5
7D14
330
7BE2
100
AcDbEntity
  8
0
  6
ByBlock
 62
     0
440
 16777216
100
AcDbLine
 10
948.4443492363139
 20
1319.945850179476
 30
0.0
 11
858.4443492363138
 21
1319.945850179476
 31
0.0
  0
MTEXT
  5
7D15
330
7BE2
100
AcDbEntity
  8
0
  6
ByBlock
 62
     0
440
 16777216
100
AcDbMText
 10
903.4443492363138
 20
1343.585127580039
 30
0.0
 40
30.0
 41
0.0
 46
0.0
 71
     5
 72
     5
  1
\A1;130
 73
     1
 44
1.0
  0
INSERT
  5
7D16
330
7BE2
100
AcDbEntity
  8
0
  6
ByBlock
 62
     0
440
 16777216
100
AcDbBlockReference
  2
_OPEN
 10
968.4443492363138
 20
1319.945850179476
 30
0.0
 41
20.0
 42
20.0
 43
20.0
  0
INSERT
  5
7D17
330
7BE2
100
AcDbEntity
  8
0
  6
ByBlock
 62
     0
440
 16777216
100
AcDbBlockReference
  2
_OPEN
 10
838.4443492363139
 20
1319.945850179476
 30
0.0
 41
20.0
 42
20.0
 43
20.0
 50
180.0
  0
POINT
  5
7D18
330
7BE2
100
AcDbEntity
  8
DEFPOINTS
  6
ByBlock
 62
     0
440
 16777216
100
AcDbPoint
 10
968.4443492363138
 20
1149.909630179476
 30
0.0
  0
POINT
  5
7D19
330
7BE2
100
AcDbEntity
  8
DEFPOINTS
  6
ByBlock
 62
     0
440
 16777216
100
AcDbPoint
 10
838.4443492363139
 20
1305.120684179475
 30
0.0
  0
POINT
  5
7D1A
330
7BE2
100
AcDbEntity
  8
DEFPOINTS
  6
ByBlock
 62
     0
440
 16777216
100
AcDbPoint
 10
838.4443492363139
 20
1319.945850179476
 30
0.0
  0
ENDBLK
  5
7D1B
330
7BE2
100
AcDbEntity
  8
0
100
AcDbBlockEnd
  0
BLOCK
  5
7BF2
330
7BF1
100
AcDbEntity
  8
0
100
AcDbBlockBegin
  2
*D6
 70
     1
 10
0.0
 20
0.0
 30
0.0
  3
*D6
  1

  0
LINE
  5
7E55
330
7BF1
100
AcDbEntity
  8
3
  6
Continuous
 62
     0
440
 16777216
100
AcDbLine
 10
693.4443492363137
 20
1119.909630179475
 30
0.0
 11
693.4443492363137
 21
1329.945850179475
 31
0.0
  0
LINE
  5
7E56
330
7BF1
100
AcDbEntity
  8
3
  6
Continuous
 62
     0
440
 16777216
100
AcDbLine
 10
818.4443492363138
 20
1319.945850179476
 30
0.0
 11
713.4443492363137
 21
1319.945850179476
 31
0.0
  0
INSERT
  5
7E57
330
7BF1
100
AcDbEntity
  8
3
  6
Continuous
 62
     0
440
 16777216
100
AcDbBlockReference
  2
_OPEN
 10
838.4443492363139
 20
1319.945850179476
 30
0.0
 41
20.0
 42
20.0
 43
20.0
  0
INSERT
  5
7E58
330
7BF1
100
AcDbEntity
  8
3
  6
Continuous
 62
     0
440
 16777216
100
AcDbBlockReference
  2
_OPEN
 10
693.4443492363137
 20
1319.945850179476
 30
0.0
 41
20.0
 42
20.0
 43
20.0
 50
180.0
  0
MTEXT
  5
7E59
330
7BF1
100
AcDbEntity
  8
3
  6
Continuous
 62
     0
440
 16777216
100
AcDbMText
 10
765.9443492363139
 20
1344.945850179475
 30
0.0
 40
30.0
 41
0.0
 46
0.0
 71
     5
 72
     5
  1
\A1;145
 73
     1
 44
1.0
  0
POINT
  5
7E5A
330
7BF1
100
AcDbEntity
  8
DEFPOINTS
  6
Continuous
 62
     0
440
 16777216
100
AcDbPoint
 10
838.4443492363139
 20
1305.120684179475
 30
0.0
  0
POINT
  5
7E5B
330
7BF1
100
AcDbEntity
  8
DEFPOINTS
  6
Continuous
 62
     0
440
 16777216
100
AcDbPoint
 10
693.4443492363137
 20
1114.909630179475
 30
0.0
  0
POINT
  5
7E5C
330
7BF1
100
AcDbEntity
  8
DEFPOINTS
  6
Continuous
 62
     0
440
 16777216
100
AcDbPoint
 10
693.4443492363137
 20
1319.945850179476
 30
0.0
  0
ENDBLK
  5
7BFB
330
7BF1
100
AcDbEntity
  8
0
100
AcDbBlockEnd
  0
BLOCK
  5
7CFB
330
7C32
100
AcDbEntity
  8
0
100
AcDbBlockBegin
  2
*D7
 70
     1
 10
0.0
 20
0.0
 30
0.0
  3
*D7
  1

  0
LINE
  5
7CFC
330
7C32
100
AcDbEntity
  8
0
  6
ByBlock
 62
     0
440
 16777216
100
AcDbLine
 10
1582.444349236314
 20
1243.909630179476
 30
0.0
 11
1582.444349236314
 21
1297.312798179476
 31
0.0
  0
LINE
  5
7CFD
330
7C32
100
AcDbEntity
  8
0
  6
ByBlock
 62
     0
440
 16777216
100
AcDbLine
 10
1694.444349236314
 20
1243.909630179476
 30
0.0
 11
1694.444349236314
 21
1297.312798179476
 31
0.0
  0
LINE
  5
7CFE
330
7C32
100
AcDbEntity
  8
0
  6
ByBlock
 62
     0
440
 16777216
100
AcDbLine
 10
1602.444349236314
 20
1287.312798179476
 30
0.0
 11
1674.444349236314
 21
1287.312798179476
 31
0.0
  0
MTEXT
  5
7CFF
330
7C32
100
AcDbEntity
  8
0
  6
ByBlock
 62
     0
440
 16777216
100
AcDbMText
 10
1638.444349236314
 20
1310.525424313955
 30
0.0
 40
30.0
 41
0.0
 46
0.0
 71
     5
 72
     5
  1
\A1;112
 73
     1
 44
1.0
  0
INSERT
  5
7D00
330
7C32
100
AcDbEntity
  8
0
  6
ByBlock
 62
     0
440
 16777216
100
AcDbBlockReference
  2
_OPEN
 10
1582.444349236314
 20
1287.312798179476
 30
0.0
 41
20.0
 42
20.0
 43
20.0
 50
180.0
  0
INSERT
  5
7D01
330
7C32
100
AcDbEntity
  8
0
  6
ByBlock
 62
     0
440
 16777216
100
AcDbBlockReference
  2
_OPEN
 10
1694.444349236314
 20
1287.312798179476
 30
0.0
 41
20.0
 42
20.0
 43
20.0
  0
POINT
  5
7D02
330
7C32
100
AcDbEntity
  8
DEFPOINTS
  6
ByBlock
 62
     0
440
 16777216
100
AcDbPoint
 10
1582.444349236314
 20
1238.909630179475
 30
0.0
  0
POINT
  5
7D03
330
7C32
100
AcDbEntity
  8
DEFPOINTS
  6
ByBlock
 62
     0
440
 16777216
100
AcDbPoint
 10
1694.444349236314
 20
1238.909630179475
 30
0.0
  0
POINT
  5
7D04
330
7C32
100
AcDbEntity
  8
DEFPOINTS
  6
ByBlock
 62
     0
440
 16777216
100
AcDbPoint
 10
1694.444349236314
 20
1287.312798179476
 30
0.0
  0
ENDBLK
  5
7D05
330
7C32
100
AcDbEntity
  8
0
100
AcDbBlockEnd
  0
BLOCK
  5
7D06
330
7C43
100
AcDbEntity
  8
0
100
AcDbBlockBegin
  2
*D8
 70
     1
 10
0.0
 20
0.0
 30
0.0
  3
*D8
  1

  0
LINE
  5
7D07
330
7C43
100
AcDbEntity
  8
0
  6
ByBlock
 62
     0
440
 16777216
100
AcDbLine
 10
1707.444349236314
 20
1207.909630179476
 30
0.0
 11
1786.100896236314
 21
1207.909630179476
 31
0.0
  0
LINE
  5
7D08
330
7C43
100
AcDbEntity
  8
0
  6
ByBlock
 62
     0
440
 16777216
100
AcDbLine
 10
1707.444349236314
 20
1047.909630179475
 30
0.0
 11
1786.100896236314
 21
1047.909630179475
 31
0.0
  0
LINE
  5
7D09
330
7C43
100
AcDbEntity
  8
0
  6
ByBlock
 62
     0
440
 16777216
100
AcDbLine
 10
1776.100896236314
 20
1187.909630179476
 30
0.0
 11
1776.100896236314
 21
1067.909630179475
 31
0.0
  0
MTEXT
  5
7D0A
330
7C43
100
AcDbEntity
  8
0
  6
ByBlock
 62
     0
440
 16777216
100
AcDbMText
 10
1754.324439919337
 20
1127.909630179475
 30
0.0
 40
30.0
 41
0.0
 46
0.0
 71
     5
 72
     5
  1
\A1;φ160
 11
0.0
 21
1.0
 31
0.0
 73
     1
 44
1.0
  0
INSERT
  5
7D0B
330
7C43
100
AcDbEntity
  8
0
  6
ByBlock
 62
     0
440
 16777216
100
AcDbBlockReference
  2
_OPEN
 10
1776.100896236314
 20
1207.909630179476
 30
0.0
 41
20.0
 42
20.0
 43
20.0
 50
90.0
  0
INSERT
  5
7D0C
330
7C43
100
AcDbEntity
  8
0
  6
ByBlock
 62
     0
440
 16777216
100
AcDbBlockReference
  2
_OPEN
 10
1776.100896236314
 20
1047.909630179475
 30
0.0
 41
20.0
 42
20.0
 43
20.0
 50
270.0
  0
POINT
  5
7D0D
330
7C43
100
AcDbEntity
  8
DEFPOINTS
  6
ByBlock
 62
     0
440
 16777216
100
AcDbPoint
 10
1702.444349236314
 20
1207.909630179476
 30
0.0
  0
POINT
  5
7D0E
330
7C43
100
AcDbEntity
  8
DEFPOINTS
  6
ByBlock
 62
     0
440
 16777216
100
AcDbPoint
 10
1702.444349236314
 20
1047.909630179475
 30
0.0
  0
POINT
  5
7D0F
330
7C43
100
AcDbEntity
  8
DEFPOINTS
  6
ByBlock
 62
     0
440
 16777216
100
AcDbPoint
 10
1776.100896236314
 20
1047.909630179475
 30
0.0
  0
ENDBLK
  5
7D10
330
7C43
100
AcDbEntity
  8
0
100
AcDbBlockEnd
  0
BLOCK
  5
7D33
330
7C50
100
AcDbEntity
  8
0
100
AcDbBlockBegin
  2
*D9
 70
     1
 10
0.0
 20
0.0
 30
0.0
  3
*D9
  1

  0
LINE
  5
7D34
330
7C50
100
AcDbEntity
  8
0
  6
ByBlock
 62
     0
440
 16777216
100
AcDbLine
 10
1702.444349236314
 20
1232.909630179476
 30
0.0
 11
1702.444349236314
 21
1358.499774179475
 31
0.0
  0
LINE
  5
7D35
330
7C50
100
AcDbEntity
  8
0
  6
ByBlock
 62
     0
440
 16777216
100
AcDbLine
 10
1638.444349236314
 20
1340.805685179475
 30
0.0
 11
1638.444349236314
 21
1358.499774179475
 31
0.0
  0
LINE
  5
7D36
330
7C50
100
AcDbEntity
  8
0
  6
ByBlock
 62
     0
440
 16777216
100
AcDbLine
 10
1682.444349236314
 20
1348.499774179475
 30
0.0
 11
1658.444349236314
 21
1348.499774179475
 31
0.0
  0
MTEXT
  5
7D37
330
7C50
100
AcDbEntity
  8
0
  6
ByBlock
 62
     0
440
 16777216
100
AcDbMText
 10
1672.58006941713
 20
1376.644830846121
 30
0.0
 40
30.0
 41
0.0
 46
0.0
 71
     5
 72
     5
  1
\A1;64
 73
     1
 44
1.0
  0
INSERT
  5
7D38
330
7C50
100
AcDbEntity
  8
0
  6
ByBlock
 62
     0
440
 16777216
100
AcDbBlockReference
  2
_OPEN
 10
1702.444349236314
 20
1348.499774179475
 30
0.0
 41
20.0
 42
20.0
 43
20.0
  0
INSERT
  5
7D39
330
7C50
100
AcDbEntity
  8
0
  6
ByBlock
 62
     0
440
 16777216
100
AcDbBlockReference
  2
_OPEN
 10
1638.444349236314
 20
1348.499774179475
 30
0.0
 41
20.0
 42
20.0
 43
20.0
 50
180.0
  0
POINT
  5
7D3A
330
7C50
100
AcDbEntity
  8
DEFPOINTS
  6
ByBlock
 62
     0
440
 16777216
100
AcDbPoint
 10
1702.444349236314
 20
1227.909630179476
 30
0.0
  0
POINT
  5
7D3B
330
7C50
100
AcDbEntity
  8
DEFPOINTS
  6
ByBlock
 62
     0
440
 16777216
100
AcDbPoint
 10
1638.444349236314
 20
1335.805685179475
 30
0.0
  0
POINT
  5
7D3C
330
7C50
100
AcDbEntity
  8
DEFPOINTS
  6
ByBlock
 62
     0
440
 16777216
100
AcDbPoint
 10
1638.444349236314
 20
1348.499774179475
 30
0.0
  0
ENDBLK
  5
7D3D
330
7C50
100
AcDbEntity
  8
0
100
AcDbBlockEnd
  0
BLOCK
  5
7D90
330
7C5E
100
AcDbEntity
  8
0
100
AcDbBlockBegin
  2
*D10
 70
     1
 10
0.0
 20
0.0
 30
0.0
  3
*D10
  1

  0
LINE
  5
7F9E
330
7C5E
100
AcDbEntity
  8
3
  6
Continuous
 62
     0
440
 16777216
370
    -2
100
AcDbLine
 10
1378.444349236314
 20
1227.909630179476
 30
0.0
 11
1378.444349236314
 21
1358.499774179475
 31
0.0
  0
LINE
  5
7F9F
330
7C5E
100
AcDbEntity
  8
3
  6
Continuous
 62
     0
440
 16777216
370
    -2
100
AcDbLine
 10
1618.444349236314
 20
1348.499774179475
 30
0.0
 11
1398.444349236314
 21
1348.499774179475
 31
0.0
  0
INSERT
  5
7FA0
330
7C5E
100
AcDbEntity
  8
3
  6
Continuous
 62
     0
440
 16777216
370
    -2
100
AcDbBlockReference
  2
_OPEN
 10
1638.444349236314
 20
1348.499774179475
 30
0.0
 41
20.0
 42
20.0
 43
20.0
  0
INSERT
  5
7FA1
330
7C5E
100
AcDbEntity
  8
3
  6
Continuous
 62
     0
440
 16777216
370
    -2
100
AcDbBlockReference
  2
_OPEN
 10
1378.444349236314
 20
1348.499774179475
 30
0.0
 41
20.0
 42
20.0
 43
20.0
 50
180.0
  0
MTEXT
  5
7FA2
330
7C5E
100
AcDbEntity
  8
3
  6
Continuous
 62
     0
440
 16777216
100
AcDbMText
 10
1508.444349236314
 20
1381.356917036618
 30
0.0
 40
30.0
 41
0.0
 46
0.0
 71
     5
 72
     1
  1
\A1;(260)
 73
     1
 44
1.0
  0
POINT
  5
7FA3
330
7C5E
100
AcDbEntity
  8
DEFPOINTS
  6
Continuous
 62
     0
440
 16777216
100
AcDbPoint
 10
1638.444349236314
 20
1335.805685179475
 30
0.0
  0
POINT
  5
7FA4
330
7C5E
100
AcDbEntity
  8
DEFPOINTS
  6
Continuous
 62
     0
440
 16777216
100
AcDbPoint
 10
1378.444349236314
 20
1222.909630179475
 30
0.0
  0
POINT
  5
7FA5
330
7C5E
100
AcDbEntity
  8
DEFPOINTS
  6
Continuous
 62
     0
440
 16777216
100
AcDbPoint
 10
1378.444349236314
 20
1348.499774179475
 30
0.0
  0
ENDBLK
  5
7D99
330
7C5E
100
AcDbEntity
  8
0
100
AcDbBlockEnd
  0
BLOCK
  5
7C81
330
7C80
100
AcDbEntity
  8
0
100
AcDbBlockBegin
  2
*D11
 70
     1
 10
0.0
 20
0.0
 30
0.0
  3
*D11
  1

  0
LINE
  5
7E65
330
7C80
100
AcDbEntity
  8
3
  6
Continuous
 62
     0
440
 16777216
100
AcDbLine
 10
388.4443492363138
 20
1698.810230543622
 30
0.0
 11
388.4443492363138
 21
1608.170674543622
 31
0.0
  0
LINE
  5
7E66
330
7C80
100
AcDbEntity
  8
3
  6
Continuous
 62
     0
440
 16777216
100
AcDbLine
 10
998.4443492363139
 20
1698.810230543622
 30
0.0
 11
998.4443492363139
 21
1608.170674543622
 31
0.0
  0
LINE
  5
7E67
330
7C80
100
AcDbEntity
  8
3
  6
Continuous
 62
     0
440
 16777216
100
AcDbLine
 10
408.4443492363138
 20
1618.170674543622
 30
0.0
 11
978.4443492363138
 21
1618.170674543622
 31
0.0
  0
INSERT
  5
7E68
330
7C80
100
AcDbEntity
  8
3
  6
Continuous
 62
     0
440
 16777216
100
AcDbBlockReference
  2
_OPEN
 10
388.4443492363138
 20
1618.170674543622
 30
0.0
 41
20.0
 42
20.0
 43
20.0
 50
180.0
  0
INSERT
  5
7E69
330
7C80
100
AcDbEntity
  8
3
  6
Continuous
 62
     0
440
 16777216
100
AcDbBlockReference
  2
_OPEN
 10
998.4443492363139
 20
1618.170674543622
 30
0.0
 41
20.0
 42
20.0
 43
20.0
  0
MTEXT
  5
7E6A
330
7C80
100
AcDbEntity
  8
3
  6
Continuous
 62
     0
440
 16777216
100
AcDbMText
 10
674.0736482363138
 20
1643.170674543622
 30
0.0
 40
30.0
 41
0.0
 46
0.0
 71
     5
 72
     5
  1
\A1;610
 73
     1
 44
1.0
  0
POINT
  5
7E6B
330
7C80
100
AcDbEntity
  8
DEFPOINTS
  6
Continuous
 62
     0
440
 16777216
100
AcDbPoint
 10
388.4443492363138
 20
1703.810230543622
 30
0.0
  0
POINT
  5
7E6C
330
7C80
100
AcDbEntity
  8
DEFPOINTS
  6
Continuous
 62
     0
440
 16777216
100
AcDbPoint
 10
998.4443492363139
 20
1703.810230543622
 30
0.0
  0
POINT
  5
7E6D
330
7C80
100
AcDbEntity
  8
DEFPOINTS
  6
Continuous
 62
     0
440
 16777216
100
AcDbPoint
 10
998.4443492363139
 20
1618.170674543622
 30
0.0
  0
ENDBLK
  5
7C8B
330
7C80
100
AcDbEntity
  8
0
100
AcDbBlockEnd
  0
BLOCK
  5
7C8E
330
7C8D
100
AcDbEntity
  8
0
100
AcDbBlockBegin
  2
*D12
 70
     1
 10
0.0
 20
0.0
 30
0.0
  3
*D12
  1

  0
LINE
  5
7E6E
330
7C8D
100
AcDbEntity
  8
3
  6
Continuous
 62
     0
440
 16777216
100
AcDbLine
 10
1003.444349236314
 20
2133.810230543622
 30
0.0
 11
1104.476634236314
 21
2133.810230543622
 31
0.0
  0
LINE
  5
7E6F
330
7C8D
100
AcDbEntity
  8
3
  6
Continuous
 62
     0
440
 16777216
100
AcDbLine
 10
1003.444349236314
 20
1703.810230543622
 30
0.0
 11
1104.476634236314
 21
1703.810230543622
 31
0.0
  0
LINE
  5
7E70
330
7C8D
100
AcDbEntity
  8
3
  6
Continuous
 62
     0
440
 16777216
100
AcDbLine
 10
1094.476634236314
 20
2113.810230543622
 30
0.0
 11
1094.476634236314
 21
1723.810230543622
 31
0.0
  0
INSERT
  5
7E71
330
7C8D
100
AcDbEntity
  8
3
  6
Continuous
 62
     0
440
 16777216
100
AcDbBlockReference
  2
_OPEN
 10
1094.476634236314
 20
2133.810230543622
 30
0.0
 41
20.0
 42
20.0
 43
20.0
 50
90.0
  0
INSERT
  5
7E72
330
7C8D
100
AcDbEntity
  8
3
  6
Continuous
 62
     0
440
 16777216
100
AcDbBlockReference
  2
_OPEN
 10
1094.476634236314
 20
1703.810230543622
 30
0.0
 41
20.0
 42
20.0
 43
20.0
 50
270.0
  0
MTEXT
  5
7E73
330
7C8D
100
AcDbEntity
  8
3
  6
Continuous
 62
     0
440
 16777216
100
AcDbMText
 10
1069.476634236314
 20
1899.630765543622
 30
0.0
 40
30.0
 41
0.0
 46
0.0
 71
     5
 72
     5
  1
\A1;430
 11
0.0000000000000001
 21
1.0
 31
0.0
 73
     1
 44
1.0
  0
POINT
  5
7E74
330
7C8D
100
AcDbEntity
  8
DEFPOINTS
  6
Continuous
 62
     0
440
 16777216
100
AcDbPoint
 10
998.4443492363139
 20
2133.810230543622
 30
0.0
  0
POINT
  5
7E75
330
7C8D
100
AcDbEntity
  8
DEFPOINTS
  6
Continuous
 62
     0
440
 16777216
100
AcDbPoint
 10
998.4443492363139
 20
1703.810230543622
 30
0.0
  0
POINT
  5
7E76
330
7C8D
100
AcDbEntity
  8
DEFPOINTS
  6
Continuous
 62
     0
440
 16777216
100
AcDbPoint
 10
1094.476634236314
 20
1703.810230543622
 30
0.0
  0
ENDBLK
  5
7C98
330
7C8D
100
AcDbEntity
  8
0
100
AcDbBlockEnd
  0
BLOCK
  5
7D53
330
7D52
100
AcDbEntity
  8
0
100
AcDbBlockBegin
  2
_DOT
 70
     0
 10
0.0
 20
0.0
 30
0.0
  3
_DOT
  1

  0
LINE
  5
7D73
330
7D52
100
AcDbEntity
  8
0
  6
ByBlock
 62
     0
100
AcDbLine
 10
0.0
 20
0.0
 30
0.0
 11
-1.0
 21
-0.0000000000000284
 31
0.0
  0
LWPOLYLINE
  5
7D74
330
7D52
100
AcDbEntity
  8
0
  6
ByBlock
 62
     0
100
AcDbPolyline
 90
        2
 70
     1
 43
0.1666666666666666
 10
-0.0833333333333286
 20
-0.0000000000000284
 42
1.0
 10
0.0833333333333286
 20
-0.0000000000000284
 42
1.0
  0
ENDBLK
  5
7D59
330
7D52
100
AcDbEntity
  8
0
100
AcDbBlockEnd
  0
BLOCK
  5
7DA3
330
7DA2
100
AcDbEntity
  8
0
100
AcDbBlockBegin
  2
*D14
 70
     1
 10
0.0
 20
0.0
 30
0.0
  3
*D14
  1

  0
LINE
  5
7F14
330
7DA2
100
AcDbEntity
  8
3
 62
     0
440
 16777216
370
    -2
100
AcDbLine
 10
1366.444349236314
 20
767.9096301794758
 30
0.0
 11
1366.444349236314
 21
696.3347455757557
 31
0.0
  0
LINE
  5
7F15
330
7DA2
100
AcDbEntity
  8
3
 62
     0
440
 16777216
370
    -2
100
AcDbLine
 10
1638.444349236314
 20
767.9096301794758
 30
0.0
 11
1638.444349236314
 21
696.3347455757557
 31
0.0
  0
LINE
  5
7F16
330
7DA2
100
AcDbEntity
  8
3
 62
     0
440
 16777216
370
    -2
100
AcDbLine
 10
1386.444349236314
 20
706.3347455757557
 30
0.0
 11
1618.444349236314
 21
706.3347455757557
 31
0.0
  0
INSERT
  5
7F17
330
7DA2
100
AcDbEntity
  8
3
 62
     0
440
 16777216
370
    -2
100
AcDbBlockReference
  2
_OPEN
 10
1366.444349236314
 20
706.3347455757557
 30
0.0
 41
20.0
 42
20.0
 43
20.0
 50
180.0
  0
INSERT
  5
7F18
330
7DA2
100
AcDbEntity
  8
3
 62
     0
440
 16777216
370
    -2
100
AcDbBlockReference
  2
_OPEN
 10
1638.444349236314
 20
706.3347455757557
 30
0.0
 41
20.0
 42
20.0
 43
20.0
  0
MTEXT
  5
7F19
330
7DA2
100
AcDbEntity
  8
3
 62
     0
440
 16777216
100
AcDbMText
 10
1502.444349236314
 20
731.3347455757557
 30
0.0
 40
30.0
 41
0.0
 46
0.0
 71
     5
 72
     1
  1
\A1;272
 73
     1
 44
1.0
  0
POINT
  5
7F1A
330
7DA2
100
AcDbEntity
  8
DEFPOINTS
 62
     0
440
 16777216
100
AcDbPoint
 10
1366.444349236314
 20
772.9096301794758
 30
0.0
  0
POINT
  5
7F1B
330
7DA2
100
AcDbEntity
  8
DEFPOINTS
 62
     0
440
 16777216
100
AcDbPoint
 10
1638.444349236314
 20
772.9096301794758
 30
0.0
  0
POINT
  5
7F1C
330
7DA2
100
AcDbEntity
  8
DEFPOINTS
 62
     0
440
 16777216
100
AcDbPoint
 10
1638.444349236314
 20
706.3347455757557
 30
0.0
  0
ENDBLK
  5
7DAD
330
7DA2
100
AcDbEntity
  8
0
100
AcDbBlockEnd
  0
BLOCK
  5
7DB0
330
7DAF
100
AcDbEntity
  8
0
100
AcDbBlockBegin
  2
*D15
 70
     1
 10
0.0
 20
0.0
 30
0.0
  3
*D15
  1

  0
LINE
  5
7F1D
330
7DAF
100
AcDbEntity
  8
3
 62
     0
440
 16777216
370
    -2
100
AcDbLine
 10
1638.444349236314
 20
767.9096301794758
 30
0.0
 11
1638.444349236314
 21
696.3347455757557
 31
0.0
  0
LINE
  5
7F1E
330
7DAF
100
AcDbEntity
  8
3
 62
     0
440
 16777216
370
    -2
100
AcDbLine
 10
1796.444349236313
 20
767.9096301794758
 30
0.0
 11
1796.444349236313
 21
696.3347455757557
 31
0.0
  0
LINE
  5
7F1F
330
7DAF
100
AcDbEntity
  8
3
 62
     0
440
 16777216
370
    -2
100
AcDbLine
 10
1658.444349236314
 20
706.3347455757557
 30
0.0
 11
1776.444349236314
 21
706.3347455757557
 31
0.0
  0
INSERT
  5
7F20
330
7DAF
100
AcDbEntity
  8
3
 62
     0
440
 16777216
370
    -2
100
AcDbBlockReference
  2
_OPEN
 10
1638.444349236314
 20
706.3347455757557
 30
0.0
 41
20.0
 42
20.0
 43
20.0
 50
180.0
  0
INSERT
  5
7F21
330
7DAF
100
AcDbEntity
  8
3
 62
     0
440
 16777216
370
    -2
100
AcDbBlockReference
  2
_OPEN
 10
1796.444349236313
 20
706.3347455757557
 30
0.0
 41
20.0
 42
20.0
 43
20.0
  0
MTEXT
  5
7F22
330
7DAF
100
AcDbEntity
  8
3
 62
     0
440
 16777216
100
AcDbMText
 10
1717.444349236314
 20
731.3347455757557
 30
0.0
 40
30.0
 41
0.0
 46
0.0
 71
     5
 72
     1
  1
\A1;158
 73
     1
 44
1.0
  0
POINT
  5
7F23
330
7DAF
100
AcDbEntity
  8
DEFPOINTS
 62
     0
440
 16777216
100
AcDbPoint
 10
1638.444349236314
 20
772.9096301794758
 30
0.0
  0
POINT
  5
7F24
330
7DAF
100
AcDbEntity
  8
DEFPOINTS
 62
     0
440
 16777216
100
AcDbPoint
 10
1796.444349236313
 20
772.9096301794758
 30
0.0
  0
POINT
  5
7F25
330
7DAF
100
AcDbEntity
  8
DEFPOINTS
 62
     0
440
 16777216
100
AcDbPoint
 10
1796.444349236313
 20
706.3347455757557
 30
0.0
  0
ENDBLK
  5
7DBA
330
7DAF
100
AcDbEntity
  8
0
100
AcDbBlockEnd
  0
BLOCK
  5
7DBD
330
7DBC
100
AcDbEntity
  8
0
100
AcDbBlockBegin
  2
*D16
 70
     1
 10
0.0
 20
0.0
 30
0.0
  3
*D16
  1

  0
LINE
  5
7F26
330
7DBC
100
AcDbEntity
  8
3
 62
     0
440
 16777216
370
    -2
100
AcDbLine
 10
388.4443492363138
 20
767.9096301794758
 30
0.0
 11
388.4443492363138
 21
696.3347455757557
 31
0.0
  0
LINE
  5
7F27
330
7DBC
100
AcDbEntity
  8
3
 62
     0
440
 16777216
370
    -2
100
AcDbLine
 10
838.4443492363139
 20
792.9096301794757
 30
0.0
 11
838.4443492363139
 21
696.3347455757557
 31
0.0
  0
LINE
  5
7F28
330
7DBC
100
AcDbEntity
  8
3
 62
     0
440
 16777216
370
    -2
100
AcDbLine
 10
408.4443492363138
 20
706.3347455757557
 30
0.0
 11
818.4443492363138
 21
706.3347455757557
 31
0.0
  0
INSERT
  5
7F29
330
7DBC
100
AcDbEntity
  8
3
 62
     0
440
 16777216
370
    -2
100
AcDbBlockReference
  2
_OPEN
 10
388.4443492363138
 20
706.3347455757557
 30
0.0
 41
20.0
 42
20.0
 43
20.0
 50
180.0
  0
INSERT
  5
7F2A
330
7DBC
100
AcDbEntity
  8
3
 62
     0
440
 16777216
370
    -2
100
AcDbBlockReference
  2
_OPEN
 10
838.4443492363139
 20
706.3347455757557
 30
0.0
 41
20.0
 42
20.0
 43
20.0
  0
MTEXT
  5
7F2B
330
7DBC
100
AcDbEntity
  8
3
 62
     0
440
 16777216
100
AcDbMText
 10
613.4443492363138
 20
731.3347455757557
 30
0.0
 40
30.0
 41
0.0
 46
0.0
 71
     5
 72
     1
  1
\A1;450
 73
     1
 44
1.0
  0
POINT
  5
7F2C
330
7DBC
100
AcDbEntity
  8
DEFPOINTS
 62
     0
440
 16777216
100
AcDbPoint
 10
388.4443492363138
 20
772.9096301794758
 30
0.0
  0
POINT
  5
7F2D
330
7DBC
100
AcDbEntity
  8
DEFPOINTS
 62
     0
440
 16777216
100
AcDbPoint
 10
838.4443492363139
 20
797.9096301794757
 30
0.0
  0
POINT
  5
7F2E
330
7DBC
100
AcDbEntity
  8
DEFPOINTS
 62
     0
440
 16777216
100
AcDbPoint
 10
838.4443492363139
 20
706.3347455757557
 30
0.0
  0
ENDBLK
  5
7DC7
330
7DBC
100
AcDbEntity
  8
0
100
AcDbBlockEnd
  0
BLOCK
  5
7DCA
330
7DC9
100
AcDbEntity
  8
0
100
AcDbBlockBegin
  2
*D17
 70
     1
 10
0.0
 20
0.0
 30
0.0
  3
*D17
  1

  0
LINE
  5
7F2F
330
7DC9
100
AcDbEntity
  8
3
 62
     0
440
 16777216
370
    -2
100
AcDbLine
 10
838.4443492363139
 20
792.9096301794757
 30
0.0
 11
838.4443492363139
 21
696.3347455757557
 31
0.0
  0
LINE
  5
7F30
330
7DC9
100
AcDbEntity
  8
3
 62
     0
440
 16777216
370
    -2
100
AcDbLine
 10
998.4443492363139
 20
767.9096301794758
 30
0.0
 11
998.4443492363139
 21
696.3347455757557
 31
0.0
  0
LINE
  5
7F31
330
7DC9
100
AcDbEntity
  8
3
 62
     0
440
 16777216
370
    -2
100
AcDbLine
 10
858.4443492363138
 20
706.3347455757557
 30
0.0
 11
978.4443492363138
 21
706.3347455757557
 31
0.0
  0
INSERT
  5
7F32
330
7DC9
100
AcDbEntity
  8
3
 62
     0
440
 16777216
370
    -2
100
AcDbBlockReference
  2
_OPEN
 10
838.4443492363139
 20
706.3347455757557
 30
0.0
 41
20.0
 42
20.0
 43
20.0
 50
180.0
  0
INSERT
  5
7F33
330
7DC9
100
AcDbEntity
  8
3
 62
     0
440
 16777216
370
    -2
100
AcDbBlockReference
  2
_OPEN
 10
998.4443492363139
 20
706.3347455757557
 30
0.0
 41
20.0
 42
20.0
 43
20.0
  0
MTEXT
  5
7F34
330
7DC9
100
AcDbEntity
  8
3
 62
     0
440
 16777216
100
AcDbMText
 10
918.4443492363138
 20
731.3347455757557
 30
0.0
 40
30.0
 41
0.0
 46
0.0
 71
     5
 72
     1
  1
\A1;160
 73
     1
 44
1.0
  0
POINT
  5
7F35
330
7DC9
100
AcDbEntity
  8
DEFPOINTS
 62
     0
440
 16777216
100
AcDbPoint
 10
838.4443492363139
 20
797.9096301794757
 30
0.0
  0
POINT
  5
7F36
330
7DC9
100
AcDbEntity
  8
DEFPOINTS
 62
     0
440
 16777216
100
AcDbPoint
 10
998.4443492363139
 20
772.9096301794758
 30
0.0
  0
POINT
  5
7F37
330
7DC9
100
AcDbEntity
  8
DEFPOINTS
 62
     0
440
 16777216
100
AcDbPoint
 10
998.4443492363139
 20
706.3347455757557
 30
0.0
  0
ENDBLK
  5
7DD4
330
7DC9
100
AcDbEntity
  8
0
100
AcDbBlockEnd
  0
BLOCK
  5
7DD7
330
7DD6
100
AcDbEntity
  8
0
100
AcDbBlockBegin
  2
*D18
 70
     1
 10
0.0
 20
0.0
 30
0.0
  3
*D18
  1

  0
LINE
  5
7F38
330
7DD6
100
AcDbEntity
  8
3
 62
     0
440
 16777216
370
    -2
100
AcDbLine
 10
1003.444349236314
 20
822.9096301794758
 30
0.0
 11
1189.648153638842
 21
822.9096301794758
 31
0.0
  0
LINE
  5
7F39
330
7DD6
100
AcDbEntity
  8
3
 62
     0
440
 16777216
370
    -2
100
AcDbLine
 10
1003.444349236314
 20
772.9096301794758
 30
0.0
 11
1189.648153638842
 21
772.9096301794758
 31
0.0
  0
LINE
  5
7F3A
330
7DD6
100
AcDbEntity
  8
3
 62
     0
440
 16777216
370
    -2
100
AcDbLine
 10
1179.648153638842
 20
842.9096301794757
 30
0.0
 11
1179.648153638842
 21
862.9096301794758
 31
0.0
  0
LINE
  5
7F3B
330
7DD6
100
AcDbEntity
  8
3
 62
     0
440
 16777216
370
    -2
100
AcDbLine
 10
1179.648153638842
 20
752.9096301794758
 30
0.0
 11
1179.648153638842
 21
664.3382016080472
 31
0.0
  0
LINE
  5
7F3C
330
7DD6
100
AcDbEntity
  8
3
 62
     0
440
 16777216
370
    -2
100
AcDbLine
 10
1179.648153638842
 20
822.9096301794758
 30
0.0
 11
1179.648153638842
 21
772.9096301794758
 31
0.0
  0
INSERT
  5
7F3D
330
7DD6
100
AcDbEntity
  8
3
 62
     0
440
 16777216
370
    -2
100
AcDbBlockReference
  2
_DOT
 10
1179.648153638842
 20
822.9096301794758
 30
0.0
 41
20.0
 42
20.0
 43
20.0
 50
270.0
  0
INSERT
  5
7F3E
330
7DD6
100
AcDbEntity
  8
3
 62
     0
440
 16777216
370
    -2
100
AcDbBlockReference
  2
_OPEN
 10
1179.648153638842
 20
772.9096301794758
 30
0.0
 41
20.0
 42
20.0
 43
20.0
 50
90.0
  0
MTEXT
  5
7F3F
330
7DD6
100
AcDbEntity
  8
3
 62
     0
440
 16777216
100
AcDbMText
 10
1154.648153638841
 20
698.6239158937616
 30
0.0
 40
30.0
 41
0.0
 46
0.0
 71
     5
 72
     1
  1
\A1;50
 11
0.0000000000000001
 21
1.0
 31
0.0
 73
     1
 44
1.0
  0
POINT
  5
7F40
330
7DD6
100
AcDbEntity
  8
DEFPOINTS
 62
     0
440
 16777216
100
AcDbPoint
 10
998.4443492363139
 20
822.9096301794758
 30
0.0
  0
POINT
  5
7F41
330
7DD6
100
AcDbEntity
  8
DEFPOINTS
 62
     0
440
 16777216
100
AcDbPoint
 10
998.4443492363139
 20
772.9096301794758
 30
0.0
  0
POINT
  5
7F42
330
7DD6
100
AcDbEntity
  8
DEFPOINTS
 62
     0
440
 16777216
100
AcDbPoint
 10
1179.648153638842
 20
772.9096301794758
 30
0.0
  0
ENDBLK
  5
7DE3
330
7DD6
100
AcDbEntity
  8
0
100
AcDbBlockEnd
  0
BLOCK
  5
7DE6
330
7DE5
100
AcDbEntity
  8
0
100
AcDbBlockBegin
  2
*D19
 70
     1
 10
0.0
 20
0.0
 30
0.0
  3
*D19
  1

  0
LINE
  5
7F55
330
7DE5
100
AcDbEntity
  8
3
 62
     0
440
 16777216
370
    -2
100
AcDbLine
 10
1003.444349236314
 20
822.9096301794758
 30
0.0
 11
1189.648153638842
 21
822.9096301794758
 31
0.0
  0
LINE
  5
7F56
330
7DE5
100
AcDbEntity
  8
3
 62
     0
440
 16777216
370
    -2
100
AcDbLine
 10
978.4443492363138
 20
892.9096301794757
 30
0.0
 11
1189.648153638842
 21
892.9096301794757
 31
0.0
  0
LINE
  5
7F57
330
7DE5
100
AcDbEntity
  8
3
 62
     0
440
 16777216
370
    -2
100
AcDbLine
 10
1179.648153638842
 20
842.9096301794757
 30
0.0
 11
1179.648153638842
 21
872.9096301794758
 31
0.0
  0
MTEXT
  5
7F58
330
7DE5
100
AcDbEntity
  8
3
 62
     0
440
 16777216
100
AcDbMText
 10
1221.595392723398
 20
857.9096301794759
 30
0.0
 40
30.0
 41
0.0
 46
0.0
 71
     5
 72
     1
  1
\A1;(70)
 11
0.0000000000000001
 21
1.0
 31
0.0
 73
     1
 44
1.0
  0
INSERT
  5
7F59
330
7DE5
100
AcDbEntity
  8
3
 62
     0
440
 16777216
370
    -2
100
AcDbBlockReference
  2
_DOT
 10
1179.648153638842
 20
822.9096301794758
 30
0.0
 41
20.0
 42
20.0
 43
20.0
 50
270.0
  0
INSERT
  5
7F5A
330
7DE5
100
AcDbEntity
  8
3
 62
     0
440
 16777216
370
    -2
100
AcDbBlockReference
  2
_OPEN
 10
1179.648153638842
 20
892.9096301794757
 30
0.0
 41
20.0
 42
20.0
 43
20.0
 50
90.0
  0
POINT
  5
7F5B
330
7DE5
100
AcDbEntity
  8
DEFPOINTS
 62
     0
440
 16777216
100
AcDbPoint
 10
998.4443492363139
 20
822.9096301794758
 30
0.0
  0
POINT
  5
7F5C
330
7DE5
100
AcDbEntity
  8
DEFPOINTS
 62
     0
440
 16777216
100
AcDbPoint
 10
973.4443492363139
 20
892.9096301794757
 30
0.0
  0
POINT
  5
7F5D
330
7DE5
100
AcDbEntity
  8
DEFPOINTS
 62
     0
440
 16777216
100
AcDbPoint
 10
1179.648153638842
 20
892.9096301794757
 30
0.0
  0
ENDBLK
  5
7DF0
330
7DE5
100
AcDbEntity
  8
0
100
AcDbBlockEnd
  0
BLOCK
  5
7DF3
330
7DF2
100
AcDbEntity
  8
0
100
AcDbBlockBegin
  2
*D20
 70
     1
 10
0.0
 20
0.0
 30
0.0
  3
*D20
  1

  0
LINE
  5
7F4C
330
7DF2
100
AcDbEntity
  8
3
 62
     0
440
 16777216
370
    -2
100
AcDbLine
 10
833.6137049930959
 20
1250.904527870075
 30
0.0
 11
1276.673171944489
 21
1250.904527870075
 31
0.0
  0
LINE
  5
7F4D
330
7DF2
100
AcDbEntity
  8
3
 62
     0
440
 16777216
370
    -2
100
AcDbLine
 10
1003.444349236314
 20
772.9096301794758
 30
0.0
 11
1276.673171944489
 21
772.9096301794758
 31
0.0
  0
LINE
  5
7F4E
330
7DF2
100
AcDbEntity
  8
3
 62
     0
440
 16777216
370
    -2
100
AcDbLine
 10
1266.673171944489
 20
1230.904527870074
 30
0.0
 11
1266.673171944489
 21
792.9096301794758
 31
0.0
  0
INSERT
  5
7F4F
330
7DF2
100
AcDbEntity
  8
3
 62
     0
440
 16777216
370
    -2
100
AcDbBlockReference
  2
_OPEN
 10
1266.673171944489
 20
1250.904527870075
 30
0.0
 41
20.0
 42
20.0
 43
20.0
 50
90.0
  0
INSERT
  5
7F50
330
7DF2
100
AcDbEntity
  8
3
 62
     0
440
 16777216
370
    -2
100
AcDbBlockReference
  2
_OPEN
 10
1266.673171944489
 20
772.9096301794758
 30
0.0
 41
20.0
 42
20.0
 43
20.0
 50
270.0
  0
MTEXT
  5
7F51
330
7DF2
100
AcDbEntity
  8
3
 62
     0
440
 16777216
100
AcDbMText
 10
1233.816029087346
 20
1011.907079024775
 30
0.0
 40
30.0
 41
0.0
 46
0.0
 71
     5
 72
     1
  1
\A1;(478)
 11
0.0000000000000001
 21
1.0
 31
0.0
 73
     1
 44
1.0
  0
POINT
  5
7F52
330
7DF2
100
AcDbEntity
  8
DEFPOINTS
 62
     0
440
 16777216
100
AcDbPoint
 10
828.613704993096
 20
1250.904527870075
 30
0.0
  0
POINT
  5
7F53
330
7DF2
100
AcDbEntity
  8
DEFPOINTS
 62
     0
440
 16777216
100
AcDbPoint
 10
998.4443492363139
 20
772.9096301794758
 30
0.0
  0
POINT
  5
7F54
330
7DF2
100
AcDbEntity
  8
DEFPOINTS
 62
     0
440
 16777216
100
AcDbPoint
 10
1266.673171944489
 20
772.9096301794758
 30
0.0
  0
ENDBLK
  5
7DFD
330
7DF2
100
AcDbEntity
  8
0
100
AcDbBlockEnd
  0
ENDSEC
  0
SECTION
  2
ENTITIES
  0
CIRCLE
  5
7A9E
330
19
100
AcDbEntity
  8
1
  6
Continuous
100
AcDbCircle
 10
838.4443492363139
 20
1127.909630179475
 30
0.0
 40
80.0
  0
LINE
  5
7A9F
330
19
100
AcDbEntity
  8
1
  6
Continuous
100
AcDbLine
 10
1366.444349236314
 20
797.9096301794758
 30
0.0
 11
1796.444349236313
 21
797.9096301794758
 31
0.0
  0
LINE
  5
7AA0
330
19
100
AcDbEntity
  8
1
  6
Continuous
100
AcDbLine
 10
1674.444349236314
 20
822.9096301794758
 30
0.0
 11
1674.444349236314
 21
797.9096301794758
 31
0.0
  0
LINE
  5
7AA1
330
19
100
AcDbEntity
  8
1
  6
Continuous
100
AcDbLine
 10
1450.444349236314
 20
822.9096301794758
 30
0.0
 11
1450.444349236314
 21
797.9096301794758
 31
0.0
  0
LINE
  5
7AA2
330
19
100
AcDbEntity
  8
1
  6
Continuous
100
AcDbLine
 10
1450.444349236314
 20
822.9096301794758
 30
0.0
 11
1674.444349236314
 21
822.9096301794758
 31
0.0
  0
LINE
  5
7AA3
330
19
100
AcDbEntity
  8
1
  6
Continuous
100
AcDbLine
 10
998.4443492363139
 20
772.9096301794758
 30
0.0
 11
998.4443492363139
 21
822.9096301794758
 31
0.0
  0
LINE
  5
7AA4
330
19
100
AcDbEntity
  8
1
  6
Continuous
100
AcDbLine
 10
388.4443492363138
 20
822.9096301794758
 30
0.0
 11
388.4443492363138
 21
772.9096301794758
 31
0.0
  0
LINE
  5
7AA5
330
19
100
AcDbEntity
  8
1
  6
Continuous
100
AcDbLine
 10
388.4443492363138
 20
797.9096301794758
 30
0.0
 11
998.4443492363139
 21
797.9096301794758
 31
0.0
  0
LINE
  5
7AA6
330
19
100
AcDbEntity
  8
1
  6
Continuous
100
AcDbLine
 10
388.4443492363138
 20
822.9096301794758
 30
0.0
 11
998.4443492363139
 21
822.9096301794758
 31
0.0
  0
LINE
  5
7AA7
330
19
100
AcDbEntity
  8
1
  6
Continuous
100
AcDbLine
 10
413.4443492363137
 20
1703.810230543622
 30
0.0
 11
388.4443492363138
 21
1703.810230543622
 31
0.0
  0
LINE
  5
7AA8
330
19
100
AcDbEntity
  8
1
  6
Continuous
100
AcDbLine
 10
388.4443492363138
 20
2133.810230543622
 30
0.0
 11
388.4443492363138
 21
1703.810230543622
 31
0.0
  0
LINE
  5
7AA9
330
19
100
AcDbEntity
  8
1
  6
Continuous
100
AcDbLine
 10
413.4443492363137
 20
2133.810230543622
 30
0.0
 11
388.4443492363138
 21
2133.810230543622
 31
0.0
  0
LINE
  5
7AAA
330
19
100
AcDbEntity
  8
1
  6
Continuous
100
AcDbLine
 10
413.4443492363137
 20
2133.810230543622
 30
0.0
 11
413.4443492363137
 21
1703.810230543622
 31
0.0
  0
LINE
  5
7AAB
330
19
100
AcDbEntity
  8
1
  6
Continuous
100
AcDbLine
 10
973.4443492363139
 20
2133.810230543622
 30
0.0
 11
998.4443492363139
 21
2133.810230543622
 31
0.0
  0
LINE
  5
7AAC
330
19
100
AcDbEntity
  8
1
  6
Continuous
100
AcDbLine
 10
973.4443492363139
 20
2133.810230543622
 30
0.0
 11
973.4443492363139
 21
1703.810230543622
 31
0.0
  0
LINE
  5
7AAD
330
19
100
AcDbEntity
  8
1
  6
Continuous
100
AcDbLine
 10
973.4443492363139
 20
1703.810230543622
 30
0.0
 11
998.4443492363139
 21
1703.810230543622
 31
0.0
  0
LINE
  5
7AAE
330
19
100
AcDbEntity
  8
1
  6
Continuous
100
AcDbLine
 10
998.4443492363139
 20
2133.810230543622
 30
0.0
 11
998.4443492363139
 21
1703.810230543622
 31
0.0
  0
LINE
  5
7AAF
330
19
100
AcDbEntity
  8
1
  6
Continuous
100
AcDbLine
 10
1366.444349236314
 20
797.9096301794758
 30
0.0
 11
1366.444349236314
 21
772.9096301794758
 31
0.0
  0
LINE
  5
7AB0
330
19
100
AcDbEntity
  8
1
  6
Continuous
100
AcDbLine
 10
1796.444349236313
 20
797.9096301794758
 30
0.0
 11
1796.444349236313
 21
772.9096301794758
 31
0.0
  0
LINE
  5
7AB1
330
19
100
AcDbEntity
  8
1
  6
Continuous
100
AcDbLine
 10
1366.444349236314
 20
772.9096301794758
 30
0.0
 11
1796.444349236313
 21
772.9096301794758
 31
0.0
  0
LINE
  5
7AB2
330
19
100
AcDbEntity
  8
1
  6
Continuous
100
AcDbLine
 10
413.4443492363137
 20
797.9096301794758
 30
0.0
 11
413.4443492363137
 21
772.9096301794758
 31
0.0
  0
LINE
  5
7AB3
330
19
100
AcDbEntity
  8
1
  6
Continuous
100
AcDbLine
 10
388.4443492363138
 20
772.9096301794758
 30
0.0
 11
413.4443492363137
 21
772.9096301794758
 31
0.0
  0
LINE
  5
7AB4
330
19
100
AcDbEntity
  8
1
  6
Continuous
100
AcDbLine
 10
998.4443492363139
 20
772.9096301794758
 30
0.0
 11
973.4443492363139
 21
772.9096301794758
 31
0.0
  0
LINE
  5
7AB5
330
19
100
AcDbEntity
  8
1
  6
Continuous
100
AcDbLine
 10
973.4443492363139
 20
797.9096301794758
 30
0.0
 11
973.4443492363139
 21
772.9096301794758
 31
0.0
  0
LINE
  5
7AB6
330
19
100
AcDbEntity
  8
1
  6
Continuous
100
AcDbLine
 10
953.4443492363138
 20
967.9096301794757
 30
0.0
 11
968.4443492363138
 21
967.9096301794757
 31
0.0
  0
LINE
  5
7AB7
330
19
100
AcDbEntity
  8
1
  6
Continuous
100
AcDbLine
 10
968.4443492363138
 20
1127.909630179475
 30
0.0
 11
953.4443492363138
 21
1127.909630179475
 31
0.0
  0
LINE
  5
7AB8
330
19
100
AcDbEntity
  8
1
  6
Continuous
100
AcDbLine
 10
953.4443492363138
 20
956.9096301794758
 30
0.0
 11
953.4443492363138
 21
967.9096301794757
 31
0.0
  0
LINE
  5
7AB9
330
19
100
AcDbEntity
  8
1
  6
Continuous
100
AcDbLine
 10
953.4443492363138
 20
1127.909630179475
 30
0.0
 11
953.4443492363138
 21
1137.909630179475
 31
0.0
  0
LINE
  5
7ABA
330
19
100
AcDbEntity
  8
1
  6
Continuous
100
AcDbLine
 10
1574.844349236314
 20
1170.009630179476
 30
0.0
 11
1475.444349236314
 21
1094.609630179475
 31
0.0
  0
LINE
  5
7ABB
330
19
100
AcDbEntity
  8
1
  6
Continuous
100
AcDbLine
 10
1475.444349236314
 20
1094.609630179475
 30
0.0
 11
1475.444349236314
 21
942.9096301794757
 31
0.0
  0
LINE
  5
7ABC
330
19
100
AcDbEntity
  8
1
  6
Continuous
100
AcDbLine
 10
1450.444349236314
 20
942.9096301794757
 30
0.0
 11
1450.444349236314
 21
892.9096301794757
 31
0.0
  0
LINE
  5
7ABD
330
19
100
AcDbEntity
  8
1
  6
Continuous
100
AcDbLine
 10
1378.444349236314
 20
942.9096301794757
 30
0.0
 11
1674.444349236314
 21
942.9096301794757
 31
0.0
  0
LINE
  5
7ABE
330
19
100
AcDbEntity
  8
1
  6
Continuous
100
AcDbLine
 10
1450.444349236314
 20
892.9096301794757
 30
0.0
 11
1674.444349236314
 21
892.9096301794757
 31
0.0
  0
LINE
  5
7ABF
330
19
100
AcDbEntity
  8
1
  6
Continuous
100
AcDbLine
 10
1674.444349236314
 20
942.9096301794757
 30
0.0
 11
1674.444349236314
 21
892.9096301794757
 31
0.0
  0
LINE
  5
7AC0
330
19
100
AcDbEntity
  8
1
  6
Continuous
100
AcDbLine
 10
1694.444349236314
 20
967.9096301794757
 30
0.0
 11
1582.444349236314
 21
1127.909630179475
 31
0.0
  0
LINE
  5
7AC1
330
19
100
AcDbEntity
  8
1
  6
Continuous
100
AcDbLine
 10
1694.444349236314
 20
1127.909630179475
 30
0.0
 11
1582.444349236314
 21
967.9096301794757
 31
0.0
  0
ARC
  5
7AC2
330
19
100
AcDbEntity
  8
1
  6
Continuous
100
AcDbCircle
 10
1594.444349236314
 20
1238.909630179475
 30
0.0
 40
12.0
100
AcDbArc
 50
90.0
 51
180.0
  0
ARC
  5
7AC3
330
19
100
AcDbEntity
  8
1
  6
Continuous
100
AcDbCircle
 10
1682.444349236314
 20
1238.909630179475
 30
0.0
 40
12.0
100
AcDbArc
 50
0.0
 51
90.0
  0
LINE
  5
7AC4
330
19
100
AcDbEntity
  8
1
  6
Continuous
100
AcDbLine
 10
1582.444349236314
 20
967.9096301794757
 30
0.0
 11
1582.444349236314
 21
1238.909630179475
 31
0.0
  0
LINE
  5
7AC5
330
19
100
AcDbEntity
  8
1
  6
Continuous
100
AcDbLine
 10
1694.444349236314
 20
967.9096301794757
 30
0.0
 11
1582.444349236314
 21
967.9096301794757
 31
0.0
  0
LINE
  5
7AC6
330
19
100
AcDbEntity
  8
1
  6
Continuous
100
AcDbLine
 10
1694.444349236314
 20
1238.909630179475
 30
0.0
 11
1694.444349236314
 21
967.9096301794757
 31
0.0
  0
LINE
  5
7AC7
330
19
100
AcDbEntity
  8
1
  6
Continuous
100
AcDbLine
 10
1582.444349236314
 20
1127.909630179475
 30
0.0
 11
1694.444349236314
 21
1127.909630179475
 31
0.0
  0
LINE
  5
7AC8
330
19
100
AcDbEntity
  8
1
  6
Continuous
100
AcDbLine
 10
1574.844349236314
 20
1027.909630179475
 30
0.0
 11
1582.844349236314
 21
1027.909630179475
 31
0.0
  0
LINE
  5
7AC9
330
19
100
AcDbEntity
  8
1
  6
Continuous
100
AcDbLine
 10
1574.844349236314
 20
1227.909630179476
 30
0.0
 11
1574.844349236314
 21
942.9096301794757
 31
0.0
  0
LINE
  5
7ACA
330
19
100
AcDbEntity
  8
1
  6
Continuous
100
AcDbLine
 10
1574.844349236314
 20
1227.909630179476
 30
0.0
 11
1582.844349236314
 21
1227.909630179476
 31
0.0
  0
LINE
  5
7ACB
330
19
100
AcDbEntity
  8
1
  6
Continuous
100
AcDbLine
 10
1702.444349236314
 20
1227.909630179476
 30
0.0
 11
1694.044349236313
 21
1227.909630179476
 31
0.0
  0
LINE
  5
7ACC
330
19
100
AcDbEntity
  8
1
  6
Continuous
100
AcDbLine
 10
1702.444349236314
 20
1027.909630179475
 30
0.0
 11
1694.044349236313
 21
1027.909630179475
 31
0.0
  0
LINE
  5
7ACD
330
19
100
AcDbEntity
  8
1
  6
Continuous
100
AcDbLine
 10
1594.444349236314
 20
1250.909630179475
 30
0.0
 11
1682.444349236314
 21
1250.909630179475
 31
0.0
  0
LINE
  5
7ACE
330
19
100
AcDbEntity
  8
1
  6
Continuous
100
AcDbLine
 10
1453.444349236314
 20
1222.909630179475
 30
0.0
 11
1378.444349236314
 21
1222.909630179475
 31
0.0
  0
LINE
  5
7ACF
330
19
100
AcDbEntity
  8
1
  6
Continuous
100
AcDbLine
 10
1378.444349236314
 20
942.9096301794757
 30
0.0
 11
1378.444349236314
 21
1222.909630179475
 31
0.0
  0
LINE
  5
7AD0
330
19
100
AcDbEntity
  8
1
  6
Continuous
100
AcDbLine
 10
1453.444349236314
 20
942.9096301794757
 30
0.0
 11
1453.444349236314
 21
1222.909630179475
 31
0.0
  0
LINE
  5
7AD1
330
19
100
AcDbEntity
  8
1
  6
Continuous
100
AcDbLine
 10
1433.444349236314
 20
1033.409630179475
 30
0.0
 11
1475.444349236314
 21
1033.409630179475
 31
0.0
  0
LINE
  5
7AD2
330
19
100
AcDbEntity
  8
1
  6
Continuous
100
AcDbLine
 10
1433.444349236314
 20
1052.409630179475
 30
0.0
 11
1475.444349236314
 21
1052.409630179475
 31
0.0
  0
LINE
  5
7AD3
330
19
100
AcDbEntity
  8
1
  6
Continuous
100
AcDbLine
 10
1433.444349236314
 20
1007.909630179476
 30
0.0
 11
1433.444349236314
 21
1077.909630179475
 31
0.0
  0
LINE
  5
7AD4
330
19
100
AcDbEntity
  8
1
  6
Continuous
100
AcDbLine
 10
1398.444349236314
 20
1007.909630179476
 30
0.0
 11
1398.444349236314
 21
1077.909630179475
 31
0.0
  0
LINE
  5
7AD5
330
19
100
AcDbEntity
  8
1
  6
Continuous
100
AcDbLine
 10
1433.444349236314
 20
1007.909630179476
 30
0.0
 11
1398.444349236314
 21
1007.909630179476
 31
0.0
  0
LINE
  5
7AD6
330
19
100
AcDbEntity
  8
1
  6
Continuous
100
AcDbLine
 10
1433.444349236314
 20
1077.909630179475
 30
0.0
 11
1398.444349236314
 21
1077.909630179475
 31
0.0
  0
LINE
  5
7AD7
330
19
100
AcDbEntity
  8
1
  6
Continuous
100
AcDbLine
 10
1433.444349236314
 20
1172.909630179475
 30
0.0
 11
1398.444349236314
 21
1172.909630179475
 31
0.0
  0
LINE
  5
7AD8
330
19
100
AcDbEntity
  8
1
  6
Continuous
100
AcDbLine
 10
1433.444349236314
 20
1082.909630179476
 30
0.0
 11
1398.444349236314
 21
1082.909630179476
 31
0.0
  0
LINE
  5
7AD9
330
19
100
AcDbEntity
  8
1
  6
Continuous
100
AcDbLine
 10
1398.444349236314
 20
1082.909630179476
 30
0.0
 11
1398.444349236314
 21
1172.909630179475
 31
0.0
  0
LINE
  5
7ADA
330
19
100
AcDbEntity
  8
1
  6
Continuous
100
AcDbLine
 10
1433.444349236314
 20
1082.909630179476
 30
0.0
 11
1433.444349236314
 21
1172.909630179475
 31
0.0
  0
LINE
  5
7ADB
330
19
100
AcDbEntity
  8
1
  6
Continuous
100
AcDbLine
 10
1535.144349236314
 20
1139.909630179475
 30
0.0
 11
1433.444349236314
 21
1139.909630179475
 31
0.0
  0
LINE
  5
7ADC
330
19
100
AcDbEntity
  8
1
  6
Continuous
100
AcDbLine
 10
1503.544349236314
 20
1115.909630179475
 30
0.0
 11
1433.444349236314
 21
1115.909630179475
 31
0.0
  0
LINE
  5
7ADD
330
19
100
AcDbEntity
  8
1
  6
Continuous
100
AcDbLine
 10
1702.444349236314
 20
1027.909630179475
 30
0.0
 11
1702.444349236314
 21
1227.909630179476
 31
0.0
  0
LINE
  5
7ADE
330
19
100
AcDbEntity
  8
1
  6
Continuous
100
AcDbLine
 10
562.4443492363138
 20
1788.310230543622
 30
0.0
 11
826.4443492363138
 21
1788.310230543622
 31
0.0
  0
LINE
  5
7ADF
330
19
100
AcDbEntity
  8
1
  6
Continuous
100
AcDbLine
 10
693.4443492363137
 20
2012.310230543622
 30
0.0
 11
388.4443492363138
 21
2012.310230543622
 31
0.0
  0
LINE
  5
7AE0
330
19
100
AcDbEntity
  8
1
  6
Continuous
100
AcDbLine
 10
517.9443492363137
 20
1772.210230543622
 30
0.0
 11
517.9443492363137
 21
1737.210230543622
 31
0.0
  0
LINE
  5
7AE1
330
19
100
AcDbEntity
  8
1
  6
Continuous
100
AcDbLine
 10
587.9443492363138
 20
1772.210230543622
 30
0.0
 11
587.9443492363138
 21
1737.210230543622
 31
0.0
  0
LINE
  5
7AE2
330
19
100
AcDbEntity
  8
1
  6
Continuous
100
AcDbLine
 10
587.9443492363138
 20
1737.210230543622
 30
0.0
 11
517.9443492363137
 21
1737.210230543622
 31
0.0
  0
LINE
  5
7AE3
330
19
100
AcDbEntity
  8
1
  6
Continuous
100
AcDbLine
 10
587.9443492363138
 20
1772.210230543622
 30
0.0
 11
517.9443492363137
 21
1772.210230543622
 31
0.0
  0
LINE
  5
7AE4
330
19
100
AcDbEntity
  8
1
  6
Continuous
100
AcDbLine
 10
850.4443492363138
 20
1788.310230543622
 30
0.0
 11
998.4443492363139
 21
1788.310230543622
 31
0.0
  0
LINE
  5
7AE5
330
19
100
AcDbEntity
  8
1
  6
Continuous
100
AcDbLine
 10
935.7443492363138
 20
1716.310230543622
 30
0.0
 11
935.7443492363138
 21
1791.310230543622
 31
0.0
  0
LINE
  5
7AE6
330
19
100
AcDbEntity
  8
1
  6
Continuous
100
AcDbLine
 10
455.7443492363137
 20
1791.310230543622
 30
0.0
 11
455.7443492363137
 21
1716.310230543622
 31
0.0
  0
LINE
  5
7AE7
330
19
100
AcDbEntity
  8
1
  6
Continuous
100
AcDbLine
 10
850.4443492363138
 20
1912.710230543622
 30
0.0
 11
850.4443492363138
 21
1772.210230543622
 31
0.0
  0
LINE
  5
7AE8
330
19
100
AcDbEntity
  8
1
  6
Continuous
100
AcDbLine
 10
826.4443492363138
 20
1912.710230543622
 30
0.0
 11
826.4443492363138
 21
1772.210230543622
 31
0.0
  0
LINE
  5
7AE9
330
19
100
AcDbEntity
  8
1
  6
Continuous
100
AcDbLine
 10
883.4443492363138
 20
1772.210230543622
 30
0.0
 11
793.4443492363138
 21
1772.210230543622
 31
0.0
  0
LINE
  5
7AEA
330
19
100
AcDbEntity
  8
1
  6
Continuous
100
AcDbLine
 10
883.4443492363138
 20
1737.210230543622
 30
0.0
 11
793.4443492363138
 21
1737.210230543622
 31
0.0
  0
LINE
  5
7AEB
330
19
100
AcDbEntity
  8
1
  6
Continuous
100
AcDbLine
 10
883.4443492363138
 20
1772.210230543622
 30
0.0
 11
883.4443492363138
 21
1737.210230543622
 31
0.0
  0
LINE
  5
7AEC
330
19
100
AcDbEntity
  8
1
  6
Continuous
100
AcDbLine
 10
793.4443492363138
 20
1772.210230543622
 30
0.0
 11
793.4443492363138
 21
1737.210230543622
 31
0.0
  0
LINE
  5
7AED
330
19
100
AcDbEntity
  8
1
  6
Continuous
100
AcDbLine
 10
935.7443492363138
 20
1791.310230543622
 30
0.0
 11
455.7443492363137
 21
1791.310230543622
 31
0.0
  0
LINE
  5
7AEE
330
19
100
AcDbEntity
  8
1
  6
Continuous
100
AcDbLine
 10
935.7443492363138
 20
1716.310230543622
 30
0.0
 11
455.7443492363137
 21
1716.310230543622
 31
0.0
  0
LINE
  5
7AEF
330
19
100
AcDbEntity
  8
1
  6
Continuous
100
AcDbLine
 10
637.9443492363138
 20
1802.010230543622
 30
0.0
 11
637.9443492363138
 21
1992.810230543622
 31
0.0
  0
LINE
  5
7AF0
330
19
100
AcDbEntity
  8
1
  6
Continuous
100
AcDbLine
 10
637.9443492363138
 20
1992.810230543622
 30
0.0
 11
467.9443492363137
 21
1992.810230543622
 31
0.0
  0
LINE
  5
7AF1
330
19
100
AcDbEntity
  8
1
  6
Continuous
100
AcDbLine
 10
637.9443492363138
 20
1802.010230543622
 30
0.0
 11
467.9443492363137
 21
1802.010230543622
 31
0.0
  0
LINE
  5
7AF2
330
19
100
AcDbEntity
  8
1
  6
Continuous
100
AcDbLine
 10
543.4443492363137
 20
1772.210230543622
 30
0.0
 11
543.4443492363137
 21
1802.010230543622
 31
0.0
  0
LINE
  5
7AF3
330
19
100
AcDbEntity
  8
1
  6
Continuous
100
AcDbLine
 10
562.4443492363138
 20
1772.210230543622
 30
0.0
 11
562.4443492363138
 21
1802.010230543622
 31
0.0
  0
LINE
  5
7AF4
330
19
100
AcDbEntity
  8
1
  6
Continuous
100
AcDbLine
 10
467.9443492363137
 20
1802.010230543622
 30
0.0
 11
467.9443492363137
 21
1992.810230543622
 31
0.0
  0
LINE
  5
7AF5
330
19
100
AcDbEntity
  8
1
  6
Continuous
100
AcDbLine
 10
948.4443492363139
 20
1788.310230543622
 30
0.0
 11
948.4443492363139
 21
1912.710230543622
 31
0.0
  0
LINE
  5
7AF6
330
19
100
AcDbEntity
  8
1
  6
Continuous
100
AcDbLine
 10
728.4443492363138
 20
1912.710230543622
 30
0.0
 11
728.4443492363138
 21
1788.310230543622
 31
0.0
  0
LINE
  5
7AF7
330
19
100
AcDbEntity
  8
1
  6
Continuous
100
AcDbLine
 10
998.4443492363139
 20
2012.310230543622
 30
0.0
 11
968.4443492363138
 21
2012.310230543622
 31
0.0
  0
LINE
  5
7AF8
330
19
100
AcDbEntity
  8
1
  6
Continuous
100
AcDbLine
 10
388.4443492363138
 20
1788.310230543622
 30
0.0
 11
543.4443492363137
 21
1788.310230543622
 31
0.0
  0
LINE
  5
7AF9
330
19
100
AcDbEntity
  8
1
  6
Continuous
100
AcDbLine
 10
938.4443492363139
 20
2040.310230543623
 30
0.0
 11
938.4443492363139
 21
2032.310230543622
 31
0.0
  0
LINE
  5
7AFA
330
19
100
AcDbEntity
  8
1
  6
Continuous
100
AcDbLine
 10
738.4443492363137
 20
2040.310230543623
 30
0.0
 11
738.4443492363137
 21
2032.310230543622
 31
0.0
  0
LINE
  5
7AFB
330
19
100
AcDbEntity
  8
1
  6
Continuous
100
AcDbLine
 10
738.4443492363137
 20
1912.710230543622
 30
0.0
 11
738.4443492363137
 21
1920.310230543622
 31
0.0
  0
LINE
  5
7AFC
330
19
100
AcDbEntity
  8
1
  6
Continuous
100
AcDbLine
 10
948.4443492363139
 20
1912.710230543622
 30
0.0
 11
728.4443492363138
 21
1912.710230543622
 31
0.0
  0
LINE
  5
7AFD
330
19
100
AcDbEntity
  8
1
  6
Continuous
100
AcDbLine
 10
701.4443492363137
 20
2032.310230543622
 30
0.0
 11
968.4443492363138
 21
2032.310230543622
 31
0.0
  0
LINE
  5
7AFE
330
19
100
AcDbEntity
  8
1
  6
Continuous
100
AcDbLine
 10
938.4443492363139
 20
1912.710230543622
 30
0.0
 11
938.4443492363139
 21
1920.310230543622
 31
0.0
  0
LINE
  5
7AFF
330
19
100
AcDbEntity
  8
1
  6
Continuous
100
AcDbLine
 10
968.4443492363138
 20
2053.310230543623
 30
0.0
 11
968.4443492363138
 21
1899.310230543622
 31
0.0
  0
LINE
  5
7B00
330
19
100
AcDbEntity
  8
1
  6
Continuous
100
AcDbLine
 10
701.4443492363137
 20
1920.310230543622
 30
0.0
 11
968.4443492363138
 21
1920.310230543622
 31
0.0
  0
ARC
  5
7B01
330
19
100
AcDbEntity
  8
1
  6
Continuous
100
AcDbCircle
 10
701.4443492363137
 20
1928.310230543622
 30
0.0
 40
8.0
100
AcDbArc
 50
180.0
 51
270.0
  0
ARC
  5
7B02
330
19
100
AcDbEntity
  8
1
  6
Continuous
100
AcDbCircle
 10
701.4443492363137
 20
2024.310230543623
 30
0.0
 40
8.0
100
AcDbArc
 50
90.0
 51
180.0
  0
LINE
  5
7B03
330
19
100
AcDbEntity
  8
1
  6
Continuous
100
AcDbLine
 10
953.4443492363138
 20
2018.310230543622
 30
0.0
 11
953.4443492363138
 21
1934.310230543622
 31
0.0
  0
LINE
  5
7B04
330
19
100
AcDbEntity
  8
1
  6
Continuous
100
AcDbLine
 10
693.4443492363137
 20
2024.310230543623
 30
0.0
 11
693.4443492363137
 21
1928.310230543622
 31
0.0
  0
LINE
  5
7B05
330
19
100
AcDbEntity
  8
1
  6
Continuous
100
AcDbLine
 10
968.4443492363138
 20
2033.310230543623
 30
0.0
 11
953.4443492363138
 21
2018.310230543622
 31
0.0
  0
LINE
  5
7B06
330
19
100
AcDbEntity
  8
1
  6
Continuous
100
AcDbLine
 10
968.4443492363138
 20
1919.310230543622
 30
0.0
 11
953.4443492363138
 21
1934.310230543622
 31
0.0
  0
LINE
  5
7B07
330
19
100
AcDbEntity
  8
1
  6
Continuous
100
AcDbLine
 10
938.4443492363139
 20
2040.310230543623
 30
0.0
 11
738.4443492363137
 21
2040.310230543623
 31
0.0
  0
CIRCLE
  5
7B08
330
19
100
AcDbEntity
  8
1
  6
Continuous
100
AcDbCircle
 10
838.4443492363139
 20
1127.909630179475
 30
0.0
 40
100.0
  0
CIRCLE
  5
7B09
330
19
100
AcDbEntity
  8
1
  6
Continuous
100
AcDbCircle
 10
838.4443492363139
 20
1127.909630179475
 30
0.0
 40
45.0
  0
LINE
  5
7B0A
330
19
100
AcDbEntity
  8
2
  6
CENTER
100
AcDbLine
 10
838.4443492363139
 20
797.9096301794757
 30
0.0
 11
838.4443492363139
 21
1305.120684179475
 31
0.0
  0
LINE
  5
7B0B
330
19
100
AcDbEntity
  8
2
  6
CENTER
100
AcDbLine
 10
425.0292952363138
 20
1127.909630179475
 30
0.0
 11
1029.386745236314
 21
1127.909630179475
 31
0.0
  0
LINE
  5
7B0C
330
19
100
AcDbEntity
  8
2
  6
CENTER
100
AcDbLine
 10
517.9443492363137
 20
1042.909630179476
 30
0.0
 11
587.9443492363138
 21
1042.909630179476
 31
0.0
  0
LINE
  5
7B0D
330
19
100
AcDbEntity
  8
2
  6
CENTER
100
AcDbLine
 10
552.9443492363137
 20
1007.909630179476
 30
0.0
 11
552.9443492363137
 21
1077.909630179475
 31
0.0
  0
CIRCLE
  5
7B0E
330
19
100
AcDbEntity
  8
1
  6
Continuous
100
AcDbCircle
 10
552.9443492363137
 20
1042.909630179476
 30
0.0
 40
35.0
  0
LINE
  5
7B0F
330
19
100
AcDbEntity
  8
1
  6
Continuous
100
AcDbLine
 10
541.8443492363137
 20
1076.109630179476
 30
0.0
 11
824.1443492363139
 21
1170.609630179475
 31
0.0
  0
LINE
  5
7B10
330
19
100
AcDbEntity
  8
1
  6
Continuous
100
AcDbLine
 10
561.8443492363137
 20
1009.009630179475
 30
0.0
 11
849.8443492363138
 21
1084.409630179475
 31
0.0
  0
LINE
  5
7B11
330
19
100
AcDbEntity
  8
1
  6
Continuous
100
AcDbLine
 10
953.4443492363138
 20
1137.909630179475
 30
0.0
 11
943.4443492363138
 21
1137.909630179475
 31
0.0
  0
LINE
  5
7B12
330
19
100
AcDbEntity
  8
1
  6
Continuous
100
AcDbLine
 10
968.4443492363138
 20
945.9096301794758
 30
0.0
 11
968.4443492363138
 21
1149.909630179476
 31
0.0
  0
LINE
  5
7B13
330
19
100
AcDbEntity
  8
1
  6
Continuous
100
AcDbLine
 10
953.4443492363138
 20
956.9096301794758
 30
0.0
 11
851.4443492363138
 21
956.9096301794758
 31
0.0
  0
ARC
  5
7B14
330
19
100
AcDbEntity
  8
1
  6
Continuous
100
AcDbCircle
 10
851.4443492363138
 20
1114.909630179475
 30
0.0
 40
158.0
100
AcDbArc
 50
170.9
 51
270.0
  0
ARC
  5
7B15
330
19
100
AcDbEntity
  8
1
  6
Continuous
100
AcDbCircle
 10
829.4443492363139
 20
1136.909630179475
 30
0.0
 40
114.0
100
AcDbArc
 50
0.5
 51
90.5
  0
ARC
  5
7B16
330
19
100
AcDbEntity
  8
1
  6
Continuous
100
AcDbCircle
 10
827.4443492363138
 20
1116.909630179476
 30
0.0
 40
134.0
100
AcDbArc
 50
89.50000000000001
 51
170.1
  0
LINE
  5
7B17
330
19
100
AcDbEntity
  8
1
  6
Continuous
100
AcDbLine
 10
968.4443492363138
 20
966.9096301794757
 30
0.0
 11
953.4443492363138
 21
981.9096301794758
 31
0.0
  0
LINE
  5
7B18
330
19
100
AcDbEntity
  8
1
  6
Continuous
100
AcDbLine
 10
953.4443492363138
 20
981.9096301794758
 30
0.0
 11
953.4443492363138
 21
1113.909630179475
 31
0.0
  0
LINE
  5
7B19
330
19
100
AcDbEntity
  8
1
  6
Continuous
100
AcDbLine
 10
968.4443492363138
 20
1128.909630179475
 30
0.0
 11
953.4443492363138
 21
1113.909630179475
 31
0.0
  0
LINE
  5
7B1A
330
19
100
AcDbEntity
  8
1
  6
Continuous
100
AcDbLine
 10
948.4443492363139
 20
942.9096301794757
 30
0.0
 11
948.4443492363139
 21
1170.009630179476
 31
0.0
  0
LINE
  5
7B1B
330
19
100
AcDbEntity
  8
1
  6
Continuous
100
AcDbLine
 10
875.0443492363139
 20
1232.909630179476
 30
0.0
 11
801.8443492363138
 21
1232.909630179476
 31
0.0
  0
LINE
  5
7B1C
330
19
100
AcDbEntity
  8
1
  6
Continuous
100
AcDbLine
 10
728.4443492363138
 20
1170.009630179476
 30
0.0
 11
728.4443492363138
 21
942.9096301794757
 31
0.0
  0
LINE
  5
7B1D
330
19
100
AcDbEntity
  8
1
  6
Continuous
100
AcDbLine
 10
728.4443492363138
 20
1094.609630179475
 30
0.0
 11
948.4443492363139
 21
1094.609630179475
 31
0.0
  0
LINE
  5
7B1E
330
19
100
AcDbEntity
  8
1
  6
Continuous
100
AcDbLine
 10
948.4443492363139
 20
1170.009630179476
 30
0.0
 11
875.0443492363139
 21
1232.909630179476
 31
0.0
  0
LINE
  5
7B1F
330
19
100
AcDbEntity
  8
1
  6
Continuous
100
AcDbLine
 10
728.4443492363138
 20
1170.009630179476
 30
0.0
 11
801.8443492363138
 21
1232.909630179476
 31
0.0
  0
LINE
  5
7B20
330
19
100
AcDbEntity
  8
1
  6
Continuous
100
AcDbLine
 10
455.7443492363137
 20
1222.909630179475
 30
0.0
 11
455.7443492363137
 21
942.9096301794757
 31
0.0
  0
LINE
  5
7B21
330
19
100
AcDbEntity
  8
1
  6
Continuous
100
AcDbLine
 10
935.7443492363138
 20
1222.909630179475
 30
0.0
 11
455.7443492363137
 21
1222.909630179475
 31
0.0
  0
LINE
  5
7B22
330
19
100
AcDbEntity
  8
1
  6
Continuous
100
AcDbLine
 10
413.4443492363137
 20
942.9096301794757
 30
0.0
 11
973.4443492363139
 21
942.9096301794757
 31
0.0
  0
LINE
  5
7B23
330
19
100
AcDbEntity
  8
1
  6
Continuous
100
AcDbLine
 10
413.4443492363137
 20
892.9096301794757
 30
0.0
 11
973.4443492363139
 21
892.9096301794757
 31
0.0
  0
LINE
  5
7B24
330
19
100
AcDbEntity
  8
1
  6
Continuous
100
AcDbLine
 10
413.4443492363137
 20
962.9096301794758
 30
0.0
 11
413.4443492363137
 21
892.9096301794757
 31
0.0
  0
ARC
  5
7B25
330
19
100
AcDbEntity
  8
1
  6
Continuous
100
AcDbCircle
 10
552.9443492363137
 20
1042.909630179476
 30
0.0
 40
85.0
100
AcDbArc
 50
324.7
 51
215.3
  0
LINE
  5
7B26
330
19
100
AcDbEntity
  8
1
  6
Continuous
100
AcDbLine
 10
475.4443492363138
 20
970.9096301794758
 30
0.0
 11
483.6443492363137
 21
993.7096301794758
 31
0.0
  0
LINE
  5
7B27
330
19
100
AcDbEntity
  8
1
  6
Continuous
100
AcDbLine
 10
630.4443492363137
 20
962.9096301794758
 30
0.0
 11
630.4443492363137
 21
970.9096301794758
 31
0.0
  0
LINE
  5
7B28
330
19
100
AcDbEntity
  8
1
  6
Continuous
100
AcDbLine
 10
630.4443492363137
 20
970.9096301794758
 30
0.0
 11
622.2443492363137
 21
993.7096301794758
 31
0.0
  0
LINE
  5
7B29
330
19
100
AcDbEntity
  8
1
  6
Continuous
100
AcDbLine
 10
475.4443492363138
 20
962.9096301794758
 30
0.0
 11
475.4443492363138
 21
970.9096301794758
 31
0.0
  0
LINE
  5
7B2A
330
19
100
AcDbEntity
  8
1
  6
Continuous
100
AcDbLine
 10
413.4443492363137
 20
962.9096301794758
 30
0.0
 11
664.4443492363137
 21
962.9096301794758
 31
0.0
  0
LINE
  5
7B2B
330
19
100
AcDbEntity
  8
1
  6
Continuous
100
AcDbLine
 10
664.4443492363137
 20
962.9096301794758
 30
0.0
 11
664.4443492363137
 21
942.9096301794757
 31
0.0
  0
LINE
  5
7B2C
330
19
100
AcDbEntity
  8
1
  6
Continuous
100
AcDbLine
 10
935.7443492363138
 20
942.9096301794757
 30
0.0
 11
935.7443492363138
 21
1222.909630179475
 31
0.0
  0
LINE
  5
7B2D
330
19
100
AcDbEntity
  8
1
  6
Continuous
100
AcDbLine
 10
973.4443492363139
 20
892.9096301794757
 30
0.0
 11
973.4443492363139
 21
942.9096301794757
 31
0.0
  0
LINE
  5
7B2E
330
19
100
AcDbEntity
  8
1
  6
Continuous
100
AcDbLine
 10
388.4443492363138
 20
2012.310230543622
 30
0.0
 11
388.4443492363138
 21
1788.310230543622
 31
0.0
  0
LINE
  5
7B2F
330
19
100
AcDbEntity
  8
1
  6
Continuous
100
AcDbLine
 10
998.4443492363139
 20
1788.310230543622
 30
0.0
 11
998.4443492363139
 21
2012.310230543622
 31
0.0
  0
LINE
  5
7B30
330
19
100
AcDbEntity
  8
2
  6
CENTER
100
AcDbLine
 10
325.0292882363137
 20
1809.765215364146
 30
0.0
 11
1050.240431236314
 21
1809.765215364146
 31
0.0
  0
LINE
  5
7B31
330
19
100
AcDbEntity
  8
2
  6
CENTER
100
AcDbLine
 10
1638.444349236314
 20
1292.201449179476
 30
0.0
 11
1638.444349236314
 21
772.9096301794758
 31
0.0
  0
LINE
  5
7B32
330
19
100
AcDbEntity
  8
2
  6
CENTER
100
AcDbLine
 10
838.4443492363139
 20
1659.673804543622
 30
0.0
 11
838.4443492363139
 21
2090.174117543623
 31
0.0
  0
LINE
  5
7B33
330
19
100
AcDbEntity
  8
2
  6
CENTER
100
AcDbLine
 10
1321.338300236314
 20
1127.909630179475
 30
0.0
 11
1720.999533236314
 21
1127.909630179475
 31
0.0
  0
LINE
  5
7B34
330
19
100
AcDbEntity
  8
4
  6
Continuous
100
AcDbLine
 10
1850.0
 20
500.0
 30
0.0
 11
1850.0
 21
300.0
 31
0.0
  0
LINE
  5
7B35
330
19
100
AcDbEntity
  8
4
  6
Continuous
100
AcDbLine
 10
1150.0
 20
500.0
 30
0.0
 11
1150.0
 21
300.0
 31
0.0
  0
LINE
  5
7B36
330
19
100
AcDbEntity
  8
4
  6
Continuous
100
AcDbLine
 10
650.0
 20
500.0
 30
0.0
 11
650.0
 21
300.0
 31
0.0
  0
LINE
  5
7B39
330
19
100
AcDbEntity
  8
4
  6
Continuous
100
AcDbLine
 10
650.0
 20
300.0
 30
0.0
 11
1850.0
 21
300.0
 31
0.0
  0
LINE
  5
7B3A
330
19
100
AcDbEntity
  8
4
  6
Continuous
100
AcDbLine
 10
650.0
 20
400.0
 30
0.0
 11
1850.0
 21
400.0
 31
0.0
  0
TEXT
  5
7B3B
330
19
100
AcDbEntity
  8
4
  6
Continuous
100
AcDbText
 10
688.502081
 20
431.543026
 30
0.0
 40
50.0
  1
機器名称
100
AcDbText
  0
TEXT
  5
7B3C
330
19
100
AcDbEntity
  8
4
  6
Continuous
100
AcDbText
 10
686.258106
 20
321.645157
 30
0.0
 40
50.0
  1
機器型番
100
AcDbText
  0
TEXT
  5
7B3D
330
19
100
AcDbEntity
  8
4
  6
Continuous
100
AcDbText
 10
1178.313373
 20
422.631346
 30
0.0
 40
45.0
  1
ミツヤニューマルチファン
100
AcDbText
  0
TEXT
  5
7B3E
330
19
100
AcDbEntity
  8
4
  6
Continuous
100
AcDbText
 10
1186.654496
 20
317.159584
 30
0.0
 40
50.0
  1
NM#1-1
100
AcDbText
  0
TEXT
  5
7B40
330
19
100
AcDbEntity
  8
4
  6
Continuous
100
AcDbText
 10
751.115845
 20
2383.428841
 30
0.0
 40
54.0
  1
天井吊防振ベット
100
AcDbText
  0
TEXT
  5
7B41
330
19
100
AcDbEntity
  8
4
  6
Continuous
100
AcDbText
 10
316.167593
 20
2533.880976000001
 30
0.0
 40
72.0
  1
ベルト駆動式片吸込片持多翼ファン
100
AcDbText
  0
LINE
  5
7B42
330
19
100
AcDbEntity
  8
4
  6
Continuous
100
AcDbLine
 10
250.0
 20
2469.408754
 30
0.0
 11
1850.0
 21
2469.408754
 31
0.0
  0
LINE
  5
7B43
330
19
100
AcDbEntity
  8
4
  6
Continuous
100
AcDbLine
 10
250.0
 20
2669.408754
 30
0.0
 11
1850.0
 21
2669.408754
 31
0.0
  0
LINE
  5
7B44
330
19
100
AcDbEntity
  8
4
  6
Continuous
100
AcDbLine
 10
650.0
 20
500.0
 30
0.0
 11
1850.0
 21
500.0
 31
0.0
  0
LINE
  5
7B45
330
19
100
AcDbEntity
  8
4
  6
Continuous
100
AcDbLine
 10
250.0
 20
2669.408754
 30
0.0
 11
250.0
 21
2469.408754
 31
0.0
  0
TEXT
  5
7B46
330
19
100
AcDbEntity
  8
4
  6
Continuous
100
AcDbText
 10
315.257012
 20
2382.319478000001
 30
0.0
 40
54.0
  1
左回転右横向
100
AcDbText
  0
TEXT
  5
7B47
330
19
100
AcDbEntity
  8
4
  6
Continuous
100
AcDbText
 10
1468.969559
 20
2706.061081
 30
0.0
 40
56.0
  1
No.
100
AcDbText
  0
TEXT
  5
7B48
330
19
100
AcDbEntity
  8
4
  6
Continuous
100
AcDbText
 10
1311.296063
 20
2383.428841
 30
0.0
 40
54.0
  1
縮尺：1/10
100
AcDbText
  0
LINE
  5
7B49
330
19
100
AcDbEntity
  8
4
  6
Continuous
100
AcDbLine
 10
1850.0
 20
2669.408754
 30
0.0
 11
1850.0
 21
2469.408754
 31
0.0
  0
LINE
  5
7B4B
330
19
100
AcDbEntity
  8
4
  6
Continuous
100
AcDbLine
 10
1440.617422
 20
2681.263583
 30
0.0
 11
1440.617422
 21
2786.652262
 31
0.0
  0
LINE
  5
7B4C
330
19
100
AcDbEntity
  8
4
  6
Continuous
100
AcDbLine
 10
1440.617422
 20
2786.652262
 30
0.0
 11
1850.0
 21
2786.652262
 31
0.0
  0
LINE
  5
7B4D
330
19
100
AcDbEntity
  8
4
  6
Continuous
100
AcDbLine
 10
1850.0
 20
2786.652262
 30
0.0
 11
1850.0
 21
2681.263583
 31
0.0
  0
LINE
  5
7B4E
330
19
100
AcDbEntity
  8
4
  6
Continuous
100
AcDbLine
 10
1850.0
 20
2681.263583
 30
0.0
 11
1440.617422
 21
2681.263583
 31
0.0
  0
DIMENSION
  5
7B66
330
19
100
AcDbEntity
  8
3
  6
Continuous
100
AcDbDimension
280
     0
  2
*D1
 10
1035.293686236314
 20
967.9096301794757
 30
0.0
 11
1035.293686236314
 21
1033.623915179475
 31
0.0
 70
   160
 71
     5
 42
-1.0
 73
     0
 74
     0
 75
     0
  3
IGA
100
AcDbAlignedDimension
 13
968.4443492363138
 23
1127.909630179475
 33
0.0
 14
968.4443492363138
 24
967.9096301794757
 34
0.0
 50
90.0
100
AcDbRotatedDimension
1001
ACAD
1000
DSTYLE
1002
{
1070
   287
1070
     3
1070
    40
1040
10.0
1070
   143
1040
0.039
1070
   172
1070
     1
1070
   271
1070
     0
1070
   279
1070
     0
1070
   288
1070
     1
1002
}
  0
DIMENSION
  5
7B73
330
19
100
AcDbEntity
  8
3
  6
Continuous
100
AcDbDimension
280
     0
  2
*D2
 10
1102.639795236314
 20
956.9096301794758
 30
0.0
 11
1102.639795236314
 21
1032.367062179476
 31
0.0
 70
   160
 71
     5
 42
-1.0
 73
     0
 74
     0
 75
     0
  3
IGA
100
AcDbAlignedDimension
 13
1029.386745236314
 23
1127.909630179475
 33
0.0
 14
953.4443492363138
 24
956.9096301794758
 34
0.0
 50
90.0
100
AcDbRotatedDimension
1001
ACAD
1000
DSTYLE
1002
{
1070
   287
1070
     3
1070
    40
1040
10.0
1070
   143
1040
0.039
1070
   172
1070
     1
1070
   271
1070
     0
1070
   279
1070
     0
1070
   288
1070
     1
1002
}
  0
DIMENSION
  5
7B82
330
19
100
AcDbEntity
  8
3
  6
Continuous
100
AcDbDimension
280
     0
  2
*D3
 10
1180.189868236314
 20
1127.909630179475
 30
0.0
 11
1152.919432065566
 21
1189.409630179476
 31
0.0
 70
   160
 71
     5
 42
-1.0
 73
     0
 74
     0
 75
     0
  3
IGA
100
AcDbAlignedDimension
 13
827.4443492363138
 23
1250.909630179475
 33
0.0
 14
1029.386745236314
 24
1127.909630179475
 34
0.0
 50
90.0
100
AcDbRotatedDimension
1001
ACAD
1000
DSTYLE
1002
{
1070
   288
1070
     1
1070
   172
1070
     1
1070
    40
1040
10.0
1070
   271
1070
     0
1070
   143
1040
0.039
1002
}
  0
DIMENSION
  5
7B8E
330
19
100
AcDbEntity
  8
3
  6
Continuous
100
AcDbDimension
280
     0
  2
*D4
 10
1180.189868236314
 20
892.9096301794757
 30
0.0
 11
1155.189868236313
 21
1010.409630179476
 31
0.0
 70
    32
 71
     5
 42
-1.0
 73
     0
 74
     0
 75
     0
  3
IGA
100
AcDbAlignedDimension
 13
1029.386745236314
 23
1127.909630179475
 33
0.0
 14
973.4443492363139
 24
892.9096301794757
 34
0.0
 50
90.0
100
AcDbRotatedDimension
1001
ACAD
1000
DSTYLE
1002
{
1070
   287
1070
     4
1070
    40
1040
10.0
1070
    75
1070
     1
1070
   143
1040
0.039
1070
   172
1070
     1
1070
   271
1070
     0
1070
   279
1070
     1
1070
   288
1070
     1
1002
}
  0
DIMENSION
  5
7BF0
330
19
100
AcDbEntity
  8
3
  6
Continuous
100
AcDbDimension
280
     0
  2
*D5
 10
838.4443492363139
 20
1319.945850179476
 30
0.0
 11
903.4443492363138
 21
1343.585127580039
 31
0.0
 70
   160
 71
     5
 42
-1.0
 73
     0
 74
     0
 75
     0
  3
IGA
100
AcDbAlignedDimension
 13
968.4443492363138
 23
1149.909630179476
 33
0.0
 14
838.4443492363139
 24
1305.120684179475
 34
0.0
100
AcDbRotatedDimension
1001
ACAD
1000
DSTYLE
1002
{
1070
   288
1070
     1
1070
   172
1070
     1
1070
    40
1040
10.0
1070
   271
1070
     0
1070
   143
1040
0.039
1002
}
  0
DIMENSION
  5
7BFC
330
19
100
AcDbEntity
  8
3
  6
Continuous
100
AcDbDimension
280
     0
  2
*D6
 10
693.4443492363137
 20
1319.945850179476
 30
0.0
 11
765.9443492363139
 21
1344.945850179475
 31
0.0
 70
    32
 71
     5
 42
-1.0
 73
     0
 74
     0
 75
     0
  3
IGA
100
AcDbAlignedDimension
 13
838.4443492363139
 23
1305.120684179475
 33
0.0
 14
693.4443492363137
 24
1114.909630179475
 34
0.0
100
AcDbRotatedDimension
1001
ACAD
1000
DSTYLE
1002
{
1070
   287
1070
     4
1070
    40
1040
10.0
1070
    75
1070
     1
1070
   143
1040
0.039
1070
   172
1070
     1
1070
   271
1070
     0
1070
   279
1070
     1
1070
   288
1070
     1
1002
}
  0
DIMENSION
  5
7C40
330
19
100
AcDbEntity
  8
3
  6
Continuous
100
AcDbDimension
280
     0
  2
*D7
 10
1694.444349236314
 20
1287.312798179476
 30
0.0
 11
1638.444349236314
 21
1310.525424313955
 31
0.0
 70
   160
 71
     5
 42
-1.0
 73
     0
 74
     0
 75
     0
  3
IGA
100
AcDbAlignedDimension
 13
1582.444349236314
 23
1238.909630179475
 33
0.0
 14
1694.444349236314
 24
1238.909630179475
 34
0.0
100
AcDbRotatedDimension
1001
ACAD
1000
DSTYLE
1002
{
1070
   288
1070
     1
1070
   172
1070
     1
1070
    40
1040
10.0
1070
   271
1070
     0
1070
   143
1040
0.039
1002
}
  0
DIMENSION
  5
7C4F
330
19
100
AcDbEntity
  8
3
  6
Continuous
100
AcDbDimension
280
     0
  2
*D8
 10
1776.100896236314
 20
1047.909630179475
 30
0.0
 11
1754.324439919337
 21
1127.909630179475
 31
0.0
 70
   160
 71
     5
 42
-1.0
 73
     0
 74
     0
 75
     0
  3
IGA
100
AcDbAlignedDimension
 13
1702.444349236314
 23
1207.909630179476
 33
0.0
 14
1702.444349236314
 24
1047.909630179475
 34
0.0
 50
90.0
100
AcDbRotatedDimension
1001
ACAD
1000
DSTYLE
1002
{
1070
   288
1070
     1
1070
   172
1070
     1
1070
    40
1040
10.0
1070
     3
1000
φ<>
1070
   271
1070
     0
1070
   143
1040
0.039
1002
}
  0
DIMENSION
  5
7C5D
330
19
100
AcDbEntity
  8
3
  6
Continuous
100
AcDbDimension
280
     0
  2
*D9
 10
1638.444349236314
 20
1348.499774179475
 30
0.0
 11
1672.58006941713
 21
1376.644830846121
 31
0.0
 70
   160
 71
     5
 42
-1.0
 73
     0
 74
     0
 75
     0
  3
IGA
100
AcDbAlignedDimension
 13
1702.444349236314
 23
1227.909630179476
 33
0.0
 14
1638.444349236314
 24
1335.805685179475
 34
0.0
100
AcDbRotatedDimension
1001
ACAD
1000
DSTYLE
1002
{
1070
   288
1070
     1
1070
   172
1070
     1
1070
    40
1040
10.0
1070
   271
1070
     0
1070
   143
1040
0.039
1002
}
  0
DIMENSION
  5
7C69
330
19
100
AcDbEntity
  8
3
  6
Continuous
100
AcDbDimension
280
     0
  2
*D10
 10
1378.444349236314
 20
1348.499774179475
 30
0.0
 11
1508.444349236314
 21
1381.356917036618
 31
0.0
 70
    32
  1
(260)
 71
     5
 42
260.0
 73
     0
 74
     0
 75
     0
  3
IGA
100
AcDbAlignedDimension
 13
1638.444349236314
 23
1335.805685179475
 33
0.0
 14
1378.444349236314
 24
1222.909630179475
 34
0.0
100
AcDbRotatedDimension
1001
ACAD
1000
DSTYLE
1002
{
1070
   287
1070
     4
1070
    40
1040
10.0
1070
    75
1070
     1
1070
   143
1040
0.039
1070
   172
1070
     1
1070
   271
1070
     0
1070
   279
1070
     1
1070
   288
1070
     1
1002
}
  0
DIMENSION
  5
7C8C
330
19
100
AcDbEntity
  8
3
  6
Continuous
100
AcDbDimension
280
     0
  2
*D11
 10
998.4443492363139
 20
1618.170674543622
 30
0.0
 11
674.0736482363138
 21
1618.170674543622
 31
0.0
 70
   160
 71
     5
 42
-1.0
 73
     0
 74
     0
 75
     0
  3
IGA
100
AcDbAlignedDimension
 13
388.4443492363138
 23
1703.810230543622
 33
0.0
 14
998.4443492363139
 24
1703.810230543622
 34
0.0
100
AcDbRotatedDimension
1001
ACAD
1000
DSTYLE
1002
{
1070
   287
1070
     3
1070
    40
1040
10.0
1070
   143
1040
0.039
1070
   172
1070
     1
1070
   271
1070
     0
1070
   279
1070
     0
1070
   288
1070
     1
1002
}
  0
DIMENSION
  5
7C99
330
19
100
AcDbEntity
  8
3
  6
Continuous
100
AcDbDimension
280
     0
  2
*D12
 10
1094.476634236314
 20
1703.810230543622
 30
0.0
 11
1094.476634236314
 21
1899.630765543622
 31
0.0
 70
   160
 71
     5
 42
-1.0
 73
     0
 74
     0
 75
     0
  3
IGA
100
AcDbAlignedDimension
 13
998.4443492363139
 23
2133.810230543622
 33
0.0
 14
998.4443492363139
 24
1703.810230543622
 34
0.0
 50
90.0
100
AcDbRotatedDimension
1001
ACAD
1000
DSTYLE
1002
{
1070
   287
1070
     3
1070
    40
1040
10.0
1070
   143
1040
0.039
1070
   172
1070
     1
1070
   271
1070
     0
1070
   279
1070
     0
1070
   288
1070
     1
1002
}
  0
DIMENSION
  5
7DAE
330
19
100
AcDbEntity
  8
3
100
AcDbDimension
280
     0
  2
*D14
 10
1638.444349236314
 20
706.3347455757557
 30
0.0
 11
1502.444349236314
 21
731.3347455757557
 31
0.0
 70
    32
 71
     5
 42
272.0
 73
     0
 74
     0
 75
     0
  3
IGA
100
AcDbAlignedDimension
 13
1366.444349236314
 23
772.9096301794758
 33
0.0
 14
1638.444349236314
 24
772.9096301794758
 34
0.0
100
AcDbRotatedDimension
1001
ACAD
1000
DSTYLE
1002
{
1070
   287
1070
     3
1070
    40
1040
10.0
1070
   143
1040
0.039
1070
   172
1070
     1
1070
   271
1070
     0
1070
   279
1070
     0
1002
}
  0
DIMENSION
  5
7DBB
330
19
100
AcDbEntity
  8
3
100
AcDbDimension
280
     0
  2
*D15
 10
1796.444349236313
 20
706.3347455757557
 30
0.0
 11
1717.444349236314
 21
731.3347455757557
 31
0.0
 70
    32
 71
     5
 42
158.0
 73
     0
 74
     0
 75
     0
  3
IGA
100
AcDbAlignedDimension
 13
1638.444349236314
 23
772.9096301794758
 33
0.0
 14
1796.444349236313
 24
772.9096301794758
 34
0.0
100
AcDbRotatedDimension
1001
ACAD
1000
DSTYLE
1002
{
1070
   287
1070
     3
1070
    40
1040
10.0
1070
   143
1040
0.039
1070
   172
1070
     1
1070
   271
1070
     0
1070
   279
1070
     0
1002
}
  0
DIMENSION
  5
7DC8
330
19
100
AcDbEntity
  8
3
100
AcDbDimension
280
     0
  2
*D16
 10
838.4443492363139
 20
706.3347455757557
 30
0.0
 11
613.4443492363138
 21
731.3347455757557
 31
0.0
 70
    32
 71
     5
 42
450.0
 73
     0
 74
     0
 75
     0
  3
IGA
100
AcDbAlignedDimension
 13
388.4443492363138
 23
772.9096301794758
 33
0.0
 14
838.4443492363139
 24
797.9096301794757
 34
0.0
100
AcDbRotatedDimension
1001
ACAD
1000
DSTYLE
1002
{
1070
   287
1070
     3
1070
    40
1040
10.0
1070
   143
1040
0.039
1070
   172
1070
     1
1070
   271
1070
     0
1070
   279
1070
     0
1002
}
  0
DIMENSION
  5
7DD5
330
19
100
AcDbEntity
  8
3
100
AcDbDimension
280
     0
  2
*D17
 10
998.4443492363139
 20
706.3347455757557
 30
0.0
 11
918.4443492363138
 21
731.3347455757557
 31
0.0
 70
    32
 71
     5
 42
160.0
 73
     0
 74
     0
 75
     0
  3
IGA
100
AcDbAlignedDimension
 13
838.4443492363139
 23
797.9096301794757
 33
0.0
 14
998.4443492363139
 24
772.9096301794758
 34
0.0
100
AcDbRotatedDimension
1001
ACAD
1000
DSTYLE
1002
{
1070
   287
1070
     3
1070
    40
1040
10.0
1070
   143
1040
0.039
1070
   172
1070
     1
1070
   271
1070
     0
1070
   279
1070
     0
1002
}
  0
DIMENSION
  5
7DE4
330
19
100
AcDbEntity
  8
3
100
AcDbDimension
280
     0
  2
*D18
 10
1179.648153638842
 20
772.9096301794758
 30
0.0
 11
1154.648153638841
 21
698.6239158937616
 31
0.0
 70
    32
 71
     5
 42
50.0
 73
     0
 74
     0
 75
     0
  3
IGA
100
AcDbAlignedDimension
 13
998.4443492363139
 23
822.9096301794758
 33
0.0
 14
998.4443492363139
 24
772.9096301794758
 34
0.0
 50
90.0
100
AcDbRotatedDimension
1001
ACAD
1000
DSTYLE
1002
{
1070
   287
1070
     3
1070
    40
1040
10.0
1070
   143
1040
0.039
1070
   172
1070
     1
1070
   271
1070
     0
1070
   279
1070
     0
1070
     6
1000
DOT
1002
}
  0
DIMENSION
  5
7DF1
330
19
100
AcDbEntity
  8
3
100
AcDbDimension
280
     0
  2
*D19
 10
1179.648153638842
 20
892.9096301794757
 30
0.0
 11
1221.595392723398
 21
857.9096301794759
 31
0.0
 70
   160
 71
     5
 42
70.0
 73
     0
 74
     0
 75
     0
  3
IGA
100
AcDbAlignedDimension
 13
998.4443492363139
 23
822.9096301794758
 33
0.0
 14
973.4443492363139
 24
892.9096301794757
 34
0.0
 50
90.0
100
AcDbRotatedDimension
1001
ACAD
1000
DSTYLE
1002
{
1070
     3
1000
(<>)
1070
    40
1040
10.0
1070
   143
1040
0.039
1070
   172
1070
     1
1070
   271
1070
     0
1070
   343
1005
7D52
1002
}
  0
DIMENSION
  5
7DFE
330
19
100
AcDbEntity
  8
3
100
AcDbDimension
280
     0
  2
*D20
 10
1266.673171944489
 20
772.9096301794758
 30
0.0
 11
1233.816029087346
 21
1011.907079024775
 31
0.0
 70
    32
 71
     5
 42
477.9948976905988
 73
     0
 74
     0
 75
     0
  3
IGA
100
AcDbAlignedDimension
 13
828.613704993096
 23
1250.904527870075
 33
0.0
 14
998.4443492363139
 24
772.9096301794758
 34
0.0
 50
90.0
100
AcDbRotatedDimension
1001
ACAD
1000
DSTYLE
1002
{
1070
   287
1070
     3
1070
     3
1000
(<>)
1070
    40
1040
10.0
1070
   143
1040
0.039
1070
   172
1070
     1
1070
   271
1070
     0
1070
   279
1070
     0
1002
}
  0
ENDSEC
  0
SECTION
  2
OBJECTS
  0
DICTIONARY
  5
C
330
0
100
AcDbDictionary
281
     1
  3
ACAD_CIP_PREVIOUS_PRODUCT_INFO
350
7F10
  3
ACAD_COLOR
350
7EF3
  3
ACAD_DETAILVIEWSTYLE
350
7F0C
  3
ACAD_GROUP
350
D
  3
ACAD_LAYOUT
350
7E08
  3
ACAD_MATERIAL
350
7EC1
  3
ACAD_MLEADERSTYLE
350
7F08
  3
ACAD_MLINESTYLE
350
E
  3
ACAD_PLOTSETTINGS
350
7E09
  3
ACAD_PLOTSTYLENAME
350
7E06
  3
ACAD_SCALELIST
350
7EF6
  3
ACAD_SECTIONVIEWSTYLE
350
7F0A
  3
ACAD_TABLESTYLE
350
7EF4
  3
ACAD_VISUALSTYLE
350
7EDA
  3
ACDB_RECOMPOSE_DATA
350
7FC6
  3
AcDbVariableDictionary
350
7EB4
  0
DICTIONARY
  5
7F6B
330
2
100
AcDbDictionary
280
     1
281
     1
  3
ACAD_LAYERSTATES
360
7F6C
  0
DICTIONARY
  5
7F5E
330
F
100
AcDbDictionary
280
     1
281
     1
  3
ADSK_XREC_LAYER_RECONCILED
360
7F5F
  0
DICTIONARY
  5
7F60
330
31
100
AcDbDictionary
280
     1
281
     1
  3
ADSK_XREC_LAYER_RECONCILED
360
7F61
  0
DICTIONARY
  5
7F62
330
76D0
100
AcDbDictionary
280
     1
281
     1
  3
ADSK_XREC_LAYER_RECONCILED
360
7F63
  0
DICTIONARY
  5
7F64
330
76D1
100
AcDbDictionary
280
     1
281
     1
  3
ADSK_XREC_LAYER_RECONCILED
360
7F65
  0
DICTIONARY
  5
7F66
330
76D2
100
AcDbDictionary
280
     1
281
     1
  3
ADSK_XREC_LAYER_RECONCILED
360
7F67
  0
DICTIONARY
  5
7E35
330
19
100
AcDbDictionary
280
     1
281
     1
  3
ACAD_LAYOUTSELFREF
360
7E36
  3
ACAD_SORTENTS
360
7F12
  0
DICTIONARY
  5
7E33
330
16
100
AcDbDictionary
280
     1
281
     1
  3
ACAD_LAYOUTSELFREF
360
7E34
  0
XRECORD
  5
7F10
102
{ACAD_REACTORS
330
C
102
}
330
C
100
AcDbXrecord
280
     1
300
ACDLT
300
2015
300
INVLTS_F_S
  0
DICTIONARY
  5
7EF3
102
{ACAD_REACTORS
330
C
102
}
330
C
100
AcDbDictionary
281
     1
  0
DICTIONARY
  5
7F0C
102
{ACAD_REACTORS
330
C
102
}
330
C
100
AcDbDictionary
281
     1
  3
Imperial24
350
7F0D
  0
DICTIONARY
  5
D
102
{ACAD_REACTORS
330
C
102
}
330
0
100
AcDbDictionary
281
     1
  0
DICTIONARY
  5
7E08
102
{ACAD_REACTORS
330
C
102
}
330
C
100
AcDbDictionary
281
     1
  3
Model
350
7E0A
  3
ﾚｲｱｳﾄ1
350
7E0B
  0
DICTIONARY
  5
7EC1
102
{ACAD_REACTORS
330
C
102
}
330
C
100
AcDbDictionary
281
     1
  3
ByBlock
350
7ECA
  3
ByLayer
350
7EC2
  3
Global
350
7ED2
  0
DICTIONARY
  5
7F08
102
{ACAD_REACTORS
330
C
102
}
330
C
100
AcDbDictionary
281
     1
  3
Standard
350
7F09
  0
DICTIONARY
  5
E
102
{ACAD_REACTORS
330
C
102
}
330
0
100
AcDbDictionary
281
     1
  3
STANDARD
350
1C
  0
DICTIONARY
  5
7E09
102
{ACAD_REACTORS
330
C
102
}
330
C
100
AcDbDictionary
281
     1
  0
ACDBDICTIONARYWDFLT
  5
7E06
102
{ACAD_REACTORS
330
C
102
}
330
C
100
AcDbDictionary
281
     1
  3
Normal
350
7E07
100
AcDbDictionaryWithDefault
340
7E07
1001
ACAD
1000
TREAT_AS_HARD
1070
     0
  0
DICTIONARY
  5
7EF6
102
{ACAD_REACTORS
330
C
102
}
330
C
100
AcDbDictionary
281
     1
  3
A0
350
7EF7
  3
A1
350
7EF8
  3
A2
350
7EF9
  3
A3
350
7EFA
  3
A4
350
7EFB
  3
A5
350
7EFC
  3
A6
350
7EFD
  3
A7
350
7EFE
  3
A8
350
7EFF
  3
A9
350
7F00
  3
B0
350
7F01
  3
B1
350
7F02
  3
B2
350
7F03
  3
B3
350
7F04
  3
B4
350
7F05
  3
B5
350
7F06
  3
B6
350
7F07
  0
DICTIONARY
  5
7F0A
102
{ACAD_REACTORS
330
C
102
}
330
C
100
AcDbDictionary
281
     1
  3
Imperial24
350
7F0B
  0
DICTIONARY
  5
7EF4
102
{ACAD_REACTORS
330
C
102
}
330
C
100
AcDbDictionary
281
     1
  3
Standard
350
7EF5
  0
DICTIONARY
  5
7EDA
102
{ACAD_REACTORS
330
C
102
}
330
C
100
AcDbDictionary
281
     1
  3
2dWireframe
350
7EE0
  3
Basic
350
7EDF
  3
Brighten
350
7EE6
  3
ColorChange
350
7EEA
  3
Conceptual
350
7EE3
  3
Dim
350
7EE5
  3
EdgeColorOff
350
7EF2
  3
Facepattern
350
7EE9
  3
Flat
350
7EDB
  3
FlatWithEdges
350
7EDC
  3
Gouraud
350
7EDD
  3
GouraudWithEdges
350
7EDE
  3
Hidden
350
7EE2
  3
JitterOff
350
7EF0
  3
Linepattern
350
7EE8
  3
OverhangOff
350
7EF1
  3
Realistic
350
7EE4
  3
Shaded
350
7EEF
  3
Shaded with edges
350
7EEE
  3
Shades of Gray
350
7EEB
  3
Sketchy
350
7EEC
  3
Thicken
350
7EE7
  3
Wireframe
350
7EE1
  3
X-Ray
350
7EED
  0
XRECORD
  5
7FC6
102
{ACAD_REACTORS
330
C
102
}
330
C
100
AcDbXrecord
280
     1
 90
        1
330
7EF5
330
7F0B
330
7F0D
  0
DICTIONARY
  5
7EB4
102
{ACAD_REACTORS
330
C
102
}
330
C
100
AcDbDictionary
281
     1
  3
CANNOSCALE
350
7F7B
  3
CMLEADERSTYLE
350
7F77
  3
CTABLESTYLE
350
7F76
  3
CVIEWDETAILSTYLE
350
7F78
  3
CVIEWSECTIONSTYLE
350
7F79
  3
DIMASSOC
350
7EB5
  3
LAYEREVAL
350
7F7D
  3
LAYERNOTIFY
350
7F7E
  3
LIGHTINGUNITS
350
7F7C
  3
MSLTSCALE
350
7F7A
  0
DICTIONARY
  5
7F6C
102
{ACAD_REACTORS
330
7F6B
102
}
330
7F6B
100
AcDbDictionary
281
     1
  0
XRECORD
  5
7F5F
102
{ACAD_REACTORS
330
7F5E
102
}
330
7F5E
100
AcDbXrecord
280
     1
290
     1
  0
XRECORD
  5
7F61
102
{ACAD_REACTORS
330
7F60
102
}
330
7F60
100
AcDbXrecord
280
     1
290
     1
  0
XRECORD
  5
7F63
102
{ACAD_REACTORS
330
7F62
102
}
330
7F62
100
AcDbXrecord
280
     1
290
     1
  0
XRECORD
  5
7F65
102
{ACAD_REACTORS
330
7F64
102
}
330
7F64
100
AcDbXrecord
280
     1
290
     1
  0
XRECORD
  5
7F67
102
{ACAD_REACTORS
330
7F66
102
}
330
7F66
100
AcDbXrecord
280
     1
290
     1
  0
XRECORD
  5
7E36
102
{ACAD_REACTORS
330
7E35
102
}
330
7E35
100
AcDbXrecord
280
     1
340
19
  0
SORTENTSTABLE
  5
7F12
102
{ACAD_REACTORS
330
7E35
102
}
330
7E35
100
AcDbSortentsTable
330
19
331
7B1C
  5
7B1D
331
7B18
  5
7B19
331
7B14
  5
7B15
331
7AA7
  5
7AA8
331
7C69
  5
7C8C
331
7B10
  5
7B11
331
7AA3
  5
7AA3
331
7A9F
  5
7A9F
331
7ADE
  5
7ADF
331
7ADA
  5
7ADB
331
7C5D
  5
7C69
331
7B8E
  5
7BF0
331
7B0C
  5
7B0D
331
7B4B
  5
7B4C
331
7B47
  5
7B48
331
7B08
  5
7B09
331
7B04
  5
7B05
331
7B43
  5
7B44
331
7B82
  5
7B8E
331
7AD6
  5
7AD7
331
7AD2
  5
7AD3
331
7B00
  5
7B01
331
7ACE
  5
7ACF
331
7ACA
  5
7ACB
331
7DAE
  5
7DBB
331
7AFC
  5
7AFD
331
7B3B
  5
7B3C
331
7AF8
  5
7AF9
331
7B33
  5
7B34
331
7AC6
  5
7AC7
331
7AF4
  5
7AF5
331
7AC2
  5
7AC3
331
7AF0
  5
7AF1
331
7ABE
  5
7ABF
331
7ABA
  5
7ABB
331
7DF1
  5
7DFE
331
7C8C
  5
7C99
331
7B2F
  5
7B30
331
7B66
  5
7B73
331
7AEC
  5
7AED
331
7B2B
  5
7B2C
331
7AE8
  5
7AE9
331
7B27
  5
7B28
331
7B23
  5
7B24
331
7AB6
  5
7AB7
331
7AE4
  5
7AE5
331
7AB2
  5
7AB3
331
7AE0
  5
7AE1
331
7AAE
  5
7AAF
331
7AAA
  5
7AAB
331
7DD5
  5
7DE4
331
7B1F
  5
7B20
331
7B1B
  5
7B1C
331
7B17
  5
7B18
331
7B13
  5
7B14
331
7AA6
  5
7AA6
331
7AA2
  5
7AA2
331
7A9E
  5
7A9E
331
7ADD
  5
7ADE
331
7AD9
  5
7ADA
331
7B0F
  5
7B10
331
7B4E
  5
7B66
331
7B0B
  5
7B0C
331
7B46
  5
7B47
331
7B07
  5
7B08
331
7B03
  5
7B04
331
7B42
  5
7B43
331
7AD5
  5
7AD6
331
7AD1
  5
7AD2
331
7ACD
  5
7ACE
331
7AC9
  5
7ACA
331
7AFF
  5
7B00
331
7B3E
  5
7B40
331
7AFB
  5
7AFC
331
7B3A
  5
7B3B
331
7B36
  5
7B39
331
7AF7
  5
7AF8
331
7AF3
  5
7AF4
331
7B32
  5
7B33
331
7AC5
  5
7AC6
331
7C40
  5
7C4F
331
7AC1
  5
7AC2
331
7ABD
  5
7ABE
331
7AB9
  5
7ABA
331
7DE4
  5
7DF1
331
7AEF
  5
7AF0
331
7B2E
  5
7B2F
331
7AEB
  5
7AEC
331
7B2A
  5
7B2B
331
7B26
  5
7B27
331
7BFC
  5
7C40
331
7AE7
  5
7AE8
331
7B22
  5
7B23
331
7AB5
  5
7AB6
331
7AE3
  5
7AE4
331
7AB1
  5
7AB2
331
7AAD
  5
7AAE
331
7AA9
  5
7AAA
331
7DC8
  5
7DD5
331
7B1E
  5
7B1F
331
7BF0
  5
7BFC
331
7B1A
  5
7B1B
331
7B16
  5
7B17
331
7B12
  5
7B13
331
7AA5
  5
7AA5
331
7AA1
  5
7AA1
331
7ADC
  5
7ADD
331
7AD8
  5
7AD9
331
7B0E
  5
7B0F
331
7B4D
  5
7B4E
331
7B0A
  5
7B0B
331
7B49
  5
7B4B
331
7B45
  5
7B46
331
7B06
  5
7B07
331
7AD4
  5
7AD5
331
7B02
  5
7B03
331
7B41
  5
7B42
331
7AD0
  5
7AD1
331
7ACC
  5
7ACD
331
7AC8
  5
7AC9
331
7C4F
  5
7C5D
331
7AFE
  5
7AFF
331
7B3D
  5
7B3E
331
7AFA
  5
7AFB
331
7B39
  5
7B3A
331
7B35
  5
7B36
331
7AF6
  5
7AF7
331
7AF2
  5
7AF3
331
7B31
  5
7B32
331
7AC4
  5
7AC5
331
7AC0
  5
7AC1
331
7ABC
  5
7ABD
331
7AB8
  5
7AB9
331
7AEE
  5
7AEF
331
7B2D
  5
7B2E
331
7AEA
  5
7AEB
331
7B29
  5
7B2A
331
7B25
  5
7B26
331
7AE6
  5
7AE7
331
7AE2
  5
7AE3
331
7B21
  5
7B22
331
7AB4
  5
7AB5
331
7AB0
  5
7AB1
331
7AAC
  5
7AAD
331
7AA8
  5
7AA9
331
7B1D
  5
7B1E
331
7B19
  5
7B1A
331
7B15
  5
7B16
331
7B11
  5
7B12
331
7AA4
  5
7AA4
331
7AA0
  5
7AA0
331
7ADF
  5
7AE0
331
7ADB
  5
7ADC
331
7DBB
  5
7DC8
331
7B0D
  5
7B0E
331
7B4C
  5
7B4D
331
7B48
  5
7B49
331
7B09
  5
7B0A
331
7B44
  5
7B45
331
7AD7
  5
7AD8
331
7B05
  5
7B06
331
7AD3
  5
7AD4
331
7B01
  5
7B02
331
7B40
  5
7B41
331
7ACF
  5
7AD0
331
7ACB
  5
7ACC
331
7DFE
  5
7F11
331
7C99
  5
7DAE
331
7B73
  5
7B82
331
7AFD
  5
7AFE
331
7B3C
  5
7B3D
331
7AF9
  5
7AFA
331
7B34
  5
7B35
331
7AC7
  5
7AC8
331
7AF5
  5
7AF6
331
7AC3
  5
7AC4
331
7AF1
  5
7AF2
331
7B30
  5
7B31
331
7ABF
  5
7AC0
331
7ABB
  5
7ABC
331
7AED
  5
7AEE
331
7B2C
  5
7B2D
331
7AE9
  5
7AEA
331
7B28
  5
7B29
331
7B24
  5
7B25
331
7AB7
  5
7AB8
331
7AE5
  5
7AE6
331
7AE1
  5
7AE2
331
7B20
  5
7B21
331
7AB3
  5
7AB4
331
7AAF
  5
7AB0
331
7AAB
  5
7AAC
  0
XRECORD
  5
7E34
102
{ACAD_REACTORS
330
7E33
102
}
330
7E33
100
AcDbXrecord
280
     1
340
16
  0
ACDBDETAILVIEWSTYLE
  5
7F0D
102
{ACAD_XDICTIONARY
360
7F73
102
}
102
{ACAD_REACTORS
330
7F0C
102
}
330
7F0C
100
AcDbModelDocViewStyle
 70
     0
  3
Imperial24
290
     0
100
AcDbDetailViewStyle
 70
     0
 71
     0
 90
        3
 71
     1
340
10
 62
   256
 40
0.24
340
0
 62
   256
 40
0.24
300

 40
0.36
280
     3
 71
     2
340
15
 90
       25
 62
   256
 71
     3
340
10
 62
   256
 40
0.24
 90
        1
 40
0.75
 90
        1
300
%<\AcVar ViewType \f "%tc1">% %<\AcVar ViewDetailId>%\PSCALE %<\AcVar ViewScale \f "%sn">%
 71
     4
340
15
 90
       25
 62
   256
340
15
 90
       25
 62
   256
280
     0
  0
LAYOUT
  5
7E0A
102
{ACAD_REACTORS
330
7E08
102
}
330
7E08
100
AcDbPlotSettings
  1

  2
\\Txbo34x8944cqyd\EPSON LP-6100
  4

  6

 40
0.0
 41
0.0
 42
0.0
 43
0.0
 44
0.0
 45
0.0
 46
0.0
 47
0.0
 48
0.0
 49
0.0
140
0.0
141
0.0
142
1.0
143
1.0
 70
  1712
 72
     0
 73
     0
 74
     0
  7
GOD2000TABLE.ctb
 75
     0
147
1.0
 76
     0
 77
     2
 78
   300
148
0.0
149
0.0
100
AcDbLayout
  1
Model
 70
     1
 71
     0
 10
0.0
 20
0.0
 11
12.0
 21
9.0
 12
0.0
 22
0.0
 32
0.0
 14
0.0
 24
0.0
 34
0.0
 15
0.0
 25
0.0
 35
0.0
146
0.0
 13
0.0
 23
0.0
 33
0.0
 16
1.0
 26
0.0
 36
0.0
 17
0.0
 27
1.0
 37
0.0
 76
     0
330
19
331
7EBF
  0
LAYOUT
  5
7E0B
102
{ACAD_REACTORS
330
7E08
102
}
330
7E08
100
AcDbPlotSettings
  1

  2
\\Txbo34x8944cqyd\EPSON LP-6100
  4

  6

 40
0.0
 41
0.0
 42
0.0
 43
0.0
 44
0.0
 45
0.0
 46
0.0
 47
0.0
 48
0.0
 49
0.0
140
0.0
141
0.0
142
1.0
143
1.0
 70
   688
 72
     0
 73
     0
 74
     5
  7
GOD2000TABLE.ctb
 75
    16
147
1.0
 76
     0
 77
     2
 78
   300
148
0.0
149
0.0
100
AcDbLayout
  1
ﾚｲｱｳﾄ1
 70
     1
 71
     1
 10
0.0
 20
0.0
 11
12.0
 21
9.0
 12
0.0
 22
0.0
 32
0.0
 14
1.000000000000000E+20
 24
1.000000000000000E+20
 34
1.000000000000000E+20
 15
-1.000000000000000E+20
 25
-1.000000000000000E+20
 35
-1.000000000000000E+20
146
0.0
 13
0.0
 23
0.0
 33
0.0
 16
1.0
 26
0.0
 36
0.0
 17
0.0
 27
1.0
 37
0.0
 76
     0
330
16
  0
MATERIAL
  5
7ECA
102
{ACAD_XDICTIONARY
360
7ECB
102
}
102
{ACAD_REACTORS
330
7EC1
102
}
330
7EC1
100
AcDbMaterial
  1
ByBlock
 72
     0
 43
0.0208333333333333
 43
0.0
 43
0.0
 43
0.0
 43
0.0
 43
0.0208333333333333
 43
0.0
 43
0.0
 43
0.0
 43
0.0
 43
1.0
 43
0.0
 43
0.0
 43
0.0
 43
0.0
 43
1.0
 77
     0
 47
0.0208333333333333
 47
0.0
 47
0.0
 47
0.0
 47
0.0
 47
0.0208333333333333
 47
0.0
 47
0.0
 47
0.0
 47
0.0
 47
1.0
 47
0.0
 47
0.0
 47
0.0
 47
0.0
 47
1.0
171
     0
 49
0.0208333333333333
 49
0.0
 49
0.0
 49
0.0
 49
0.0
 49
0.0208333333333333
 49
0.0
 49
0.0
 49
0.0
 49
0.0
 49
1.0
 49
0.0
 49
0.0
 49
0.0
 49
0.0
 49
1.0
175
     0
142
0.0208333333333333
142
0.0
142
0.0
142
0.0
142
0.0
142
0.0208333333333333
142
0.0
142
0.0
142
0.0
142
0.0
142
1.0
142
0.0
142
0.0
142
0.0
142
0.0
142
1.0
179
     0
144
0.0208333333333333
144
0.0
144
0.0
144
0.0
144
0.0
144
0.0208333333333333
144
0.0
144
0.0
144
0.0
144
0.0
144
1.0
144
0.0
144
0.0
144
0.0
144
0.0
144
1.0
147
0.0208333333333333
147
0.0
147
0.0
147
0.0
147
0.0
147
0.0208333333333333
147
0.0
147
0.0
147
0.0
147
0.0
147
1.0
147
0.0
147
0.0
147
0.0
147
0.0
147
1.0
  0
MATERIAL
  5
7EC2
102
{ACAD_XDICTIONARY
360
7EC3
102
}
102
{ACAD_REACTORS
330
7EC1
102
}
330
7EC1
100
AcDbMaterial
  1
ByLayer
 72
     0
 43
0.0208333333333333
 43
0.0
 43
0.0
 43
0.0
 43
0.0
 43
0.0208333333333333
 43
0.0
 43
0.0
 43
0.0
 43
0.0
 43
1.0
 43
0.0
 43
0.0
 43
0.0
 43
0.0
 43
1.0
 77
     0
 47
0.0208333333333333
 47
0.0
 47
0.0
 47
0.0
 47
0.0
 47
0.0208333333333333
 47
0.0
 47
0.0
 47
0.0
 47
0.0
 47
1.0
 47
0.0
 47
0.0
 47
0.0
 47
0.0
 47
1.0
171
     0
 49
0.0208333333333333
 49
0.0
 49
0.0
 49
0.0
 49
0.0
 49
0.0208333333333333
 49
0.0
 49
0.0
 49
0.0
 49
0.0
 49
1.0
 49
0.0
 49
0.0
 49
0.0
 49
0.0
 49
1.0
175
     0
142
0.0208333333333333
142
0.0
142
0.0
142
0.0
142
0.0
142
0.0208333333333333
142
0.0
142
0.0
142
0.0
142
0.0
142
1.0
142
0.0
142
0.0
142
0.0
142
0.0
142
1.0
179
     0
144
0.0208333333333333
144
0.0
144
0.0
144
0.0
144
0.0
144
0.0208333333333333
144
0.0
144
0.0
144
0.0
144
0.0
144
1.0
144
0.0
144
0.0
144
0.0
144
0.0
144
1.0
147
0.0208333333333333
147
0.0
147
0.0
147
0.0
147
0.0
147
0.0208333333333333
147
0.0
147
0.0
147
0.0
147
0.0
147
1.0
147
0.0
147
0.0
147
0.0
147
0.0
147
1.0
  0
MATERIAL
  5
7ED2
102
{ACAD_XDICTIONARY
360
7ED3
102
}
102
{ACAD_REACTORS
330
7EC1
102
}
330
7EC1
100
AcDbMaterial
  1
Global
 72
     0
 43
0.0208333333333333
 43
0.0
 43
0.0
 43
0.0
 43
0.0
 43
0.0208333333333333
 43
0.0
 43
0.0
 43
0.0
 43
0.0
 43
1.0
 43
0.0
 43
0.0
 43
0.0
 43
0.0
 43
1.0
 77
     0
 47
0.0208333333333333
 47
0.0
 47
0.0
 47
0.0
 47
0.0
 47
0.0208333333333333
 47
0.0
 47
0.0
 47
0.0
 47
0.0
 47
1.0
 47
0.0
 47
0.0
 47
0.0
 47
0.0
 47
1.0
171
     0
 49
0.0208333333333333
 49
0.0
 49
0.0
 49
0.0
 49
0.0
 49
0.0208333333333333
 49
0.0
 49
0.0
 49
0.0
 49
0.0
 49
1.0
 49
0.0
 49
0.0
 49
0.0
 49
0.0
 49
1.0
175
     0
142
0.0208333333333333
142
0.0
142
0.0
142
0.0
142
0.0
142
0.0208333333333333
142
0.0
142
0.0
142
0.0
142
0.0
142
1.0
142
0.0
142
0.0
142
0.0
142
0.0
142
1.0
179
     0
144
0.0208333333333333
144
0.0
144
0.0
144
0.0
144
0.0
144
0.0208333333333333
144
0.0
144
0.0
144
0.0
144
0.0
144
1.0
144
0.0
144
0.0
144
0.0
144
0.0
144
1.0
147
0.0208333333333333
147
0.0
147
0.0
147
0.0
147
0.0
147
0.0208333333333333
147
0.0
147
0.0
147
0.0
147
0.0
147
1.0
147
0.0
147
0.0
147
0.0
147
0.0
147
1.0
  0
MLEADERSTYLE
  5
7F09
102
{ACAD_REACTORS
330
7F08
102
}
330
7F08
100
AcDbMLeaderStyle
179
     2
170
     2
171
     1
172
     0
 90
        2
 40
0.0
 41
0.0
173
     1
 91
-1056964608
340
13
 92
       -2
290
     1
 42
0.09
291
     1
 43
0.36
  3
Standard
 44
0.18
300

342
10
174
     1
178
     6
175
     1
176
     0
 93
-1056964608
 45
0.18
292
     0
297
     0
 46
0.18
 94
-1056964608
 47
1.0
 49
1.0
140
1.0
293
     1
141
0.0
294
     1
177
     0
142
1.0
295
     1
296
     0
143
0.125
271
     0
272
     9
273
     9
298
     1
  0
MLINESTYLE
  5
1C
102
{ACAD_REACTORS
330
E
102
}
330
0
100
AcDbMlineStyle
  2
STANDARD
 70
     0
  3

 62
     0
 51
90.0
 52
90.0
 71
     2
 49
0.5
 62
   256
  6
BYLAYER
 49
-0.5
 62
   256
  6
BYLAYER
  0
ACDBPLACEHOLDER
  5
7E07
102
{ACAD_REACTORS
330
7E06
102
}
330
7E06
  0
SCALE
  5
7EF7
102
{ACAD_REACTORS
330
7EF6
102
}
330
7EF6
100
AcDbScale
 70
     0
300
1:1
140
1.0
141
1.0
290
     1
  0
SCALE
  5
7EF8
102
{ACAD_REACTORS
330
7EF6
102
}
330
7EF6
100
AcDbScale
 70
     0
300
1/128" = 1'-0"
140
0.0078125
141
12.0
290
     0
  0
SCALE
  5
7EF9
102
{ACAD_REACTORS
330
7EF6
102
}
330
7EF6
100
AcDbScale
 70
     0
300
1/64" = 1'-0"
140
0.015625
141
12.0
290
     0
  0
SCALE
  5
7EFA
102
{ACAD_REACTORS
330
7EF6
102
}
330
7EF6
100
AcDbScale
 70
     0
300
1/32" = 1'-0"
140
0.03125
141
12.0
290
     0
  0
SCALE
  5
7EFB
102
{ACAD_REACTORS
330
7EF6
102
}
330
7EF6
100
AcDbScale
 70
     0
300
1/16" = 1'-0"
140
0.0625
141
12.0
290
     0
  0
SCALE
  5
7EFC
102
{ACAD_REACTORS
330
7EF6
102
}
330
7EF6
100
AcDbScale
 70
     0
300
3/32" = 1'-0"
140
0.09375
141
12.0
290
     0
  0
SCALE
  5
7EFD
102
{ACAD_REACTORS
330
7EF6
102
}
330
7EF6
100
AcDbScale
 70
     0
300
1/8" = 1'-0"
140
0.125
141
12.0
290
     0
  0
SCALE
  5
7EFE
102
{ACAD_REACTORS
330
7EF6
102
}
330
7EF6
100
AcDbScale
 70
     0
300
3/16" = 1'-0"
140
0.1875
141
12.0
290
     0
  0
SCALE
  5
7EFF
102
{ACAD_REACTORS
330
7EF6
102
}
330
7EF6
100
AcDbScale
 70
     0
300
1/4" = 1'-0"
140
0.25
141
12.0
290
     0
  0
SCALE
  5
7F00
102
{ACAD_REACTORS
330
7EF6
102
}
330
7EF6
100
AcDbScale
 70
     0
300
3/8" = 1'-0"
140
0.375
141
12.0
290
     0
  0
SCALE
  5
7F01
102
{ACAD_REACTORS
330
7EF6
102
}
330
7EF6
100
AcDbScale
 70
     0
300
1/2" = 1'-0"
140
0.5
141
12.0
290
     0
  0
SCALE
  5
7F02
102
{ACAD_REACTORS
330
7EF6
102
}
330
7EF6
100
AcDbScale
 70
     0
300
3/4" = 1'-0"
140
0.75
141
12.0
290
     0
  0
SCALE
  5
7F03
102
{ACAD_REACTORS
330
7EF6
102
}
330
7EF6
100
AcDbScale
 70
     0
300
1" = 1'-0"
140
1.0
141
12.0
290
     0
  0
SCALE
  5
7F04
102
{ACAD_REACTORS
330
7EF6
102
}
330
7EF6
100
AcDbScale
 70
     0
300
1-1/2" = 1'-0"
140
1.5
141
12.0
290
     0
  0
SCALE
  5
7F05
102
{ACAD_REACTORS
330
7EF6
102
}
330
7EF6
100
AcDbScale
 70
     0
300
3" = 1'-0"
140
3.0
141
12.0
290
     0
  0
SCALE
  5
7F06
102
{ACAD_REACTORS
330
7EF6
102
}
330
7EF6
100
AcDbScale
 70
     0
300
6" = 1'-0"
140
6.0
141
12.0
290
     0
  0
SCALE
  5
7F07
102
{ACAD_REACTORS
330
7EF6
102
}
330
7EF6
100
AcDbScale
 70
     0
300
1'-0" = 1'-0"
140
12.0
141
12.0
290
     0
  0
ACDBSECTIONVIEWSTYLE
  5
7F0B
102
{ACAD_XDICTIONARY
360
7F71
102
}
102
{ACAD_REACTORS
330
7F0A
102
}
330
7F0A
100
AcDbModelDocViewStyle
 70
     0
  3
Imperial24
290
     0
100
AcDbSectionViewStyle
 70
     0
 71
     0
 90
       78
 71
     1
340
10
 62
   256
 40
0.24
340
0
340
0
 62
   256
 40
0.24
300
I, O, Q, S, X, Z
 40
0.48
 90
        3
 40
0.18
 90
        1
 71
     2
340
15
 90
       25
 62
   256
340
15
 90
       50
 62
   256
 40
0.24
 40
0.0
 40
0.24
 71
     3
340
10
 62
   256
 40
0.24
 90
        1
 40
0.75
 90
        1
300
%<\AcVar ViewType \f "%tc1">% %<\AcVar ViewSectionStartId>%-%<\AcVar ViewSectionEndId>%\PSCALE %<\AcVar ViewScale \f "%sn">%
 71
     4
 62
   256
 62
   257
300
ANSI31
 40
1.0
 90
        0
290
     0
290
     0
 90
        6
 40
0.0
 40
1.570796326794896
 40
0.2617993877991494
 40
1.308996938995747
 40
-0.2617993877991494
 40
1.832595714594046
  0
TABLESTYLE
  5
7EF5
102
{ACAD_XDICTIONARY
360
7FC2
102
}
102
{ACAD_REACTORS
330
7EF4
102
}
330
7EF4
100
AcDbTableStyle
280
     0
  3
Standard
 70
     0
 71
     0
 40
0.06
 41
0.06
280
     0
281
     0
  7
STANDARD
140
0.18
170
     2
 62
     0
 63
     7
283
     0
 90
      512
 91
        0
  1

274
    -2
284
     1
 64
     0
275
    -2
285
     1
 65
     0
276
    -2
286
     1
 66
     0
277
    -2
287
     1
 67
     0
278
    -2
288
     1
 68
     0
279
    -2
289
     1
 69
     0
  7
STANDARD
140
0.25
170
     5
 62
     0
 63
     7
283
     0
 90
      512
 91
        0
  1

274
    -2
284
     1
 64
     0
275
    -2
285
     1
 65
     0
276
    -2
286
     1
 66
     0
277
    -2
287
     1
 67
     0
278
    -2
288
     1
 68
     0
279
    -2
289
     1
 69
     0
  7
STANDARD
140
0.18
170
     5
 62
     0
 63
     7
283
     0
 90
      512
 91
        0
  1

274
    -2
284
     1
 64
     0
275
    -2
285
     1
 65
     0
276
    -2
286
     1
 66
     0
277
    -2
287
     1
 67
     0
278
    -2
288
     1
 68
     0
279
    -2
289
     1
 69
     0
  0
VISUALSTYLE
  5
7EE0
102
{ACAD_REACTORS
330
7EDA
102
}
330
7EDA
100
AcDbVisualStyle
  2
2dWireframe
 70
     4
177
     3
291
     0
 70
    58
 90
        0
176
     1
 90
        2
176
     1
 90
        0
176
     1
 90
        0
176
     1
 40
0.6
176
     1
 40
30.0
176
     1
 62
     7
420
 16777215
176
     1
 90
        1
176
     1
 90
        4
176
     1
 62
     7
176
     1
 62
   257
176
     1
 90
        1
176
     1
 90
        1
176
     1
 40
1.0
176
     1
 90
        0
176
     1
 62
   257
176
     1
 40
1.0
176
     1
 90
        1
176
     1
 90
        6
176
     1
 90
        2
176
     1
 62
     7
176
     1
 90
        5
176
     1
 90
        0
176
     1
 90
        0
176
     1
290
     0
176
     1
 90
        1
176
     1
 40
0.0
176
     1
 90
        0
176
     1
290
     1
176
     1
290
     1
176
     1
290
     0
176
     1
290
     0
176
     1
290
     0
176
     1
290
     0
176
     1
290
     0
176
     1
290
     0
176
     1
290
     0
176
     1
 90
       50
176
     1
 40
0.0
176
     1
 40
1.0
176
     1
 90
        0
176
     1
 62
    18
420
        0
176
     1
 90
       50
176
     1
 90
        3
176
     1
 62
     5
420
      255
176
     1
290
     0
176
     1
 90
       50
176
     1
 90
       50
176
     1
 90
       50
176
     1
290
     0
176
     1
 90
       50
176
     1
 62
   256
176
     0
 40
1.0
176
     0
 90
        2
176
     1
  1
strokes_ogs.tif
176
     1
290
     0
176
     1
 40
1.0
176
     1
 40
1.0
176
     1
  0
VISUALSTYLE
  5
7EDF
102
{ACAD_REACTORS
330
7EDA
102
}
330
7EDA
100
AcDbVisualStyle
  2
Basic
 70
     7
177
     3
291
     1
 70
    58
 90
        1
176
     1
 90
        0
176
     1
 90
        1
176
     1
 90
        0
176
     1
 40
0.6
176
     1
 40
30.0
176
     1
 62
     7
420
 16777215
176
     1
 90
        0
176
     1
 90
        4
176
     1
 62
     7
176
     1
 62
   257
176
     1
 90
        1
176
     1
 90
        1
176
     1
 40
1.0
176
     1
 90
        8
176
     1
 62
     7
176
     1
 40
1.0
176
     1
 90
        1
176
     1
 90
        6
176
     1
 90
        2
176
     1
 62
     7
176
     1
 90
        5
176
     1
 90
        0
176
     1
 90
        0
176
     1
290
     0
176
     1
 90
        1
176
     1
 40
0.0
176
     1
 90
        0
176
     1
290
     0
176
     1
290
     1
176
     1
290
     1
176
     1
290
     0
176
     1
290
     0
176
     1
290
     0
176
     1
290
     0
176
     1
290
     0
176
     1
290
     0
176
     1
 90
       50
176
     1
 40
0.0
176
     1
 40
1.0
176
     1
 90
        0
176
     1
 62
    18
420
        0
176
     1
 90
       50
176
     1
 90
        3
176
     1
 62
     5
420
      255
176
     1
290
     0
176
     1
 90
       50
176
     1
 90
       50
176
     1
 90
       50
176
     1
290
     0
176
     1
 90
       50
176
     1
 62
   256
176
     0
 40
1.0
176
     0
 90
        2
176
     1
  1
strokes_ogs.tif
176
     1
290
     0
176
     1
 40
1.0
176
     1
 40
1.0
176
     1
  0
VISUALSTYLE
  5
7EE6
102
{ACAD_REACTORS
330
7EDA
102
}
330
7EDA
100
AcDbVisualStyle
  2
Brighten
 70
    12
177
     3
291
     1
 70
    58
 90
        2
176
     1
 90
        2
176
     1
 90
        0
176
     1
 90
        0
176
     1
 40
0.6
176
     1
 40
30.0
176
     1
 62
     7
420
 16777215
176
     1
 90
        1
176
     1
 90
        4
176
     1
 62
     7
176
     1
 62
   257
176
     1
 90
        1
176
     1
 90
        1
176
     1
 40
1.0
176
     1
 90
        8
176
     1
 62
     7
176
     1
 40
1.0
176
     1
 90
        1
176
     1
 90
        6
176
     1
 90
        2
176
     1
 62
     7
176
     1
 90
        5
176
     1
 90
        0
176
     1
 90
        0
176
     1
290
     0
176
     1
 90
        1
176
     1
 40
50.0
176
     1
 90
        0
176
     1
290
     0
176
     1
290
     1
176
     1
290
     1
176
     1
290
     0
176
     1
290
     0
176
     1
290
     0
176
     1
290
     0
176
     1
290
     0
176
     1
290
     0
176
     1
 90
       50
176
     1
 40
0.0
176
     1
 40
1.0
176
     1
 90
        0
176
     1
 62
    18
420
        0
176
     1
 90
       50
176
     1
 90
        3
176
     1
 62
     5
420
      255
176
     1
290
     0
176
     1
 90
       50
176
     1
 90
       50
176
     1
 90
       50
176
     1
290
     0
176
     1
 90
       50
176
     1
 62
   256
176
     0
 40
1.0
176
     0
 90
        2
176
     1
  1
strokes_ogs.tif
176
     1
290
     0
176
     1
 40
1.0
176
     1
 40
1.0
176
     1
  0
VISUALSTYLE
  5
7EEA
102
{ACAD_REACTORS
330
7EDA
102
}
330
7EDA
100
AcDbVisualStyle
  2
ColorChange
 70
    16
177
     3
291
     1
 70
    58
 90
        2
176
     1
 90
        2
176
     1
 90
        3
176
     1
 90
        0
176
     1
 40
0.6
176
     1
 40
30.0
176
     1
 62
     8
420
  8421504
176
     1
 90
        1
176
     1
 90
        4
176
     1
 62
     7
176
     1
 62
   257
176
     1
 90
        1
176
     1
 90
        1
176
     1
 40
1.0
176
     1
 90
        8
176
     1
 62
     8
420
  8421504
176
     1
 40
1.0
176
     1
 90
        1
176
     1
 90
        6
176
     1
 90
        2
176
     1
 62
     7
176
     1
 90
        5
176
     1
 90
        0
176
     1
 90
        0
176
     1
290
     0
176
     1
 90
        1
176
     1
 40
0.0
176
     1
 90
        0
176
     1
290
     0
176
     1
290
     1
176
     1
290
     1
176
     1
290
     0
176
     1
290
     0
176
     1
290
     0
176
     1
290
     0
176
     1
290
     0
176
     1
290
     0
176
     1
 90
       50
176
     1
 40
0.0
176
     1
 40
1.0
176
     1
 90
        0
176
     1
 62
    18
420
        0
176
     1
 90
       50
176
     1
 90
        3
176
     1
 62
     5
420
      255
176
     1
290
     0
176
     1
 90
       50
176
     1
 90
       50
176
     1
 90
       50
176
     1
290
     0
176
     1
 90
       50
176
     1
 62
   256
176
     0
 40
1.0
176
     0
 90
        2
176
     1
  1
strokes_ogs.tif
176
     1
290
     0
176
     1
 40
1.0
176
     1
 40
1.0
176
     1
  0
VISUALSTYLE
  5
7EE3
102
{ACAD_REACTORS
330
7EDA
102
}
330
7EDA
100
AcDbVisualStyle
  2
Conceptual
 70
     9
177
     3
291
     0
 70
    58
 90
        3
176
     1
 90
        2
176
     1
 90
        0
176
     1
 90
        0
176
     1
 40
0.6
176
     1
 40
30.0
176
     1
 62
     7
420
 16777215
176
     1
 90
        2
176
     1
 90
        2
176
     1
 62
     7
176
     1
 62
   257
176
     1
 90
        1
176
     1
 90
        1
176
     1
 40
179.0
176
     1
 90
        8
176
     1
 62
     7
176
     1
 40
1.0
176
     1
 90
        1
176
     1
 90
        6
176
     1
 90
        2
176
     1
 62
     7
176
     1
 90
        3
176
     1
 90
        0
176
     1
 90
        0
176
     1
290
     0
176
     1
 90
        1
176
     1
 40
0.0
176
     1
 90
        0
176
     1
290
     0
176
     1
290
     1
176
     1
290
     1
176
     1
290
     0
176
     1
290
     0
176
     1
290
     0
176
     1
290
     0
176
     1
290
     0
176
     1
290
     0
176
     1
 90
       50
176
     1
 40
0.0
176
     1
 40
1.0
176
     1
 90
        0
176
     1
 62
    18
420
        0
176
     1
 90
       50
176
     1
 90
        3
176
     1
 62
     5
420
      255
176
     1
290
     0
176
     1
 90
       50
176
     1
 90
       50
176
     1
 90
       50
176
     1
290
     0
176
     1
 90
       50
176
     1
 62
   256
176
     0
 40
1.0
176
     0
 90
        2
176
     1
  1
strokes_ogs.tif
176
     1
290
     0
176
     1
 40
1.0
176
     1
 40
1.0
176
     1
  0
VISUALSTYLE
  5
7EE5
102
{ACAD_REACTORS
330
7EDA
102
}
330
7EDA
100
AcDbVisualStyle
  2
Dim
 70
    11
177
     3
291
     1
 70
    58
 90
        2
176
     1
 90
        2
176
     1
 90
        0
176
     1
 90
        0
176
     1
 40
0.6
176
     1
 40
30.0
176
     1
 62
     7
420
 16777215
176
     1
 90
        1
176
     1
 90
        4
176
     1
 62
     7
176
     1
 62
   257
176
     1
 90
        1
176
     1
 90
        1
176
     1
 40
1.0
176
     1
 90
        8
176
     1
 62
     7
176
     1
 40
1.0
176
     1
 90
        1
176
     1
 90
        6
176
     1
 90
        2
176
     1
 62
     7
176
     1
 90
        5
176
     1
 90
        0
176
     1
 90
        0
176
     1
290
     0
176
     1
 90
        1
176
     1
 40
-50.0
176
     1
 90
        0
176
     1
290
     0
176
     1
290
     1
176
     1
290
     1
176
     1
290
     0
176
     1
290
     0
176
     1
290
     0
176
     1
290
     0
176
     1
290
     0
176
     1
290
     0
176
     1
 90
       50
176
     1
 40
0.0
176
     1
 40
1.0
176
     1
 90
        0
176
     1
 62
    18
420
        0
176
     1
 90
       50
176
     1
 90
        3
176
     1
 62
     5
420
      255
176
     1
290
     0
176
     1
 90
       50
176
     1
 90
       50
176
     1
 90
       50
176
     1
290
     0
176
     1
 90
       50
176
     1
 62
   256
176
     0
 40
1.0
176
     0
 90
        2
176
     1
  1
strokes_ogs.tif
176
     1
290
     0
176
     1
 40
1.0
176
     1
 40
1.0
176
     1
  0
VISUALSTYLE
  5
7EF2
102
{ACAD_REACTORS
330
7EDA
102
}
330
7EDA
100
AcDbVisualStyle
  2
EdgeColorOff
 70
    22
177
     3
291
     1
 70
    58
 90
        2
176
     0
 90
        2
176
     0
 90
        0
176
     0
 90
        0
176
     0
 40
0.6
176
     0
 40
30.0
176
     0
 62
     7
420
 16777215
176
     0
 90
        1
176
     0
 90
        4
176
     0
 62
     7
176
     0
 62
   257
176
     0
 90
        1
176
     0
 90
        1
176
     0
 40
1.0
176
     0
 90
        8
176
     2
 62
     7
176
     0
 40
1.0
176
     0
 90
        1
176
     0
 90
        6
176
     0
 90
        2
176
     0
 62
     7
176
     0
 90
        5
176
     0
 90
        0
176
     0
 90
        0
176
     0
290
     0
176
     0
 90
        1
176
     0
 40
0.0
176
     0
 90
        0
176
     0
290
     0
176
     0
290
     1
176
     0
290
     1
176
     0
290
     0
176
     0
290
     0
176
     0
290
     0
176
     0
290
     0
176
     0
290
     0
176
     0
290
     0
176
     0
 90
       50
176
     0
 40
0.0
176
     0
 40
1.0
176
     0
 90
        0
176
     0
 62
    18
420
        0
176
     0
 90
       50
176
     0
 90
        3
176
     0
 62
     5
420
      255
176
     0
290
     0
176
     0
 90
       50
176
     0
 90
       50
176
     0
 90
       50
176
     0
290
     0
176
     0
 90
       50
176
     0
 62
   256
176
     0
 40
1.0
176
     0
 90
        2
176
     0
  1
strokes_ogs.tif
176
     0
290
     0
176
     0
 40
1.0
176
     0
 40
1.0
176
     0
  0
VISUALSTYLE
  5
7EE9
102
{ACAD_REACTORS
330
7EDA
102
}
330
7EDA
100
AcDbVisualStyle
  2
Facepattern
 70
    15
177
     3
291
     1
 70
    58
 90
        2
176
     1
 90
        2
176
     1
 90
        0
176
     1
 90
        0
176
     1
 40
0.6
176
     1
 40
30.0
176
     1
 62
     7
420
 16777215
176
     1
 90
        1
176
     1
 90
        4
176
     1
 62
     7
176
     1
 62
   257
176
     1
 90
        1
176
     1
 90
        1
176
     1
 40
1.0
176
     1
 90
        8
176
     1
 62
     7
176
     1
 40
1.0
176
     1
 90
        1
176
     1
 90
        6
176
     1
 90
        2
176
     1
 62
     7
176
     1
 90
        5
176
     1
 90
        0
176
     1
 90
        0
176
     1
290
     0
176
     1
 90
        1
176
     1
 40
0.0
176
     1
 90
        0
176
     1
290
     0
176
     1
290
     1
176
     1
290
     1
176
     1
290
     0
176
     1
290
     0
176
     1
290
     0
176
     1
290
     0
176
     1
290
     0
176
     1
290
     0
176
     1
 90
       50
176
     1
 40
0.0
176
     1
 40
1.0
176
     1
 90
        0
176
     1
 62
    18
420
        0
176
     1
 90
       50
176
     1
 90
        3
176
     1
 62
     5
420
      255
176
     1
290
     0
176
     1
 90
       50
176
     1
 90
       50
176
     1
 90
       50
176
     1
290
     0
176
     1
 90
       50
176
     1
 62
   256
176
     0
 40
1.0
176
     0
 90
        2
176
     1
  1
strokes_ogs.tif
176
     1
290
     0
176
     1
 40
1.0
176
     1
 40
1.0
176
     1
  0
VISUALSTYLE
  5
7EDB
102
{ACAD_REACTORS
330
7EDA
102
}
330
7EDA
100
AcDbVisualStyle
  2
Flat
 70
     0
177
     3
291
     1
 70
    58
 90
        2
176
     1
 90
        1
176
     1
 90
        1
176
     1
 90
        2
176
     1
 40
0.6
176
     1
 40
30.0
176
     1
 62
     7
420
 16777215
176
     1
 90
        0
176
     1
 90
        0
176
     1
 62
     7
176
     1
 62
   257
176
     1
 90
        1
176
     1
 90
        1
176
     1
 40
1.0
176
     1
 90
        8
176
     1
 62
     7
176
     1
 40
1.0
176
     1
 90
        1
176
     1
 90
        6
176
     1
 90
        2
176
     1
 62
     7
176
     1
 90
        5
176
     1
 90
        0
176
     1
 90
        0
176
     1
290
     0
176
     1
 90
       13
176
     1
 40
0.0
176
     1
 90
        0
176
     1
290
     0
176
     1
290
     1
176
     1
290
     1
176
     1
290
     0
176
     1
290
     0
176
     1
290
     0
176
     1
290
     0
176
     1
290
     0
176
     1
290
     0
176
     1
 90
       50
176
     1
 40
0.0
176
     1
 40
1.0
176
     1
 90
        0
176
     1
 62
    18
420
        0
176
     1
 90
       50
176
     1
 90
        3
176
     1
 62
     5
420
      255
176
     1
290
     0
176
     1
 90
       50
176
     1
 90
       50
176
     1
 90
       50
176
     1
290
     0
176
     1
 90
       50
176
     1
 62
   256
176
     0
 40
1.0
176
     0
 90
        2
176
     1
  1
strokes_ogs.tif
176
     1
290
     0
176
     1
 40
1.0
176
     1
 40
1.0
176
     1
  0
VISUALSTYLE
  5
7EDC
102
{ACAD_REACTORS
330
7EDA
102
}
330
7EDA
100
AcDbVisualStyle
  2
FlatWithEdges
 70
     1
177
     3
291
     1
 70
    58
 90
        2
176
     1
 90
        1
176
     1
 90
        1
176
     1
 90
        2
176
     1
 40
0.6
176
     1
 40
30.0
176
     1
 62
     7
420
 16777215
176
     1
 90
        1
176
     1
 90
        0
176
     1
 62
     7
176
     1
 62
   257
176
     1
 90
        1
176
     1
 90
        1
176
     1
 40
1.0
176
     1
 90
        0
176
     1
 62
   257
176
     1
 40
1.0
176
     1
 90
        1
176
     1
 90
        6
176
     1
 90
        2
176
     1
 62
     7
176
     1
 90
        5
176
     1
 90
        0
176
     1
 90
        0
176
     1
290
     0
176
     1
 90
       13
176
     1
 40
0.0
176
     1
 90
        0
176
     1
290
     0
176
     1
290
     1
176
     1
290
     1
176
     1
290
     0
176
     1
290
     0
176
     1
290
     0
176
     1
290
     0
176
     1
290
     0
176
     1
290
     0
176
     1
 90
       50
176
     1
 40
0.0
176
     1
 40
1.0
176
     1
 90
        0
176
     1
 62
    18
420
        0
176
     1
 90
       50
176
     1
 90
        3
176
     1
 62
     5
420
      255
176
     1
290
     0
176
     1
 90
       50
176
     1
 90
       50
176
     1
 90
       50
176
     1
290
     0
176
     1
 90
       50
176
     1
 62
   256
176
     0
 40
1.0
176
     0
 90
        2
176
     1
  1
strokes_ogs.tif
176
     1
290
     0
176
     1
 40
1.0
176
     1
 40
1.0
176
     1
  0
VISUALSTYLE
  5
7EDD
102
{ACAD_REACTORS
330
7EDA
102
}
330
7EDA
100
AcDbVisualStyle
  2
Gouraud
 70
     2
177
     3
291
     1
 70
    58
 90
        2
176
     1
 90
        2
176
     1
 90
        1
176
     1
 90
        2
176
     1
 40
0.6
176
     1
 40
30.0
176
     1
 62
     7
420
 16777215
176
     1
 90
        0
176
     1
 90
        0
176
     1
 62
     7
176
     1
 62
   257
176
     1
 90
        1
176
     1
 90
        1
176
     1
 40
1.0
176
     1
 90
        0
176
     1
 62
     7
176
     1
 40
1.0
176
     1
 90
        1
176
     1
 90
        6
176
     1
 90
        2
176
     1
 62
     7
176
     1
 90
        5
176
     1
 90
        0
176
     1
 90
        0
176
     1
290
     0
176
     1
 90
       13
176
     1
 40
0.0
176
     1
 90
        0
176
     1
290
     0
176
     1
290
     1
176
     1
290
     1
176
     1
290
     0
176
     1
290
     0
176
     1
290
     0
176
     1
290
     0
176
     1
290
     0
176
     1
290
     0
176
     1
 90
       50
176
     1
 40
0.0
176
     1
 40
1.0
176
     1
 90
        0
176
     1
 62
    18
420
        0
176
     1
 90
       50
176
     1
 90
        3
176
     1
 62
     5
420
      255
176
     1
290
     0
176
     1
 90
       50
176
     1
 90
       50
176
     1
 90
       50
176
     1
290
     0
176
     1
 90
       50
176
     1
 62
   256
176
     0
 40
1.0
176
     0
 90
        2
176
     1
  1
strokes_ogs.tif
176
     1
290
     0
176
     1
 40
1.0
176
     1
 40
1.0
176
     1
  0
VISUALSTYLE
  5
7EDE
102
{ACAD_REACTORS
330
7EDA
102
}
330
7EDA
100
AcDbVisualStyle
  2
GouraudWithEdges
 70
     3
177
     3
291
     1
 70
    58
 90
        2
176
     1
 90
        2
176
     1
 90
        1
176
     1
 90
        2
176
     1
 40
0.6
176
     1
 40
30.0
176
     1
 62
     7
420
 16777215
176
     1
 90
        1
176
     1
 90
        0
176
     1
 62
     7
176
     1
 62
   257
176
     1
 90
        1
176
     1
 90
        1
176
     1
 40
1.0
176
     1
 90
        0
176
     1
 62
   257
176
     1
 40
1.0
176
     1
 90
        1
176
     1
 90
        6
176
     1
 90
        2
176
     1
 62
     7
176
     1
 90
        5
176
     1
 90
        0
176
     1
 90
        0
176
     1
290
     0
176
     1
 90
       13
176
     1
 40
0.0
176
     1
 90
        0
176
     1
290
     0
176
     1
290
     1
176
     1
290
     1
176
     1
290
     0
176
     1
290
     0
176
     1
290
     0
176
     1
290
     0
176
     1
290
     0
176
     1
290
     0
176
     1
 90
       50
176
     1
 40
0.0
176
     1
 40
1.0
176
     1
 90
        0
176
     1
 62
    18
420
        0
176
     1
 90
       50
176
     1
 90
        3
176
     1
 62
     5
420
      255
176
     1
290
     0
176
     1
 90
       50
176
     1
 90
       50
176
     1
 90
       50
176
     1
290
     0
176
     1
 90
       50
176
     1
 62
   256
176
     0
 40
1.0
176
     0
 90
        2
176
     1
  1
strokes_ogs.tif
176
     1
290
     0
176
     1
 40
1.0
176
     1
 40
1.0
176
     1
  0
VISUALSTYLE
  5
7EE2
102
{ACAD_REACTORS
330
7EDA
102
}
330
7EDA
100
AcDbVisualStyle
  2
Hidden
 70
     6
177
     3
291
     0
 70
    58
 90
        1
176
     1
 90
        2
176
     1
 90
        2
176
     1
 90
        0
176
     1
 40
0.6
176
     1
 40
30.0
176
     1
 62
     7
420
 16777215
176
     1
 90
        2
176
     1
 90
        2
176
     1
 62
     7
176
     1
 62
   257
176
     1
 90
        2
176
     1
 90
        1
176
     1
 40
40.0
176
     1
 90
        0
176
     1
 62
   257
176
     1
 40
1.0
176
     1
 90
        1
176
     1
 90
        6
176
     1
 90
        2
176
     1
 62
     7
176
     1
 90
        3
176
     1
 90
        0
176
     1
 90
        0
176
     1
290
     0
176
     1
 90
        1
176
     1
 40
0.0
176
     1
 90
        0
176
     1
290
     0
176
     1
290
     1
176
     1
290
     1
176
     1
290
     0
176
     1
290
     0
176
     1
290
     0
176
     1
290
     0
176
     1
290
     0
176
     1
290
     0
176
     1
 90
       50
176
     1
 40
0.0
176
     1
 40
1.0
176
     1
 90
        0
176
     1
 62
    18
420
        0
176
     1
 90
       50
176
     1
 90
        3
176
     1
 62
     5
420
      255
176
     1
290
     0
176
     1
 90
       50
176
     1
 90
       50
176
     1
 90
       50
176
     1
290
     0
176
     1
 90
       50
176
     1
 62
   256
176
     0
 40
1.0
176
     0
 90
        2
176
     1
  1
strokes_ogs.tif
176
     1
290
     0
176
     1
 40
1.0
176
     1
 40
1.0
176
     1
  0
VISUALSTYLE
  5
7EF0
102
{ACAD_REACTORS
330
7EDA
102
}
330
7EDA
100
AcDbVisualStyle
  2
JitterOff
 70
    20
177
     3
291
     1
 70
    58
 90
        2
176
     0
 90
        2
176
     0
 90
        0
176
     0
 90
        0
176
     0
 40
0.6
176
     0
 40
30.0
176
     0
 62
     7
420
 16777215
176
     0
 90
        1
176
     0
 90
        4
176
     0
 62
     7
176
     0
 62
   257
176
     0
 90
        1
176
     0
 90
        1
176
     0
 40
1.0
176
     0
 90
       10
176
     2
 62
     7
176
     0
 40
1.0
176
     0
 90
        1
176
     0
 90
        6
176
     0
 90
        2
176
     0
 62
     7
176
     0
 90
        5
176
     0
 90
        0
176
     0
 90
        0
176
     0
290
     0
176
     0
 90
        1
176
     0
 40
0.0
176
     0
 90
        0
176
     0
290
     0
176
     0
290
     1
176
     0
290
     1
176
     0
290
     0
176
     0
290
     0
176
     0
290
     0
176
     0
290
     0
176
     0
290
     0
176
     0
290
     0
176
     0
 90
       50
176
     0
 40
0.0
176
     0
 40
1.0
176
     0
 90
        0
176
     0
 62
    18
420
        0
176
     0
 90
       50
176
     0
 90
        3
176
     0
 62
     5
420
      255
176
     0
290
     0
176
     0
 90
       50
176
     0
 90
       50
176
     0
 90
       50
176
     0
290
     0
176
     0
 90
       50
176
     0
 62
   256
176
     0
 40
1.0
176
     0
 90
        2
176
     0
  1
strokes_ogs.tif
176
     0
290
     0
176
     0
 40
1.0
176
     0
 40
1.0
176
     0
  0
VISUALSTYLE
  5
7EE8
102
{ACAD_REACTORS
330
7EDA
102
}
330
7EDA
100
AcDbVisualStyle
  2
Linepattern
 70
    14
177
     3
291
     1
 70
    58
 90
        2
176
     1
 90
        2
176
     1
 90
        0
176
     1
 90
        0
176
     1
 40
0.6
176
     1
 40
30.0
176
     1
 62
     7
420
 16777215
176
     1
 90
        1
176
     1
 90
        4
176
     1
 62
     7
176
     1
 62
   257
176
     1
 90
        7
176
     1
 90
        7
176
     1
 40
1.0
176
     1
 90
        8
176
     1
 62
     7
176
     1
 40
1.0
176
     1
 90
        1
176
     1
 90
        6
176
     1
 90
        2
176
     1
 62
     7
176
     1
 90
        5
176
     1
 90
        0
176
     1
 90
        0
176
     1
290
     0
176
     1
 90
        1
176
     1
 40
0.0
176
     1
 90
        0
176
     1
290
     0
176
     1
290
     1
176
     1
290
     1
176
     1
290
     0
176
     1
290
     0
176
     1
290
     0
176
     1
290
     0
176
     1
290
     0
176
     1
290
     0
176
     1
 90
       50
176
     1
 40
0.0
176
     1
 40
1.0
176
     1
 90
        0
176
     1
 62
    18
420
        0
176
     1
 90
       50
176
     1
 90
        3
176
     1
 62
     5
420
      255
176
     1
290
     0
176
     1
 90
       50
176
     1
 90
       50
176
     1
 90
       50
176
     1
290
     0
176
     1
 90
       50
176
     1
 62
   256
176
     0
 40
1.0
176
     0
 90
        2
176
     1
  1
strokes_ogs.tif
176
     1
290
     0
176
     1
 40
1.0
176
     1
 40
1.0
176
     1
  0
VISUALSTYLE
  5
7EF1
102
{ACAD_REACTORS
330
7EDA
102
}
330
7EDA
100
AcDbVisualStyle
  2
OverhangOff
 70
    21
177
     3
291
     1
 70
    58
 90
        2
176
     0
 90
        2
176
     0
 90
        0
176
     0
 90
        0
176
     0
 40
0.6
176
     0
 40
30.0
176
     0
 62
     7
420
 16777215
176
     0
 90
        1
176
     0
 90
        4
176
     0
 62
     7
176
     0
 62
   257
176
     0
 90
        1
176
     0
 90
        1
176
     0
 40
1.0
176
     0
 90
        9
176
     2
 62
     7
176
     0
 40
1.0
176
     0
 90
        1
176
     0
 90
        6
176
     0
 90
        2
176
     0
 62
     7
176
     0
 90
        5
176
     0
 90
        0
176
     0
 90
        0
176
     0
290
     0
176
     0
 90
        1
176
     0
 40
0.0
176
     0
 90
        0
176
     0
290
     0
176
     0
290
     1
176
     0
290
     1
176
     0
290
     0
176
     0
290
     0
176
     0
290
     0
176
     0
290
     0
176
     0
290
     0
176
     0
290
     0
176
     0
 90
       50
176
     0
 40
0.0
176
     0
 40
1.0
176
     0
 90
        0
176
     0
 62
    18
420
        0
176
     0
 90
       50
176
     0
 90
        3
176
     0
 62
     5
420
      255
176
     0
290
     0
176
     0
 90
       50
176
     0
 90
       50
176
     0
 90
       50
176
     0
290
     0
176
     0
 90
       50
176
     0
 62
   256
176
     0
 40
1.0
176
     0
 90
        2
176
     0
  1
strokes_ogs.tif
176
     0
290
     0
176
     0
 40
1.0
176
     0
 40
1.0
176
     0
  0
VISUALSTYLE
  5
7EE4
102
{ACAD_REACTORS
330
7EDA
102
}
330
7EDA
100
AcDbVisualStyle
  2
Realistic
 70
     8
177
     3
291
     0
 70
    58
 90
        2
176
     1
 90
        3
176
     1
 90
        0
176
     1
 90
        2
176
     1
 40
0.6
176
     1
 40
30.0
176
     1
 62
     7
420
 16777215
176
     1
 90
        0
176
     1
 90
        0
176
     1
 62
     7
176
     1
 62
   257
176
     1
 90
        1
176
     1
 90
        1
176
     1
 40
1.0
176
     1
 90
        8
176
     1
 62
   257
176
     1
 40
1.0
176
     1
 90
        1
176
     1
 90
        6
176
     1
 90
        2
176
     1
 62
     7
176
     1
 90
        3
176
     1
 90
        0
176
     1
 90
        0
176
     1
290
     0
176
     1
 90
       13
176
     1
 40
0.0
176
     1
 90
        0
176
     1
290
     0
176
     1
290
     1
176
     1
290
     1
176
     1
290
     0
176
     1
290
     0
176
     1
290
     0
176
     1
290
     0
176
     1
290
     0
176
     1
290
     0
176
     1
 90
       50
176
     1
 40
0.0
176
     1
 40
1.0
176
     1
 90
        0
176
     1
 62
    18
420
        0
176
     1
 90
       50
176
     1
 90
        3
176
     1
 62
     5
420
      255
176
     1
290
     0
176
     1
 90
       50
176
     1
 90
       50
176
     1
 90
       50
176
     1
290
     0
176
     1
 90
       50
176
     1
 62
   256
176
     0
 40
1.0
176
     0
 90
        2
176
     1
  1
strokes_ogs.tif
176
     1
290
     0
176
     1
 40
1.0
176
     1
 40
1.0
176
     1
  0
VISUALSTYLE
  5
7EEF
102
{ACAD_REACTORS
330
7EDA
102
}
330
7EDA
100
AcDbVisualStyle
  2
Shaded
 70
    27
177
     3
291
     0
 70
    58
 90
        2
176
     1
 90
        2
176
     1
 90
        1
176
     1
 90
        2
176
     1
 40
0.6
176
     1
 40
30.0
176
     1
 62
     7
420
 16777215
176
     1
 90
        0
176
     1
 90
        4
176
     1
 62
     7
176
     1
 62
   257
176
     1
 90
        1
176
     1
 90
        1
176
     1
 40
1.0
176
     1
 90
        8
176
     1
 62
   257
176
     1
 40
1.0
176
     1
 90
        1
176
     1
 90
        6
176
     1
 90
        2
176
     1
 62
     8
420
  7895160
176
     1
 90
        3
176
     1
 90
        0
176
     1
 90
        0
176
     1
290
     0
176
     1
 90
        5
176
     1
 40
0.0
176
     1
 90
        0
176
     1
290
     0
176
     1
290
     1
176
     1
290
     1
176
     1
290
     0
176
     1
290
     0
176
     1
290
     0
176
     1
290
     0
176
     1
290
     0
176
     1
290
     0
176
     1
 90
       50
176
     1
 40
0.0
176
     1
 40
1.0
176
     1
 90
        0
176
     1
 62
    18
420
        0
176
     1
 90
       50
176
     1
 90
        3
176
     1
 62
     5
420
      255
176
     1
290
     0
176
     1
 90
       50
176
     1
 90
       50
176
     1
 90
       50
176
     1
290
     0
176
     1
 90
       50
176
     1
 62
   256
176
     0
 40
1.0
176
     0
 90
        2
176
     1
  1
strokes_ogs.tif
176
     1
290
     0
176
     1
 40
1.0
176
     1
 40
1.0
176
     1
  0
VISUALSTYLE
  5
7EEE
102
{ACAD_REACTORS
330
7EDA
102
}
330
7EDA
100
AcDbVisualStyle
  2
Shaded with edges
 70
    26
177
     3
291
     0
 70
    58
 90
        2
176
     1
 90
        2
176
     1
 90
        1
176
     1
 90
        2
176
     1
 40
0.6
176
     1
 40
30.0
176
     1
 62
     7
420
 16777215
176
     1
 90
        1
176
     1
 90
       10
176
     1
 62
     7
176
     1
 62
   257
176
     1
 90
        2
176
     1
 90
        1
176
     1
 40
1.0
176
     1
 90
        8
176
     1
 62
   257
176
     1
 40
1.0
176
     1
 90
        1
176
     1
 90
        6
176
     1
 90
        2
176
     1
 62
     7
176
     1
 90
        3
176
     1
 90
        0
176
     1
 90
        0
176
     1
290
     0
176
     1
 90
        5
176
     1
 40
0.0
176
     1
 90
        0
176
     1
290
     0
176
     1
290
     1
176
     1
290
     1
176
     1
290
     0
176
     1
290
     0
176
     1
290
     0
176
     1
290
     0
176
     1
290
     0
176
     1
290
     0
176
     1
 90
       50
176
     1
 40
0.0
176
     1
 40
1.0
176
     1
 90
        0
176
     1
 62
    18
420
        0
176
     1
 90
       50
176
     1
 90
        3
176
     1
 62
     5
420
      255
176
     1
290
     0
176
     1
 90
       50
176
     1
 90
       50
176
     1
 90
       50
176
     1
290
     0
176
     1
 90
       50
176
     1
 62
   256
176
     0
 40
1.0
176
     0
 90
        2
176
     1
  1
strokes_ogs.tif
176
     1
290
     0
176
     1
 40
1.0
176
     1
 40
1.0
176
     1
  0
VISUALSTYLE
  5
7EEB
102
{ACAD_REACTORS
330
7EDA
102
}
330
7EDA
100
AcDbVisualStyle
  2
Shades of Gray
 70
    23
177
     3
291
     0
 70
    58
 90
        2
176
     1
 90
        2
176
     1
 90
        3
176
     1
 90
        0
176
     1
 40
0.6
176
     1
 40
30.0
176
     1
 62
     7
420
 16777215
176
     1
 90
        2
176
     1
 90
        2
176
     1
 62
     7
176
     1
 62
     7
176
     1
 90
        1
176
     1
 90
        1
176
     1
 40
40.0
176
     1
 90
        8
176
     1
 62
     7
176
     1
 40
1.0
176
     1
 90
        1
176
     1
 90
        6
176
     1
 90
        2
176
     1
 62
     7
176
     1
 90
        3
176
     1
 90
        0
176
     1
 90
        0
176
     1
290
     0
176
     1
 90
        1
176
     1
 40
0.0
176
     1
 90
        0
176
     1
290
     0
176
     1
290
     1
176
     1
290
     1
176
     1
290
     0
176
     1
290
     0
176
     1
290
     0
176
     1
290
     0
176
     1
290
     0
176
     1
290
     0
176
     1
 90
       50
176
     1
 40
0.0
176
     1
 40
1.0
176
     1
 90
        0
176
     1
 62
    18
420
        0
176
     1
 90
       50
176
     1
 90
        3
176
     1
 62
     5
420
      255
176
     1
290
     0
176
     1
 90
       50
176
     1
 90
       50
176
     1
 90
       50
176
     1
290
     0
176
     1
 90
       50
176
     1
 62
   256
176
     0
 40
1.0
176
     0
 90
        2
176
     1
  1
strokes_ogs.tif
176
     1
290
     0
176
     1
 40
1.0
176
     1
 40
1.0
176
     1
  0
VISUALSTYLE
  5
7EEC
102
{ACAD_REACTORS
330
7EDA
102
}
330
7EDA
100
AcDbVisualStyle
  2
Sketchy
 70
    24
177
     3
291
     0
 70
    58
 90
        1
176
     1
 90
        2
176
     1
 90
        2
176
     1
 90
        0
176
     1
 40
0.6
176
     1
 40
30.0
176
     1
 62
     7
420
 16777215
176
     1
 90
        2
176
     1
 90
        2
176
     1
 62
     7
176
     1
 62
     7
176
     1
 90
        1
176
     1
 90
        1
176
     1
 40
40.0
176
     1
 90
       11
176
     1
 62
     7
176
     1
 40
1.0
176
     1
 90
        1
176
     1
 90
        6
176
     1
 90
        2
176
     1
 62
     7
176
     1
 90
        6
176
     1
 90
        0
176
     1
 90
        0
176
     1
290
     0
176
     1
 90
        1
176
     1
 40
0.0
176
     1
 90
        0
176
     1
290
     0
176
     1
290
     1
176
     1
290
     1
176
     1
290
     0
176
     1
290
     0
176
     1
290
     0
176
     1
290
     0
176
     1
290
     0
176
     1
290
     0
176
     1
 90
       50
176
     1
 40
0.0
176
     1
 40
1.0
176
     1
 90
        0
176
     1
 62
    18
420
        0
176
     1
 90
       50
176
     1
 90
        3
176
     1
 62
     5
420
      255
176
     1
290
     0
176
     1
 90
       50
176
     1
 90
       50
176
     1
 90
       50
176
     1
290
     0
176
     1
 90
       50
176
     1
 62
   256
176
     0
 40
1.0
176
     0
 90
        2
176
     1
  1
strokes_ogs.tif
176
     1
290
     0
176
     1
 40
1.0
176
     1
 40
1.0
176
     1
  0
VISUALSTYLE
  5
7EE7
102
{ACAD_REACTORS
330
7EDA
102
}
330
7EDA
100
AcDbVisualStyle
  2
Thicken
 70
    13
177
     3
291
     1
 70
    58
 90
        2
176
     1
 90
        2
176
     1
 90
        0
176
     1
 90
        0
176
     1
 40
0.6
176
     1
 40
30.0
176
     1
 62
     7
420
 16777215
176
     1
 90
        1
176
     1
 90
        4
176
     1
 62
     7
176
     1
 62
   257
176
     1
 90
        1
176
     1
 90
        1
176
     1
 40
1.0
176
     1
 90
       12
176
     1
 62
     7
176
     1
 40
1.0
176
     1
 90
        1
176
     1
 90
        6
176
     1
 90
        2
176
     1
 62
     7
176
     1
 90
        5
176
     1
 90
        0
176
     1
 90
        0
176
     1
290
     0
176
     1
 90
        1
176
     1
 40
0.0
176
     1
 90
        0
176
     1
290
     0
176
     1
290
     1
176
     1
290
     1
176
     1
290
     0
176
     1
290
     0
176
     1
290
     0
176
     1
290
     0
176
     1
290
     0
176
     1
290
     0
176
     1
 90
       50
176
     1
 40
0.0
176
     1
 40
1.0
176
     1
 90
        0
176
     1
 62
    18
420
        0
176
     1
 90
       50
176
     1
 90
        3
176
     1
 62
     5
420
      255
176
     1
290
     0
176
     1
 90
       50
176
     1
 90
       50
176
     1
 90
       50
176
     1
290
     0
176
     1
 90
       50
176
     1
 62
   256
176
     0
 40
1.0
176
     0
 90
        2
176
     1
  1
strokes_ogs.tif
176
     1
290
     0
176
     1
 40
1.0
176
     1
 40
1.0
176
     1
  0
VISUALSTYLE
  5
7EE1
102
{ACAD_REACTORS
330
7EDA
102
}
330
7EDA
100
AcDbVisualStyle
  2
Wireframe
 70
     5
177
     3
291
     0
 70
    58
 90
        0
176
     1
 90
        2
176
     1
 90
        0
176
     1
 90
        0
176
     1
 40
0.6
176
     1
 40
30.0
176
     1
 62
     7
420
 16777215
176
     1
 90
        1
176
     1
 90
        4
176
     1
 62
     7
176
     1
 62
   257
176
     1
 90
        1
176
     1
 90
        1
176
     1
 40
1.0
176
     1
 90
        0
176
     1
 62
   257
176
     1
 40
1.0
176
     1
 90
        1
176
     1
 90
        6
176
     1
 90
        2
176
     1
 62
     7
176
     1
 90
        3
176
     1
 90
        0
176
     1
 90
        0
176
     1
290
     0
176
     1
 90
        1
176
     1
 40
0.0
176
     1
 90
        0
176
     1
290
     0
176
     1
290
     1
176
     1
290
     1
176
     1
290
     0
176
     1
290
     0
176
     1
290
     0
176
     1
290
     0
176
     1
290
     0
176
     1
290
     0
176
     1
 90
       50
176
     1
 40
0.0
176
     1
 40
1.0
176
     1
 90
        0
176
     1
 62
    18
420
        0
176
     1
 90
       50
176
     1
 90
        3
176
     1
 62
     5
420
      255
176
     1
290
     0
176
     1
 90
       50
176
     1
 90
       50
176
     1
 90
       50
176
     1
290
     0
176
     1
 90
       50
176
     1
 62
   256
176
     0
 40
1.0
176
     0
 90
        2
176
     1
  1
strokes_ogs.tif
176
     1
290
     0
176
     1
 40
1.0
176
     1
 40
1.0
176
     1
  0
VISUALSTYLE
  5
7EED
102
{ACAD_REACTORS
330
7EDA
102
}
330
7EDA
100
AcDbVisualStyle
  2
X-Ray
 70
    25
177
     3
291
     0
 70
    58
 90
        2
176
     1
 90
        2
176
     1
 90
        1
176
     1
 90
        1
176
     1
 40
0.5
176
     1
 40
30.0
176
     1
 62
     7
420
 16777215
176
     1
 90
        1
176
     1
 90
        0
176
     1
 62
     7
176
     1
 62
   257
176
     1
 90
        1
176
     1
 90
        1
176
     1
 40
1.0
176
     1
 90
        8
176
     1
 62
     7
176
     1
 40
1.0
176
     1
 90
        1
176
     1
 90
        6
176
     1
 90
        2
176
     1
 62
     7
176
     1
 90
        3
176
     1
 90
        0
176
     1
 90
        0
176
     1
290
     0
176
     1
 90
       13
176
     1
 40
0.0
176
     1
 90
        0
176
     1
290
     0
176
     1
290
     1
176
     1
290
     1
176
     1
290
     0
176
     1
290
     0
176
     1
290
     0
176
     1
290
     0
176
     1
290
     0
176
     1
290
     0
176
     1
 90
       50
176
     1
 40
0.0
176
     1
 40
1.0
176
     1
 90
        0
176
     1
 62
    18
420
        0
176
     1
 90
       50
176
     1
 90
        3
176
     1
 62
     5
420
      255
176
     1
290
     0
176
     1
 90
       50
176
     1
 90
       50
176
     1
 90
       50
176
     1
290
     0
176
     1
 90
       50
176
     1
 62
   256
176
     0
 40
1.0
176
     0
 90
        2
176
     1
  1
strokes_ogs.tif
176
     1
290
     0
176
     1
 40
1.0
176
     1
 40
1.0
176
     1
  0
DICTIONARYVAR
  5
7F7B
102
{ACAD_REACTORS
330
7EB4
102
}
330
7EB4
100
DictionaryVariables
280
     0
  1
1:1
  0
DICTIONARYVAR
  5
7F77
102
{ACAD_REACTORS
330
7EB4
102
}
330
7EB4
100
DictionaryVariables
280
     0
  1
STANDARD
  0
DICTIONARYVAR
  5
7F76
102
{ACAD_REACTORS
330
7EB4
102
}
330
7EB4
100
DictionaryVariables
280
     0
  1
STANDARD
  0
DICTIONARYVAR
  5
7F78
102
{ACAD_REACTORS
330
7EB4
102
}
330
7EB4
100
DictionaryVariables
280
     0
  1
Imperial24
  0
DICTIONARYVAR
  5
7F79
102
{ACAD_REACTORS
330
7EB4
102
}
330
7EB4
100
DictionaryVariables
280
     0
  1
Imperial24
  0
DICTIONARYVAR
  5
7EB5
102
{ACAD_REACTORS
330
7EB4
102
}
330
7EB4
100
DictionaryVariables
280
     0
  1
1
  0
DICTIONARYVAR
  5
7F7D
102
{ACAD_REACTORS
330
7EB4
102
}
330
7EB4
100
DictionaryVariables
280
     0
  1
1
  0
DICTIONARYVAR
  5
7F7E
102
{ACAD_REACTORS
330
7EB4
102
}
330
7EB4
100
DictionaryVariables
280
     0
  1
15
  0
DICTIONARYVAR
  5
7F7C
102
{ACAD_REACTORS
330
7EB4
102
}
330
7EB4
100
DictionaryVariables
280
     0
  1
0
  0
DICTIONARYVAR
  5
7F7A
102
{ACAD_REACTORS
330
7EB4
102
}
330
7EB4
100
DictionaryVariables
280
     0
  1
0
  0
DICTIONARY
  5
7F73
330
7F0D
100
AcDbDictionary
280
     1
281
     1
  3
ACAD_XREC_ROUNDTRIP
360
7FC5
  0
DICTIONARY
  5
7ECB
330
7ECA
100
AcDbDictionary
280
     1
281
     1
  3
BUMPTILE
360
7ECD
  3
DIFFUSETILE
360
7ECC
  3
OPACITYTILE
360
7ED0
  3
REFLECTIONTILE
360
7ECF
  3
REFRACTIONTILE
360
7ED1
  3
SPECULARTILE
360
7ECE
  0
DICTIONARY
  5
7EC3
330
7EC2
100
AcDbDictionary
280
     1
281
     1
  3
BUMPTILE
360
7EC5
  3
DIFFUSETILE
360
7EC4
  3
OPACITYTILE
360
7EC8
  3
REFLECTIONTILE
360
7EC7
  3
REFRACTIONTILE
360
7EC9
  3
SPECULARTILE
360
7EC6
  0
DICTIONARY
  5
7ED3
330
7ED2
100
AcDbDictionary
280
     1
281
     1
  3
BUMPTILE
360
7ED5
  3
DIFFUSETILE
360
7ED4
  3
OPACITYTILE
360
7ED8
  3
REFLECTIONTILE
360
7ED7
  3
REFRACTIONTILE
360
7ED9
  3
SPECULARTILE
360
7ED6
  0
DICTIONARY
  5
7F71
330
7F0B
100
AcDbDictionary
280
     1
281
     1
  3
ACAD_XREC_ROUNDTRIP
360
7FC4
  0
DICTIONARY
  5
7FC2
330
7EF5
100
AcDbDictionary
280
     1
281
     1
  3
ACAD_ROUNDTRIP_2008_TABLESTYLE_CELLSTYLEMAP
360
7FC3
  0
XRECORD
  5
7FC5
102
{ACAD_REACTORS
330
7F73
102
}
330
7F73
100
AcDbXrecord
280
     1
102
DISPLAYNAME
  1
Imperial24
102
FLAGS
 90
        0
  0
XRECORD
  5
7ECD
102
{ACAD_REACTORS
330
7ECB
102
}
330
7ECB
100
AcDbXrecord
280
     1
270
     1
271
     1
  0
XRECORD
  5
7ECC
102
{ACAD_REACTORS
330
7ECB
102
}
330
7ECB
100
AcDbXrecord
280
     1
270
     1
271
     1
  0
XRECORD
  5
7ED0
102
{ACAD_REACTORS
330
7ECB
102
}
330
7ECB
100
AcDbXrecord
280
     1
270
     1
271
     1
  0
XRECORD
  5
7ECF
102
{ACAD_REACTORS
330
7ECB
102
}
330
7ECB
100
AcDbXrecord
280
     1
270
     1
271
     1
  0
XRECORD
  5
7ED1
102
{ACAD_REACTORS
330
7ECB
102
}
330
7ECB
100
AcDbXrecord
280
     1
270
     1
271
     1
  0
XRECORD
  5
7ECE
102
{ACAD_REACTORS
330
7ECB
102
}
330
7ECB
100
AcDbXrecord
280
     1
270
     1
271
     1
  0
XRECORD
  5
7EC5
102
{ACAD_REACTORS
330
7EC3
102
}
330
7EC3
100
AcDbXrecord
280
     1
270
     1
271
     1
  0
XRECORD
  5
7EC4
102
{ACAD_REACTORS
330
7EC3
102
}
330
7EC3
100
AcDbXrecord
280
     1
270
     1
271
     1
  0
XRECORD
  5
7EC8
102
{ACAD_REACTORS
330
7EC3
102
}
330
7EC3
100
AcDbXrecord
280
     1
270
     1
271
     1
  0
XRECORD
  5
7EC7
102
{ACAD_REACTORS
330
7EC3
102
}
330
7EC3
100
AcDbXrecord
280
     1
270
     1
271
     1
  0
XRECORD
  5
7EC9
102
{ACAD_REACTORS
330
7EC3
102
}
330
7EC3
100
AcDbXrecord
280
     1
270
     1
271
     1
  0
XRECORD
  5
7EC6
102
{ACAD_REACTORS
330
7EC3
102
}
330
7EC3
100
AcDbXrecord
280
     1
270
     1
271
     1
  0
XRECORD
  5
7ED5
102
{ACAD_REACTORS
330
7ED3
102
}
330
7ED3
100
AcDbXrecord
280
     1
270
     1
271
     1
  0
XRECORD
  5
7ED4
102
{ACAD_REACTORS
330
7ED3
102
}
330
7ED3
100
AcDbXrecord
280
     1
270
     1
271
     1
  0
XRECORD
  5
7ED8
102
{ACAD_REACTORS
330
7ED3
102
}
330
7ED3
100
AcDbXrecord
280
     1
270
     1
271
     1
  0
XRECORD
  5
7ED7
102
{ACAD_REACTORS
330
7ED3
102
}
330
7ED3
100
AcDbXrecord
280
     1
270
     1
271
     1
  0
XRECORD
  5
7ED9
102
{ACAD_REACTORS
330
7ED3
102
}
330
7ED3
100
AcDbXrecord
280
     1
270
     1
271
     1
  0
XRECORD
  5
7ED6
102
{ACAD_REACTORS
330
7ED3
102
}
330
7ED3
100
AcDbXrecord
280
     1
270
     1
271
     1
  0
XRECORD
  5
7FC4
102
{ACAD_REACTORS
330
7F71
102
}
330
7F71
100
AcDbXrecord
280
     1
102
DISPLAYNAME
  1
Imperial24
102
FLAGS
 90
        0
  0
CELLSTYLEMAP
  5
7FC3
102
{ACAD_REACTORS
330
7FC2
102
}
330
7FC2
100
AcDbCellStyleMap
 90
        3
300
CELLSTYLE
  1
TABLEFORMAT_BEGIN
 90
        5
170
     1
 91
        0
 92
    32768
 62
   257
 93
        1
300
CONTENTFORMAT
  1
CONTENTFORMAT_BEGIN
 90
        0
 91
        0
 92
      512
 93
        0
300

 40
0.0
140
1.0
 94
        5
 62
     0
340
10
144
0.25
309
CONTENTFORMAT_END
171
     0
 94
        0
309
TABLEFORMAT_END
  1
CELLSTYLE_BEGIN
 90
        1
 91
        1
300
_TITLE
309
CELLSTYLE_END
300
CELLSTYLE
  1
TABLEFORMAT_BEGIN
 90
        5
170
     1
 91
        0
 92
        0
 62
   257
 93
        1
300
CONTENTFORMAT
  1
CONTENTFORMAT_BEGIN
 90
        0
 91
        0
 92
      512
 93
        0
300

 40
0.0
140
1.0
 94
        5
 62
     0
340
10
144
0.18
309
CONTENTFORMAT_END
171
     0
 94
        0
309
TABLEFORMAT_END
  1
CELLSTYLE_BEGIN
 90
        2
 91
        1
300
_HEADER
309
CELLSTYLE_END
300
CELLSTYLE
  1
TABLEFORMAT_BEGIN
 90
        5
170
     1
 91
        0
 92
        0
 62
   257
 93
        1
300
CONTENTFORMAT
  1
CONTENTFORMAT_BEGIN
 90
        0
 91
        0
 92
      512
 93
        0
300

 40
0.0
140
1.0
 94
        2
 62
     0
340
10
144
0.18
309
CONTENTFORMAT_END
171
     0
 94
        0
309
TABLEFORMAT_END
  1
CELLSTYLE_BEGIN
 90
        3
 91
        2
300
_DATA
309
CELLSTYLE_END
  0
ENDSEC
  0
SECTION
  2
ACDSDATA
 70
     2
 71
     8
  0
ACDSSCHEMA
 90
        0
  1
AcDb_Thumbnail_Schema
  2
AcDbDs::ID
280
    10
 91
        8
  2
Thumbnail_Data
280
    15
 91
        0
101
ACDSRECORD
 95
        0
 90
        1
  2
AcDbDs::TreatedAsObjectData
280
     1
291
     1
101
ACDSRECORD
 95
        0
 90
        2
  2
AcDbDs::Legacy
280
     1
291
     1
101
ACDSRECORD
  1
AcDbDs::ID
 90
        3
  2
AcDs:Indexable
280
     1
291
     1
101
ACDSRECORD
  1
AcDbDs::ID
 90
        4
  2
AcDbDs::HandleAttribute
280
     7
282
     1
  0
ACDSSCHEMA
 90
        1
  1
AcDbDs::TreatedAsObjectDataSchema
  2
AcDbDs::TreatedAsObjectData
280
     1
 91
        0
  0
ACDSSCHEMA
 90
        2
  1
AcDbDs::LegacySchema
  2
AcDbDs::Legacy
280
     1
 91
        0
  0
ACDSSCHEMA
 90
        3
  1
AcDbDs::IndexedPropertySchema
  2
AcDs:Indexable
280
     1
 91
        0
  0
ACDSSCHEMA
 90
        4
  1
AcDbDs::HandleAttributeSchema
  2
AcDbDs::HandleAttribute
280
     7
 91
        1
284
     1
  0
ACDSRECORD
 90
        0
  2
AcDbDs::ID
280
    10
320
7E0A
  2
Thumbnail_Data
280
    15
 94
     1751
310
89504E470D0A1A0A0000000D49484452000001000000007C0803000000B13B9E5A00000300504C5445000000000000C8C8C80000000000000000000000000000000000000000000000000000330000660000990000CC0000FF0033000033330033660033990033CC0033FF0066000066330066660066990066CC0066FF0099
310
000099330099660099990099CC0099FF00CC0000CC3300CC6600CC9900CCCC00CCFF00FF0000FF3300FF6600FF9900FFCC00FFFF3300003300333300663300993300CC3300FF3333003333333333663333993333CC3333FF3366003366333366663366993366CC3366FF3399003399333399663399993399CC3399FF33CC00
310
33CC3333CC6633CC9933CCCC33CCFF33FF0033FF3333FF6633FF9933FFCC33FFFF6600006600336600666600996600CC6600FF6633006633336633666633996633CC6633FF6666006666336666666666996666CC6666FF6699006699336699666699996699CC6699FF66CC0066CC3366CC6666CC9966CCCC66CCFF66FF0066
310
FF3366FF6666FF9966FFCC66FFFF9900009900339900669900999900CC9900FF9933009933339933669933999933CC9933FF9966009966339966669966999966CC9966FF9999009999339999669999999999CC9999FF99CC0099CC3399CC6699CC9999CCCC99CCFF99FF0099FF3399FF6699FF9999FFCC99FFFFCC0000CC00
310
33CC0066CC0099CC00CCCC00FFCC3300CC3333CC3366CC3399CC33CCCC33FFCC6600CC6633CC6666CC6699CC66CCCC66FFCC9900CC9933CC9966CC9999CC99CCCC99FFCCCC00CCCC33CCCC66CCCC99CCCCCCCCCCFFCCFF00CCFF33CCFF66CCFF99CCFFCCCCFFFFFF0000FF0033FF0066FF0099FF00CCFF00FFFF3300FF3333
310
FF3366FF3399FF33CCFF33FFFF6600FF6633FF6666FF6699FF66CCFF66FFFF9900FF9933FF9966FF9999FF99CCFF99FFFFCC00FFCC33FFCC66FFCC99FFCCCCFFCCFFFFFF00FFFF33FFFF66FFFF99FFFFCCFFFFFF0000000D0D0D1A1A1A2828283535354343435050505D5D5D6B6B6B787878868686939393A1A1A1AEAEAEBB
310
BBBBC9C9C9D6D6D6E4E4E4F1F1F1FFFFFF00000000000000000000000000000000000000000000000000000000000008F1915C0000035D4944415478DAED9D5B8E23210C45BD1C7ED8FF66D806FF9D800143994AF568A40EF6BD52BA9E89E483C1E6D182E8FB94359123E587F7EC02C8577B9D01B83ABD3B0F5809A00D38D5
310
8FFF9B4C14E3F7FC1C00FC1180EACAB9B473E5A25EB61B5C73EC002826769365851647521FF06FE4D30170A1AF66CA1BED0DD9DCB14B503E1C0075F3AE1E40A3C0A95E7777607093D9E7B6015315E02CB7FDED38A4DDBD6598AC461400006482EE74BECD7A396E4A378F6FD0680F0F2FF967004608180048440B8B1E30E73D
310
6C318DACA0037059F71D8E80401004411004410615E3DDC354E418407908000E010400A8CFFC018855818F2E00CC72E901C2FAB8C07102A09DF7D3000000D00078C80425804B147006A0FE7901E000E11B0001C0FBE01E80E128101EC9592AAC64C6E6AB408B7EE25EA835C3110092DD80F84A84BC01F0ED0157D54CD00580
310
743B24E6605458B72EDC3E350B6014B77B00E408C0BD0882200882200882E6F4913C6789234D769A2C4F009245EBB48EE1B6F764B973F8A1FF5C5E3107807AD5FE0C800C02A887B0DAAA01B059057E03A0BC6710408C77E3430240193E3700404E08A4E942263ECDF4D4E750A2150F903303494E8CA800C62C1A0338BF1D98
310
0194A551811E0388640B007DF480A50A580350ED0B65663489802F00D0583C6001400831D4027F1FD2FB8A15970090366B4A0C7880581457E7CBAB07C46A752BFDC90388179A470B55208A0F2D0B641400AD1178BD1BAC00E84BC51940E0B66EEAF74A0F68008AF75800F0AEFF6C3D7114A001A07D560056F280487D4D08D7
310
85C0A7DCE1DD01600F383F15AE0BC37BB9726768E7016B1B6002C0C8075A7CE7FB89560FE8DFE08CD15257A82D906D9D216DF04B02A86D852500FABF50296170AC2633D5171CE9E1FA2CC9918028DE3300E0469BF15F5B1E40371E203A497AB40F4400E005001905A057FEA0360226DB804DEBB7C6C11E0574500763D0174B
310
73612B6120A9A00EEE0DA5DBBB89B627FA7B270390B53C71B3BF012066497832F96000490974DCF9E937241A393C927A6FF164000F164B4F003C2EAAC6B271C2BA7908822008B22EF71B2CAC7BEB8CFB0FBE6A0B405E01F0CE3B729F05B91D93790063EBA1BEE144EEBB0F5902F00FFE9D2D55013482BA4563B32DCA9BE2B6
310
E8012B186AB1213B0520F71EF310062F5560D8EEC403BEA311FC017B67154AB1A631320000000049454E44AE426082546001FF13E0F4C70018B61D320920D906C0F6A0520BE0150DE8B6806F6C05FE0180FD68B02924B2BA0000000049454E44AE426082
  0
ENDSEC
  0
EOF
