  0
SECTION
  2
HEADER
  9
$ACADVER
  1
AC1009
  9
$INSBASE
 10
0.0
 20
0.0
 30
0.0
  9
$EXTMIN
 10
-4024.6532479999992
 20
-2577.2666329999988
 30
0.0
  9
$EXTMAX
 10
-2424.6532480000001
 20
-90.614370999999991
 30
0.0
  9
$LIMMIN
 10
0.0
 20
0.0
  9
$LIMMAX
 10
297.0
 20
210.0
  9
$ORTHOMODE
 70
     0
  9
$REGENMODE
 70
     1
  9
$FILLMODE
 70
     0
  9
$QTEXTMODE
 70
     0
  9
$MIRRTEXT
 70
     1
  9
$DRAGMODE
 70
     2
  9
$LTSCALE
 40
100.0
  9
$OSMODE
 70
    37
  9
$ATTMODE
 70
     1
  9
$TEXTSIZE
 40
180.0
  9
$TRACEWID
 40
0.05
  9
$TEXTSTYLE
  7
STANDARD
  9
$CLAYER
  8
3
  9
$CELTYPE
  6
BYLAYER
  9
$CECOLOR
 62
   256
  9
$DIMSCALE
 40
10.0
  9
$DIMASZ
 40
2.0
  9
$DIMEXO
 40
0.5
  9
$DIMDLI
 40
10.0
  9
$DIMRND
 40
0.0
  9
$DIMDLE
 40
0.0
  9
$DIMEXE
 40
1.0
  9
$DIMTP
 40
1.0
  9
$DIMTM
 40
1.0
  9
$DIMTXT
 40
3.0
  9
$DIMCEN
 40
0.0
  9
$DIMTSZ
 40
0.0
  9
$DIMTOL
 70
     0
  9
$DIMLIM
 70
     0
  9
$DIMTIH
 70
     0
  9
$DIMTOH
 70
     0
  9
$DIMSE1
 70
     0
  9
$DIMSE2
 70
     0
  9
$DIMTAD
 70
     1
  9
$DIMZIN
 70
     8
  9
$DIMBLK
  1

  9
$DIMASO
 70
     1
  9
$DIMSHO
 70
     1
  9
$DIMPOST
  1

  9
$DIMAPOST
  1

  9
$DIMALT
 70
     0
  9
$DIMALTD
 70
     2
  9
$DIMALTF
 40
0.039
  9
$DIMLFAC
 40
1.0
  9
$DIMTOFL
 70
     1
  9
$DIMTVP
 40
0.0
  9
$DIMTIX
 70
     0
  9
$DIMSOXD
 70
     0
  9
$DIMSAH
 70
     1
  9
$DIMBLK1
  1
OPEN
  9
$DIMBLK2
  1
OPEN
  9
$DIMSTYLE
  2
IGA
  9
$DIMCLRD
 70
     0
  9
$DIMCLRE
 70
     0
  9
$DIMCLRT
 70
     0
  9
$DIMTFAC
 40
10.0
  9
$DIMGAP
 40
1.0
  9
$LUNITS
 70
     2
  9
$LUPREC
 70
     3
  9
$SKETCHINC
 40
0.1
  9
$FILLETRAD
 40
50.0
  9
$AUNITS
 70
     0
  9
$AUPREC
 70
     0
  9
$MENU
  1
acad
  9
$ELEVATION
 40
0.0
  9
$PELEVATION
 40
0.0
  9
$THICKNESS
 40
0.0
  9
$LIMCHECK
 70
     0
  9
$BLIPMODE
 70
     0
  9
$CHAMFERA
 40
0.5
  9
$CHAMFERB
 40
0.5
  9
$SKPOLY
 70
     0
  9
$TDCREATE
 40
2450737.3430712959
  9
$TDUPDATE
 40
2454953.8588677892
  9
$TDINDWG
 40
0.0057727431
  9
$TDUSRTIMER
 40
0.0057727431
  9
$USRTIMER
 70
     1
  9
$ANGBASE
 50
0.0
  9
$ANGDIR
 70
     0
  9
$PDMODE
 70
     0
  9
$PDSIZE
 40
0.0
  9
$PLINEWID
 40
0.0
  9
$COORDS
 70
     1
  9
$SPLFRAME
 70
     0
  9
$SPLINETYPE
 70
     6
  9
$SPLINESEGS
 70
     8
  9
$ATTDIA
 70
     0
  9
$ATTREQ
 70
     1
  9
$HANDLING
 70
 10241
  9
$HANDSEED
  5
7FB6
  9
$SURFTAB1
 70
     6
  9
$SURFTAB2
 70
     6
  9
$SURFTYPE
 70
     6
  9
$SURFU
 70
     6
  9
$SURFV
 70
     6
  9
$UCSNAME
  2

  9
$UCSORG
 10
0.0
 20
0.0
 30
0.0
  9
$UCSXDIR
 10
1.0
 20
0.0
 30
0.0
  9
$UCSYDIR
 10
0.0
 20
1.0
 30
0.0
  9
$PUCSNAME
  2

  9
$PUCSORG
 10
0.0
 20
0.0
 30
0.0
  9
$PUCSXDIR
 10
1.0
 20
0.0
 30
0.0
  9
$PUCSYDIR
 10
0.0
 20
1.0
 30
0.0
  9
$USERI1
 70
     0
  9
$USERI2
 70
     0
  9
$USERI3
 70
     0
  9
$USERI4
 70
     0
  9
$USERI5
 70
     0
  9
$USERR1
 40
0.0
  9
$USERR2
 40
0.0
  9
$USERR3
 40
0.0
  9
$USERR4
 40
0.0
  9
$USERR5
 40
0.0
  9
$WORLDVIEW
 70
     1
  9
$SHADEDGE
 70
     3
  9
$SHADEDIF
 70
    70
  9
$TILEMODE
 70
     1
  9
$MAXACTVP
 70
    16
  9
$PLIMCHECK
 70
     0
  9
$PEXTMIN
 10
1.0000000000000000E+020
 20
1.0000000000000000E+020
 30
1.0000000000000000E+020
  9
$PEXTMAX
 10
-1.0000000000000000E+020
 20
-1.0000000000000000E+020
 30
-1.0000000000000000E+020
  9
$PLIMMIN
 10
0.0
 20
0.0
  9
$PLIMMAX
 10
12.0
 20
9.0
  9
$UNITMODE
 70
     0
  9
$VISRETAIN
 70
     0
  9
$PLINEGEN
 70
     0
  9
$PSLTSCALE
 70
     1
  0
ENDSEC
  0
SECTION
  2
TABLES
  0
TABLE
  2
VPORT
 70
     2
  0
VPORT
  2
*ACTIVE
 70
     0
 10
0.0
 20
0.0
 11
1.0
 21
1.0
 12
-1588.65381740464
 22
-1028.255828695354
 13
0.0
 23
0.0
 14
10.0
 24
10.0
 15
10.0
 25
10.0
 16
0.0
 26
0.0
 36
1.0
 17
0.0
 27
0.0
 37
0.0
 40
3552.2128489284032
 41
1.5051150895140659
 42
50.0
 43
0.0
 44
0.0
 50
0.0
 51
0.0
 71
     0
 72
   100
 73
     1
 74
     0
 75
     0
 76
     0
 77
     0
 78
     0
  0
ENDTAB
  0
TABLE
  2
LTYPE
 70
     2
  0
LTYPE
  2
CONTINUOUS
 70
     0
  3
Solid line
 72
    65
 73
     0
 40
0.0
  0
LTYPE
  2
CENTER
 70
     0
  3
____ _ ____ _ ____ _ ____ _ ____ _ ____ _ ____ 
 72
    65
 73
     4
 40
2.0
 49
1.25
 49
-0.25
 49
0.25
 49
-0.25
  0
ENDTAB
  0
TABLE
  2
LAYER
 70
     6
  0
LAYER
  2
0
 70
     0
 62
     7
  6
CONTINUOUS
  0
LAYER
  2
3
 70
     0
 62
     2
  6
CONTINUOUS
  0
LAYER
  2
2
 70
     0
 62
     3
  6
CENTER
  0
LAYER
  2
1
 70
     0
 62
     4
  6
CONTINUOUS
  0
LAYER
  2
4
 70
     0
 62
     7
  6
CONTINUOUS
  0
LAYER
  2
DEFPOINTS
 70
     0
 62
     7
  6
CONTINUOUS
  0
ENDTAB
  0
TABLE
  2
STYLE
 70
     1
  0
STYLE
  2
STANDARD
 70
     0
 40
0.0
 41
1.0
 50
0.0
 71
     0
 42
180.0
  3
simplex.shx
  4
extfont.shx
  0
ENDTAB
  0
TABLE
  2
VIEW
 70
     0
  0
ENDTAB
  0
TABLE
  2
UCS
 70
     0
  0
ENDTAB
  0
TABLE
  2
APPID
 70
     1
  0
APPID
  2
ACAD
 70
     0
  0
ENDTAB
  0
TABLE
  2
DIMSTYLE
 70
     1
  0
DIMSTYLE
  2
IGA
 70
     0
  3

  4

  5

  6
OPEN
  7
OPEN
 40
2.0
 41
2.0
 42
0.5
 43
10.0
 44
1.0
 45
0.0
 46
0.0
 47
1.0
 48
1.0
140
3.0
141
0.0
142
0.0
143
0.03937
144
1.0
145
0.0
146
10.0
147
1.0
 71
     0
 72
     0
 73
     0
 74
     0
 75
     0
 76
     0
 77
     1
 78
     8
170
     0
171
     2
172
     0
173
     1
174
     0
175
     0
176
     0
177
     0
178
     0
  0
ENDTAB
  0
ENDSEC
  0
SECTION
  2
BLOCKS
  0
BLOCK
  8
0
  2
$MODEL_SPACE
 70
     0
 10
0.0
 20
0.0
 30
0.0
  3
$MODEL_SPACE
  1

  0
ENDBLK
  5
1B
  8
0
  0
BLOCK
 67
     1
  8
0
  2
$PAPER_SPACE
 70
     0
 10
0.0
 20
0.0
 30
0.0
  3
$PAPER_SPACE
  1

  0
ENDBLK
  5
18
 67
     1
  8
0
  0
BLOCK
  8
0
  2
_OPEN
 70
     0
 10
0.0
 20
0.0
 30
0.0
  3
_OPEN
  1

  0
LINE
  5
7B51
  8
0
  6
BYBLOCK
 62
     0
 10
-1.0
 20
0.166667
 30
0.0
 11
0.0
 21
0.0
 31
0.0
  0
LINE
  5
7B52
  8
0
  6
BYBLOCK
 62
     0
 10
0.0
 20
0.0
 30
0.0
 11
-1.0
 21
-0.166667
 31
0.0
  0
LINE
  5
7B53
  8
0
  6
BYBLOCK
 62
     0
 10
0.0
 20
0.0
 30
0.0
 11
-1.0
 21
0.0
 31
0.0
  0
ENDBLK
  5
7B54
  8
0
  0
BLOCK
  8
0
  2
*D1
 70
     1
 10
0.0
 20
0.0
 30
0.0
  3
*D1
  1

  0
LINE
  5
7F14
  8
3
  6
CONTINUOUS
 62
     0
 10
-3769.3258116599109
 20
-2133.2648960000001
 30
0.0
 11
-3769.3258116599109
 21
-2183.9669899999999
 31
0.0
  0
LINE
  5
7F15
  8
3
  6
CONTINUOUS
 62
     0
 10
-3609.3258116599109
 20
-2108.2648960000001
 30
0.0
 11
-3609.3258116599109
 21
-2183.9669899999999
 31
0.0
  0
LINE
  5
7F16
  8
3
  6
CONTINUOUS
 62
     0
 10
-3749.3258116599109
 20
-2173.966989999999
 30
0.0
 11
-3629.3258116599109
 21
-2173.966989999999
 31
0.0
  0
INSERT
  5
7F17
  8
3
  6
CONTINUOUS
 62
     0
  2
_OPEN
 10
-3769.3258116599109
 20
-2173.966989999999
 30
0.0
 41
20.0
 42
20.0
 43
20.0
 50
180.0
  0
INSERT
  5
7F18
  8
3
  6
CONTINUOUS
 62
     0
  2
_OPEN
 10
-3609.3258116599109
 20
-2173.966989999999
 30
0.0
 41
20.0
 42
20.0
 43
20.0
  0
TEXT
  8
3
  40
30
  5
7FA5
  62
0
  72
0
  71
0
 10
-3746.32
 20
-2202.07
 30
0.000000
  1
160
  0
POINT
  5
7F1A
  8
DEFPOINTS
  6
CONTINUOUS
 62
     0
 10
-3769.3258116599109
 20
-2128.2648960000001
 30
0.0
  0
POINT
  5
7F1B
  8
DEFPOINTS
  6
CONTINUOUS
 62
     0
 10
-3609.3258116599109
 20
-2103.2648960000001
 30
0.0
  0
POINT
  5
7F1C
  8
DEFPOINTS
  6
CONTINUOUS
 62
     0
 10
-3609.3258116599109
 20
-2173.966989999999
 30
0.0
  0
ENDBLK
  5
7B62
  8
0
  0
BLOCK
  8
0
  2
*D2
 70
     1
 10
0.0
 20
0.0
 30
0.0
  3
*D2
  1

  0
LINE
  5
7F1D
  8
3
  6
CONTINUOUS
 62
     0
 10
-3159.3258116599109
 20
-2133.2648960000001
 30
0.0
 11
-3159.3258116599109
 21
-2183.9669899999999
 31
0.0
  0
LINE
  5
7F1E
  8
3
  6
CONTINUOUS
 62
     0
 10
-3589.3258116599109
 20
-2173.966989999999
 30
0.0
 11
-3179.3258116599109
 21
-2173.966989999999
 31
0.0
  0
INSERT
  5
7F1F
  8
3
  6
CONTINUOUS
 62
     0
  2
_OPEN
 10
-3609.3258116599109
 20
-2173.966989999999
 30
0.0
 41
20.0
 42
20.0
 43
20.0
 50
180.0
  0
INSERT
  5
7F20
  8
3
  6
CONTINUOUS
 62
     0
  2
_OPEN
 10
-3159.3258116599109
 20
-2173.966989999999
 30
0.0
 41
20.0
 42
20.0
 43
20.0
  0
TEXT
  8
3
  40
30
  5
7FA6
  62
0
  72
0
  71
0
 10
-3444.33
 20
-2202.07
 30
0.000000
  1
450
  0
POINT
  5
7F22
  8
DEFPOINTS
  6
CONTINUOUS
 62
     0
 10
-3609.3258116599109
 20
-2103.2648960000001
 30
0.0
  0
POINT
  5
7F23
  8
DEFPOINTS
  6
CONTINUOUS
 62
     0
 10
-3159.3258116599109
 20
-2128.2648960000001
 30
0.0
  0
POINT
  5
7F24
  8
DEFPOINTS
  6
CONTINUOUS
 62
     0
 10
-3159.3258116599109
 20
-2173.966989999999
 30
0.0
  0
ENDBLK
  5
7B6F
  8
0
  0
BLOCK
  8
0
  2
*D3
 70
     1
 10
0.0
 20
0.0
 30
0.0
  3
*D3
  1

  0
LINE
  5
7F25
  8
3
  6
CONTINUOUS
 62
     0
 10
-3744.3258116599109
 20
-1981.2648959999999
 30
0.0
 11
-3783.1081006599111
 21
-1981.2648959999999
 31
0.0
  0
LINE
  5
7F26
  8
3
  6
CONTINUOUS
 62
     0
 10
-3744.3258116599109
 20
-1821.2648959999999
 30
0.0
 11
-3783.1081006599111
 21
-1821.2648959999999
 31
0.0
  0
LINE
  5
7F27
  8
3
  6
CONTINUOUS
 62
     0
 10
-3773.1081006599111
 20
-1961.2648959999999
 30
0.0
 11
-3773.1081006599111
 21
-1841.2648959999999
 31
0.0
  0
INSERT
  5
7F28
  8
3
  6
CONTINUOUS
 62
     0
  2
_OPEN
 10
-3773.1081006599111
 20
-1981.2648959999999
 30
0.0
 41
20.0
 42
20.0
 43
20.0
 50
270.0
  0
INSERT
  5
7F29
  8
3
  6
CONTINUOUS
 62
     0
  2
_OPEN
 10
-3773.1081006599111
 20
-1821.2648959999999
 30
0.0
 41
20.0
 42
20.0
 43
20.0
 50
90.0
  0
TEXT
  8
3
  40
30
  5
7FA7
  62
0
  72
0
  71
0
 10
-3858.11
 20
-1952.23
 30
0.000000
  1
160
  0
POINT
  5
7F2B
  8
DEFPOINTS
  6
CONTINUOUS
 62
     0
 10
-3739.3258116599109
 20
-1981.2648959999999
 30
0.0
  0
POINT
  5
7F2C
  8
DEFPOINTS
  6
CONTINUOUS
 62
     0
 10
-3739.3258116599109
 20
-1821.2648959999999
 30
0.0
  0
POINT
  5
7F2D
  8
DEFPOINTS
  6
CONTINUOUS
 62
     0
 10
-3773.1081006599111
 20
-1821.2648959999999
 30
0.0
  0
ENDBLK
  5
7B7C
  8
0
  0
BLOCK
  8
0
  2
*D4
 70
     1
 10
0.0
 20
0.0
 30
0.0
  3
*D4
  1

  0
LINE
  5
7DB3
  8
0
  6
BYBLOCK
 62
     0
 10
-3739.3258116599109
 20
-1794.2648959999999
 30
0.0
 11
-3739.3258116599109
 21
-1654.28667
 31
0.0
  0
LINE
  5
7DB4
  8
0
  6
BYBLOCK
 62
     0
 10
-3609.3258116599109
 20
-1693.6207139999999
 30
0.0
 11
-3609.3258116599109
 21
-1654.28667
 31
0.0
  0
LINE
  5
7DB5
  8
0
  6
BYBLOCK
 62
     0
 10
-3719.3258116599109
 20
-1664.28667
 30
0.0
 11
-3629.3258116599109
 21
-1664.28667
 31
0.0
  0
TEXT
  5
7DB6
  8
3
 62
     0
 10
-3710.0400973741962
 20
-1657.7367335288791
 30
0.0
 40
30.0
  1
130
  0
INSERT
  5
7DB7
  8
0
  6
BYBLOCK
 62
     0
  2
_OPEN
 10
-3739.3258116599109
 20
-1664.28667
 30
0.0
 41
20.0
 42
20.0
 43
20.0
 50
180.0
  0
INSERT
  5
7DB8
  8
0
  6
BYBLOCK
 62
     0
  2
_OPEN
 10
-3609.3258116599109
 20
-1664.28667
 30
0.0
 41
20.0
 42
20.0
 43
20.0
  0
POINT
  5
7DB9
  8
DEFPOINTS
  6
BYBLOCK
 62
     0
 10
-3739.3258116599109
 20
-1799.2648959999999
 30
0.0
  0
POINT
  5
7DBA
  8
DEFPOINTS
  6
BYBLOCK
 62
     0
 10
-3609.3258116599109
 20
-1698.6207139999999
 30
0.0
  0
POINT
  5
7DBB
  8
DEFPOINTS
  6
BYBLOCK
 62
     0
 10
-3609.3258116599109
 20
-1664.28667
 30
0.0
  0
ENDBLK
  5
7DBC
  8
0
  0
BLOCK
  8
0
  2
*D5
 70
     1
 10
0.0
 20
0.0
 30
0.0
  3
*D5
  1

  0
LINE
  5
7DC9
  8
0
  6
BYBLOCK
 62
     0
 10
-3614.3258116599109
 20
-1698.6207139999999
 30
0.0
 11
-3889.3809356599108
 21
-1698.6207139999999
 31
0.0
  0
LINE
  5
7DCA
  8
0
  6
BYBLOCK
 62
     0
 10
-3749.3258116599109
 20
-1821.2648959999999
 30
0.0
 11
-3889.3809356599108
 21
-1821.2648959999999
 31
0.0
  0
LINE
  5
7DCB
  8
0
  6
BYBLOCK
 62
     0
 10
-3879.3809356599108
 20
-1718.6207139999999
 30
0.0
 11
-3879.3809356599108
 21
-1801.2648959999999
 31
0.0
  0
TEXT
  5
7DCC
  8
3
 62
     0
 10
-3890.1583953788918
 20
-1795.657090714285
 30
0.0
 40
30.0
  1
123
 50
90.0
  0
INSERT
  5
7DCD
  8
0
  6
BYBLOCK
 62
     0
  2
_OPEN
 10
-3879.3809356599108
 20
-1698.6207139999999
 30
0.0
 41
20.0
 42
20.0
 43
20.0
 50
90.0
  0
INSERT
  5
7DCE
  8
0
  6
BYBLOCK
 62
     0
  2
_OPEN
 10
-3879.3809356599108
 20
-1821.2648959999999
 30
0.0
 41
20.0
 42
20.0
 43
20.0
 50
270.0
  0
POINT
  5
7DCF
  8
DEFPOINTS
  6
BYBLOCK
 62
     0
 10
-3609.3258116599109
 20
-1698.6207139999999
 30
0.0
  0
POINT
  5
7DD0
  8
DEFPOINTS
  6
BYBLOCK
 62
     0
 10
-3744.3258116599109
 20
-1821.2648959999999
 30
0.0
  0
POINT
  5
7DD1
  8
DEFPOINTS
  6
BYBLOCK
 62
     0
 10
-3879.3809356599108
 20
-1821.2648959999999
 30
0.0
  0
ENDBLK
  5
7DD2
  8
0
  0
BLOCK
  8
0
  2
*D6
 70
     1
 10
0.0
 20
0.0
 30
0.0
  3
*D6
  1

  0
LINE
  5
7F2E
  8
3
  6
CONTINUOUS
 62
     0
 10
-3749.3258116599109
 20
-2056.2648960000001
 30
0.0
 11
-3889.3809356599108
 21
-2056.2648960000001
 31
0.0
  0
LINE
  5
7F2F
  8
3
  6
CONTINUOUS
 62
     0
 10
-3879.3809356599108
 20
-1841.2648959999999
 30
0.0
 11
-3879.3809356599108
 21
-2036.2648959999999
 31
0.0
  0
INSERT
  5
7F30
  8
3
  6
CONTINUOUS
 62
     0
  2
_OPEN
 10
-3879.3809356599108
 20
-1821.2648959999999
 30
0.0
 41
20.0
 42
20.0
 43
20.0
 50
90.0
  0
INSERT
  5
7F31
  8
3
  6
CONTINUOUS
 62
     0
  2
_OPEN
 10
-3879.3809356599108
 20
-2056.2648960000001
 30
0.0
 41
20.0
 42
20.0
 43
20.0
 50
270.0
  0
TEXT
  8
3
  40
30
  5
7FA8
  62
0
  72
0
  71
0
 10
-3964.38
 20
-1991.86
 30
0.000000
  1
235
  0
POINT
  5
7F33
  8
DEFPOINTS
  6
CONTINUOUS
 62
     0
 10
-3744.3258116599109
 20
-1821.2648959999999
 30
0.0
  0
POINT
  5
7F34
  8
DEFPOINTS
  6
CONTINUOUS
 62
     0
 10
-3744.3258116599109
 20
-2056.2648960000001
 30
0.0
  0
POINT
  5
7F35
  8
DEFPOINTS
  6
CONTINUOUS
 62
     0
 10
-3879.3809356599108
 20
-2056.2648960000001
 30
0.0
  0
ENDBLK
  5
7CE2
  8
0
  0
BLOCK
  8
0
  2
*D7
 70
     1
 10
0.0
 20
0.0
 30
0.0
  3
*D7
  1

  0
LINE
  5
7F36
  8
3
  6
CONTINUOUS
 62
     0
 10
-3774.3258116599109
 20
-2103.2648960000001
 30
0.0
 11
-3889.3809356599108
 21
-2103.2648960000001
 31
0.0
  0
LINE
  5
7F37
  8
3
  6
CONTINUOUS
 62
     0
 10
-3879.3809356599108
 20
-2036.2648959999999
 30
0.0
 11
-3879.3809356599108
 21
-2016.2648959999999
 31
0.0
  0
LINE
  5
7F38
  8
3
  6
CONTINUOUS
 62
     0
 10
-3879.3809356599108
 20
-2123.2648960000001
 30
0.0
 11
-3879.3809356599108
 21
-2143.2648960000001
 31
0.0
  0
TEXT
  8
3
  40
30
  5
7FA9
  62
0
  72
0
  71
0
 10
-3963.95
 20
-2132.45
 30
0.000000
  1
47
  0
LINE
  5
7F3A
  8
3
  6
CONTINUOUS
 62
     0
 10
-3879.3809356599108
 20
-2056.2648960000001
 30
0.0
 11
-3879.3809356599108
 21
-2103.2648960000001
 31
0.0
  0
INSERT
  5
7F3B
  8
3
  6
CONTINUOUS
 62
     0
  2
_OPEN
 10
-3879.3809356599108
 20
-2056.2648960000001
 30
0.0
 41
20.0
 42
20.0
 43
20.0
 50
270.0
  0
INSERT
  5
7F3C
  8
3
  6
CONTINUOUS
 62
     0
  2
_DOT
 10
-3879.3809356599108
 20
-2103.2648960000001
 30
0.0
 41
20.0
 42
20.0
 43
20.0
 50
90.0
  0
POINT
  5
7F3D
  8
DEFPOINTS
  6
CONTINUOUS
 62
     0
 10
-3744.3258116599109
 20
-2056.2648960000001
 30
0.0
  0
POINT
  5
7F3E
  8
DEFPOINTS
  6
CONTINUOUS
 62
     0
 10
-3769.3258116599109
 20
-2103.2648960000001
 30
0.0
  0
POINT
  5
7F3F
  8
DEFPOINTS
  6
CONTINUOUS
 62
     0
 10
-3879.3809356599108
 20
-2103.2648960000001
 30
0.0
  0
ENDBLK
  5
7E00
  8
0
  0
BLOCK
  8
0
  2
*D8
 70
     1
 10
0.0
 20
0.0
 30
0.0
  3
*D8
  1

  0
LINE
  5
7F40
  8
3
  6
CONTINUOUS
 62
     0
 10
-3774.3258116599109
 20
-2103.2648960000001
 30
0.0
 11
-3889.3809356599108
 21
-2103.2648960000001
 31
0.0
  0
LINE
  5
7F41
  8
3
  6
CONTINUOUS
 62
     0
 10
-3774.3258116599109
 20
-2128.2648960000001
 30
0.0
 11
-3889.3809356599108
 21
-2128.2648960000001
 31
0.0
  0
LINE
  5
7F42
  8
3
  6
CONTINUOUS
 62
     0
 10
-3879.3809356599108
 20
-2083.2648960000001
 30
0.0
 11
-3879.3809356599108
 21
-2063.2648960000001
 31
0.0
  0
LINE
  5
7F43
  8
3
  6
CONTINUOUS
 62
     0
 10
-3879.3809356599108
 20
-2148.2648960000001
 30
0.0
 11
-3879.3809356599108
 21
-2236.8363245714281
 31
0.0
  0
LINE
  5
7F44
  8
3
  6
CONTINUOUS
 62
     0
 10
-3879.3809356599108
 20
-2103.2648960000001
 30
0.0
 11
-3879.3809356599108
 21
-2128.2648960000001
 31
0.0
  0
INSERT
  5
7F45
  8
3
  6
CONTINUOUS
 62
     0
  2
_DOT
 10
-3879.3809356599108
 20
-2103.2648960000001
 30
0.0
 41
20.0
 42
20.0
 43
20.0
 50
270.0
  0
INSERT
  5
7F46
  8
3
  6
CONTINUOUS
 62
     0
  2
_OPEN
 10
-3879.3809356599108
 20
-2128.2648960000001
 30
0.0
 41
20.0
 42
20.0
 43
20.0
 50
90.0
  0
TEXT
  8
3
  40
30
  5
7FAA
  62
0
  72
0
  71
0
 10
-3964.38
 20
-2255.65
 30
0.000000
  1
25
  0
POINT
  5
7F48
  8
DEFPOINTS
  6
CONTINUOUS
 62
     0
 10
-3769.3258116599109
 20
-2103.2648960000001
 30
0.0
  0
POINT
  5
7F49
  8
DEFPOINTS
  6
CONTINUOUS
 62
     0
 10
-3769.3258116599109
 20
-2128.2648960000001
 30
0.0
  0
POINT
  5
7F4A
  8
DEFPOINTS
  6
CONTINUOUS
 62
     0
 10
-3879.3809356599108
 20
-2128.2648960000001
 30
0.0
  0
ENDBLK
  5
7E0D
  8
0
  0
BLOCK
  8
0
  2
*D9
 70
     1
 10
0.0
 20
0.0
 30
0.0
  3
*D9
  1

  0
LINE
  5
7F4B
  8
3
  6
CONTINUOUS
 62
     0
 10
-3769.3258116599109
 20
-1208.7280373240951
 30
0.0
 11
-3769.3258116599109
 21
-1300.9320763240951
 31
0.0
  0
LINE
  5
7F4C
  8
3
  6
CONTINUOUS
 62
     0
 10
-3159.3258116599109
 20
-1208.7280373240951
 30
0.0
 11
-3159.3258116599109
 21
-1300.9320763240951
 31
0.0
  0
LINE
  5
7F4D
  8
3
  6
CONTINUOUS
 62
     0
 10
-3749.3258116599109
 20
-1290.9320763240951
 30
0.0
 11
-3179.3258116599109
 21
-1290.9320763240951
 31
0.0
  0
INSERT
  5
7F4E
  8
3
  6
CONTINUOUS
 62
     0
  2
_OPEN
 10
-3769.3258116599109
 20
-1290.9320763240951
 30
0.0
 41
20.0
 42
20.0
 43
20.0
 50
180.0
  0
INSERT
  5
7F4F
  8
3
  6
CONTINUOUS
 62
     0
  2
_OPEN
 10
-3159.3258116599109
 20
-1290.9320763240951
 30
0.0
 41
20.0
 42
20.0
 43
20.0
  0
TEXT
  8
3
  40
30
  5
7FAB
  62
0
  72
0
  71
0
 10
-3507.84
 20
-1319.03
 30
0.000000
  1
610
  0
POINT
  5
7F51
  8
DEFPOINTS
  6
CONTINUOUS
 62
     0
 10
-3769.3258116599109
 20
-1203.7280373240951
 30
0.0
  0
POINT
  5
7F52
  8
DEFPOINTS
  6
CONTINUOUS
 62
     0
 10
-3159.3258116599109
 20
-1203.7280373240951
 30
0.0
  0
POINT
  5
7F53
  8
DEFPOINTS
  6
CONTINUOUS
 62
     0
 10
-3159.3258116599109
 20
-1290.9320763240951
 30
0.0
  0
ENDBLK
  5
7C2D
  8
0
  0
BLOCK
  8
0
  2
*D10
 70
     1
 10
0.0
 20
0.0
 30
0.0
  3
*D10
  1

  0
LINE
  5
7F54
  8
3
  6
CONTINUOUS
 62
     0
 10
-3154.32581165991
 20
-773.72803732409545
 30
0.0
 11
-3071.3024286599111
 21
-773.72803732409545
 31
0.0
  0
LINE
  5
7F55
  8
3
  6
CONTINUOUS
 62
     0
 10
-3154.32581165991
 20
-1203.7280373240951
 30
0.0
 11
-3071.3024286599111
 21
-1203.7280373240951
 31
0.0
  0
LINE
  5
7F56
  8
3
  6
CONTINUOUS
 62
     0
 10
-3081.3024286599111
 20
-793.72803732409545
 30
0.0
 11
-3081.3024286599111
 21
-1183.7280373240951
 31
0.0
  0
INSERT
  5
7F57
  8
3
  6
CONTINUOUS
 62
     0
  2
_OPEN
 10
-3081.3024286599111
 20
-773.72803732409545
 30
0.0
 41
20.0
 42
20.0
 43
20.0
 50
90.0
  0
INSERT
  5
7F58
  8
3
  6
CONTINUOUS
 62
     0
  2
_OPEN
 10
-3081.3024286599111
 20
-1203.7280373240951
 30
0.0
 41
20.0
 42
20.0
 43
20.0
 50
270.0
  0
TEXT
  8
3
  40
30
  5
7FAC
  62
0
  72
0
  71
0
 10
-3166.30
 20
-1034.53
 30
0.000000
  1
430
  0
POINT
  5
7F5A
  8
DEFPOINTS
  6
CONTINUOUS
 62
     0
 10
-3159.3258116599109
 20
-773.72803732409545
 30
0.0
  0
POINT
  5
7F5B
  8
DEFPOINTS
  6
CONTINUOUS
 62
     0
 10
-3159.3258116599109
 20
-1203.7280373240951
 30
0.0
  0
POINT
  5
7F5C
  8
DEFPOINTS
  6
CONTINUOUS
 62
     0
 10
-3081.3024286599111
 20
-1203.7280373240951
 30
0.0
  0
ENDBLK
  5
7C3A
  8
0
  0
BLOCK
  8
0
  2
*D11
 70
     1
 10
0.0
 20
0.0
 30
0.0
  3
*D11
  1

  0
LINE
  5
7F5D
  8
3
  6
CONTINUOUS
 62
     0
 10
-2897.1605560345761
 20
-2133.2648960000001
 30
0.0
 11
-2897.1605560345761
 21
-2195.3044719999989
 31
0.0
  0
LINE
  5
7F5E
  8
3
  6
CONTINUOUS
 62
     0
 10
-2625.1605560345761
 20
-2133.2648960000001
 30
0.0
 11
-2625.1605560345761
 21
-2195.3044719999989
 31
0.0
  0
LINE
  5
7F5F
  8
3
  6
CONTINUOUS
 62
     0
 10
-2877.1605560345761
 20
-2185.3044719999989
 30
0.0
 11
-2645.1605560345761
 21
-2185.3044719999989
 31
0.0
  0
INSERT
  5
7F60
  8
3
  6
CONTINUOUS
 62
     0
  2
_OPEN
 10
-2897.1605560345761
 20
-2185.3044719999989
 30
0.0
 41
20.0
 42
20.0
 43
20.0
 50
180.0
  0
INSERT
  5
7F61
  8
3
  6
CONTINUOUS
 62
     0
  2
_OPEN
 10
-2625.1605560345761
 20
-2185.3044719999989
 30
0.0
 41
20.0
 42
20.0
 43
20.0
  0
TEXT
  8
3
  40
30
  5
7FAD
  62
0
  72
0
  71
0
 10
-2818.21
 20
-2213.40
 30
0.000000
  1
272
  0
POINT
  5
7F63
  8
DEFPOINTS
  6
CONTINUOUS
 62
     0
 10
-2897.1605560345761
 20
-2128.2648960000001
 30
0.0
  0
POINT
  5
7F64
  8
DEFPOINTS
  6
CONTINUOUS
 62
     0
 10
-2625.1605560345761
 20
-2128.2648960000001
 30
0.0
  0
POINT
  5
7F65
  8
DEFPOINTS
  6
CONTINUOUS
 62
     0
 10
-2625.1605560345761
 20
-2185.3044719999989
 30
0.0
  0
ENDBLK
  5
7C47
  8
0
  0
BLOCK
  8
0
  2
*D12
 70
     1
 10
0.0
 20
0.0
 30
0.0
  3
*D12
  1

  0
LINE
  5
7F66
  8
3
  6
CONTINUOUS
 62
     0
 10
-2467.1605560345761
 20
-2133.2648960000001
 30
0.0
 11
-2467.1605560345761
 21
-2195.3044719999989
 31
0.0
  0
LINE
  5
7F67
  8
3
  6
CONTINUOUS
 62
     0
 10
-2605.1605560345761
 20
-2185.3044719999989
 30
0.0
 11
-2487.1605560345752
 21
-2185.3044719999989
 31
0.0
  0
INSERT
  5
7F68
  8
3
  6
CONTINUOUS
 62
     0
  2
_OPEN
 10
-2625.1605560345761
 20
-2185.3044719999989
 30
0.0
 41
20.0
 42
20.0
 43
20.0
 50
180.0
  0
INSERT
  5
7F69
  8
3
  6
CONTINUOUS
 62
     0
  2
_OPEN
 10
-2467.1605560345761
 20
-2185.3044719999989
 30
0.0
 41
20.0
 42
20.0
 43
20.0
  0
TEXT
  8
3
  40
30
  5
7FAE
  62
0
  72
0
  71
0
 10
-2606.16
 20
-2213.40
 30
0.000000
  1
158
  0
POINT
  5
7F6B
  8
DEFPOINTS
  6
CONTINUOUS
 62
     0
 10
-2625.1605560345761
 20
-2128.2648960000001
 30
0.0
  0
POINT
  5
7F6C
  8
DEFPOINTS
  6
CONTINUOUS
 62
     0
 10
-2467.1605560345761
 20
-2128.2648960000001
 30
0.0
  0
POINT
  5
7F6D
  8
DEFPOINTS
  6
CONTINUOUS
 62
     0
 10
-2467.1605560345761
 20
-2185.3044719999989
 30
0.0
  0
ENDBLK
  5
7C53
  8
0
  0
BLOCK
  8
0
  2
*D13
 70
     1
 10
0.0
 20
0.0
 30
0.0
  3
*D13
  1

  0
LINE
  5
7D7A
  8
0
  6
BYBLOCK
 62
     0
 10
-2681.1605560345761
 20
-1705.2648959999999
 30
0.0
 11
-2681.1605560345761
 21
-1670.2630919999999
 31
0.0
  0
LINE
  5
7D7B
  8
0
  6
BYBLOCK
 62
     0
 10
-2569.1605560345761
 20
-1705.2648959999999
 30
0.0
 11
-2569.1605560345761
 21
-1670.2630919999999
 31
0.0
  0
LINE
  5
7D7C
  8
0
  6
BYBLOCK
 62
     0
 10
-2661.1605560345761
 20
-1680.2630919999999
 30
0.0
 11
-2589.1605560345761
 21
-1680.2630919999999
 31
0.0
  0
TEXT
  5
7D7D
  8
3
 62
     0
 10
-2658.0176988917178
 20
-1673.7746959130959
 30
0.0
 40
30.0
  1
112
  0
INSERT
  5
7D7E
  8
0
  6
BYBLOCK
 62
     0
  2
_OPEN
 10
-2681.1605560345761
 20
-1680.2630919999999
 30
0.0
 41
20.0
 42
20.0
 43
20.0
 50
180.0
  0
INSERT
  5
7D7F
  8
0
  6
BYBLOCK
 62
     0
  2
_OPEN
 10
-2569.1605560345761
 20
-1680.2630919999999
 30
0.0
 41
20.0
 42
20.0
 43
20.0
  0
POINT
  5
7D80
  8
DEFPOINTS
  6
BYBLOCK
 62
     0
 10
-2681.1605560345761
 20
-1710.2648959999999
 30
0.0
  0
POINT
  5
7D81
  8
DEFPOINTS
  6
BYBLOCK
 62
     0
 10
-2569.1605560345761
 20
-1710.2648959999999
 30
0.0
  0
POINT
  5
7D82
  8
DEFPOINTS
  6
BYBLOCK
 62
     0
 10
-2569.1605560345761
 20
-1680.2630919999999
 30
0.0
  0
ENDBLK
  5
7D83
  8
0
  0
BLOCK
  8
0
  2
*D14
 70
     1
 10
0.0
 20
0.0
 30
0.0
  3
*D14
  1

  0
LINE
  5
7F6E
  8
3
  6
CONTINUOUS
 62
     0
 10
-2885.1605560345761
 20
-1721.2648959999999
 30
0.0
 11
-2885.1605560345761
 21
-1604.5941949336441
 31
0.0
  0
LINE
  5
7F6F
  8
3
  6
CONTINUOUS
 62
     0
 10
-2625.1605560345761
 20
-1632.6618571061861
 30
0.0
 11
-2625.1605560345761
 21
-1604.5941949336441
 31
0.0
  0
LINE
  5
7F70
  8
3
  6
CONTINUOUS
 62
     0
 10
-2865.1605560345761
 20
-1614.5941949336441
 30
0.0
 11
-2645.1605560345761
 21
-1614.5941949336441
 31
0.0
  0
INSERT
  5
7F71
  8
3
  6
CONTINUOUS
 62
     0
  2
_OPEN
 10
-2885.1605560345761
 20
-1614.5941949336441
 30
0.0
 41
20.0
 42
20.0
 43
20.0
 50
180.0
  0
INSERT
  5
7F72
  8
3
  6
CONTINUOUS
 62
     0
  2
_OPEN
 10
-2625.1605560345761
 20
-1614.5941949336441
 30
0.0
 41
20.0
 42
20.0
 43
20.0
  0
TEXT
  8
3
  40
30
  5
7FAF
  62
0
  72
0
  71
0
 10
-2819.73
 20
-1617.69
 30
0.000000
  1
MAX
  0
TEXT
  8
3
  40
30
  5
7FB0
  62
0
  72
0
  71
0
 10
-2819.73
 20
-1656.69
 30
0.000000
  1
260
  0
POINT
  5
7F74
  8
DEFPOINTS
  6
CONTINUOUS
 62
     0
 10
-2885.1605560345761
 20
-1726.2648959999999
 30
0.0
  0
POINT
  5
7F75
  8
DEFPOINTS
  6
CONTINUOUS
 62
     0
 10
-2625.1605560345761
 20
-1637.6618571061861
 30
0.0
  0
POINT
  5
7F76
  8
DEFPOINTS
  6
CONTINUOUS
 62
     0
 10
-2625.1605560345761
 20
-1614.5941949336441
 30
0.0
  0
ENDBLK
  5
7D6D
  8
0
  0
BLOCK
  8
0
  2
*D15
 70
     1
 10
0.0
 20
0.0
 30
0.0
  3
*D15
  1

  0
LINE
  5
7F77
  8
3
  6
CONTINUOUS
 62
     0
 10
-2561.1605560345761
 20
-1716.2648959999999
 30
0.0
 11
-2561.1605560345761
 21
-1604.5941949336441
 31
0.0
  0
LINE
  5
7F78
  8
3
  6
CONTINUOUS
 62
     0
 10
-2605.1605560345761
 20
-1614.5941949336441
 30
0.0
 11
-2581.1605560345761
 21
-1614.5941949336441
 31
0.0
  0
TEXT
  8
3
  40
30
  5
7FB1
  62
0
  72
0
  71
0
 10
-2658.32
 20
-1642.54
 30
0.000000
  1
64
  0
INSERT
  5
7F7A
  8
3
  6
CONTINUOUS
 62
     0
  2
_OPEN
 10
-2625.1605560345761
 20
-1614.5941949336441
 30
0.0
 41
20.0
 42
20.0
 43
20.0
 50
180.0
  0
INSERT
  5
7F7B
  8
3
  6
CONTINUOUS
 62
     0
  2
_OPEN
 10
-2561.1605560345761
 20
-1614.5941949336441
 30
0.0
 41
20.0
 42
20.0
 43
20.0
  0
POINT
  5
7F7C
  8
DEFPOINTS
  6
CONTINUOUS
 62
     0
 10
-2625.1605560345761
 20
-1637.6618571061861
 30
0.0
  0
POINT
  5
7F7D
  8
DEFPOINTS
  6
CONTINUOUS
 62
     0
 10
-2561.1605560345761
 20
-1721.2648959999999
 30
0.0
  0
POINT
  5
7F7E
  8
DEFPOINTS
  6
CONTINUOUS
 62
     0
 10
-2561.1605560345761
 20
-1614.5941949336441
 30
0.0
  0
ENDBLK
  5
7D62
  8
0
  0
BLOCK
  8
0
  2
*D16
 70
     1
 10
0.0
 20
0.0
 30
0.0
  3
*D16
  1

  0
LINE
  5
7D9D
  8
0
  6
BYBLOCK
 62
     0
 10
-2556.1605560345761
 20
-1741.2648959999999
 30
0.0
 11
-2483.7520890345759
 21
-1741.2648959999999
 31
0.0
  0
LINE
  5
7D9E
  8
0
  6
BYBLOCK
 62
     0
 10
-2556.1605560345761
 20
-1901.2648959999999
 30
0.0
 11
-2483.7520890345759
 21
-1901.2648959999999
 31
0.0
  0
LINE
  5
7D9F
  8
0
  6
BYBLOCK
 62
     0
 10
-2493.752089034575
 20
-1761.2648959999999
 30
0.0
 11
-2493.752089034575
 21
-1881.2648959999999
 31
0.0
  0
TEXT
  5
7DA0
  8
3
 62
     0
 10
-2502.7552366465711
 20
-1871.979181714285
 30
0.0
 40
30.0
  1
φ160
 50
90.0
  0
INSERT
  5
7DA1
  8
0
  6
BYBLOCK
 62
     0
  2
_OPEN
 10
-2493.752089034575
 20
-1741.2648959999999
 30
0.0
 41
20.0
 42
20.0
 43
20.0
 50
90.0
  0
INSERT
  5
7DA2
  8
0
  6
BYBLOCK
 62
     0
  2
_OPEN
 10
-2493.752089034575
 20
-1901.2648959999999
 30
0.0
 41
20.0
 42
20.0
 43
20.0
 50
270.0
  0
POINT
  5
7DA3
  8
DEFPOINTS
  6
BYBLOCK
 62
     0
 10
-2561.1605560345761
 20
-1741.2648959999999
 30
0.0
  0
POINT
  5
7DA4
  8
DEFPOINTS
  6
BYBLOCK
 62
     0
 10
-2561.1605560345761
 20
-1901.2648959999999
 30
0.0
  0
POINT
  5
7DA5
  8
DEFPOINTS
  6
BYBLOCK
 62
     0
 10
-2493.752089034575
 20
-1901.2648959999999
 30
0.0
  0
ENDBLK
  5
7DA6
  8
0
  0
BLOCK
  8
0
  2
*D17
 70
     1
 10
0.0
 20
0.0
 30
0.0
  3
*D17
  1

  0
LINE
  5
7F7F
  8
3
  6
CONTINUOUS
 62
     0
 10
-3729.3258116599109
 20
-1992.2648959999999
 30
0.0
 11
-3829.8997176599109
 21
-1992.2648959999999
 31
0.0
  0
LINE
  5
7F80
  8
3
  6
CONTINUOUS
 62
     0
 10
-3749.3258116599109
 20
-1821.2648959999999
 30
0.0
 11
-3829.8997176599109
 21
-1821.2648959999999
 31
0.0
  0
LINE
  5
7F81
  8
3
  6
CONTINUOUS
 62
     0
 10
-3819.8997176599109
 20
-1972.2648959999999
 30
0.0
 11
-3819.8997176599109
 21
-1841.2648959999999
 31
0.0
  0
INSERT
  5
7F82
  8
3
  6
CONTINUOUS
 62
     0
  2
_OPEN
 10
-3819.8997176599109
 20
-1992.2648959999999
 30
0.0
 41
20.0
 42
20.0
 43
20.0
 50
270.0
  0
INSERT
  5
7F83
  8
3
  6
CONTINUOUS
 62
     0
  2
_OPEN
 10
-3819.8997176599109
 20
-1821.2648959999999
 30
0.0
 41
20.0
 42
20.0
 43
20.0
 50
90.0
  0
TEXT
  8
3
  40
30
  5
7FB2
  62
0
  72
0
  71
0
 10
-3904.90
 20
-1955.53
 30
0.000000
  1
171
  0
POINT
  5
7F85
  8
DEFPOINTS
  6
CONTINUOUS
 62
     0
 10
-3724.3258116599109
 20
-1992.2648959999999
 30
0.0
  0
POINT
  5
7F86
  8
DEFPOINTS
  6
CONTINUOUS
 62
     0
 10
-3744.3258116599109
 20
-1821.2648959999999
 30
0.0
  0
POINT
  5
7F87
  8
DEFPOINTS
  6
CONTINUOUS
 62
     0
 10
-3819.8997176599109
 20
-1821.2648959999999
 30
0.0
  0
ENDBLK
  5
7CFA
  8
0
  0
BLOCK
  8
0
  2
*D18
 70
     1
 10
0.0
 20
0.0
 30
0.0
  3
*D18
  1

  0
LINE
  5
7F88
  8
3
  6
CONTINUOUS
 62
     0
 10
-3464.3258116599109
 20
-1816.2648959999999
 30
0.0
 11
-3464.3258116599109
 21
-1654.28667
 31
0.0
  0
LINE
  5
7F89
  8
3
  6
CONTINUOUS
 62
     0
 10
-3589.3258116599109
 20
-1664.28667
 30
0.0
 11
-3484.3258116599109
 21
-1664.28667
 31
0.0
  0
INSERT
  5
7F8A
  8
3
  6
CONTINUOUS
 62
     0
  2
_OPEN
 10
-3609.3258116599109
 20
-1664.28667
 30
0.0
 41
20.0
 42
20.0
 43
20.0
 50
180.0
  0
INSERT
  5
7F8B
  8
3
  6
CONTINUOUS
 62
     0
  2
_OPEN
 10
-3464.3258116599109
 20
-1664.28667
 30
0.0
 41
20.0
 42
20.0
 43
20.0
  0
TEXT
  8
3
  40
30
  5
7FB3
  62
0
  72
0
  71
0
 10
-3596.83
 20
-1692.39
 30
0.000000
  1
145
  0
POINT
  5
7F8D
  8
DEFPOINTS
  6
CONTINUOUS
 62
     0
 10
-3609.3258116599109
 20
-1698.6207139999999
 30
0.0
  0
POINT
  5
7F8E
  8
DEFPOINTS
  6
CONTINUOUS
 62
     0
 10
-3464.3258116599109
 20
-1821.2648959999999
 30
0.0
  0
POINT
  5
7F8F
  8
DEFPOINTS
  6
CONTINUOUS
 62
     0
 10
-3464.3258116599109
 20
-1664.28667
 30
0.0
  0
ENDBLK
  5
7E2E
  8
0
  0
BLOCK
  8
0
  2
*D19
 70
     1
 10
0.0
 20
0.0
 30
0.0
  3
*D19
  1

  0
LINE
  5
7F90
  8
3
  6
CONTINUOUS
 62
     0
 10
-3614.3258116599109
 20
-1698.6207139999999
 30
0.0
 11
-3948.5066496599111
 21
-1698.6207139999999
 31
0.0
  0
LINE
  5
7F91
  8
3
  6
CONTINUOUS
 62
     0
 10
-3774.3258116599109
 20
-2128.2648960000001
 30
0.0
 11
-3948.5066496599111
 21
-2128.2648960000001
 31
0.0
  0
LINE
  5
7F92
  8
3
  6
CONTINUOUS
 62
     0
 10
-3938.5066496599111
 20
-1718.6207139999999
 30
0.0
 11
-3938.5066496599111
 21
-2108.2648960000001
 31
0.0
  0
INSERT
  5
7F93
  8
3
  6
CONTINUOUS
 62
     0
  2
_OPEN
 10
-3938.5066496599111
 20
-1698.6207139999999
 30
0.0
 41
20.0
 42
20.0
 43
20.0
 50
90.0
  0
INSERT
  5
7F94
  8
3
  6
CONTINUOUS
 62
     0
  2
_OPEN
 10
-3938.5066496599111
 20
-2128.2648960000001
 30
0.0
 41
20.0
 42
20.0
 43
20.0
 50
270.0
  0
TEXT
  8
3
  40
30
  5
7FB4
  62
0
  72
0
  71
0
 10
-4023.51
 20
-1950.02
 30
0.000000
  1
430
  0
POINT
  5
7F96
  8
DEFPOINTS
  6
CONTINUOUS
 62
     0
 10
-3609.3258116599109
 20
-1698.6207139999999
 30
0.0
  0
POINT
  5
7F97
  8
DEFPOINTS
  6
CONTINUOUS
 62
     0
 10
-3769.3258116599109
 20
-2128.2648960000001
 30
0.0
  0
POINT
  5
7F98
  8
DEFPOINTS
  6
CONTINUOUS
 62
     0
 10
-3938.5066496599111
 20
-2128.2648960000001
 30
0.0
  0
ENDBLK
  5
7D23
  8
0
  0
BLOCK
  8
0
  2
_DOT
 70
     0
 10
0.0
 20
0.0
 30
0.0
  3
_DOT
  1

  0
LINE
  5
7E0E
  8
0
  6
BYBLOCK
 62
     0
 10
0.0
 20
0.0
 30
0.0
 11
-1.0
 21
-0.0000000000000284
 31
0.0
  0
POLYLINE
  5
7E0F
  8
0
  6
BYBLOCK
 62
     0
 66
     1
 10
0.0
 20
0.0
 30
0.0
 70
     1
 40
0.1666666666666666
 41
0.1666666666666666
  0
VERTEX
  5
7F99
  8
0
  6
BYBLOCK
 62
     0
 10
-0.0833333333333286
 20
-0.0000000000000284
 30
0.0
 42
1.0
  0
VERTEX
  5
7F9A
  8
0
  6
BYBLOCK
 62
     0
 10
0.0833333333333286
 20
-0.0000000000000284
 30
0.0
 42
1.0
  0
SEQEND
  5
7F9B
  8
0
  6
BYBLOCK
 62
     0
  0
ENDBLK
  5
7DF4
  8
0
  0
BLOCK
  8
0
  2
*D21
 70
     1
 10
0.0
 20
0.0
 30
0.0
  3
*D21
  1

  0
LINE
  5
7F9C
  8
3
 62
     0
 10
-3739.3258116599109
 20
-1789.2648959999999
 30
0.0
 11
-3739.3258116599109
 21
-1596.1445819003141
 31
0.0
  0
LINE
  5
7F9D
  8
3
 62
     0
 10
-3159.3258116599109
 20
-2073.2648960000001
 30
0.0
 11
-3159.3258116599109
 21
-1596.1445819003141
 31
0.0
  0
LINE
  5
7F9E
  8
3
 62
     0
 10
-3719.3258116599109
 20
-1606.1445819003141
 30
0.0
 11
-3179.3258116599109
 21
-1606.1445819003141
 31
0.0
  0
INSERT
  5
7F9F
  8
3
 62
     0
  2
_OPEN
 10
-3739.3258116599109
 20
-1606.1445819003141
 30
0.0
 41
20.0
 42
20.0
 43
20.0
 50
180.0
  0
INSERT
  5
7FA0
  8
3
 62
     0
  2
_OPEN
 10
-3159.3258116599109
 20
-1606.1445819003141
 30
0.0
 41
20.0
 42
20.0
 43
20.0
  0
TEXT
  8
3
  40
30
  5
7FB5
  62
0
  72
0
  71
0
 10
-3524.08
 20
-1634.24
 30
0.000000
  1
580
  0
POINT
  5
7FA2
  8
DEFPOINTS
 62
     0
 10
-3739.3258116599109
 20
-1794.2648959999999
 30
0.0
  0
POINT
  5
7FA3
  8
DEFPOINTS
 62
     0
 10
-3159.3258116599109
 20
-2078.2648960000001
 30
0.0
  0
POINT
  5
7FA4
  8
DEFPOINTS
 62
     0
 10
-3159.3258116599109
 20
-1606.1445819003141
 30
0.0
  0
ENDBLK
  5
7E1E
  8
0
  0
ENDSEC
  0
SECTION
  2
ENTITIES
  0
CIRCLE
  5
7A97
  8
1
  6
CONTINUOUS
 10
-3609.3258116599109
 20
-1821.2648959999999
 30
0.0
 40
80.0
  0
LINE
  5
7A98
  8
1
  6
CONTINUOUS
 10
-3769.3258116599109
 20
-1119.2280373240951
 30
0.0
 11
-3769.3258116599109
 21
-895.22803732409557
 31
0.0
  0
LINE
  5
7A99
  8
1
  6
CONTINUOUS
 10
-3159.3258116599109
 20
-895.22803732409557
 30
0.0
 11
-3159.3258116599109
 21
-1119.2280373240951
 31
0.0
  0
LINE
  5
7A9A
  8
1
  6
CONTINUOUS
 10
-3744.3258116599109
 20
-2056.2648960000001
 30
0.0
 11
-3744.3258116599109
 21
-2006.2648959999999
 31
0.0
  0
LINE
  5
7A9B
  8
1
  6
CONTINUOUS
 10
-3706.6258116599111
 20
-2006.2648959999999
 30
0.0
 11
-3706.6258116599111
 21
-1726.2648959999999
 31
0.0
  0
LINE
  5
7A9C
  8
1
  6
CONTINUOUS
 10
-3435.3258116599109
 20
-1986.2648959999999
 30
0.0
 11
-3435.3258116599109
 21
-2006.2648959999999
 31
0.0
  0
LINE
  5
7A9D
  8
1
  6
CONTINUOUS
 10
-3184.3258116599109
 20
-1986.2648959999999
 30
0.0
 11
-3435.3258116599109
 21
-1986.2648959999999
 31
0.0
  0
LINE
  5
7A9E
  8
1
  6
CONTINUOUS
 10
-3246.32581165991
 20
-1986.2648959999999
 30
0.0
 11
-3246.32581165991
 21
-1978.2648959999999
 31
0.0
  0
LINE
  5
7A9F
  8
1
  6
CONTINUOUS
 10
-3401.3258116599109
 20
-1978.2648959999999
 30
0.0
 11
-3393.1258116599111
 21
-1955.464896
 31
0.0
  0
LINE
  5
7AA0
  8
1
  6
CONTINUOUS
 10
-3401.3258116599109
 20
-1986.2648959999999
 30
0.0
 11
-3401.3258116599109
 21
-1978.2648959999999
 31
0.0
  0
LINE
  5
7AA1
  8
1
  6
CONTINUOUS
 10
-3246.32581165991
 20
-1978.2648959999999
 30
0.0
 11
-3254.5258116599098
 21
-1955.464896
 31
0.0
  0
ARC
  5
7AA2
  8
1
  6
CONTINUOUS
 10
-3323.8258116599109
 20
-1906.2648959999999
 30
0.0
 40
85.0
 50
324.69999999999987
 51
215.30000000000001
  0
LINE
  5
7AA3
  8
1
  6
CONTINUOUS
 10
-3184.3258116599109
 20
-1986.2648959999999
 30
0.0
 11
-3184.3258116599109
 21
-2056.2648960000001
 31
0.0
  0
LINE
  5
7AA4
  8
1
  6
CONTINUOUS
 10
-3184.3258116599109
 20
-2056.2648960000001
 30
0.0
 11
-3744.3258116599109
 21
-2056.2648960000001
 31
0.0
  0
LINE
  5
7AA5
  8
1
  6
CONTINUOUS
 10
-3184.3258116599109
 20
-2006.2648959999999
 30
0.0
 11
-3744.3258116599109
 21
-2006.2648959999999
 31
0.0
  0
LINE
  5
7AA6
  8
1
  6
CONTINUOUS
 10
-3706.6258116599111
 20
-1726.2648959999999
 30
0.0
 11
-3226.6258116599111
 21
-1726.2648959999999
 31
0.0
  0
LINE
  5
7AA7
  8
1
  6
CONTINUOUS
 10
-3226.6258116599111
 20
-1726.2648959999999
 30
0.0
 11
-3226.6258116599111
 21
-2006.2648959999999
 31
0.0
  0
LINE
  5
7AA8
  8
1
  6
CONTINUOUS
 10
-3499.3258116599109
 20
-1779.164896
 30
0.0
 11
-3572.725811659911
 21
-1716.2648959999999
 31
0.0
  0
LINE
  5
7AA9
  8
1
  6
CONTINUOUS
 10
-3719.3258116599109
 20
-1779.164896
 30
0.0
 11
-3645.9258116599108
 21
-1716.2648959999999
 31
0.0
  0
LINE
  5
7AAA
  8
1
  6
CONTINUOUS
 10
-3499.3258116599109
 20
-1854.5648960000001
 30
0.0
 11
-3719.3258116599109
 21
-1854.5648960000001
 31
0.0
  0
LINE
  5
7AAB
  8
1
  6
CONTINUOUS
 10
-3499.3258116599109
 20
-1779.164896
 30
0.0
 11
-3499.3258116599109
 21
-2006.2648959999999
 31
0.0
  0
LINE
  5
7AAC
  8
1
  6
CONTINUOUS
 10
-3645.9258116599108
 20
-1716.2648959999999
 30
0.0
 11
-3572.725811659911
 21
-1716.2648959999999
 31
0.0
  0
LINE
  5
7AAD
  8
1
  6
CONTINUOUS
 10
-3719.3258116599109
 20
-2006.2648959999999
 30
0.0
 11
-3719.3258116599109
 21
-1779.164896
 31
0.0
  0
LINE
  5
7AAE
  8
1
  6
CONTINUOUS
 10
-3739.3258116599109
 20
-1820.2648959999999
 30
0.0
 11
-3724.3258116599109
 21
-1835.2648959999999
 31
0.0
  0
LINE
  5
7AAF
  8
1
  6
CONTINUOUS
 10
-3724.3258116599109
 20
-1967.2648959999999
 30
0.0
 11
-3724.3258116599109
 21
-1835.2648959999999
 31
0.0
  0
LINE
  5
7AB0
  8
1
  6
CONTINUOUS
 10
-3739.3258116599109
 20
-1982.2648959999999
 30
0.0
 11
-3724.3258116599109
 21
-1967.2648959999999
 31
0.0
  0
ARC
  5
7AB1
  8
1
  6
CONTINUOUS
 10
-3598.3258116599109
 20
-1832.2648959999999
 30
0.0
 40
134.0
 50
9.9000000000000004
 51
90.5
  0
ARC
  5
7AB2
  8
1
  6
CONTINUOUS
 10
-3600.3258116599109
 20
-1812.2648959999999
 30
0.0
 40
114.0
 50
89.500000000000014
 51
179.49999999999989
  0
ARC
  5
7AB3
  8
1
  6
CONTINUOUS
 10
-3622.3258116599109
 20
-1834.2648959999999
 30
0.0
 40
158.0
 50
270.0
 51
9.0999999999999996
  0
LINE
  5
7AB4
  8
1
  6
CONTINUOUS
 10
-3724.3258116599109
 20
-1992.2648959999999
 30
0.0
 11
-3622.3258116599109
 21
-1992.2648959999999
 31
0.0
  0
LINE
  5
7AB5
  8
1
  6
CONTINUOUS
 10
-3739.3258116599109
 20
-2003.2648959999999
 30
0.0
 11
-3739.3258116599109
 21
-1799.2648959999999
 31
0.0
  0
LINE
  5
7AB6
  8
1
  6
CONTINUOUS
 10
-3724.3258116599109
 20
-1811.2648959999999
 30
0.0
 11
-3714.3258116599109
 21
-1811.2648959999999
 31
0.0
  0
LINE
  5
7AB7
  8
1
  6
CONTINUOUS
 10
-3332.725811659911
 20
-1940.1648959999991
 30
0.0
 11
-3620.725811659911
 21
-1864.7648959999999
 31
0.0
  0
LINE
  5
7AB8
  8
1
  6
CONTINUOUS
 10
-3312.725811659911
 20
-1873.064895999999
 30
0.0
 11
-3595.0258116599098
 21
-1778.564895999999
 31
0.0
  0
CIRCLE
  5
7AB9
  8
1
  6
CONTINUOUS
 10
-3323.8258116599109
 20
-1906.2648959999999
 30
0.0
 40
35.0
  0
LINE
  5
7ABA
  8
2
  6
CENTER
 10
-3323.8258116599109
 20
-1941.2648959999999
 30
0.0
 11
-3323.8258116599109
 21
-1871.2648959999999
 31
0.0
  0
LINE
  5
7ABB
  8
2
  6
CENTER
 10
-3288.8258116599109
 20
-1906.2648959999999
 30
0.0
 11
-3358.8258116599109
 21
-1906.2648959999999
 31
0.0
  0
LINE
  5
7ABC
  8
2
  6
CENTER
 10
-2536.0934850345761
 20
-1821.2648959999999
 30
0.0
 11
-2956.782790034576
 21
-1821.2648959999999
 31
0.0
  0
LINE
  5
7ABD
  8
2
  6
CENTER
 10
-3609.3258116599109
 20
-2134.7433959999998
 30
0.0
 11
-3609.3258116599109
 21
-1692.521978141649
 31
0.0
  0
CIRCLE
  5
7ABE
  8
1
  6
CONTINUOUS
 10
-3609.3258116599109
 20
-1821.2648959999999
 30
0.0
 40
45.0
  0
CIRCLE
  5
7ABF
  8
1
  6
CONTINUOUS
 10
-3609.3258116599109
 20
-1821.2648959999999
 30
0.0
 40
100.0
  0
LINE
  5
7AC0
  8
1
  6
CONTINUOUS
 10
-3709.3258116599109
 20
-867.22803732409545
 30
0.0
 11
-3509.3258116599109
 21
-867.22803732409545
 31
0.0
  0
LINE
  5
7AC1
  8
1
  6
CONTINUOUS
 10
-3739.3258116599109
 20
-988.22803732409557
 30
0.0
 11
-3724.3258116599109
 21
-973.22803732409545
 31
0.0
  0
LINE
  5
7AC2
  8
1
  6
CONTINUOUS
 10
-3739.3258116599109
 20
-874.22803732409545
 30
0.0
 11
-3724.3258116599109
 21
-889.22803732409545
 31
0.0
  0
LINE
  5
7AC3
  8
1
  6
CONTINUOUS
 10
-3464.3258116599109
 20
-883.22803732409545
 30
0.0
 11
-3464.3258116599109
 21
-979.22803732409557
 31
0.0
  0
LINE
  5
7AC4
  8
1
  6
CONTINUOUS
 10
-3724.3258116599109
 20
-889.22803732409545
 30
0.0
 11
-3724.3258116599109
 21
-973.22803732409545
 31
0.0
  0
ARC
  5
7AC5
  8
1
  6
CONTINUOUS
 10
-3472.3258116599109
 20
-883.22803732409545
 30
0.0
 40
8.0
 50
0.0
 51
90.0
  0
ARC
  5
7AC6
  8
1
  6
CONTINUOUS
 10
-3472.3258116599109
 20
-979.22803732409557
 30
0.0
 40
8.0
 50
270.0
 51
0.0
  0
LINE
  5
7AC7
  8
1
  6
CONTINUOUS
 10
-3472.3258116599109
 20
-987.22803732409557
 30
0.0
 11
-3739.3258116599109
 21
-987.22803732409557
 31
0.0
  0
LINE
  5
7AC8
  8
1
  6
CONTINUOUS
 10
-3739.3258116599109
 20
-854.22803732409557
 30
0.0
 11
-3739.3258116599109
 21
-1008.228037324095
 31
0.0
  0
LINE
  5
7AC9
  8
1
  6
CONTINUOUS
 10
-3709.3258116599109
 20
-994.82803732409548
 30
0.0
 11
-3709.3258116599109
 21
-987.22803732409557
 31
0.0
  0
LINE
  5
7ACA
  8
1
  6
CONTINUOUS
 10
-3472.3258116599109
 20
-875.22803732409545
 30
0.0
 11
-3739.3258116599109
 21
-875.22803732409545
 31
0.0
  0
LINE
  5
7ACB
  8
1
  6
CONTINUOUS
 10
-3719.3258116599109
 20
-994.82803732409548
 30
0.0
 11
-3499.3258116599109
 21
-994.82803732409548
 31
0.0
  0
LINE
  5
7ACC
  8
1
  6
CONTINUOUS
 10
-3509.3258116599109
 20
-994.82803732409548
 30
0.0
 11
-3509.3258116599109
 21
-987.22803732409557
 31
0.0
  0
LINE
  5
7ACD
  8
1
  6
CONTINUOUS
 10
-3509.3258116599109
 20
-867.22803732409545
 30
0.0
 11
-3509.3258116599109
 21
-875.22803732409545
 31
0.0
  0
LINE
  5
7ACE
  8
1
  6
CONTINUOUS
 10
-3709.3258116599109
 20
-867.22803732409545
 30
0.0
 11
-3709.3258116599109
 21
-875.22803732409545
 31
0.0
  0
LINE
  5
7ACF
  8
1
  6
CONTINUOUS
 10
-3159.3258116599109
 20
-1119.2280373240951
 30
0.0
 11
-3314.3258116599109
 21
-1119.2280373240951
 31
0.0
  0
LINE
  5
7AD0
  8
1
  6
CONTINUOUS
 10
-3769.3258116599109
 20
-895.22803732409557
 30
0.0
 11
-3739.3258116599109
 21
-895.22803732409557
 31
0.0
  0
LINE
  5
7AD1
  8
1
  6
CONTINUOUS
 10
-3499.3258116599109
 20
-994.82803732409548
 30
0.0
 11
-3499.3258116599109
 21
-1119.2280373240951
 31
0.0
  0
LINE
  5
7AD2
  8
1
  6
CONTINUOUS
 10
-3719.3258116599109
 20
-1119.2280373240951
 30
0.0
 11
-3719.3258116599109
 21
-994.82803732409548
 31
0.0
  0
LINE
  5
7AD3
  8
1
  6
CONTINUOUS
 10
-3238.8258116599109
 20
-1105.5280373240951
 30
0.0
 11
-3238.8258116599109
 21
-914.72803732409557
 31
0.0
  0
LINE
  5
7AD4
  8
1
  6
CONTINUOUS
 10
-3333.3258116599109
 20
-1135.328037324095
 30
0.0
 11
-3333.3258116599109
 21
-1105.5280373240951
 31
0.0
  0
LINE
  5
7AD5
  8
1
  6
CONTINUOUS
 10
-3314.3258116599109
 20
-1135.328037324095
 30
0.0
 11
-3314.3258116599109
 21
-1105.5280373240951
 31
0.0
  0
LINE
  5
7AD6
  8
1
  6
CONTINUOUS
 10
-3408.8258116599109
 20
-1105.5280373240951
 30
0.0
 11
-3238.8258116599109
 21
-1105.5280373240951
 31
0.0
  0
LINE
  5
7AD7
  8
1
  6
CONTINUOUS
 10
-3408.8258116599109
 20
-914.72803732409557
 30
0.0
 11
-3238.8258116599109
 21
-914.72803732409557
 31
0.0
  0
LINE
  5
7AD8
  8
1
  6
CONTINUOUS
 10
-3408.8258116599109
 20
-1105.5280373240951
 30
0.0
 11
-3408.8258116599109
 21
-914.72803732409557
 31
0.0
  0
LINE
  5
7AD9
  8
1
  6
CONTINUOUS
 10
-3706.6258116599111
 20
-1191.2280373240951
 30
0.0
 11
-3226.6258116599111
 21
-1191.2280373240951
 31
0.0
  0
LINE
  5
7ADA
  8
1
  6
CONTINUOUS
 10
-3706.6258116599111
 20
-1116.2280373240951
 30
0.0
 11
-3226.6258116599111
 21
-1116.2280373240951
 31
0.0
  0
LINE
  5
7ADB
  8
1
  6
CONTINUOUS
 10
-3564.3258116599109
 20
-1135.328037324095
 30
0.0
 11
-3564.3258116599109
 21
-1170.328037324095
 31
0.0
  0
LINE
  5
7ADC
  8
1
  6
CONTINUOUS
 10
-3654.3258116599109
 20
-1135.328037324095
 30
0.0
 11
-3654.3258116599109
 21
-1170.328037324095
 31
0.0
  0
LINE
  5
7ADD
  8
1
  6
CONTINUOUS
 10
-3654.3258116599109
 20
-1170.328037324095
 30
0.0
 11
-3564.3258116599109
 21
-1170.328037324095
 31
0.0
  0
LINE
  5
7ADE
  8
1
  6
CONTINUOUS
 10
-3654.3258116599109
 20
-1135.328037324095
 30
0.0
 11
-3564.3258116599109
 21
-1135.328037324095
 31
0.0
  0
LINE
  5
7ADF
  8
1
  6
CONTINUOUS
 10
-3597.3258116599109
 20
-994.82803732409548
 30
0.0
 11
-3597.3258116599109
 21
-1135.328037324095
 31
0.0
  0
LINE
  5
7AE0
  8
1
  6
CONTINUOUS
 10
-3621.3258116599109
 20
-994.82803732409548
 30
0.0
 11
-3621.3258116599109
 21
-1135.328037324095
 31
0.0
  0
LINE
  5
7AE1
  8
1
  6
CONTINUOUS
 10
-3226.6258116599111
 20
-1116.2280373240951
 30
0.0
 11
-3226.6258116599111
 21
-1191.2280373240951
 31
0.0
  0
LINE
  5
7AE2
  8
1
  6
CONTINUOUS
 10
-3706.6258116599111
 20
-1191.2280373240951
 30
0.0
 11
-3706.6258116599111
 21
-1116.2280373240951
 31
0.0
  0
LINE
  5
7AE3
  8
1
  6
CONTINUOUS
 10
-3621.3258116599109
 20
-1119.2280373240951
 30
0.0
 11
-3769.3258116599109
 21
-1119.2280373240951
 31
0.0
  0
LINE
  5
7AE4
  8
1
  6
CONTINUOUS
 10
-3358.8258116599109
 20
-1135.328037324095
 30
0.0
 11
-3288.8258116599109
 21
-1135.328037324095
 31
0.0
  0
LINE
  5
7AE5
  8
1
  6
CONTINUOUS
 10
-3358.8258116599109
 20
-1170.328037324095
 30
0.0
 11
-3288.8258116599109
 21
-1170.328037324095
 31
0.0
  0
LINE
  5
7AE6
  8
1
  6
CONTINUOUS
 10
-3358.8258116599109
 20
-1135.328037324095
 30
0.0
 11
-3358.8258116599109
 21
-1170.328037324095
 31
0.0
  0
LINE
  5
7AE7
  8
1
  6
CONTINUOUS
 10
-3288.8258116599109
 20
-1135.328037324095
 30
0.0
 11
-3288.8258116599109
 21
-1170.328037324095
 31
0.0
  0
LINE
  5
7AE8
  8
1
  6
CONTINUOUS
 10
-3464.3258116599109
 20
-895.22803732409557
 30
0.0
 11
-3159.3258116599109
 21
-895.22803732409557
 31
0.0
  0
LINE
  5
7AE9
  8
1
  6
CONTINUOUS
 10
-3333.3258116599109
 20
-1119.2280373240951
 30
0.0
 11
-3597.3258116599109
 21
-1119.2280373240951
 31
0.0
  0
LINE
  5
7AEA
  8
1
  6
CONTINUOUS
 10
-3724.3258116599109
 20
-1821.2648959999999
 30
0.0
 11
-3724.3258116599109
 21
-1811.2648959999999
 31
0.0
  0
LINE
  5
7AEB
  8
1
  6
CONTINUOUS
 10
-3724.3258116599109
 20
-1992.2648959999999
 30
0.0
 11
-3724.3258116599109
 21
-1981.2648959999999
 31
0.0
  0
LINE
  5
7AEC
  8
1
  6
CONTINUOUS
 10
-3739.3258116599109
 20
-1821.2648959999999
 30
0.0
 11
-3724.3258116599109
 21
-1821.2648959999999
 31
0.0
  0
LINE
  5
7AED
  8
1
  6
CONTINUOUS
 10
-3724.3258116599109
 20
-1981.2648959999999
 30
0.0
 11
-3739.3258116599109
 21
-1981.2648959999999
 31
0.0
  0
LINE
  5
7AEE
  8
1
  6
CONTINUOUS
 10
-3744.3258116599109
 20
-2103.2648960000001
 30
0.0
 11
-3744.3258116599109
 21
-2128.2648960000001
 31
0.0
  0
LINE
  5
7AEF
  8
1
  6
CONTINUOUS
 10
-3769.3258116599109
 20
-2128.2648960000001
 30
0.0
 11
-3744.3258116599109
 21
-2128.2648960000001
 31
0.0
  0
LINE
  5
7AF0
  8
1
  6
CONTINUOUS
 10
-3159.3258116599109
 20
-2128.2648960000001
 30
0.0
 11
-3184.3258116599109
 21
-2128.2648960000001
 31
0.0
  0
LINE
  5
7AF1
  8
1
  6
CONTINUOUS
 10
-3184.3258116599109
 20
-2103.2648960000001
 30
0.0
 11
-3184.3258116599109
 21
-2128.2648960000001
 31
0.0
  0
LINE
  5
7AF2
  8
1
  6
CONTINUOUS
 10
-3769.3258116599109
 20
-773.72803732409545
 30
0.0
 11
-3769.3258116599109
 21
-1203.7280373240951
 31
0.0
  0
LINE
  5
7AF3
  8
1
  6
CONTINUOUS
 10
-3744.3258116599109
 20
-1203.7280373240951
 30
0.0
 11
-3769.3258116599109
 21
-1203.7280373240951
 31
0.0
  0
LINE
  5
7AF4
  8
1
  6
CONTINUOUS
 10
-3744.3258116599109
 20
-773.72803732409545
 30
0.0
 11
-3744.3258116599109
 21
-1203.7280373240951
 31
0.0
  0
LINE
  5
7AF5
  8
1
  6
CONTINUOUS
 10
-3744.3258116599109
 20
-773.72803732409545
 30
0.0
 11
-3769.3258116599109
 21
-773.72803732409545
 31
0.0
  0
LINE
  5
7AF6
  8
1
  6
CONTINUOUS
 10
-3184.3258116599109
 20
-773.72803732409545
 30
0.0
 11
-3184.3258116599109
 21
-1203.7280373240951
 31
0.0
  0
LINE
  5
7AF7
  8
1
  6
CONTINUOUS
 10
-3184.3258116599109
 20
-773.72803732409545
 30
0.0
 11
-3159.3258116599109
 21
-773.72803732409545
 31
0.0
  0
LINE
  5
7AF8
  8
1
  6
CONTINUOUS
 10
-3159.3258116599109
 20
-773.72803732409545
 30
0.0
 11
-3159.3258116599109
 21
-1203.7280373240951
 31
0.0
  0
LINE
  5
7AF9
  8
1
  6
CONTINUOUS
 10
-3184.3258116599109
 20
-1203.7280373240951
 30
0.0
 11
-3159.3258116599109
 21
-1203.7280373240951
 31
0.0
  0
LINE
  5
7AFA
  8
1
  6
CONTINUOUS
 10
-3159.3258116599109
 20
-2078.2648960000001
 30
0.0
 11
-3769.3258116599109
 21
-2078.2648960000001
 31
0.0
  0
LINE
  5
7AFB
  8
1
  6
CONTINUOUS
 10
-3159.3258116599109
 20
-2103.2648960000001
 30
0.0
 11
-3769.3258116599109
 21
-2103.2648960000001
 31
0.0
  0
LINE
  5
7AFC
  8
1
  6
CONTINUOUS
 10
-3159.3258116599109
 20
-2078.2648960000001
 30
0.0
 11
-3159.3258116599109
 21
-2128.2648960000001
 31
0.0
  0
LINE
  5
7AFD
  8
1
  6
CONTINUOUS
 10
-3769.3258116599109
 20
-2128.2648960000001
 30
0.0
 11
-3769.3258116599109
 21
-2078.2648960000001
 31
0.0
  0
POINT
  5
7B00
  8
1
  6
CONTINUOUS
 10
-2877.7393516599109
 20
-2078.2648960000001
 30
0.0
  0
LINE
  5
7B03
  8
1
  6
CONTINUOUS
 10
-2897.1605560345761
 20
-2103.2648960000001
 30
0.0
 11
-2467.1605560345761
 21
-2103.2648960000001
 31
0.0
  0
LINE
  5
7B04
  8
1
  6
CONTINUOUS
 10
-2589.1605560345761
 20
-2078.2648960000001
 30
0.0
 11
-2589.1605560345761
 21
-2103.2648960000001
 31
0.0
  0
LINE
  5
7B05
  8
1
  6
CONTINUOUS
 10
-2813.1605560345761
 20
-2078.2648960000001
 30
0.0
 11
-2813.1605560345761
 21
-2103.2648960000001
 31
0.0
  0
LINE
  5
7B06
  8
1
  6
CONTINUOUS
 10
-2813.1605560345761
 20
-2078.2648960000001
 30
0.0
 11
-2589.1605560345761
 21
-2078.2648960000001
 31
0.0
  0
LINE
  5
7B07
  8
1
  6
CONTINUOUS
 10
-2897.1605560345761
 20
-2103.2648960000001
 30
0.0
 11
-2897.1605560345761
 21
-2128.2648960000001
 31
0.0
  0
LINE
  5
7B08
  8
1
  6
CONTINUOUS
 10
-2467.1605560345761
 20
-2103.2648960000001
 30
0.0
 11
-2467.1605560345761
 21
-2128.2648960000001
 31
0.0
  0
LINE
  5
7B09
  8
1
  6
CONTINUOUS
 10
-2897.1605560345761
 20
-2128.2648960000001
 30
0.0
 11
-2467.1605560345761
 21
-2128.2648960000001
 31
0.0
  0
LINE
  5
7B0A
  8
1
  6
CONTINUOUS
 10
-2688.760556034576
 20
-1779.164896
 30
0.0
 11
-2788.1605560345761
 21
-1854.5648960000001
 31
0.0
  0
LINE
  5
7B0B
  8
1
  6
CONTINUOUS
 10
-2788.1605560345761
 20
-1854.5648960000001
 30
0.0
 11
-2788.1605560345761
 21
-2006.2648959999999
 31
0.0
  0
LINE
  5
7B0C
  8
1
  6
CONTINUOUS
 10
-2813.1605560345761
 20
-2006.2648959999999
 30
0.0
 11
-2813.1605560345761
 21
-2056.2648960000001
 31
0.0
  0
LINE
  5
7B0D
  8
1
  6
CONTINUOUS
 10
-2885.1605560345761
 20
-2006.2648959999999
 30
0.0
 11
-2589.1605560345761
 21
-2006.2648959999999
 31
0.0
  0
LINE
  5
7B0E
  8
1
  6
CONTINUOUS
 10
-2813.1605560345761
 20
-2056.2648960000001
 30
0.0
 11
-2589.1605560345761
 21
-2056.2648960000001
 31
0.0
  0
LINE
  5
7B0F
  8
1
  6
CONTINUOUS
 10
-2589.1605560345761
 20
-2006.2648959999999
 30
0.0
 11
-2589.1605560345761
 21
-2056.2648960000001
 31
0.0
  0
LINE
  5
7B10
  8
1
  6
CONTINUOUS
 10
-2569.1605560345761
 20
-1981.2648959999999
 30
0.0
 11
-2681.1605560345761
 21
-1821.2648959999999
 31
0.0
  0
LINE
  5
7B11
  8
1
  6
CONTINUOUS
 10
-2569.1605560345761
 20
-1821.2648959999999
 30
0.0
 11
-2681.1605560345761
 21
-1981.2648959999999
 31
0.0
  0
ARC
  5
7B12
  8
1
  6
CONTINUOUS
 10
-2669.1605560345761
 20
-1710.2648959999999
 30
0.0
 40
12.0
 50
90.0
 51
180.0
  0
ARC
  5
7B13
  8
1
  6
CONTINUOUS
 10
-2581.1605560345761
 20
-1710.2648959999999
 30
0.0
 40
12.0
 50
0.0
 51
90.0
  0
LINE
  5
7B14
  8
1
  6
CONTINUOUS
 10
-2681.1605560345761
 20
-1981.2648959999999
 30
0.0
 11
-2681.1605560345761
 21
-1710.2648959999999
 31
0.0
  0
LINE
  5
7B15
  8
1
  6
CONTINUOUS
 10
-2569.1605560345761
 20
-1981.2648959999999
 30
0.0
 11
-2681.1605560345761
 21
-1981.2648959999999
 31
0.0
  0
LINE
  5
7B16
  8
1
  6
CONTINUOUS
 10
-2569.1605560345761
 20
-1710.2648959999999
 30
0.0
 11
-2569.1605560345761
 21
-1981.2648959999999
 31
0.0
  0
LINE
  5
7B17
  8
1
  6
CONTINUOUS
 10
-2681.1605560345761
 20
-1821.2648959999999
 30
0.0
 11
-2569.1605560345761
 21
-1821.2648959999999
 31
0.0
  0
LINE
  5
7B18
  8
1
  6
CONTINUOUS
 10
-2688.760556034576
 20
-1921.2648959999999
 30
0.0
 11
-2680.7605560345751
 21
-1921.2648959999999
 31
0.0
  0
LINE
  5
7B19
  8
1
  6
CONTINUOUS
 10
-2688.760556034576
 20
-1721.2648959999999
 30
0.0
 11
-2688.760556034576
 21
-2006.2648959999999
 31
0.0
  0
LINE
  5
7B1A
  8
1
  6
CONTINUOUS
 10
-2688.760556034576
 20
-1721.2648959999999
 30
0.0
 11
-2680.7605560345751
 21
-1721.2648959999999
 31
0.0
  0
LINE
  5
7B1B
  8
1
  6
CONTINUOUS
 10
-2561.1605560345761
 20
-1721.2648959999999
 30
0.0
 11
-2569.5605560345762
 21
-1721.2648959999999
 31
0.0
  0
LINE
  5
7B1C
  8
1
  6
CONTINUOUS
 10
-2561.1605560345761
 20
-1921.2648959999999
 30
0.0
 11
-2569.5605560345762
 21
-1921.2648959999999
 31
0.0
  0
LINE
  5
7B1D
  8
1
  6
CONTINUOUS
 10
-2669.1605560345761
 20
-1698.2648959999999
 30
0.0
 11
-2581.1605560345761
 21
-1698.2648959999999
 31
0.0
  0
LINE
  5
7B1E
  8
1
  6
CONTINUOUS
 10
-2810.1605560345761
 20
-1726.2648959999999
 30
0.0
 11
-2885.1605560345761
 21
-1726.2648959999999
 31
0.0
  0
LINE
  5
7B1F
  8
1
  6
CONTINUOUS
 10
-2885.1605560345761
 20
-2006.2648959999999
 30
0.0
 11
-2885.1605560345761
 21
-1726.2648959999999
 31
0.0
  0
LINE
  5
7B20
  8
1
  6
CONTINUOUS
 10
-2810.1605560345761
 20
-2006.2648959999999
 30
0.0
 11
-2810.1605560345761
 21
-1726.2648959999999
 31
0.0
  0
LINE
  5
7B21
  8
1
  6
CONTINUOUS
 10
-2830.1605560345761
 20
-1915.7648959999999
 30
0.0
 11
-2788.1605560345761
 21
-1915.7648959999999
 31
0.0
  0
LINE
  5
7B22
  8
1
  6
CONTINUOUS
 10
-2830.1605560345761
 20
-1896.7648959999999
 30
0.0
 11
-2788.1605560345761
 21
-1896.7648959999999
 31
0.0
  0
LINE
  5
7B23
  8
1
  6
CONTINUOUS
 10
-2830.1605560345761
 20
-1941.2648959999999
 30
0.0
 11
-2830.1605560345761
 21
-1871.2648959999999
 31
0.0
  0
LINE
  5
7B24
  8
1
  6
CONTINUOUS
 10
-2865.1605560345761
 20
-1941.2648959999999
 30
0.0
 11
-2865.1605560345761
 21
-1871.2648959999999
 31
0.0
  0
LINE
  5
7B25
  8
1
  6
CONTINUOUS
 10
-2830.1605560345761
 20
-1941.2648959999999
 30
0.0
 11
-2865.1605560345761
 21
-1941.2648959999999
 31
0.0
  0
LINE
  5
7B26
  8
1
  6
CONTINUOUS
 10
-2830.1605560345761
 20
-1871.2648959999999
 30
0.0
 11
-2865.1605560345761
 21
-1871.2648959999999
 31
0.0
  0
LINE
  5
7B27
  8
1
  6
CONTINUOUS
 10
-2830.1605560345761
 20
-1776.2648959999999
 30
0.0
 11
-2865.1605560345761
 21
-1776.2648959999999
 31
0.0
  0
LINE
  5
7B28
  8
1
  6
CONTINUOUS
 10
-2830.1605560345761
 20
-1866.2648959999999
 30
0.0
 11
-2865.1605560345761
 21
-1866.2648959999999
 31
0.0
  0
LINE
  5
7B29
  8
1
  6
CONTINUOUS
 10
-2865.1605560345761
 20
-1866.2648959999999
 30
0.0
 11
-2865.1605560345761
 21
-1776.2648959999999
 31
0.0
  0
LINE
  5
7B2A
  8
1
  6
CONTINUOUS
 10
-2830.1605560345761
 20
-1866.2648959999999
 30
0.0
 11
-2830.1605560345761
 21
-1776.2648959999999
 31
0.0
  0
LINE
  5
7B2B
  8
1
  6
CONTINUOUS
 10
-2728.4605560345758
 20
-1809.2648959999999
 30
0.0
 11
-2830.1605560345761
 21
-1809.2648959999999
 31
0.0
  0
LINE
  5
7B2C
  8
1
  6
CONTINUOUS
 10
-2760.0605560345762
 20
-1833.2648959999999
 30
0.0
 11
-2830.1605560345761
 21
-1833.2648959999999
 31
0.0
  0
LINE
  5
7B2D
  8
1
  6
CONTINUOUS
 10
-2561.1605560345761
 20
-1921.2648959999999
 30
0.0
 11
-2561.1605560345761
 21
-1721.2648959999999
 31
0.0
  0
LINE
  5
7B2E
  8
2
  6
CENTER
 10
-2625.1605560345761
 20
-2153.035474247853
 30
0.0
 11
-2625.1605560345761
 21
-1688.9046423722241
 31
0.0
  0
LINE
  5
7B2F
  8
2
  6
CENTER
 10
-3442.6934656599101
 20
-931.22803732409545
 30
0.0
 11
-3783.79394265991
 21
-931.22803732409545
 31
0.0
  0
LINE
  5
7B30
  8
4
  6
CONTINUOUS
 10
-2424.6532480000001
 20
-2377.2666329999988
 30
0.0
 11
-2424.6532480000001
 21
-2577.2666329999988
 31
0.0
  0
LINE
  5
7B31
  8
4
  6
CONTINUOUS
 10
-3124.6532480000001
 20
-2377.2666329999988
 30
0.0
 11
-3124.6532480000001
 21
-2577.2666329999988
 31
0.0
  0
LINE
  5
7B32
  8
4
  6
CONTINUOUS
 10
-3624.6532479999992
 20
-2377.2666329999988
 30
0.0
 11
-3624.6532479999992
 21
-2577.2666329999988
 31
0.0
  0
LINE
  5
7B35
  8
4
  6
CONTINUOUS
 10
-3624.6532479999992
 20
-2577.2666329999988
 30
0.0
 11
-2424.6532480000001
 21
-2577.2666329999988
 31
0.0
  0
LINE
  5
7B36
  8
4
  6
CONTINUOUS
 10
-3624.6532479999992
 20
-2477.2666329999988
 30
0.0
 11
-2424.6532480000001
 21
-2477.2666329999988
 31
0.0
  0
TEXT
  5
7B37
  8
4
  6
CONTINUOUS
 10
-3586.151167
 20
-2445.7236069999999
 30
0.0
 40
50.0
  1
機器名称
  0
TEXT
  5
7B38
  8
4
  6
CONTINUOUS
 10
-3588.3951419999999
 20
-2555.6214759999998
 30
0.0
 40
50.0
  1
機器型番
  0
TEXT
  5
7B39
  8
4
  6
CONTINUOUS
 10
-3096.9745029999999
 20
-2454.6948640000001
 30
0.0
 40
45.0
  1
ミツヤニューマルチファン
  0
TEXT
  5
7B3A
  8
4
  6
CONTINUOUS
 10
-3087.9987529999999
 20
-2560.1070479999998
 30
0.0
 40
50.0
  1
NM#1-1
  0
TEXT
  5
7B3C
  8
4
  6
CONTINUOUS
 10
-3529.879441
 20
-493.83779099999998
 30
0.0
 40
54.0
  1
天井吊防振ベット
  0
TEXT
  5
7B3D
  8
4
  6
CONTINUOUS
 10
-3958.485655
 20
-343.38565599999993
 30
0.0
 40
72.0
  1
ベルト駆動式片吸込片持多翼ファン
  0
LINE
  5
7B3E
  8
4
  6
CONTINUOUS
 10
-4024.6532479999992
 20
-407.85787799999991
 30
0.0
 11
-2424.6532480000001
 21
-407.85787799999991
 31
0.0
  0
LINE
  5
7B3F
  8
4
  6
CONTINUOUS
 10
-4024.6532479999992
 20
-207.85787799999991
 30
0.0
 11
-2424.6532480000001
 21
-207.85787799999991
 31
0.0
  0
LINE
  5
7B40
  8
4
  6
CONTINUOUS
 10
-3624.6532479999992
 20
-2377.2666329999988
 30
0.0
 11
-2424.6532480000001
 21
-2377.2666329999988
 31
0.0
  0
LINE
  5
7B41
  8
4
  6
CONTINUOUS
 10
-4024.6532479999992
 20
-207.85787799999991
 30
0.0
 11
-4024.6532479999992
 21
-407.85787799999991
 31
0.0
  0
TEXT
  5
7B42
  8
4
  6
CONTINUOUS
 10
-3965.738272999999
 20
-494.94715500000001
 30
0.0
 40
54.0
  1
右回転左横向
  0
TEXT
  5
7B43
  8
4
  6
CONTINUOUS
 10
-2805.683689
 20
-171.20555100000001
 30
0.0
 40
56.0
  1
No.
  0
TEXT
  5
7B44
  8
4
  6
CONTINUOUS
 10
-2868.804678
 20
-493.83779099999998
 30
0.0
 40
54.0
  1
縮尺：1/10
  0
LINE
  5
7B45
  8
4
  6
CONTINUOUS
 10
-2424.6532480000001
 20
-207.85787799999991
 30
0.0
 11
-2424.6532480000001
 21
-407.85787799999991
 31
0.0
  0
LINE
  5
7B47
  8
4
  6
CONTINUOUS
 10
-2834.0358259999998
 20
-196.003049
 30
0.0
 11
-2834.0358259999998
 21
-90.614370999999991
 31
0.0
  0
LINE
  5
7B48
  8
4
  6
CONTINUOUS
 10
-2834.0358259999998
 20
-90.614370999999991
 30
0.0
 11
-2424.6532480000001
 21
-90.614370999999991
 31
0.0
  0
LINE
  5
7B49
  8
4
  6
CONTINUOUS
 10
-2424.6532480000001
 20
-90.614370999999991
 30
0.0
 11
-2424.6532480000001
 21
-196.003049
 31
0.0
  0
LINE
  5
7B4A
  8
4
  6
CONTINUOUS
 10
-2424.6532480000001
 20
-196.003049
 30
0.0
 11
-2834.0358259999998
 21
-196.003049
 31
0.0
  0
DIMENSION
  5
7B63
  8
3
  6
CONTINUOUS
  2
*D1
 10
-3609.3258116599109
 20
-2173.966989999999
 30
0.0
 11
-3686.3205456599112
 21
-2173.966989999999
 31
0.0
 70
   128
 13
-3769.3258116599109
 23
-2128.2648960000001
 33
0.0
 14
-3609.3258116599109
 24
-2103.2648960000001
 34
0.0
1001
ACAD
1000
DSTYLE
1002
{
1070
   287
1070
     3
1070
   287
1070
     3
1070
    40
1040
10.0
1070
   143
1040
0.039
1070
   172
1070
     1
1070
   271
1070
     0
1070
   279
1070
     0
1070
   288
1070
     1
1002
}
  0
DIMENSION
  5
7B70
  8
3
  6
CONTINUOUS
  2
*D2
 10
-3159.3258116599109
 20
-2173.966989999999
 30
0.0
 11
-3384.3258116599109
 21
-2148.966989999999
 31
0.0
 70
     0
 13
-3609.3258116599109
 23
-2103.2648960000001
 33
0.0
 14
-3159.3258116599109
 24
-2128.2648960000001
 34
0.0
1001
ACAD
1000
DSTYLE
1002
{
1070
   287
1070
     4
1070
   287
1070
     4
1070
    40
1040
10.0
1070
    75
1070
     1
1070
   143
1040
0.039
1070
   172
1070
     1
1070
   271
1070
     0
1070
   279
1070
     1
1070
   288
1070
     1
1002
}
  0
DIMENSION
  5
7B7D
  8
3
  6
CONTINUOUS
  2
*D3
 10
-3773.1081006599111
 20
-1821.2648959999999
 30
0.0
 11
-3773.1081006599102
 21
-1899.125918
 31
0.0
 70
   128
 13
-3739.3258116599109
 23
-1981.2648959999999
 33
0.0
 14
-3739.3258116599109
 24
-1821.2648959999999
 34
0.0
 50
90.0
1001
ACAD
1000
DSTYLE
1002
{
1070
   287
1070
     3
1070
   287
1070
     3
1070
    40
1040
10.0
1070
   143
1040
0.039
1070
   172
1070
     1
1070
   271
1070
     0
1070
   279
1070
     0
1070
   288
1070
     1
1002
}
  0
DIMENSION
  5
7B8C
  8
3
  6
CONTINUOUS
  2
*D4
 10
-3609.3258116599109
 20
-1664.28667
 30
0.0
 11
-3674.3258116599109
 21
-1642.7367335288791
 31
0.0
 70
   128
 13
-3739.3258116599109
 23
-1799.2648959999999
 33
0.0
 14
-3609.3258116599109
 24
-1698.6207139999999
 34
0.0
1001
ACAD
1000
DSTYLE
1002
{
1070
   288
1070
     1
1070
   172
1070
     1
1070
    40
1040
10.0
1070
   271
1070
     0
1070
   143
1040
0.039
1002
}
  0
DIMENSION
  5
7BB4
  8
3
  6
CONTINUOUS
  2
*D5
 10
-3879.3809356599108
 20
-1821.2648959999999
 30
0.0
 11
-3905.1583953788918
 21
-1759.9428049999999
 31
0.0
 70
   128
 13
-3609.3258116599109
 23
-1698.6207139999999
 33
0.0
 14
-3744.3258116599109
 24
-1821.2648959999999
 34
0.0
 50
90.0
1001
ACAD
1000
DSTYLE
1002
{
1070
   288
1070
     1
1070
   172
1070
     1
1070
    40
1040
10.0
1070
   271
1070
     0
1070
   143
1040
0.039
1002
}
  0
DIMENSION
  5
7BC0
  8
3
  6
CONTINUOUS
  2
*D6
 10
-3879.3809356599108
 20
-2056.2648960000001
 30
0.0
 11
-3904.3809356599099
 21
-1938.7648959999999
 31
0.0
 70
     0
 13
-3744.3258116599109
 23
-1821.2648959999999
 33
0.0
 14
-3744.3258116599109
 24
-2056.2648960000001
 34
0.0
 50
90.0
1001
ACAD
1000
DSTYLE
1002
{
1070
   287
1070
     4
1070
   287
1070
     4
1070
    40
1040
10.0
1070
    75
1070
     1
1070
   143
1040
0.039
1070
   172
1070
     1
1070
   271
1070
     0
1070
   279
1070
     1
1070
   288
1070
     1
1002
}
  0
DIMENSION
  5
7BD0
  8
3
  6
CONTINUOUS
  2
*D7
 10
-3879.3809356599108
 20
-2103.2648960000001
 30
0.0
 11
-3878.951060659911
 21
-2079.3476390000001
 31
0.0
 70
   128
 13
-3744.3258116599109
 23
-2056.2648960000001
 33
0.0
 14
-3769.3258116599109
 24
-2103.2648960000001
 34
0.0
 50
90.0
1001
ACAD
1000
DSTYLE
1002
{
1070
   287
1070
     4
1070
   287
1070
     4
1070
    40
1040
10.0
1070
    75
1070
     1
1070
   143
1040
0.039
1070
   172
1070
     1
1070
   271
1070
     0
1070
   279
1070
     1
1070
   288
1070
     1
1070
     7
1000
DOT
1002
}
  0
DIMENSION
  5
7BE0
  8
3
  6
CONTINUOUS
  2
*D8
 10
-3879.3809356599108
 20
-2128.2648960000001
 30
0.0
 11
-3879.3809356599108
 21
-2202.5506102857139
 31
0.0
 70
   128
 13
-3769.3258116599109
 23
-2103.2648960000001
 33
0.0
 14
-3769.3258116599109
 24
-2128.2648960000001
 34
0.0
 50
90.0
1001
ACAD
1000
DSTYLE
1002
{
1070
   287
1070
     3
1070
   287
1070
     3
1070
    40
1040
10.0
1070
   143
1040
0.039
1070
   172
1070
     1
1070
   271
1070
     0
1070
   279
1070
     0
1070
   288
1070
     1
1070
     6
1000
DOT
1002
}
  0
DIMENSION
  5
7C2E
  8
3
  6
CONTINUOUS
  2
*D9
 10
-3159.3258116599109
 20
-1290.9320763240951
 30
0.0
 11
-3447.8440216599101
 21
-1290.9320763240951
 31
0.0
 70
   128
 13
-3769.3258116599109
 23
-1203.7280373240951
 33
0.0
 14
-3159.3258116599109
 24
-1203.7280373240951
 34
0.0
1001
ACAD
1000
DSTYLE
1002
{
1070
   287
1070
     3
1070
   287
1070
     3
1070
    40
1040
10.0
1070
   143
1040
0.039
1070
   172
1070
     1
1070
   271
1070
     0
1070
   279
1070
     0
1070
   288
1070
     1
1002
}
  0
DIMENSION
  5
7C3B
  8
3
  6
CONTINUOUS
  2
*D10
 10
-3081.3024286599111
 20
-1203.7280373240951
 30
0.0
 11
-3081.3024286599111
 21
-981.42865932409552
 31
0.0
 70
   128
 13
-3159.3258116599109
 23
-773.72803732409545
 33
0.0
 14
-3159.3258116599109
 24
-1203.7280373240951
 34
0.0
 50
90.0
1001
ACAD
1000
DSTYLE
1002
{
1070
   287
1070
     3
1070
   287
1070
     3
1070
    40
1040
10.0
1070
   143
1040
0.039
1070
   172
1070
     1
1070
   271
1070
     0
1070
   279
1070
     0
1070
   288
1070
     1
1002
}
  0
DIMENSION
  5
7C48
  8
3
  6
CONTINUOUS
  2
*D11
 10
-2625.1605560345761
 20
-2185.3044719999989
 30
0.0
 11
-2758.209972034575
 21
-2185.3044719999989
 31
0.0
 70
   128
 13
-2897.1605560345761
 23
-2128.2648960000001
 33
0.0
 14
-2625.1605560345761
 24
-2128.2648960000001
 34
0.0
1001
ACAD
1000
DSTYLE
1002
{
1070
   287
1070
     3
1070
   287
1070
     3
1070
    40
1040
10.0
1070
   143
1040
0.039
1070
   172
1070
     1
1070
   271
1070
     0
1070
   279
1070
     0
1070
   288
1070
     1
1002
}
  0
DIMENSION
  5
7C54
  8
3
  6
CONTINUOUS
  2
*D12
 10
-2467.1605560345761
 20
-2185.3044719999989
 30
0.0
 11
-2546.1605560345761
 21
-2160.3044719999989
 31
0.0
 70
     0
 13
-2625.1605560345761
 23
-2128.2648960000001
 33
0.0
 14
-2467.1605560345761
 24
-2128.2648960000001
 34
0.0
1001
ACAD
1000
DSTYLE
1002
{
1070
   287
1070
     4
1070
   287
1070
     4
1070
    40
1040
10.0
1070
    75
1070
     1
1070
   143
1040
0.039
1070
   172
1070
     1
1070
   271
1070
     0
1070
   279
1070
     1
1070
   288
1070
     1
1002
}
  0
DIMENSION
  5
7C63
  8
3
  6
CONTINUOUS
  2
*D13
 10
-2569.1605560345761
 20
-1680.2630919999999
 30
0.0
 11
-2625.1605560345761
 21
-1658.7746959130959
 31
0.0
 70
   128
 13
-2681.1605560345761
 23
-1710.2648959999999
 33
0.0
 14
-2569.1605560345761
 24
-1710.2648959999999
 34
0.0
1001
ACAD
1000
DSTYLE
1002
{
1070
   288
1070
     1
1070
   172
1070
     1
1070
    40
1040
10.0
1070
   271
1070
     0
1070
   143
1040
0.039
1002
}
  0
DIMENSION
  5
7C70
  8
3
  6
CONTINUOUS
  2
*D14
 10
-2625.1605560345761
 20
-1614.5941949336441
 30
0.0
 11
-2759.7327070345759
 21
-1614.5941949336441
 31
0.0
 70
   128
  1
MAX\P260
 13
-2885.1605560345761
 23
-1726.2648959999999
 33
0.0
 14
-2625.1605560345761
 24
-1637.6618571061861
 34
0.0
1001
ACAD
1000
DSTYLE
1002
{
1070
   287
1070
     3
1070
   287
1070
     3
1070
    40
1040
10.0
1070
   143
1040
0.039
1070
   172
1070
     1
1070
   271
1070
     0
1070
   279
1070
     0
1070
   288
1070
     1
1002
}
  0
DIMENSION
  5
7C7E
  8
3
  6
CONTINUOUS
  2
*D15
 10
-2561.1605560345761
 20
-1614.5941949336441
 30
0.0
 11
-2598.3234400345759
 21
-1614.4439529336439
 31
0.0
 70
   128
 13
-2625.1605560345761
 23
-1637.6618571061861
 33
0.0
 14
-2561.1605560345761
 24
-1721.2648959999999
 34
0.0
1001
ACAD
1000
DSTYLE
1002
{
1070
   287
1070
     4
1070
   287
1070
     4
1070
    40
1040
10.0
1070
    75
1070
     1
1070
   143
1040
0.039
1070
   172
1070
     1
1070
   271
1070
     0
1070
   279
1070
     1
1070
   288
1070
     1
1002
}
  0
LINE
  5
7CA3
  8
3
  6
CONTINUOUS
 10
-2561.1605560345761
 20
-1741.2648959999999
 30
0.0
 11
-2553.3860580345749
 21
-1741.2648959999999
 31
0.0
  0
LINE
  5
7CA5
  8
3
  6
CONTINUOUS
 10
-2561.1605560345761
 20
-1901.2648959999999
 30
0.0
 11
-2552.193377034575
 21
-1901.2648959999999
 31
0.0
  0
DIMENSION
  5
7CB2
  8
3
  6
CONTINUOUS
  2
*D16
 10
-2493.752089034575
 20
-1901.2648959999999
 30
0.0
 11
-2517.7552366465711
 21
-1821.2648959999999
 31
0.0
 70
   128
 13
-2561.1605560345761
 23
-1741.2648959999999
 33
0.0
 14
-2561.1605560345761
 24
-1901.2648959999999
 34
0.0
 50
90.0
1001
ACAD
1000
DSTYLE
1002
{
1070
   288
1070
     1
1070
   172
1070
     1
1070
    40
1040
10.0
1070
     3
1000
φ<>
1070
   271
1070
     0
1070
   143
1040
0.039
1002
}
  0
LINE
  5
7CB3
  8
2
  6
CENTER
 10
-3609.3258116599109
 20
-1273.5583463240951
 30
0.0
 11
-3609.3258116599109
 21
-805.45246232409556
 31
0.0
  0
LINE
  5
7CB4
  8
2
  6
CENTER
 10
-3190.358750659911
 20
-1821.2648959999999
 30
0.0
 11
-3784.1198076599098
 21
-1821.2648959999999
 31
0.0
  0
DIMENSION
  5
7CFB
  8
3
  6
CONTINUOUS
  2
*D17
 10
-3819.8997176599109
 20
-1821.2648959999999
 30
0.0
 11
-3819.8997176599109
 21
-1902.431192999999
 31
0.0
 70
   128
 13
-3724.3258116599109
 23
-1992.2648959999999
 33
0.0
 14
-3744.3258116599109
 24
-1821.2648959999999
 34
0.0
 50
90.0
1001
ACAD
1000
DSTYLE
1002
{
1070
   287
1070
     3
1070
   287
1070
     3
1070
    40
1040
10.0
1070
   143
1040
0.039
1070
   172
1070
     1
1070
   271
1070
     0
1070
   279
1070
     0
1070
   288
1070
     1
1002
}
  0
DIMENSION
  5
7D17
  8
3
  6
CONTINUOUS
  2
*D18
 10
-3464.3258116599109
 20
-1664.28667
 30
0.0
 11
-3536.8258116599109
 21
-1639.286669999999
 31
0.0
 70
     0
 13
-3609.3258116599109
 23
-1698.6207139999999
 33
0.0
 14
-3464.3258116599109
 24
-1821.2648959999999
 34
0.0
1001
ACAD
1000
DSTYLE
1002
{
1070
   287
1070
     4
1070
   287
1070
     4
1070
    40
1040
10.0
1070
    75
1070
     1
1070
   143
1040
0.039
1070
   172
1070
     1
1070
   271
1070
     0
1070
   279
1070
     1
1070
   288
1070
     1
1002
}
  0
DIMENSION
  5
7D24
  8
3
  6
CONTINUOUS
  2
*D19
 10
-3938.5066496599111
 20
-2128.2648960000001
 30
0.0
 11
-3938.5066496599111
 21
-1896.916522
 31
0.0
 70
   128
 13
-3609.3258116599109
 23
-1698.6207139999999
 33
0.0
 14
-3769.3258116599109
 24
-2128.2648960000001
 34
0.0
 50
90.0
1001
ACAD
1000
DSTYLE
1002
{
1070
   287
1070
     3
1070
   287
1070
     3
1070
    40
1040
10.0
1070
   143
1040
0.039
1070
   172
1070
     1
1070
   271
1070
     0
1070
   279
1070
     0
1070
   288
1070
     1
1002
}
  0
DIMENSION
  5
7E1F
  8
3
  2
*D21
 10
-3159.3258116599109
 20
-1606.1445819003141
 30
0.0
 11
-3464.0764578715548
 21
-1606.1445819003141
 31
0.0
 70
   128
 13
-3739.3258116599109
 23
-1794.2648959999999
 33
0.0
 14
-3159.3258116599109
 24
-2078.2648960000001
 34
0.0
1001
ACAD
1000
DSTYLE
1002
{
1070
   287
1070
     3
1070
   287
1070
     3
1070
    40
1040
10.0
1070
   143
1040
0.039
1070
   172
1070
     1
1070
   271
1070
     0
1070
   279
1070
     0
1070
   288
1070
     1
1002
}
  0
ENDSEC
  0
EOF
