  0
SECTION
  2
HEADER
  9
$ACADVER
  1
AC1009
  9
$INSBASE
 10
0.0
 20
0.0
 30
0.0
  9
$EXTMIN
 10
250.0
 20
300.0
 30
0.0
  9
$EXTMAX
 10
1850.0
 20
2786.6522620000001
 30
0.0
  9
$LIMMIN
 10
0.0
 20
0.0
  9
$LIMMAX
 10
297.0
 20
210.0
  9
$ORTHOMODE
 70
     0
  9
$REGENMODE
 70
     1
  9
$FILLMODE
 70
     0
  9
$QTEXTMODE
 70
     0
  9
$MIRRTEXT
 70
     1
  9
$DRAGMODE
 70
     2
  9
$LTSCALE
 40
100.0
  9
$OSMODE
 70
    37
  9
$ATTMODE
 70
     1
  9
$TEXTSIZE
 40
180.0
  9
$TRACEWID
 40
0.05
  9
$TEXTSTYLE
  7
STANDARD
  9
$CLAYER
  8
3
  9
$CELTYPE
  6
BYLAYER
  9
$CECOLOR
 62
   256
  9
$DIMSCALE
 40
10.0
  9
$DIMASZ
 40
2.0
  9
$DIMEXO
 40
0.5
  9
$DIMDLI
 40
10.0
  9
$DIMRND
 40
0.0
  9
$DIMDLE
 40
0.0
  9
$DIMEXE
 40
1.0
  9
$DIMTP
 40
1.0
  9
$DIMTM
 40
1.0
  9
$DIMTXT
 40
3.0
  9
$DIMCEN
 40
0.0
  9
$DIMTSZ
 40
0.0
  9
$DIMTOL
 70
     0
  9
$DIMLIM
 70
     0
  9
$DIMTIH
 70
     0
  9
$DIMTOH
 70
     0
  9
$DIMSE1
 70
     0
  9
$DIMSE2
 70
     0
  9
$DIMTAD
 70
     1
  9
$DIMZIN
 70
     8
  9
$DIMBLK
  1

  9
$DIMASO
 70
     1
  9
$DIMSHO
 70
     1
  9
$DIMPOST
  1

  9
$DIMAPOST
  1

  9
$DIMALT
 70
     0
  9
$DIMALTD
 70
     2
  9
$DIMALTF
 40
0.039
  9
$DIMLFAC
 40
1.0
  9
$DIMTOFL
 70
     1
  9
$DIMTVP
 40
0.0
  9
$DIMTIX
 70
     0
  9
$DIMSOXD
 70
     0
  9
$DIMSAH
 70
     1
  9
$DIMBLK1
  1
OPEN
  9
$DIMBLK2
  1
OPEN
  9
$DIMSTYLE
  2
IGA
  9
$DIMCLRD
 70
     0
  9
$DIMCLRE
 70
     0
  9
$DIMCLRT
 70
     0
  9
$DIMTFAC
 40
10.0
  9
$DIMGAP
 40
1.0
  9
$LUNITS
 70
     2
  9
$LUPREC
 70
     3
  9
$SKETCHINC
 40
0.1
  9
$FILLETRAD
 40
50.0
  9
$AUNITS
 70
     0
  9
$AUPREC
 70
     0
  9
$MENU
  1
acad
  9
$ELEVATION
 40
0.0
  9
$PELEVATION
 40
0.0
  9
$THICKNESS
 40
0.0
  9
$LIMCHECK
 70
     0
  9
$BLIPMODE
 70
     0
  9
$CHAMFERA
 40
0.5
  9
$CHAMFERB
 40
0.5
  9
$SKPOLY
 70
     0
  9
$TDCREATE
 40
2450793.410136342
  9
$TDUPDATE
 40
2454953.8588070832
  9
$TDINDWG
 40
0.0165730903
  9
$TDUSRTIMER
 40
0.0165732755
  9
$USRTIMER
 70
     1
  9
$ANGBASE
 50
0.0
  9
$ANGDIR
 70
     0
  9
$PDMODE
 70
     0
  9
$PDSIZE
 40
0.0
  9
$PLINEWID
 40
0.0
  9
$COORDS
 70
     1
  9
$SPLFRAME
 70
     0
  9
$SPLINETYPE
 70
     6
  9
$SPLINESEGS
 70
     8
  9
$ATTDIA
 70
     0
  9
$ATTREQ
 70
     1
  9
$HANDLING
 70
 10241
  9
$HANDSEED
  5
7FBB
  9
$SURFTAB1
 70
     6
  9
$SURFTAB2
 70
     6
  9
$SURFTYPE
 70
     6
  9
$SURFU
 70
     6
  9
$SURFV
 70
     6
  9
$UCSNAME
  2

  9
$UCSORG
 10
0.0
 20
0.0
 30
0.0
  9
$UCSXDIR
 10
1.0
 20
0.0
 30
0.0
  9
$UCSYDIR
 10
0.0
 20
1.0
 30
0.0
  9
$PUCSNAME
  2

  9
$PUCSORG
 10
0.0
 20
0.0
 30
0.0
  9
$PUCSXDIR
 10
1.0
 20
0.0
 30
0.0
  9
$PUCSYDIR
 10
0.0
 20
1.0
 30
0.0
  9
$USERI1
 70
     0
  9
$USERI2
 70
     0
  9
$USERI3
 70
     0
  9
$USERI4
 70
     0
  9
$USERI5
 70
     0
  9
$USERR1
 40
0.0
  9
$USERR2
 40
0.0
  9
$USERR3
 40
0.0
  9
$USERR4
 40
0.0
  9
$USERR5
 40
0.0
  9
$WORLDVIEW
 70
     1
  9
$SHADEDGE
 70
     3
  9
$SHADEDIF
 70
    70
  9
$TILEMODE
 70
     1
  9
$MAXACTVP
 70
    16
  9
$PLIMCHECK
 70
     0
  9
$PEXTMIN
 10
1.0000000000000000E+020
 20
1.0000000000000000E+020
 30
1.0000000000000000E+020
  9
$PEXTMAX
 10
-1.0000000000000000E+020
 20
-1.0000000000000000E+020
 30
-1.0000000000000000E+020
  9
$PLIMMIN
 10
0.0
 20
0.0
  9
$PLIMMAX
 10
12.0
 20
9.0
  9
$UNITMODE
 70
     0
  9
$VISRETAIN
 70
     0
  9
$PLINEGEN
 70
     0
  9
$PSLTSCALE
 70
     1
  0
ENDSEC
  0
SECTION
  2
TABLES
  0
TABLE
  2
VPORT
 70
     2
  0
VPORT
  2
*ACTIVE
 70
     0
 10
0.0
 20
0.0
 11
1.0
 21
1.0
 12
2724.1281157123658
 22
1823.591688331029
 13
0.0
 23
0.0
 14
10.0
 24
10.0
 15
10.0
 25
10.0
 16
0.0
 26
0.0
 36
1.0
 17
0.0
 27
0.0
 37
0.0
 40
3552.2128564519362
 41
1.5051150895140659
 42
50.0
 43
0.0
 44
0.0
 50
0.0
 51
0.0
 71
     0
 72
   100
 73
     1
 74
     0
 75
     0
 76
     0
 77
     0
 78
     0
  0
ENDTAB
  0
TABLE
  2
LTYPE
 70
     2
  0
LTYPE
  2
CONTINUOUS
 70
     0
  3
Solid line
 72
    65
 73
     0
 40
0.0
  0
LTYPE
  2
CENTER
 70
     0
  3
____ _ ____ _ ____ _ ____ _ ____ _ ____ _ ____ 
 72
    65
 73
     4
 40
2.0
 49
1.25
 49
-0.25
 49
0.25
 49
-0.25
  0
ENDTAB
  0
TABLE
  2
LAYER
 70
     6
  0
LAYER
  2
0
 70
     0
 62
     7
  6
CONTINUOUS
  0
LAYER
  2
3
 70
     0
 62
     2
  6
CONTINUOUS
  0
LAYER
  2
2
 70
     0
 62
     3
  6
CENTER
  0
LAYER
  2
1
 70
     0
 62
     4
  6
CONTINUOUS
  0
LAYER
  2
4
 70
     0
 62
     7
  6
CONTINUOUS
  0
LAYER
  2
DEFPOINTS
 70
     0
 62
     7
  6
CONTINUOUS
  0
ENDTAB
  0
TABLE
  2
STYLE
 70
     1
  0
STYLE
  2
STANDARD
 70
     0
 40
0.0
 41
1.0
 50
0.0
 71
     0
 42
180.0
  3
simplex.shx
  4
extfont.shx
  0
ENDTAB
  0
TABLE
  2
VIEW
 70
     0
  0
ENDTAB
  0
TABLE
  2
UCS
 70
     0
  0
ENDTAB
  0
TABLE
  2
APPID
 70
     1
  0
APPID
  2
ACAD
 70
     0
  0
ENDTAB
  0
TABLE
  2
DIMSTYLE
 70
     1
  0
DIMSTYLE
  2
IGA
 70
     0
  3

  4

  5

  6
OPEN
  7
OPEN
 40
2.0
 41
2.0
 42
0.5
 43
10.0
 44
1.0
 45
0.0
 46
0.0
 47
1.0
 48
1.0
140
3.0
141
0.0
142
0.0
143
0.03937
144
1.0
145
0.0
146
10.0
147
1.0
 71
     0
 72
     0
 73
     0
 74
     0
 75
     0
 76
     0
 77
     1
 78
     8
170
     0
171
     2
172
     0
173
     1
174
     0
175
     0
176
     0
177
     0
178
     0
  0
ENDTAB
  0
ENDSEC
  0
SECTION
  2
BLOCKS
  0
BLOCK
  8
0
  2
$MODEL_SPACE
 70
     0
 10
0.0
 20
0.0
 30
0.0
  3
$MODEL_SPACE
  1

  0
ENDBLK
  5
1B
  8
0
  0
BLOCK
 67
     1
  8
0
  2
$PAPER_SPACE
 70
     0
 10
0.0
 20
0.0
 30
0.0
  3
$PAPER_SPACE
  1

  0
ENDBLK
  5
18
 67
     1
  8
0
  0
BLOCK
  8
0
  2
_OPEN
 70
     0
 10
0.0
 20
0.0
 30
0.0
  3
_OPEN
  1

  0
LINE
  5
7B52
  8
0
  6
BYBLOCK
 62
     0
 10
-1.0
 20
0.166667
 30
0.0
 11
0.0
 21
0.0
 31
0.0
  0
LINE
  5
7B53
  8
0
  6
BYBLOCK
 62
     0
 10
0.0
 20
0.0
 30
0.0
 11
-1.0
 21
-0.166667
 31
0.0
  0
LINE
  5
7B54
  8
0
  6
BYBLOCK
 62
     0
 10
0.0
 20
0.0
 30
0.0
 11
-1.0
 21
0.0
 31
0.0
  0
ENDBLK
  5
7B55
  8
0
  0
BLOCK
  8
0
  2
*D1
 70
     1
 10
0.0
 20
0.0
 30
0.0
  3
*D1
  1

  0
LINE
  5
7F23
  8
3
  6
CONTINUOUS
 62
     0
 10
642.42357762533516
 20
1238.784372034856
 30
0.0
 11
642.42357762533516
 21
1291.0044690348559
 31
0.0
  0
LINE
  5
7F24
  8
3
  6
CONTINUOUS
 62
     0
 10
802.42357762533516
 20
1238.784372034856
 30
0.0
 11
802.42357762533516
 21
1291.0044690348559
 31
0.0
  0
LINE
  5
7F25
  8
3
  6
CONTINUOUS
 62
     0
 10
662.42357762533516
 20
1281.0044690348559
 30
0.0
 11
782.42357762533516
 21
1281.0044690348559
 31
0.0
  0
INSERT
  5
7F26
  8
3
  6
CONTINUOUS
 62
     0
  2
_OPEN
 10
642.42357762533516
 20
1281.0044690348559
 30
0.0
 41
20.0
 42
20.0
 43
20.0
 50
180.0
  0
INSERT
  5
7F27
  8
3
  6
CONTINUOUS
 62
     0
  2
_OPEN
 10
802.42357762533516
 20
1281.0044690348559
 30
0.0
 41
20.0
 42
20.0
 43
20.0
  0
TEXT
  8
3
  40
30
  5
7FAB
  62
0
  72
0
  71
0
 10
662.904
 20
1252.90
 30
0.000000
  1
160
  0
POINT
  5
7F29
  8
DEFPOINTS
  6
CONTINUOUS
 62
     0
 10
642.42357762533516
 20
1233.784372034856
 30
0.0
  0
POINT
  5
7F2A
  8
DEFPOINTS
  6
CONTINUOUS
 62
     0
 10
802.42357762533516
 20
1233.784372034856
 30
0.0
  0
POINT
  5
7F2B
  8
DEFPOINTS
  6
CONTINUOUS
 62
     0
 10
802.42357762533516
 20
1281.0044690348559
 30
0.0
  0
ENDBLK
  5
7B70
  8
0
  0
BLOCK
  8
0
  2
*D2
 70
     1
 10
0.0
 20
0.0
 30
0.0
  3
*D2
  1

  0
LINE
  5
7F2C
  8
3
  6
CONTINUOUS
 62
     0
 10
631.42357762533516
 20
1238.784372034856
 30
0.0
 11
631.42357762533516
 21
1341.002253034856
 31
0.0
  0
LINE
  5
7F2D
  8
3
  6
CONTINUOUS
 62
     0
 10
802.42357762533516
 20
1243.784372034856
 30
0.0
 11
802.42357762533516
 21
1341.002253034856
 31
0.0
  0
LINE
  5
7F2E
  8
3
  6
CONTINUOUS
 62
     0
 10
651.42357762533516
 20
1331.002253034856
 30
0.0
 11
782.42357762533516
 21
1331.002253034856
 31
0.0
  0
INSERT
  5
7F2F
  8
3
  6
CONTINUOUS
 62
     0
  2
_OPEN
 10
631.42357762533516
 20
1331.002253034856
 30
0.0
 41
20.0
 42
20.0
 43
20.0
 50
180.0
  0
INSERT
  5
7F30
  8
3
  6
CONTINUOUS
 62
     0
  2
_OPEN
 10
802.42357762533516
 20
1331.002253034856
 30
0.0
 41
20.0
 42
20.0
 43
20.0
  0
TEXT
  8
3
  40
30
  5
7FAC
  62
0
  72
0
  71
0
 10
658.356
 20
1302.90
 30
0.000000
  1
171
  0
POINT
  5
7F32
  8
DEFPOINTS
  6
CONTINUOUS
 62
     0
 10
631.42357762533516
 20
1233.784372034856
 30
0.0
  0
POINT
  5
7F33
  8
DEFPOINTS
  6
CONTINUOUS
 62
     0
 10
802.42357762533516
 20
1238.784372034856
 30
0.0
  0
POINT
  5
7F34
  8
DEFPOINTS
  6
CONTINUOUS
 62
     0
 10
802.42357762533516
 20
1331.002253034856
 30
0.0
  0
ENDBLK
  5
7B8A
  8
0
  0
BLOCK
  8
0
  2
*D3
 70
     1
 10
0.0
 20
0.0
 30
0.0
  3
*D3
  1

  0
LINE
  5
7F35
  8
3
  6
CONTINUOUS
 62
     0
 10
925.42357762533504
 20
1112.784372034856
 30
0.0
 11
925.42357762533504
 21
1341.002253034856
 31
0.0
  0
LINE
  5
7F36
  8
3
  6
CONTINUOUS
 62
     0
 10
822.42357762533516
 20
1331.002253034856
 30
0.0
 11
905.42357762533516
 21
1331.002253034856
 31
0.0
  0
TEXT
  8
3
  40
30
  5
7FAD
  62
0
  72
0
  71
0
 10
799.343
 20
1301.39
 30
0.000000
  1
123
  0
INSERT
  5
7F38
  8
3
  6
CONTINUOUS
 62
     0
  2
_OPEN
 10
802.42357762533516
 20
1331.002253034856
 30
0.0
 41
20.0
 42
20.0
 43
20.0
 50
180.0
  0
INSERT
  5
7F39
  8
3
  6
CONTINUOUS
 62
     0
  2
_OPEN
 10
925.42357762533504
 20
1331.002253034856
 30
0.0
 41
20.0
 42
20.0
 43
20.0
  0
POINT
  5
7F3A
  8
DEFPOINTS
  6
CONTINUOUS
 62
     0
 10
802.42357762533516
 20
1238.784372034856
 30
0.0
  0
POINT
  5
7F3B
  8
DEFPOINTS
  6
CONTINUOUS
 62
     0
 10
925.42357762533504
 20
1107.784372034856
 30
0.0
  0
POINT
  5
7F3C
  8
DEFPOINTS
  6
CONTINUOUS
 62
     0
 10
925.42357762533504
 20
1331.002253034856
 30
0.0
  0
ENDBLK
  5
7BAF
  8
0
  0
BLOCK
  8
0
  2
*D4
 70
     1
 10
0.0
 20
0.0
 30
0.0
  3
*D4
  1

  0
LINE
  5
7F3D
  8
3
  6
CONTINUOUS
 62
     0
 10
980.899098625335
 20
1118.784372034856
 30
0.0
 11
1038.772895577983
 21
1118.784372034856
 31
0.0
  0
LINE
  5
7F3E
  8
3
  6
CONTINUOUS
 62
     0
 10
942.42357762533516
 20
883.78437203485601
 30
0.0
 11
1038.772895577983
 21
883.78437203485601
 31
0.0
  0
LINE
  5
7F3F
  8
3
  6
CONTINUOUS
 62
     0
 10
1028.772895577983
 20
1098.784372034856
 30
0.0
 11
1028.772895577983
 21
903.78437203485589
 31
0.0
  0
INSERT
  5
7F40
  8
3
  6
CONTINUOUS
 62
     0
  2
_OPEN
 10
1028.772895577983
 20
1118.784372034856
 30
0.0
 41
20.0
 42
20.0
 43
20.0
 50
90.0
  0
INSERT
  5
7F41
  8
3
  6
CONTINUOUS
 62
     0
  2
_OPEN
 10
1028.772895577983
 20
883.78437203485601
 30
0.0
 41
20.0
 42
20.0
 43
20.0
 50
270.0
  0
TEXT
  8
3
  40
30
  5
7FAE
  62
0
  72
0
  71
0
 10
943.773
 20
948.184
 30
0.000000
  1
235
  0
POINT
  5
7F43
  8
DEFPOINTS
  6
CONTINUOUS
 62
     0
 10
975.89909862533489
 20
1118.784372034856
 30
0.0
  0
POINT
  5
7F44
  8
DEFPOINTS
  6
CONTINUOUS
 62
     0
 10
937.42357762533516
 20
883.78437203485601
 30
0.0
  0
POINT
  5
7F45
  8
DEFPOINTS
  6
CONTINUOUS
 62
     0
 10
1028.772895577983
 20
883.78437203485601
 30
0.0
  0
ENDBLK
  5
7E24
  8
0
  0
BLOCK
  8
0
  2
*D5
 70
     1
 10
0.0
 20
0.0
 30
0.0
  3
*D5
  1

  0
LINE
  5
7DFE
  8
0
  6
BYBLOCK
 62
     0
 10
967.42357762533516
 20
836.78437203485601
 30
0.0
 11
1038.772895577983
 21
836.78437203485601
 31
0.0
  0
LINE
  5
7DFF
  8
0
  6
BYBLOCK
 62
     0
 10
1028.772895577983
 20
903.78437203485589
 30
0.0
 11
1028.772895577983
 21
923.78437203485612
 31
0.0
  0
LINE
  5
7E00
  8
0
  6
BYBLOCK
 62
     0
 10
1028.772895577983
 20
816.78437203485601
 30
0.0
 11
1028.772895577983
 21
796.78437203485601
 31
0.0
  0
TEXT
  5
7E01
  8
3
 62
     0
 10
1098.348704577983
 20
826.81560933743026
 30
0.0
 40
30.0
  1
47
 50
90.0
  0
LINE
  5
7E02
  8
0
  6
BYBLOCK
 62
     0
 10
1028.772895577983
 20
883.78437203485601
 30
0.0
 11
1028.772895577983
 21
836.78437203485601
 31
0.0
  0
INSERT
  5
7E03
  8
0
  6
BYBLOCK
 62
     0
  2
_OPEN
 10
1028.772895577983
 20
883.78437203485601
 30
0.0
 41
20.0
 42
20.0
 43
20.0
 50
270.0
  0
INSERT
  5
7E04
  8
0
  6
BYBLOCK
 62
     0
  2
_DOT
 10
1028.772895577983
 20
836.78437203485601
 30
0.0
 41
20.0
 42
20.0
 43
20.0
 50
90.0
  0
POINT
  5
7E05
  8
DEFPOINTS
  6
BYBLOCK
 62
     0
 10
937.42357762533516
 20
883.78437203485601
 30
0.0
  0
POINT
  5
7E06
  8
DEFPOINTS
  6
BYBLOCK
 62
     0
 10
962.42357762533516
 20
836.78437203485601
 30
0.0
  0
POINT
  5
7E07
  8
DEFPOINTS
  6
BYBLOCK
 62
     0
 10
1028.772895577983
 20
836.78437203485601
 30
0.0
  0
ENDBLK
  5
7E08
  8
0
  0
BLOCK
  8
0
  2
*D6
 70
     1
 10
0.0
 20
0.0
 30
0.0
  3
*D6
  1

  0
LINE
  5
7F46
  8
3
  6
CONTINUOUS
 62
     0
 10
967.42357762533516
 20
836.78437203485601
 30
0.0
 11
1038.772895577983
 21
836.78437203485601
 31
0.0
  0
LINE
  5
7F47
  8
3
  6
CONTINUOUS
 62
     0
 10
967.42357762533516
 20
811.78437203485601
 30
0.0
 11
1038.772895577983
 21
811.78437203485601
 31
0.0
  0
LINE
  5
7F48
  8
3
  6
CONTINUOUS
 62
     0
 10
1028.772895577983
 20
856.78437203485612
 30
0.0
 11
1028.772895577983
 21
876.78437203485601
 31
0.0
  0
LINE
  5
7F49
  8
3
  6
CONTINUOUS
 62
     0
 10
1028.772895577983
 20
791.78437203485589
 30
0.0
 11
1028.772895577983
 21
703.21294346342745
 31
0.0
  0
LINE
  5
7F4A
  8
3
  6
CONTINUOUS
 62
     0
 10
1028.772895577983
 20
836.78437203485601
 30
0.0
 11
1028.772895577983
 21
811.78437203485601
 31
0.0
  0
INSERT
  5
7F4B
  8
3
  6
CONTINUOUS
 62
     0
  2
_DOT
 10
1028.772895577983
 20
836.78437203485601
 30
0.0
 41
20.0
 42
20.0
 43
20.0
 50
270.0
  0
INSERT
  5
7F4C
  8
3
  6
CONTINUOUS
 62
     0
  2
_OPEN
 10
1028.772895577983
 20
811.78437203485601
 30
0.0
 41
20.0
 42
20.0
 43
20.0
 50
90.0
  0
TEXT
  8
3
  40
30
  5
7FAF
  62
0
  72
0
  71
0
 10
943.773
 20
684.399
 30
0.000000
  1
25
  0
POINT
  5
7F4E
  8
DEFPOINTS
  6
CONTINUOUS
 62
     0
 10
962.42357762533516
 20
836.78437203485601
 30
0.0
  0
POINT
  5
7F4F
  8
DEFPOINTS
  6
CONTINUOUS
 62
     0
 10
962.42357762533516
 20
811.78437203485601
 30
0.0
  0
POINT
  5
7F50
  8
DEFPOINTS
  6
CONTINUOUS
 62
     0
 10
1028.772895577983
 20
811.78437203485601
 30
0.0
  0
ENDBLK
  5
7E15
  8
0
  0
BLOCK
  8
0
  2
*D7
 70
     1
 10
0.0
 20
0.0
 30
0.0
  3
*D7
  1

  0
LINE
  5
7F51
  8
3
  6
CONTINUOUS
 62
     0
 10
829.42357762533516
 20
1248.784372034856
 30
0.0
 11
1144.8925175779841
 21
1248.784372034856
 31
0.0
  0
LINE
  5
7F52
  8
3
  6
CONTINUOUS
 62
     0
 10
967.42357762533516
 20
811.78437203485601
 30
0.0
 11
1144.8925175779841
 21
811.78437203485601
 31
0.0
  0
LINE
  5
7F53
  8
3
  6
CONTINUOUS
 62
     0
 10
1134.892517577983
 20
1228.784372034856
 30
0.0
 11
1134.892517577983
 21
831.78437203485589
 31
0.0
  0
INSERT
  5
7F54
  8
3
  6
CONTINUOUS
 62
     0
  2
_OPEN
 10
1134.892517577983
 20
1248.784372034856
 30
0.0
 41
20.0
 42
20.0
 43
20.0
 50
90.0
  0
INSERT
  5
7F55
  8
3
  6
CONTINUOUS
 62
     0
  2
_OPEN
 10
1134.892517577983
 20
811.78437203485601
 30
0.0
 41
20.0
 42
20.0
 43
20.0
 50
270.0
  0
TEXT
  8
3
  40
30
  5
7FB0
  62
0
  72
0
  71
0
 10
1049.89
 20
1011.25
 30
0.000000
  1
437
  0
POINT
  5
7F57
  8
DEFPOINTS
  6
CONTINUOUS
 62
     0
 10
824.42357762533516
 20
1248.784372034856
 30
0.0
  0
POINT
  5
7F58
  8
DEFPOINTS
  6
CONTINUOUS
 62
     0
 10
962.42357762533516
 20
811.78437203485601
 30
0.0
  0
POINT
  5
7F59
  8
DEFPOINTS
  6
CONTINUOUS
 62
     0
 10
1134.892517577983
 20
811.78437203485601
 30
0.0
  0
ENDBLK
  5
7DF2
  8
0
  0
BLOCK
  8
0
  2
*D8
 70
     1
 10
0.0
 20
0.0
 30
0.0
  3
*D8
  1

  0
LINE
  5
7F5A
  8
3
  6
CONTINUOUS
 62
     0
 10
352.4235776253351
 20
806.78437203485589
 30
0.0
 11
352.4235776253351
 21
754.36071503485584
 31
0.0
  0
LINE
  5
7F5B
  8
3
  6
CONTINUOUS
 62
     0
 10
802.42357762533516
 20
794.61263803485599
 30
0.0
 11
802.42357762533516
 21
754.36071503485584
 31
0.0
  0
LINE
  5
7F5C
  8
3
  6
CONTINUOUS
 62
     0
 10
372.4235776253351
 20
764.36071503485584
 30
0.0
 11
782.42357762533516
 21
764.36071503485584
 31
0.0
  0
INSERT
  5
7F5D
  8
3
  6
CONTINUOUS
 62
     0
  2
_OPEN
 10
352.4235776253351
 20
764.36071503485584
 30
0.0
 41
20.0
 42
20.0
 43
20.0
 50
180.0
  0
INSERT
  5
7F5E
  8
3
  6
CONTINUOUS
 62
     0
  2
_OPEN
 10
802.42357762533516
 20
764.36071503485584
 30
0.0
 41
20.0
 42
20.0
 43
20.0
  0
TEXT
  8
3
  40
30
  5
7FB1
  62
0
  72
0
  71
0
 10
520.400
 20
736.261
 30
0.000000
  1
450
  0
POINT
  5
7F60
  8
DEFPOINTS
  6
CONTINUOUS
 62
     0
 10
352.4235776253351
 20
811.78437203485601
 30
0.0
  0
POINT
  5
7F61
  8
DEFPOINTS
  6
CONTINUOUS
 62
     0
 10
802.42357762533516
 20
799.61263803485599
 30
0.0
  0
POINT
  5
7F62
  8
DEFPOINTS
  6
CONTINUOUS
 62
     0
 10
802.42357762533516
 20
764.36071503485584
 30
0.0
  0
ENDBLK
  5
7C4A
  8
0
  0
BLOCK
  8
0
  2
*D9
 70
     1
 10
0.0
 20
0.0
 30
0.0
  3
*D9
  1

  0
LINE
  5
7F63
  8
3
  6
CONTINUOUS
 62
     0
 10
962.42357762533516
 20
806.78437203485589
 30
0.0
 11
962.42357762533516
 21
754.36071503485584
 31
0.0
  0
LINE
  5
7F64
  8
3
  6
CONTINUOUS
 62
     0
 10
822.42357762533516
 20
764.36071503485584
 30
0.0
 11
942.42357762533516
 21
764.36071503485584
 31
0.0
  0
INSERT
  5
7F65
  8
3
  6
CONTINUOUS
 62
     0
  2
_OPEN
 10
802.42357762533516
 20
764.36071503485584
 30
0.0
 41
20.0
 42
20.0
 43
20.0
 50
180.0
  0
INSERT
  5
7F66
  8
3
  6
CONTINUOUS
 62
     0
  2
_OPEN
 10
962.42357762533516
 20
764.36071503485584
 30
0.0
 41
20.0
 42
20.0
 43
20.0
  0
TEXT
  8
3
  40
30
  5
7FB2
  62
0
  72
0
  71
0
 10
822.424
 20
736.261
 30
0.000000
  1
160
  0
POINT
  5
7F68
  8
DEFPOINTS
  6
CONTINUOUS
 62
     0
 10
802.42357762533516
 20
799.61263803485599
 30
0.0
  0
POINT
  5
7F69
  8
DEFPOINTS
  6
CONTINUOUS
 62
     0
 10
962.42357762533516
 20
811.78437203485601
 30
0.0
  0
POINT
  5
7F6A
  8
DEFPOINTS
  6
CONTINUOUS
 62
     0
 10
962.42357762533516
 20
764.36071503485584
 30
0.0
  0
ENDBLK
  5
7C56
  8
0
  0
BLOCK
  8
0
  2
*D10
 70
     1
 10
0.0
 20
0.0
 30
0.0
  3
*D10
  1

  0
LINE
  5
7F6B
  8
3
  6
CONTINUOUS
 62
     0
 10
1330.4235776253349
 20
806.78437203485589
 30
0.0
 11
1330.4235776253349
 21
740.63445703485593
 31
0.0
  0
LINE
  5
7F6C
  8
3
  6
CONTINUOUS
 62
     0
 10
1602.4235776253349
 20
766.36345303485587
 30
0.0
 11
1602.4235776253349
 21
740.63445703485593
 31
0.0
  0
LINE
  5
7F6D
  8
3
  6
CONTINUOUS
 62
     0
 10
1350.4235776253349
 20
750.63445703485593
 30
0.0
 11
1582.4235776253349
 21
750.63445703485593
 31
0.0
  0
INSERT
  5
7F6E
  8
3
  6
CONTINUOUS
 62
     0
  2
_OPEN
 10
1330.4235776253349
 20
750.63445703485593
 30
0.0
 41
20.0
 42
20.0
 43
20.0
 50
180.0
  0
INSERT
  5
7F6F
  8
3
  6
CONTINUOUS
 62
     0
  2
_OPEN
 10
1602.4235776253349
 20
750.63445703485593
 30
0.0
 41
20.0
 42
20.0
 43
20.0
  0
TEXT
  8
3
  40
30
  5
7FB3
  62
0
  72
0
  71
0
 10
1416.29
 20
722.534
 30
0.000000
  1
272
  0
POINT
  5
7F71
  8
DEFPOINTS
  6
CONTINUOUS
 62
     0
 10
1330.4235776253349
 20
811.78437203485601
 30
0.0
  0
POINT
  5
7F72
  8
DEFPOINTS
  6
CONTINUOUS
 62
     0
 10
1602.4235776253349
 20
771.36345303485587
 30
0.0
  0
POINT
  5
7F73
  8
DEFPOINTS
  6
CONTINUOUS
 62
     0
 10
1602.4235776253349
 20
750.63445703485593
 30
0.0
  0
ENDBLK
  5
7C63
  8
0
  0
BLOCK
  8
0
  2
*D11
 70
     1
 10
0.0
 20
0.0
 30
0.0
  3
*D11
  1

  0
LINE
  5
7F74
  8
3
  6
CONTINUOUS
 62
     0
 10
1760.4235776253349
 20
806.78437203485589
 30
0.0
 11
1760.4235776253349
 21
740.63445703485593
 31
0.0
  0
LINE
  5
7F75
  8
3
  6
CONTINUOUS
 62
     0
 10
1622.4235776253349
 20
750.63445703485593
 30
0.0
 11
1740.4235776253349
 21
750.63445703485593
 31
0.0
  0
INSERT
  5
7F76
  8
3
  6
CONTINUOUS
 62
     0
  2
_OPEN
 10
1602.4235776253349
 20
750.63445703485593
 30
0.0
 41
20.0
 42
20.0
 43
20.0
 50
180.0
  0
INSERT
  5
7F77
  8
3
  6
CONTINUOUS
 62
     0
  2
_OPEN
 10
1760.4235776253349
 20
750.63445703485593
 30
0.0
 41
20.0
 42
20.0
 43
20.0
  0
TEXT
  8
3
  40
30
  5
7FB4
  62
0
  72
0
  71
0
 10
1621.42
 20
722.534
 30
0.000000
  1
158
  0
POINT
  5
7F79
  8
DEFPOINTS
  6
CONTINUOUS
 62
     0
 10
1602.4235776253349
 20
771.36345303485587
 30
0.0
  0
POINT
  5
7F7A
  8
DEFPOINTS
  6
CONTINUOUS
 62
     0
 10
1760.4235776253349
 20
811.78437203485601
 30
0.0
  0
POINT
  5
7F7B
  8
DEFPOINTS
  6
CONTINUOUS
 62
     0
 10
1760.4235776253349
 20
750.63445703485593
 30
0.0
  0
ENDBLK
  5
7C6F
  8
0
  0
BLOCK
  8
0
  2
*D12
 70
     1
 10
0.0
 20
0.0
 30
0.0
  3
*D12
  1

  0
LINE
  5
7DA0
  8
0
  6
BYBLOCK
 62
     0
 10
1671.4235776253349
 20
1198.784372034856
 30
0.0
 11
1740.1372386253349
 21
1198.784372034856
 31
0.0
  0
LINE
  5
7DA1
  8
0
  6
BYBLOCK
 62
     0
 10
1671.4235776253349
 20
1038.7843720348551
 30
0.0
 11
1740.1372386253349
 21
1038.7843720348551
 31
0.0
  0
LINE
  5
7DA2
  8
0
  6
BYBLOCK
 62
     0
 10
1730.1372386253349
 20
1178.784372034856
 30
0.0
 11
1730.1372386253349
 21
1058.784372034856
 31
0.0
  0
TEXT
  5
7DA3
  8
3
 62
     0
 10
1718.287421016413
 20
1068.07008632057
 30
0.0
 40
30.0
  1
φ160
 50
90.0
  0
INSERT
  5
7DA4
  8
0
  6
BYBLOCK
 62
     0
  2
_OPEN
 10
1730.1372386253349
 20
1198.784372034856
 30
0.0
 41
20.0
 42
20.0
 43
20.0
 50
90.0
  0
INSERT
  5
7DA5
  8
0
  6
BYBLOCK
 62
     0
  2
_OPEN
 10
1730.1372386253349
 20
1038.7843720348551
 30
0.0
 41
20.0
 42
20.0
 43
20.0
 50
270.0
  0
POINT
  5
7DA6
  8
DEFPOINTS
  6
BYBLOCK
 62
     0
 10
1666.4235776253349
 20
1198.784372034856
 30
0.0
  0
POINT
  5
7DA7
  8
DEFPOINTS
  6
BYBLOCK
 62
     0
 10
1666.4235776253349
 20
1038.7843720348551
 30
0.0
  0
POINT
  5
7DA8
  8
DEFPOINTS
  6
BYBLOCK
 62
     0
 10
1730.1372386253349
 20
1038.7843720348551
 30
0.0
  0
ENDBLK
  5
7DA9
  8
0
  0
BLOCK
  8
0
  2
*D13
 70
     1
 10
0.0
 20
0.0
 30
0.0
  3
*D13
  1

  0
LINE
  5
7D7D
  8
0
  6
BYBLOCK
 62
     0
 10
1658.4235776253349
 20
1253.784372034856
 30
0.0
 11
1658.4235776253349
 21
1286.3945760348549
 31
0.0
  0
LINE
  5
7D7E
  8
0
  6
BYBLOCK
 62
     0
 10
1546.4235776253349
 20
1253.784372034856
 30
0.0
 11
1546.4235776253349
 21
1286.3945760348549
 31
0.0
  0
LINE
  5
7D7F
  8
0
  6
BYBLOCK
 62
     0
 10
1638.4235776253349
 20
1276.3945760348561
 30
0.0
 11
1566.4235776253349
 21
1276.3945760348561
 31
0.0
  0
TEXT
  5
7D80
  8
3
 62
     0
 10
1569.566434768192
 20
1283.81073932242
 30
0.0
 40
30.0
  1
112
  0
INSERT
  5
7D81
  8
0
  6
BYBLOCK
 62
     0
  2
_OPEN
 10
1658.4235776253349
 20
1276.3945760348561
 30
0.0
 41
20.0
 42
20.0
 43
20.0
  0
INSERT
  5
7D82
  8
0
  6
BYBLOCK
 62
     0
  2
_OPEN
 10
1546.4235776253349
 20
1276.3945760348561
 30
0.0
 41
20.0
 42
20.0
 43
20.0
 50
180.0
  0
POINT
  5
7D83
  8
DEFPOINTS
  6
BYBLOCK
 62
     0
 10
1658.4235776253349
 20
1248.784372034856
 30
0.0
  0
POINT
  5
7D84
  8
DEFPOINTS
  6
BYBLOCK
 62
     0
 10
1546.4235776253349
 20
1248.784372034856
 30
0.0
  0
POINT
  5
7D85
  8
DEFPOINTS
  6
BYBLOCK
 62
     0
 10
1546.4235776253349
 20
1276.3945760348561
 30
0.0
  0
ENDBLK
  5
7D86
  8
0
  0
BLOCK
  8
0
  2
*D14
 70
     1
 10
0.0
 20
0.0
 30
0.0
  3
*D14
  1

  0
LINE
  5
7F7C
  8
3
  6
CONTINUOUS
 62
     0
 10
1342.4235776253349
 20
1218.784372034856
 30
0.0
 11
1342.4235776253349
 21
1349.531713034856
 31
0.0
  0
LINE
  5
7F7D
  8
3
  6
CONTINUOUS
 62
     0
 10
1602.4235776253349
 20
1326.873750034855
 30
0.0
 11
1602.4235776253349
 21
1349.531713034856
 31
0.0
  0
LINE
  5
7F7E
  8
3
  6
CONTINUOUS
 62
     0
 10
1362.4235776253349
 20
1339.531713034856
 30
0.0
 11
1582.4235776253349
 21
1339.531713034856
 31
0.0
  0
INSERT
  5
7F7F
  8
3
  6
CONTINUOUS
 62
     0
  2
_OPEN
 10
1342.4235776253349
 20
1339.531713034856
 30
0.0
 41
20.0
 42
20.0
 43
20.0
 50
180.0
  0
INSERT
  5
7F80
  8
3
  6
CONTINUOUS
 62
     0
  2
_OPEN
 10
1602.4235776253349
 20
1339.531713034856
 30
0.0
 41
20.0
 42
20.0
 43
20.0
  0
TEXT
  8
3
  40
30
  5
7FB5
  62
0
  72
0
  71
0
 10
1423.18
 20
1336.43
 30
0.000000
  1
MAX
  0
TEXT
  8
3
  40
30
  5
7FB6
  62
0
  72
0
  71
0
 10
1423.18
 20
1297.43
 30
0.000000
  1
260
  0
POINT
  5
7F82
  8
DEFPOINTS
  6
CONTINUOUS
 62
     0
 10
1342.4235776253349
 20
1213.784372034856
 30
0.0
  0
POINT
  5
7F83
  8
DEFPOINTS
  6
CONTINUOUS
 62
     0
 10
1602.4235776253349
 20
1321.8737500348559
 30
0.0
  0
POINT
  5
7F84
  8
DEFPOINTS
  6
CONTINUOUS
 62
     0
 10
1602.4235776253349
 20
1339.531713034856
 30
0.0
  0
ENDBLK
  5
7DB4
  8
0
  0
BLOCK
  8
0
  2
*D15
 70
     1
 10
0.0
 20
0.0
 30
0.0
  3
*D15
  1

  0
LINE
  5
7F85
  8
3
  6
CONTINUOUS
 62
     0
 10
1666.4235776253349
 20
1223.784372034856
 30
0.0
 11
1666.4235776253349
 21
1349.531713034856
 31
0.0
  0
LINE
  5
7F86
  8
3
  6
CONTINUOUS
 62
     0
 10
1622.4235776253349
 20
1339.531713034856
 30
0.0
 11
1646.4235776253349
 21
1339.531713034856
 31
0.0
  0
TEXT
  8
3
  40
30
  5
7FB7
  62
0
  72
0
  71
0
 10
1578.25
 20
1310.40
 30
0.000000
  1
64
  0
INSERT
  5
7F88
  8
3
  6
CONTINUOUS
 62
     0
  2
_OPEN
 10
1602.4235776253349
 20
1339.531713034856
 30
0.0
 41
20.0
 42
20.0
 43
20.0
 50
180.0
  0
INSERT
  5
7F89
  8
3
  6
CONTINUOUS
 62
     0
  2
_OPEN
 10
1666.4235776253349
 20
1339.531713034856
 30
0.0
 41
20.0
 42
20.0
 43
20.0
  0
POINT
  5
7F8A
  8
DEFPOINTS
  6
CONTINUOUS
 62
     0
 10
1602.4235776253349
 20
1321.8737500348559
 30
0.0
  0
POINT
  5
7F8B
  8
DEFPOINTS
  6
CONTINUOUS
 62
     0
 10
1666.4235776253349
 20
1218.784372034856
 30
0.0
  0
POINT
  5
7F8C
  8
DEFPOINTS
  6
CONTINUOUS
 62
     0
 10
1666.4235776253349
 20
1339.531713034856
 30
0.0
  0
ENDBLK
  5
7CE2
  8
0
  0
BLOCK
  8
0
  2
*D16
 70
     1
 10
0.0
 20
0.0
 30
0.0
  3
*D16
  1

  0
LINE
  5
7F8D
  8
3
  6
CONTINUOUS
 62
     0
 10
352.4235776253351
 20
1707.2494152705119
 30
0.0
 11
352.4235776253351
 21
1597.135520270512
 31
0.0
  0
LINE
  5
7F8E
  8
3
  6
CONTINUOUS
 62
     0
 10
962.42357762533516
 20
1707.2494152705119
 30
0.0
 11
962.42357762533516
 21
1597.135520270512
 31
0.0
  0
LINE
  5
7F8F
  8
3
  6
CONTINUOUS
 62
     0
 10
372.4235776253351
 20
1607.135520270512
 30
0.0
 11
942.42357762533516
 21
1607.135520270512
 31
0.0
  0
INSERT
  5
7F90
  8
3
  6
CONTINUOUS
 62
     0
  2
_OPEN
 10
352.4235776253351
 20
1607.135520270512
 30
0.0
 41
20.0
 42
20.0
 43
20.0
 50
180.0
  0
INSERT
  5
7F91
  8
3
  6
CONTINUOUS
 62
     0
  2
_OPEN
 10
962.42357762533516
 20
1607.135520270512
 30
0.0
 41
20.0
 42
20.0
 43
20.0
  0
TEXT
  8
3
  40
30
  5
7FB8
  62
0
  72
0
  71
0
 10
599.918
 20
1579.04
 30
0.000000
  1
610
  0
POINT
  5
7F93
  8
DEFPOINTS
  6
CONTINUOUS
 62
     0
 10
352.4235776253351
 20
1712.2494152705119
 30
0.0
  0
POINT
  5
7F94
  8
DEFPOINTS
  6
CONTINUOUS
 62
     0
 10
962.42357762533516
 20
1712.2494152705119
 30
0.0
  0
POINT
  5
7F95
  8
DEFPOINTS
  6
CONTINUOUS
 62
     0
 10
962.42357762533516
 20
1607.135520270512
 30
0.0
  0
ENDBLK
  5
7CEE
  8
0
  0
BLOCK
  8
0
  2
*D17
 70
     1
 10
0.0
 20
0.0
 30
0.0
  3
*D17
  1

  0
LINE
  5
7F96
  8
3
  6
CONTINUOUS
 62
     0
 10
967.42357762533516
 20
2142.2494152705121
 30
0.0
 11
1067.4081976253351
 21
2142.2494152705108
 31
0.0
  0
LINE
  5
7F97
  8
3
  6
CONTINUOUS
 62
     0
 10
967.42357762533516
 20
1712.2494152705119
 30
0.0
 11
1067.4081976253351
 21
1712.2494152705119
 31
0.0
  0
LINE
  5
7F98
  8
3
  6
CONTINUOUS
 62
     0
 10
1057.4081976253351
 20
2122.2494152705108
 30
0.0
 11
1057.4081976253351
 21
1732.2494152705119
 31
0.0
  0
INSERT
  5
7F99
  8
3
  6
CONTINUOUS
 62
     0
  2
_OPEN
 10
1057.4081976253351
 20
2142.2494152705108
 30
0.0
 41
20.0
 42
20.0
 43
20.0
 50
90.0
  0
INSERT
  5
7F9A
  8
3
  6
CONTINUOUS
 62
     0
  2
_OPEN
 10
1057.4081976253351
 20
1712.2494152705119
 30
0.0
 41
20.0
 42
20.0
 43
20.0
 50
270.0
  0
TEXT
  8
3
  40
30
  5
7FB9
  62
0
  72
0
  71
0
 10
972.408
 20
1870.03
 30
0.000000
  1
430
  0
POINT
  5
7F9C
  8
DEFPOINTS
  6
CONTINUOUS
 62
     0
 10
962.42357762533516
 20
2142.2494152705121
 30
0.0
  0
POINT
  5
7F9D
  8
DEFPOINTS
  6
CONTINUOUS
 62
     0
 10
962.42357762533516
 20
1712.2494152705119
 30
0.0
  0
POINT
  5
7F9E
  8
DEFPOINTS
  6
CONTINUOUS
 62
     0
 10
1057.4081976253351
 20
1712.2494152705119
 30
0.0
  0
ENDBLK
  5
7CFB
  8
0
  0
BLOCK
  8
0
  2
_DOT
 70
     0
 10
0.0
 20
0.0
 30
0.0
  3
_DOT
  1

  0
LINE
  5
7DD8
  8
0
  6
BYBLOCK
 62
     0
 10
0.0
 20
0.0
 30
0.0
 11
-1.0
 21
-0.0000000000000284
 31
0.0
  0
POLYLINE
  5
7DD9
  8
0
  6
BYBLOCK
 62
     0
 66
     1
 10
0.0
 20
0.0
 30
0.0
 70
     1
 40
0.1666666666666666
 41
0.1666666666666666
  0
VERTEX
  5
7FA8
  8
0
  6
BYBLOCK
 62
     0
 10
-0.0833333333333286
 20
-0.0000000000000284
 30
0.0
 42
1.0
  0
VERTEX
  5
7FA9
  8
0
  6
BYBLOCK
 62
     0
 10
0.0833333333333286
 20
-0.0000000000000284
 30
0.0
 42
1.0
  0
SEQEND
  5
7FAA
  8
0
  6
BYBLOCK
 62
     0
  0
ENDBLK
  5
7D57
  8
0
  0
BLOCK
  8
0
  2
*D19
 70
     1
 10
0.0
 20
0.0
 30
0.0
  3
*D19
  1

  0
LINE
  5
7F9F
  8
3
 62
     0
 10
925.42357762533504
 20
1117.784372034856
 30
0.0
 11
925.42357762533504
 21
1404.347682504927
 31
0.0
  0
LINE
  5
7FA0
  8
3
 62
     0
 10
352.4235776253351
 20
866.78437203485601
 30
0.0
 11
352.42357762533521
 21
1404.347682504927
 31
0.0
  0
LINE
  5
7FA1
  8
3
 62
     0
 10
905.42357762533516
 20
1394.347682504927
 30
0.0
 11
372.42357762533521
 21
1394.347682504927
 31
0.0
  0
INSERT
  5
7FA2
  8
3
 62
     0
  2
_OPEN
 10
925.42357762533504
 20
1394.347682504927
 30
0.0
 41
20.0
 42
20.0
 43
20.0
  0
INSERT
  5
7FA3
  8
3
 62
     0
  2
_OPEN
 10
352.42357762533521
 20
1394.347682504927
 30
0.0
 41
20.0
 42
20.0
 43
20.0
 50
180.0
  0
TEXT
  8
3
  40
30
  5
7FBA
  62
0
  72
0
  71
0
 10
593.547
 20
1366.25
 30
0.000000
  1
573
  0
POINT
  5
7FA5
  8
DEFPOINTS
 62
     0
 10
925.42357762533504
 20
1112.784372034856
 30
0.0
  0
POINT
  5
7FA6
  8
DEFPOINTS
 62
     0
 10
352.4235776253351
 20
861.78437203485601
 30
0.0
  0
POINT
  5
7FA7
  8
DEFPOINTS
 62
     0
 10
352.42357762533521
 20
1394.347682504927
 30
0.0
  0
ENDBLK
  5
7DD6
  8
0
  0
BLOCK
  8
0
  2
*D20
 70
     1
 10
0.0
 20
0.0
 30
0.0
  3
*D20
  1

  0
LINE
  5
7E3E
  8
0
  6
BYBLOCK
 62
     0
 10
829.42357762533516
 20
1248.784372034856
 30
0.0
 11
1038.772895577983
 21
1248.784372034856
 31
0.0
  0
LINE
  5
7E3F
  8
0
  6
BYBLOCK
 62
     0
 10
1028.772895577983
 20
1138.784372034856
 30
0.0
 11
1028.772895577983
 21
1228.784372034856
 31
0.0
  0
TEXT
  5
7E40
  8
3
 62
     0
 10
1021.185010146577
 20
1148.07008632057
 30
0.0
 40
30.0
  1
130
 50
90.0
  0
INSERT
  5
7E41
  8
0
  6
BYBLOCK
 62
     0
  2
_OPEN
 10
1028.772895577983
 20
1118.784372034856
 30
0.0
 41
20.0
 42
20.0
 43
20.0
 50
270.0
  0
INSERT
  5
7E42
  8
0
  6
BYBLOCK
 62
     0
  2
_OPEN
 10
1028.772895577983
 20
1248.784372034856
 30
0.0
 41
20.0
 42
20.0
 43
20.0
 50
90.0
  0
POINT
  5
7E43
  8
DEFPOINTS
  6
BYBLOCK
 62
     0
 10
975.89909862533489
 20
1118.784372034856
 30
0.0
  0
POINT
  5
7E44
  8
DEFPOINTS
  6
BYBLOCK
 62
     0
 10
824.42357762533516
 20
1248.784372034856
 30
0.0
  0
POINT
  5
7E45
  8
DEFPOINTS
  6
BYBLOCK
 62
     0
 10
1028.772895577983
 20
1248.784372034856
 30
0.0
  0
ENDBLK
  5
7E46
  8
0
  0
ENDSEC
  0
SECTION
  2
ENTITIES
  0
CIRCLE
  5
7A9A
  8
1
  6
CONTINUOUS
 10
802.42357762533516
 20
1118.784372034856
 30
0.0
 40
80.0
  0
LINE
  5
7A9B
  8
1
  6
CONTINUOUS
 10
812.42357762533516
 20
1233.784372034856
 30
0.0
 11
812.42357762533516
 21
1223.784372034856
 31
0.0
  0
LINE
  5
7A9C
  8
1
  6
CONTINUOUS
 10
620.42357762533516
 20
1248.784372034856
 30
0.0
 11
824.42357762533516
 21
1248.784372034856
 31
0.0
  0
LINE
  5
7A9D
  8
1
  6
CONTINUOUS
 10
641.42357762533516
 20
1248.784372034856
 30
0.0
 11
656.42357762533516
 21
1233.784372034856
 31
0.0
  0
LINE
  5
7A9E
  8
1
  6
CONTINUOUS
 10
656.42357762533516
 20
1233.784372034856
 30
0.0
 11
788.42357762533516
 21
1233.784372034856
 31
0.0
  0
LINE
  5
7A9F
  8
1
  6
CONTINUOUS
 10
803.42357762533516
 20
1248.784372034856
 30
0.0
 11
788.42357762533516
 21
1233.784372034856
 31
0.0
  0
LINE
  5
7AA0
  8
1
  6
CONTINUOUS
 10
642.42357762533516
 20
1233.784372034856
 30
0.0
 11
642.42357762533516
 21
1248.784372034856
 31
0.0
  0
LINE
  5
7AA1
  8
1
  6
CONTINUOUS
 10
802.42357762533516
 20
1233.784372034856
 30
0.0
 11
802.42357762533516
 21
1248.784372034856
 31
0.0
  0
LINE
  5
7AA2
  8
1
  6
CONTINUOUS
 10
631.42357762533516
 20
1233.784372034856
 30
0.0
 11
642.42357762533516
 21
1233.784372034856
 31
0.0
  0
LINE
  5
7AA3
  8
1
  6
CONTINUOUS
 10
802.42357762533516
 20
1233.784372034856
 30
0.0
 11
812.42357762533516
 21
1233.784372034856
 31
0.0
  0
ARC
  5
7AA4
  8
1
  6
CONTINUOUS
 10
789.42357762533516
 20
1131.784372034856
 30
0.0
 40
158.0
 50
180.0
 51
279.10000000000002
  0
LINE
  5
7AA5
  8
1
  6
CONTINUOUS
 10
631.42357762533516
 20
1233.784372034856
 30
0.0
 11
631.42357762533516
 21
1131.784372034856
 31
0.0
  0
ARC
  5
7AA6
  8
1
  6
CONTINUOUS
 10
791.42357762533516
 20
1107.784372034856
 30
0.0
 40
134.0
 50
279.89999999999992
 51
0.5
  0
ARC
  5
7AA7
  8
1
  6
CONTINUOUS
 10
811.42357762533516
 20
1109.784372034856
 30
0.0
 40
114.0
 50
359.5
 51
89.500000000000014
  0
LINE
  5
7AA8
  8
1
  6
CONTINUOUS
 10
1330.4235776253349
 20
836.78437203485601
 30
0.0
 11
1760.4235776253349
 21
836.78437203485601
 31
0.0
  0
LINE
  5
7AA9
  8
1
  6
CONTINUOUS
 10
1638.4235776253349
 20
861.78437203485601
 30
0.0
 11
1638.4235776253349
 21
836.78437203485601
 31
0.0
  0
LINE
  5
7AAA
  8
1
  6
CONTINUOUS
 10
1414.4235776253349
 20
861.78437203485601
 30
0.0
 11
1414.4235776253349
 21
836.78437203485601
 31
0.0
  0
LINE
  5
7AAB
  8
1
  6
CONTINUOUS
 10
1414.4235776253349
 20
861.78437203485601
 30
0.0
 11
1638.4235776253349
 21
861.78437203485601
 31
0.0
  0
LINE
  5
7AAC
  8
1
  6
CONTINUOUS
 10
962.42357762533516
 20
811.78437203485601
 30
0.0
 11
962.42357762533516
 21
861.78437203485601
 31
0.0
  0
LINE
  5
7AAD
  8
1
  6
CONTINUOUS
 10
352.4235776253351
 20
861.78437203485601
 30
0.0
 11
352.4235776253351
 21
811.78437203485601
 31
0.0
  0
LINE
  5
7AAE
  8
1
  6
CONTINUOUS
 10
352.4235776253351
 20
836.78437203485601
 30
0.0
 11
962.42357762533516
 21
836.78437203485601
 31
0.0
  0
LINE
  5
7AAF
  8
1
  6
CONTINUOUS
 10
352.4235776253351
 20
861.78437203485601
 30
0.0
 11
962.42357762533516
 21
861.78437203485601
 31
0.0
  0
LINE
  5
7AB0
  8
1
  6
CONTINUOUS
 10
377.4235776253351
 20
1712.2494152705119
 30
0.0
 11
352.4235776253351
 21
1712.2494152705119
 31
0.0
  0
LINE
  5
7AB1
  8
1
  6
CONTINUOUS
 10
352.4235776253351
 20
2142.2494152705121
 30
0.0
 11
352.4235776253351
 21
1712.2494152705119
 31
0.0
  0
LINE
  5
7AB2
  8
1
  6
CONTINUOUS
 10
377.4235776253351
 20
2142.2494152705121
 30
0.0
 11
352.4235776253351
 21
2142.2494152705121
 31
0.0
  0
LINE
  5
7AB3
  8
1
  6
CONTINUOUS
 10
377.4235776253351
 20
2142.2494152705121
 30
0.0
 11
377.4235776253351
 21
1712.2494152705119
 31
0.0
  0
LINE
  5
7AB4
  8
1
  6
CONTINUOUS
 10
937.42357762533516
 20
2142.2494152705121
 30
0.0
 11
962.42357762533516
 21
2142.2494152705121
 31
0.0
  0
LINE
  5
7AB5
  8
1
  6
CONTINUOUS
 10
937.42357762533516
 20
2142.2494152705121
 30
0.0
 11
937.42357762533516
 21
1712.2494152705119
 31
0.0
  0
LINE
  5
7AB6
  8
1
  6
CONTINUOUS
 10
937.42357762533516
 20
1712.2494152705119
 30
0.0
 11
962.42357762533516
 21
1712.2494152705119
 31
0.0
  0
LINE
  5
7AB7
  8
1
  6
CONTINUOUS
 10
962.42357762533516
 20
2142.2494152705121
 30
0.0
 11
962.42357762533516
 21
1712.2494152705119
 31
0.0
  0
LINE
  5
7AB8
  8
1
  6
CONTINUOUS
 10
1330.4235776253349
 20
836.78437203485601
 30
0.0
 11
1330.4235776253349
 21
811.78437203485601
 31
0.0
  0
LINE
  5
7AB9
  8
1
  6
CONTINUOUS
 10
1760.4235776253349
 20
836.78437203485601
 30
0.0
 11
1760.4235776253349
 21
811.78437203485601
 31
0.0
  0
LINE
  5
7ABA
  8
1
  6
CONTINUOUS
 10
1330.4235776253349
 20
811.78437203485601
 30
0.0
 11
1760.4235776253349
 21
811.78437203485601
 31
0.0
  0
LINE
  5
7ABB
  8
1
  6
CONTINUOUS
 10
377.4235776253351
 20
836.78437203485601
 30
0.0
 11
377.4235776253351
 21
811.78437203485601
 31
0.0
  0
LINE
  5
7ABC
  8
1
  6
CONTINUOUS
 10
352.4235776253351
 20
811.78437203485601
 30
0.0
 11
377.4235776253351
 21
811.78437203485601
 31
0.0
  0
LINE
  5
7ABD
  8
1
  6
CONTINUOUS
 10
962.42357762533516
 20
811.78437203485601
 30
0.0
 11
937.42357762533516
 21
811.78437203485601
 31
0.0
  0
LINE
  5
7ABE
  8
1
  6
CONTINUOUS
 10
937.42357762533516
 20
836.78437203485601
 30
0.0
 11
937.42357762533516
 21
811.78437203485601
 31
0.0
  0
CIRCLE
  5
7ABF
  8
1
  6
CONTINUOUS
 10
802.42357762533516
 20
1118.784372034856
 30
0.0
 40
100.0
  0
LINE
  5
7AC0
  8
1
  6
CONTINUOUS
 10
937.42357762533516
 20
2020.7494152705119
 30
0.0
 11
925.42357762533504
 21
2020.7494152705119
 31
0.0
  0
CIRCLE
  5
7AC1
  8
1
  6
CONTINUOUS
 10
802.42357762533516
 20
1118.784372034856
 30
0.0
 40
45.0
  0
LINE
  5
7AC2
  8
2
  6
CENTER
 10
802.42357762533516
 20
799.61263803485599
 30
0.0
 11
802.42357762533516
 21
1302.2066010348551
 31
0.0
  0
LINE
  5
7AC3
  8
2
  6
CENTER
 10
368.85673862533508
 20
1118.784372034856
 30
0.0
 11
975.89909862533489
 21
1118.784372034856
 31
0.0
  0
LINE
  5
7AC4
  8
2
  6
CENTER
 10
481.9235776253351
 20
1033.784372034856
 30
0.0
 11
551.92357762533516
 21
1033.784372034856
 31
0.0
  0
LINE
  5
7AC5
  8
2
  6
CENTER
 10
516.92357762533516
 20
998.78437203485612
 30
0.0
 11
516.92357762533516
 21
1068.7843720348551
 31
0.0
  0
CIRCLE
  5
7AC6
  8
1
  6
CONTINUOUS
 10
516.92357762533516
 20
1033.784372034856
 30
0.0
 40
35.0
  0
LINE
  5
7AC7
  8
1
  6
CONTINUOUS
 10
505.82357762533508
 20
1066.9843720348549
 30
0.0
 11
788.12357762533497
 21
1161.4843720348549
 31
0.0
  0
LINE
  5
7AC8
  8
1
  6
CONTINUOUS
 10
525.82357762533513
 20
999.8843720348558
 30
0.0
 11
813.82357762533513
 21
1075.2843720348551
 31
0.0
  0
LINE
  5
7AC9
  8
1
  6
CONTINUOUS
 10
1638.4235776253349
 20
933.78437203485601
 30
0.0
 11
1638.4235776253349
 21
883.78437203485601
 31
0.0
  0
LINE
  5
7ACA
  8
1
  6
CONTINUOUS
 10
1538.823577625335
 20
1160.8843720348559
 30
0.0
 11
1439.4235776253349
 21
1085.4843720348549
 31
0.0
  0
LINE
  5
7ACB
  8
1
  6
CONTINUOUS
 10
1439.4235776253349
 20
1085.4843720348549
 30
0.0
 11
1439.4235776253349
 21
933.78437203485601
 31
0.0
  0
LINE
  5
7ACC
  8
1
  6
CONTINUOUS
 10
1414.4235776253349
 20
933.78437203485601
 30
0.0
 11
1414.4235776253349
 21
883.78437203485601
 31
0.0
  0
LINE
  5
7ACD
  8
1
  6
CONTINUOUS
 10
1342.4235776253349
 20
933.78437203485601
 30
0.0
 11
1638.4235776253349
 21
933.78437203485601
 31
0.0
  0
LINE
  5
7ACE
  8
1
  6
CONTINUOUS
 10
1414.4235776253349
 20
883.78437203485601
 30
0.0
 11
1638.4235776253349
 21
883.78437203485601
 31
0.0
  0
LINE
  5
7ACF
  8
1
  6
CONTINUOUS
 10
1417.4235776253349
 20
1213.784372034856
 30
0.0
 11
1342.4235776253349
 21
1213.784372034856
 31
0.0
  0
LINE
  5
7AD0
  8
1
  6
CONTINUOUS
 10
1342.4235776253349
 20
933.78437203485601
 30
0.0
 11
1342.4235776253349
 21
1213.784372034856
 31
0.0
  0
LINE
  5
7AD1
  8
1
  6
CONTINUOUS
 10
1417.4235776253349
 20
933.78437203485601
 30
0.0
 11
1417.4235776253349
 21
1213.784372034856
 31
0.0
  0
LINE
  5
7AD2
  8
1
  6
CONTINUOUS
 10
1397.4235776253349
 20
1024.284372034856
 30
0.0
 11
1439.4235776253349
 21
1024.284372034856
 31
0.0
  0
LINE
  5
7AD3
  8
1
  6
CONTINUOUS
 10
1397.4235776253349
 20
1043.2843720348551
 30
0.0
 11
1439.4235776253349
 21
1043.2843720348551
 31
0.0
  0
LINE
  5
7AD4
  8
1
  6
CONTINUOUS
 10
1397.4235776253349
 20
998.78437203485612
 30
0.0
 11
1397.4235776253349
 21
1068.7843720348551
 31
0.0
  0
LINE
  5
7AD5
  8
1
  6
CONTINUOUS
 10
1362.4235776253349
 20
998.78437203485612
 30
0.0
 11
1362.4235776253349
 21
1068.7843720348551
 31
0.0
  0
LINE
  5
7AD6
  8
1
  6
CONTINUOUS
 10
1397.4235776253349
 20
998.78437203485612
 30
0.0
 11
1362.4235776253349
 21
998.78437203485612
 31
0.0
  0
LINE
  5
7AD7
  8
1
  6
CONTINUOUS
 10
1397.4235776253349
 20
1068.7843720348551
 30
0.0
 11
1362.4235776253349
 21
1068.7843720348551
 31
0.0
  0
LINE
  5
7AD8
  8
1
  6
CONTINUOUS
 10
1397.4235776253349
 20
1163.7843720348551
 30
0.0
 11
1362.4235776253349
 21
1163.7843720348551
 31
0.0
  0
LINE
  5
7AD9
  8
1
  6
CONTINUOUS
 10
1397.4235776253349
 20
1073.784372034856
 30
0.0
 11
1362.4235776253349
 21
1073.784372034856
 31
0.0
  0
LINE
  5
7ADA
  8
1
  6
CONTINUOUS
 10
1362.4235776253349
 20
1073.784372034856
 30
0.0
 11
1362.4235776253349
 21
1163.7843720348551
 31
0.0
  0
LINE
  5
7ADB
  8
1
  6
CONTINUOUS
 10
1397.4235776253349
 20
1073.784372034856
 30
0.0
 11
1397.4235776253349
 21
1163.7843720348551
 31
0.0
  0
LINE
  5
7ADC
  8
1
  6
CONTINUOUS
 10
1499.123577625335
 20
1130.784372034856
 30
0.0
 11
1397.4235776253349
 21
1130.784372034856
 31
0.0
  0
LINE
  5
7ADD
  8
1
  6
CONTINUOUS
 10
1467.5235776253351
 20
1106.784372034856
 30
0.0
 11
1397.4235776253349
 21
1106.784372034856
 31
0.0
  0
LINE
  5
7ADE
  8
1
  6
CONTINUOUS
 10
601.92357762533516
 20
2001.2494152705119
 30
0.0
 11
431.9235776253351
 21
2001.2494152705119
 31
0.0
  0
LINE
  5
7ADF
  8
1
  6
CONTINUOUS
 10
526.42357762533516
 20
1796.7494152705119
 30
0.0
 11
790.42357762533516
 21
1796.7494152705119
 31
0.0
  0
LINE
  5
7AE0
  8
1
  6
CONTINUOUS
 10
481.9235776253351
 20
1780.649415270512
 30
0.0
 11
481.9235776253351
 21
1745.649415270512
 31
0.0
  0
LINE
  5
7AE1
  8
1
  6
CONTINUOUS
 10
551.92357762533516
 20
1780.649415270512
 30
0.0
 11
551.92357762533516
 21
1745.649415270512
 31
0.0
  0
LINE
  5
7AE2
  8
1
  6
CONTINUOUS
 10
551.92357762533516
 20
1745.649415270512
 30
0.0
 11
481.9235776253351
 21
1745.649415270512
 31
0.0
  0
LINE
  5
7AE3
  8
1
  6
CONTINUOUS
 10
551.92357762533516
 20
1780.649415270512
 30
0.0
 11
481.9235776253351
 21
1780.649415270512
 31
0.0
  0
LINE
  5
7AE4
  8
1
  6
CONTINUOUS
 10
814.42357762533516
 20
1796.7494152705119
 30
0.0
 11
937.42357762533516
 21
1796.7494152705119
 31
0.0
  0
LINE
  5
7AE5
  8
1
  6
CONTINUOUS
 10
899.72357762533511
 20
1724.7494152705119
 30
0.0
 11
899.72357762533511
 21
1799.7494152705119
 31
0.0
  0
LINE
  5
7AE6
  8
1
  6
CONTINUOUS
 10
419.72357762533511
 20
1799.7494152705119
 30
0.0
 11
419.72357762533511
 21
1724.7494152705119
 31
0.0
  0
LINE
  5
7AE7
  8
1
  6
CONTINUOUS
 10
814.42357762533516
 20
1921.149415270512
 30
0.0
 11
814.42357762533516
 21
1780.649415270512
 31
0.0
  0
LINE
  5
7AE8
  8
1
  6
CONTINUOUS
 10
790.42357762533516
 20
1921.149415270512
 30
0.0
 11
790.42357762533516
 21
1780.649415270512
 31
0.0
  0
LINE
  5
7AE9
  8
1
  6
CONTINUOUS
 10
847.42357762533516
 20
1780.649415270512
 30
0.0
 11
757.42357762533516
 21
1780.649415270512
 31
0.0
  0
LINE
  5
7AEA
  8
1
  6
CONTINUOUS
 10
847.42357762533516
 20
1745.649415270512
 30
0.0
 11
757.42357762533516
 21
1745.649415270512
 31
0.0
  0
LINE
  5
7AEB
  8
1
  6
CONTINUOUS
 10
847.42357762533516
 20
1780.649415270512
 30
0.0
 11
847.42357762533516
 21
1745.649415270512
 31
0.0
  0
LINE
  5
7AEC
  8
1
  6
CONTINUOUS
 10
757.42357762533516
 20
1780.649415270512
 30
0.0
 11
757.42357762533516
 21
1745.649415270512
 31
0.0
  0
LINE
  5
7AED
  8
1
  6
CONTINUOUS
 10
899.72357762533511
 20
1799.7494152705119
 30
0.0
 11
419.72357762533511
 21
1799.7494152705119
 31
0.0
  0
LINE
  5
7AEE
  8
1
  6
CONTINUOUS
 10
899.72357762533511
 20
1724.7494152705119
 30
0.0
 11
419.72357762533511
 21
1724.7494152705119
 31
0.0
  0
LINE
  5
7AEF
  8
1
  6
CONTINUOUS
 10
601.92357762533516
 20
1810.449415270512
 30
0.0
 11
601.92357762533516
 21
2001.2494152705119
 31
0.0
  0
LINE
  5
7AF0
  8
1
  6
CONTINUOUS
 10
601.92357762533516
 20
1810.449415270512
 30
0.0
 11
431.9235776253351
 21
1810.449415270512
 31
0.0
  0
LINE
  5
7AF1
  8
1
  6
CONTINUOUS
 10
507.42357762533521
 20
1780.649415270512
 30
0.0
 11
507.42357762533521
 21
1810.449415270512
 31
0.0
  0
LINE
  5
7AF2
  8
1
  6
CONTINUOUS
 10
526.42357762533516
 20
1780.649415270512
 30
0.0
 11
526.42357762533516
 21
1810.449415270512
 31
0.0
  0
LINE
  5
7AF3
  8
1
  6
CONTINUOUS
 10
431.9235776253351
 20
1810.449415270512
 30
0.0
 11
431.9235776253351
 21
2001.2494152705119
 31
0.0
  0
LINE
  5
7AF4
  8
1
  6
CONTINUOUS
 10
912.42357762533516
 20
1796.7494152705119
 30
0.0
 11
912.42357762533516
 21
1921.149415270512
 31
0.0
  0
LINE
  5
7AF5
  8
1
  6
CONTINUOUS
 10
692.42357762533516
 20
1921.149415270512
 30
0.0
 11
692.42357762533516
 21
1796.7494152705119
 31
0.0
  0
LINE
  5
7AF6
  8
1
  6
CONTINUOUS
 10
377.4235776253351
 20
1796.7494152705119
 30
0.0
 11
507.42357762533521
 21
1796.7494152705119
 31
0.0
  0
LINE
  5
7AF7
  8
1
  6
CONTINUOUS
 10
1538.823577625335
 20
1218.784372034856
 30
0.0
 11
1546.4235776253349
 21
1218.784372034856
 31
0.0
  0
LINE
  5
7AF8
  8
1
  6
CONTINUOUS
 10
1538.823577625335
 20
1218.784372034856
 30
0.0
 11
1538.823577625335
 21
933.78437203485601
 31
0.0
  0
LINE
  5
7AF9
  8
1
  6
CONTINUOUS
 10
1538.823577625335
 20
1018.784372034856
 30
0.0
 11
1546.4235776253349
 21
1018.784372034856
 31
0.0
  0
LINE
  5
7AFA
  8
1
  6
CONTINUOUS
 10
1666.4235776253349
 20
1018.784372034856
 30
0.0
 11
1658.4235776253349
 21
1018.784372034856
 31
0.0
  0
LINE
  5
7AFB
  8
1
  6
CONTINUOUS
 10
1666.4235776253349
 20
1218.784372034856
 30
0.0
 11
1666.4235776253349
 21
1018.784372034856
 31
0.0
  0
LINE
  5
7AFC
  8
1
  6
CONTINUOUS
 10
1546.4235776253349
 20
992.68437203485587
 30
0.0
 11
1546.4235776253349
 21
1248.784372034856
 31
0.0
  0
LINE
  5
7AFD
  8
1
  6
CONTINUOUS
 10
1666.4235776253349
 20
1218.784372034856
 30
0.0
 11
1658.4235776253349
 21
1218.784372034856
 31
0.0
  0
LINE
  5
7AFE
  8
1
  6
CONTINUOUS
 10
1525.4235776253349
 20
1248.784372034856
 30
0.0
 11
1679.4235776253349
 21
1248.784372034856
 31
0.0
  0
LINE
  5
7AFF
  8
1
  6
CONTINUOUS
 10
1658.4235776253349
 20
992.68437203485587
 30
0.0
 11
1658.4235776253349
 21
1248.784372034856
 31
0.0
  0
ARC
  5
7B00
  8
1
  6
CONTINUOUS
 10
1650.4235776253349
 20
992.68437203485587
 30
0.0
 40
8.0
 50
270.0
 51
0.0
  0
ARC
  5
7B01
  8
1
  6
CONTINUOUS
 10
1554.4235776253349
 20
992.68437203485587
 30
0.0
 40
8.0
 50
180.0
 51
270.0
  0
LINE
  5
7B02
  8
1
  6
CONTINUOUS
 10
1602.4235776253349
 20
1233.784372034856
 30
0.0
 11
1644.4235776253349
 21
1233.784372034856
 31
0.0
  0
LINE
  5
7B03
  8
1
  6
CONTINUOUS
 10
1602.4235776253349
 20
1233.784372034856
 30
0.0
 11
1560.4235776253349
 21
1233.784372034856
 31
0.0
  0
LINE
  5
7B04
  8
1
  6
CONTINUOUS
 10
1554.4235776253349
 20
984.68437203485587
 30
0.0
 11
1650.4235776253349
 21
984.68437203485587
 31
0.0
  0
LINE
  5
7B05
  8
1
  6
CONTINUOUS
 10
1545.4235776253349
 20
1248.784372034856
 30
0.0
 11
1560.4235776253349
 21
1233.784372034856
 31
0.0
  0
LINE
  5
7B06
  8
1
  6
CONTINUOUS
 10
1660.0235776253339
 20
1248.784372034856
 30
0.0
 11
1644.4235776253349
 21
1233.784372034856
 31
0.0
  0
LINE
  5
7B07
  8
1
  6
CONTINUOUS
 10
925.42357762533504
 20
2028.7494152705119
 30
0.0
 11
925.42357762533504
 21
1940.7494152705119
 31
0.0
  0
LINE
  5
7B08
  8
1
  6
CONTINUOUS
 10
702.42357762533516
 20
1921.149415270512
 30
0.0
 11
702.42357762533516
 21
1929.149415270512
 31
0.0
  0
LINE
  5
7B09
  8
1
  6
CONTINUOUS
 10
692.42357762533516
 20
1921.149415270512
 30
0.0
 11
912.42357762533516
 21
1921.149415270512
 31
0.0
  0
LINE
  5
7B0A
  8
1
  6
CONTINUOUS
 10
902.42357762533516
 20
1921.149415270512
 30
0.0
 11
902.42357762533516
 21
1929.149415270512
 31
0.0
  0
LINE
  5
7B0B
  8
1
  6
CONTINUOUS
 10
902.42357762533516
 20
2047.3494152705121
 30
0.0
 11
902.42357762533516
 21
2040.3494152705121
 31
0.0
  0
LINE
  5
7B0C
  8
1
  6
CONTINUOUS
 10
702.42357762533516
 20
2047.3494152705121
 30
0.0
 11
902.42357762533516
 21
2047.3494152705121
 31
0.0
  0
LINE
  5
7B0D
  8
1
  6
CONTINUOUS
 10
702.42357762533516
 20
2047.3494152705121
 30
0.0
 11
702.42357762533516
 21
2040.3494152705121
 31
0.0
  0
LINE
  5
7B0E
  8
1
  6
CONTINUOUS
 10
802.42357762533516
 20
2040.7494152705119
 30
0.0
 11
802.42357762533516
 21
1928.7494152705119
 31
0.0
  0
LINE
  5
7B0F
  8
1
  6
CONTINUOUS
 10
913.42357762533516
 20
1928.7494152705119
 30
0.0
 11
642.42357762533516
 21
1928.7494152705119
 31
0.0
  0
LINE
  5
7B10
  8
1
  6
CONTINUOUS
 10
642.42357762533516
 20
1928.7494152705119
 30
0.0
 11
642.42357762533516
 21
2040.7494152705119
 31
0.0
  0
LINE
  5
7B11
  8
1
  6
CONTINUOUS
 10
642.42357762533516
 20
2040.7494152705119
 30
0.0
 11
913.42357762533516
 21
2040.7494152705119
 31
0.0
  0
ARC
  5
7B12
  8
1
  6
CONTINUOUS
 10
913.42357762533516
 20
1940.7494152705119
 30
0.0
 40
12.0
 50
270.0
 51
0.0
  0
ARC
  5
7B13
  8
1
  6
CONTINUOUS
 10
913.42357762533516
 20
2028.7494152705119
 30
0.0
 40
12.0
 50
0.0
 51
90.0
  0
LINE
  5
7B14
  8
1
  6
CONTINUOUS
 10
802.42357762533516
 20
1928.7494152705119
 30
0.0
 11
642.42357762533516
 21
2040.7494152705119
 31
0.0
  0
LINE
  5
7B15
  8
1
  6
CONTINUOUS
 10
642.42357762533516
 20
1928.7494152705119
 30
0.0
 11
802.42357762533516
 21
2040.7494152705119
 31
0.0
  0
LINE
  5
7B16
  8
1
  6
CONTINUOUS
 10
912.42357762533516
 20
1160.8843720348559
 30
0.0
 11
839.02357762533495
 21
1223.784372034856
 31
0.0
  0
LINE
  5
7B17
  8
1
  6
CONTINUOUS
 10
692.42357762533516
 20
1160.8843720348559
 30
0.0
 11
765.82357762533513
 21
1223.784372034856
 31
0.0
  0
LINE
  5
7B18
  8
1
  6
CONTINUOUS
 10
839.02357762533495
 20
1223.784372034856
 30
0.0
 11
765.82357762533513
 21
1223.784372034856
 31
0.0
  0
LINE
  5
7B19
  8
1
  6
CONTINUOUS
 10
692.42357762533516
 20
1085.4843720348549
 30
0.0
 11
912.42357762533516
 21
1085.4843720348549
 31
0.0
  0
LINE
  5
7B1A
  8
1
  6
CONTINUOUS
 10
692.42357762533516
 20
1160.8843720348559
 30
0.0
 11
692.42357762533516
 21
933.78437203485601
 31
0.0
  0
LINE
  5
7B1B
  8
1
  6
CONTINUOUS
 10
912.42357762533516
 20
933.78437203485601
 30
0.0
 11
912.42357762533516
 21
1160.8843720348559
 31
0.0
  0
LINE
  5
7B1C
  8
1
  6
CONTINUOUS
 10
628.42357762533516
 20
953.78437203485589
 30
0.0
 11
628.42357762533516
 21
933.78437203485601
 31
0.0
  0
LINE
  5
7B1D
  8
1
  6
CONTINUOUS
 10
377.4235776253351
 20
953.78437203485589
 30
0.0
 11
628.42357762533516
 21
953.78437203485589
 31
0.0
  0
LINE
  5
7B1E
  8
1
  6
CONTINUOUS
 10
439.4235776253351
 20
953.78437203485589
 30
0.0
 11
439.4235776253351
 21
961.78437203485601
 31
0.0
  0
LINE
  5
7B1F
  8
1
  6
CONTINUOUS
 10
594.42357762533516
 20
961.78437203485601
 30
0.0
 11
586.22357762533511
 21
984.58437203485585
 31
0.0
  0
LINE
  5
7B20
  8
1
  6
CONTINUOUS
 10
594.42357762533516
 20
953.78437203485589
 30
0.0
 11
594.42357762533516
 21
961.78437203485601
 31
0.0
  0
LINE
  5
7B21
  8
1
  6
CONTINUOUS
 10
439.4235776253351
 20
961.78437203485601
 30
0.0
 11
447.62357762533509
 21
984.58437203485585
 31
0.0
  0
ARC
  5
7B22
  8
1
  6
CONTINUOUS
 10
516.92357762533516
 20
1033.784372034856
 30
0.0
 40
85.0
 50
324.69999999999987
 51
215.30000000000001
  0
LINE
  5
7B23
  8
1
  6
CONTINUOUS
 10
937.42357762533516
 20
883.78437203485601
 30
0.0
 11
937.42357762533516
 21
933.78437203485601
 31
0.0
  0
LINE
  5
7B24
  8
1
  6
CONTINUOUS
 10
377.4235776253351
 20
953.78437203485589
 30
0.0
 11
377.4235776253351
 21
883.78437203485601
 31
0.0
  0
LINE
  5
7B25
  8
1
  6
CONTINUOUS
 10
377.4235776253351
 20
883.78437203485601
 30
0.0
 11
937.42357762533516
 21
883.78437203485601
 31
0.0
  0
LINE
  5
7B26
  8
1
  6
CONTINUOUS
 10
377.4235776253351
 20
933.78437203485601
 30
0.0
 11
937.42357762533516
 21
933.78437203485601
 31
0.0
  0
LINE
  5
7B27
  8
1
  6
CONTINUOUS
 10
899.72357762533511
 20
933.78437203485601
 30
0.0
 11
899.72357762533511
 21
1213.784372034856
 31
0.0
  0
LINE
  5
7B28
  8
1
  6
CONTINUOUS
 10
899.72357762533511
 20
1213.784372034856
 30
0.0
 11
419.72357762533511
 21
1213.784372034856
 31
0.0
  0
LINE
  5
7B29
  8
1
  6
CONTINUOUS
 10
419.72357762533511
 20
1213.784372034856
 30
0.0
 11
419.72357762533511
 21
933.78437203485601
 31
0.0
  0
LINE
  5
7B2A
  8
1
  6
CONTINUOUS
 10
352.4235776253351
 20
2020.7494152705119
 30
0.0
 11
352.4235776253351
 21
1796.7494152705119
 31
0.0
  0
LINE
  5
7B2B
  8
1
  6
CONTINUOUS
 10
962.42357762533516
 20
1796.7494152705119
 30
0.0
 11
962.42357762533516
 21
2020.7494152705119
 31
0.0
  0
LINE
  5
7B2C
  8
1
  6
CONTINUOUS
 10
642.42357762533516
 20
2020.7494152705119
 30
0.0
 11
377.4235776253351
 21
2020.7494152705119
 31
0.0
  0
LINE
  5
7B2D
  8
2
  6
CENTER
 10
1602.4235776253349
 20
1279.6482970348559
 30
0.0
 11
1602.4235776253349
 21
771.36345303485587
 31
0.0
  0
LINE
  5
7B2E
  8
2
  6
CENTER
 10
338.90239462533509
 20
1984.7494152705119
 30
0.0
 11
988.27586562533486
 21
1984.7494152705119
 31
0.0
  0
LINE
  5
7B2F
  8
2
  6
CENTER
 10
802.42357762533516
 20
1679.949205270512
 30
0.0
 11
802.42357762533516
 21
2142.3714182705121
 31
0.0
  0
LINE
  5
7B30
  8
2
  6
CENTER
 10
1308.6050086253349
 20
1118.784372034856
 30
0.0
 11
1675.0026306253351
 21
1118.784372034856
 31
0.0
  0
LINE
  5
7B31
  8
4
  6
CONTINUOUS
 10
1850.0
 20
500.0
 30
0.0
 11
1850.0
 21
300.0
 31
0.0
  0
LINE
  5
7B32
  8
4
  6
CONTINUOUS
 10
1150.0
 20
500.0
 30
0.0
 11
1150.0
 21
300.0
 31
0.0
  0
LINE
  5
7B33
  8
4
  6
CONTINUOUS
 10
650.0
 20
500.0
 30
0.0
 11
650.0
 21
300.0
 31
0.0
  0
LINE
  5
7B36
  8
4
  6
CONTINUOUS
 10
650.0
 20
300.0
 30
0.0
 11
1850.0
 21
300.0
 31
0.0
  0
LINE
  5
7B37
  8
4
  6
CONTINUOUS
 10
650.0
 20
400.0
 30
0.0
 11
1850.0
 21
400.0
 31
0.0
  0
TEXT
  5
7B38
  8
4
  6
CONTINUOUS
 10
688.50208099999998
 20
431.543026
 30
0.0
 40
50.0
  1
機器名称
  0
TEXT
  5
7B39
  8
4
  6
CONTINUOUS
 10
686.258106
 20
321.64515699999993
 30
0.0
 40
50.0
  1
機器型番
  0
TEXT
  5
7B3A
  8
4
  6
CONTINUOUS
 10
1177.282281
 20
420.8543259999999
 30
0.0
 40
45.0
  1
ミツヤニューマルチファン
  0
TEXT
  5
7B3B
  8
4
  6
CONTINUOUS
 10
1186.6544960000001
 20
317.159584
 30
0.0
 40
50.0
  1
NM#1-1
  0
TEXT
  5
7B3D
  8
4
  6
CONTINUOUS
 10
755.72677199999987
 20
2383.4288409999999
 30
0.0
 40
54.0
  1
天井吊防振ベット
  0
TEXT
  5
7B3E
  8
4
  6
CONTINUOUS
 10
316.16759300000001
 20
2533.8809759999999
 30
0.0
 40
72.0
  1
ベルト駆動式片吸込片持多翼ファン
  0
LINE
  5
7B3F
  8
4
  6
CONTINUOUS
 10
250.0
 20
2469.408754
 30
0.0
 11
1850.0
 21
2469.408754
 31
0.0
  0
LINE
  5
7B40
  8
4
  6
CONTINUOUS
 10
250.0
 20
2669.408754
 30
0.0
 11
1850.0
 21
2669.408754
 31
0.0
  0
LINE
  5
7B41
  8
4
  6
CONTINUOUS
 10
650.0
 20
500.0
 30
0.0
 11
1850.0
 21
500.0
 31
0.0
  0
LINE
  5
7B42
  8
4
  6
CONTINUOUS
 10
250.0
 20
2669.408754
 30
0.0
 11
250.0
 21
2469.408754
 31
0.0
  0
TEXT
  5
7B43
  8
4
  6
CONTINUOUS
 10
319.86793899999998
 20
2382.3194779999999
 30
0.0
 40
54.0
  1
右回転上向
  0
TEXT
  5
7B44
  8
4
  6
CONTINUOUS
 10
1468.9695589999999
 20
2706.0610809999998
 30
0.0
 40
56.0
  1
No.
  0
TEXT
  5
7B45
  8
4
  6
CONTINUOUS
 10
1374.533214
 20
2383.4288409999999
 30
0.0
 40
54.0
  1
縮尺：1/10
  0
LINE
  5
7B46
  8
4
  6
CONTINUOUS
 10
1850.0
 20
2669.408754
 30
0.0
 11
1850.0
 21
2469.408754
 31
0.0
  0
LINE
  5
7B48
  8
4
  6
CONTINUOUS
 10
1440.617422
 20
2681.2635829999999
 30
0.0
 11
1440.617422
 21
2786.6522620000001
 31
0.0
  0
LINE
  5
7B49
  8
4
  6
CONTINUOUS
 10
1440.617422
 20
2786.6522620000001
 30
0.0
 11
1850.0
 21
2786.6522620000001
 31
0.0
  0
LINE
  5
7B4A
  8
4
  6
CONTINUOUS
 10
1850.0
 20
2786.6522620000001
 30
0.0
 11
1850.0
 21
2681.2635829999999
 31
0.0
  0
LINE
  5
7B4B
  8
4
  6
CONTINUOUS
 10
1850.0
 20
2681.2635829999999
 30
0.0
 11
1440.617422
 21
2681.2635829999999
 31
0.0
  0
DIMENSION
  5
7B71
  8
3
  6
CONTINUOUS
  2
*D1
 10
802.42357762533516
 20
1281.0044690348559
 30
0.0
 11
722.90373762533511
 21
1281.0044690348559
 31
0.0
 70
   128
 13
642.42357762533516
 23
1233.784372034856
 33
0.0
 14
802.42357762533516
 24
1233.784372034856
 34
0.0
1001
ACAD
1000
DSTYLE
1002
{
1070
   287
1070
     3
1070
   287
1070
     3
1070
    40
1040
10.0
1070
   143
1040
0.039
1070
   172
1070
     1
1070
   271
1070
     0
1070
   279
1070
     0
1070
   288
1070
     1
1002
}
  0
DIMENSION
  5
7B8B
  8
3
  6
CONTINUOUS
  2
*D2
 10
802.42357762533516
 20
1331.002253034856
 30
0.0
 11
718.35574862533497
 21
1331.002253034856
 31
0.0
 70
   128
 13
631.42357762533516
 23
1233.784372034856
 33
0.0
 14
802.42357762533516
 24
1238.784372034856
 34
0.0
1001
ACAD
1000
DSTYLE
1002
{
1070
   287
1070
     3
1070
   287
1070
     3
1070
    40
1040
10.0
1070
   143
1040
0.039
1070
   172
1070
     1
1070
   271
1070
     0
1070
   279
1070
     0
1070
   288
1070
     1
1002
}
  0
DIMENSION
  5
7B99
  8
3
  6
CONTINUOUS
  2
*D3
 10
925.42357762533504
 20
1331.002253034856
 30
0.0
 11
859.34323962533495
 21
1329.487171034855
 31
0.0
 70
   128
 13
802.42357762533516
 23
1238.784372034856
 33
0.0
 14
925.42357762533504
 24
1107.784372034856
 34
0.0
1001
ACAD
1000
DSTYLE
1002
{
1070
   287
1070
     4
1070
   287
1070
     4
1070
    40
1040
10.0
1070
    75
1070
     1
1070
   143
1040
0.039
1070
   172
1070
     1
1070
   271
1070
     0
1070
   279
1070
     1
1070
   288
1070
     1
1002
}
  0
DIMENSION
  5
7BD9
  8
3
  6
CONTINUOUS
  2
*D4
 10
1028.772895577983
 20
883.78437203485601
 30
0.0
 11
1003.772895577983
 21
1001.284372034856
 31
0.0
 70
     0
 13
975.89909862533489
 23
1118.784372034856
 33
0.0
 14
937.42357762533516
 24
883.78437203485601
 34
0.0
 50
90.0
1001
ACAD
1000
DSTYLE
1002
{
1070
   287
1070
     3
1070
   287
1070
     3
1070
    40
1040
10.0
1070
   143
1040
0.039
1070
   172
1070
     1
1070
   271
1070
     0
1070
   279
1070
     0
1070
   288
1070
     1
1002
}
  0
DIMENSION
  5
7BE9
  8
3
  6
CONTINUOUS
  2
*D5
 10
1028.772895577983
 20
836.78437203485601
 30
0.0
 11
1083.348704577983
 21
851.10132362314471
 31
0.0
 70
   128
 13
937.42357762533516
 23
883.78437203485601
 33
0.0
 14
962.42357762533516
 24
836.78437203485601
 34
0.0
 50
90.0
1001
ACAD
1000
DSTYLE
1002
{
1070
   288
1070
     1
1070
   172
1070
     1
1070
    75
1070
     1
1070
    40
1040
10.0
1070
   271
1070
     0
1070
     7
1000
_DOT
1070
   143
1040
0.039
1002
}
  0
DIMENSION
  5
7BF9
  8
3
  6
CONTINUOUS
  2
*D6
 10
1028.772895577983
 20
811.78437203485601
 30
0.0
 11
1028.772895577983
 21
737.49865774914178
 31
0.0
 70
   128
 13
962.42357762533516
 23
836.78437203485601
 33
0.0
 14
962.42357762533516
 24
811.78437203485601
 34
0.0
 50
90.0
1001
ACAD
1000
DSTYLE
1002
{
1070
   287
1070
     3
1070
   287
1070
     3
1070
    40
1040
10.0
1070
   143
1040
0.039
1070
   172
1070
     1
1070
   271
1070
     0
1070
   279
1070
     0
1070
   288
1070
     1
1070
     6
1000
DOT
1002
}
  0
DIMENSION
  5
7C3E
  8
3
  6
CONTINUOUS
  2
*D7
 10
1134.892517577983
 20
811.78437203485601
 30
0.0
 11
1134.892517577983
 21
1064.347408034856
 31
0.0
 70
   128
 13
824.42357762533516
 23
1248.784372034856
 33
0.0
 14
962.42357762533516
 24
811.78437203485601
 34
0.0
 50
90.0
1001
ACAD
1000
DSTYLE
1002
{
1070
   287
1070
     3
1070
   287
1070
     3
1070
    40
1040
10.0
1070
   143
1040
0.039
1070
   172
1070
     1
1070
   271
1070
     0
1070
   279
1070
     0
1070
   288
1070
     1
1002
}
  0
DIMENSION
  5
7C4B
  8
3
  6
CONTINUOUS
  2
*D8
 10
802.42357762533516
 20
764.36071503485584
 30
0.0
 11
580.40024262533495
 21
764.36071503485584
 31
0.0
 70
   128
 13
352.4235776253351
 23
811.78437203485601
 33
0.0
 14
802.42357762533516
 24
799.61263803485599
 34
0.0
1001
ACAD
1000
DSTYLE
1002
{
1070
   287
1070
     3
1070
   287
1070
     3
1070
    40
1040
10.0
1070
   143
1040
0.039
1070
   172
1070
     1
1070
   271
1070
     0
1070
   279
1070
     0
1070
   288
1070
     1
1002
}
  0
DIMENSION
  5
7C57
  8
3
  6
CONTINUOUS
  2
*D9
 10
962.42357762533516
 20
764.36071503485584
 30
0.0
 11
882.42357762533516
 21
789.36071503485584
 31
0.0
 70
     0
 13
802.42357762533516
 23
799.61263803485599
 33
0.0
 14
962.42357762533516
 24
811.78437203485601
 34
0.0
1001
ACAD
1000
DSTYLE
1002
{
1070
   287
1070
     4
1070
   287
1070
     4
1070
    40
1040
10.0
1070
    75
1070
     1
1070
   143
1040
0.039
1070
   172
1070
     1
1070
   271
1070
     0
1070
   279
1070
     1
1070
   288
1070
     1
1002
}
  0
DIMENSION
  5
7C64
  8
3
  6
CONTINUOUS
  2
*D10
 10
1602.4235776253349
 20
750.63445703485593
 30
0.0
 11
1476.288342625335
 21
750.63445703485593
 31
0.0
 70
   128
 13
1330.4235776253349
 23
811.78437203485601
 33
0.0
 14
1602.4235776253349
 24
771.36345303485587
 34
0.0
1001
ACAD
1000
DSTYLE
1002
{
1070
   287
1070
     3
1070
   287
1070
     3
1070
    40
1040
10.0
1070
   143
1040
0.039
1070
   172
1070
     1
1070
   271
1070
     0
1070
   279
1070
     0
1070
   288
1070
     1
1002
}
  0
DIMENSION
  5
7C70
  8
3
  6
CONTINUOUS
  2
*D11
 10
1760.4235776253349
 20
750.63445703485593
 30
0.0
 11
1681.4235776253349
 21
775.63445703485593
 31
0.0
 70
     0
 13
1602.4235776253349
 23
771.36345303485587
 33
0.0
 14
1760.4235776253349
 24
811.78437203485601
 34
0.0
1001
ACAD
1000
DSTYLE
1002
{
1070
   287
1070
     4
1070
   287
1070
     4
1070
    40
1040
10.0
1070
    75
1070
     1
1070
   143
1040
0.039
1070
   172
1070
     1
1070
   271
1070
     0
1070
   279
1070
     1
1070
   288
1070
     1
1002
}
  0
DIMENSION
  5
7C7F
  8
3
  6
CONTINUOUS
  2
*D12
 10
1730.1372386253349
 20
1038.7843720348551
 30
0.0
 11
1703.287421016413
 21
1118.784372034856
 31
0.0
 70
   128
 13
1666.4235776253349
 23
1198.784372034856
 33
0.0
 14
1666.4235776253349
 24
1038.7843720348551
 34
0.0
 50
90.0
1001
ACAD
1000
DSTYLE
1002
{
1070
   288
1070
     1
1070
   172
1070
     1
1070
    40
1040
10.0
1070
     3
1000
φ<>
1070
   271
1070
     0
1070
   143
1040
0.039
1002
}
  0
DIMENSION
  5
7C9C
  8
3
  6
CONTINUOUS
  2
*D13
 10
1546.4235776253349
 20
1276.3945760348561
 30
0.0
 11
1602.4235776253349
 21
1298.8107393224211
 31
0.0
 70
   128
 13
1658.4235776253349
 23
1248.784372034856
 33
0.0
 14
1546.4235776253349
 24
1248.784372034856
 34
0.0
1001
ACAD
1000
DSTYLE
1002
{
1070
   288
1070
     1
1070
   172
1070
     1
1070
    40
1040
10.0
1070
   271
1070
     0
1070
   143
1040
0.039
1002
}
  0
DIMENSION
  5
7CA9
  8
3
  6
CONTINUOUS
  2
*D14
 10
1602.4235776253349
 20
1339.531713034856
 30
0.0
 11
1483.180172625335
 21
1339.531713034856
 31
0.0
 70
   128
  1
MAX\P260
 13
1342.4235776253349
 23
1213.784372034856
 33
0.0
 14
1602.4235776253349
 24
1321.8737500348559
 34
0.0
1001
ACAD
1000
DSTYLE
1002
{
1070
   287
1070
     3
1070
   287
1070
     3
1070
    40
1040
10.0
1070
   143
1040
0.039
1070
   172
1070
     1
1070
   271
1070
     0
1070
   279
1070
     0
1070
   288
1070
     1
1002
}
  0
DIMENSION
  5
7CB7
  8
3
  6
CONTINUOUS
  2
*D15
 10
1666.4235776253349
 20
1339.531713034856
 30
0.0
 11
1638.2462356253341
 21
1338.498154034856
 31
0.0
 70
   128
 13
1602.4235776253349
 23
1321.8737500348559
 33
0.0
 14
1666.4235776253349
 24
1218.784372034856
 34
0.0
1001
ACAD
1000
DSTYLE
1002
{
1070
   287
1070
     4
1070
   287
1070
     4
1070
    40
1040
10.0
1070
    75
1070
     1
1070
   143
1040
0.039
1070
   172
1070
     1
1070
   271
1070
     0
1070
   279
1070
     1
1070
   288
1070
     1
1002
}
  0
DIMENSION
  5
7CEF
  8
3
  6
CONTINUOUS
  2
*D16
 10
962.42357762533516
 20
1607.135520270512
 30
0.0
 11
659.91752862533497
 21
1607.135520270512
 31
0.0
 70
   128
 13
352.4235776253351
 23
1712.2494152705119
 33
0.0
 14
962.42357762533516
 24
1712.2494152705119
 34
0.0
1001
ACAD
1000
DSTYLE
1002
{
1070
   287
1070
     3
1070
   287
1070
     3
1070
    40
1040
10.0
1070
   143
1040
0.039
1070
   172
1070
     1
1070
   271
1070
     0
1070
   279
1070
     0
1070
   288
1070
     1
1002
}
  0
DIMENSION
  5
7CFC
  8
3
  6
CONTINUOUS
  2
*D17
 10
1057.4081976253351
 20
1712.2494152705119
 30
0.0
 11
1057.4081976253351
 21
1923.1314372705119
 31
0.0
 70
   128
 13
962.42357762533516
 23
2142.2494152705121
 33
0.0
 14
962.42357762533516
 24
1712.2494152705119
 34
0.0
 50
90.0
1001
ACAD
1000
DSTYLE
1002
{
1070
   287
1070
     3
1070
   287
1070
     3
1070
    40
1040
10.0
1070
   143
1040
0.039
1070
   172
1070
     1
1070
   271
1070
     0
1070
   279
1070
     0
1070
   288
1070
     1
1002
}
  0
DIMENSION
  5
7DD7
  8
3
  2
*D19
 10
352.42357762533521
 20
1394.347682504927
 30
0.0
 11
653.54742545314912
 21
1394.347682504927
 31
0.0
 70
   128
 13
925.42357762533504
 23
1112.784372034856
 33
0.0
 14
352.4235776253351
 24
861.78437203485601
 34
0.0
1001
ACAD
1000
DSTYLE
1002
{
1070
   287
1070
     3
1070
   287
1070
     3
1070
    40
1040
10.0
1070
   143
1040
0.039
1070
   172
1070
     1
1070
   271
1070
     0
1070
   279
1070
     0
1070
   288
1070
     1
1002
}
  0
DIMENSION
  5
7E32
  8
3
  2
*D20
 10
1028.772895577983
 20
1248.784372034856
 30
0.0
 11
1006.185010146577
 21
1183.784372034856
 31
0.0
 70
   128
 13
975.89909862533489
 23
1118.784372034856
 33
0.0
 14
824.42357762533516
 24
1248.784372034856
 34
0.0
 50
90.0
1001
ACAD
1000
DSTYLE
1002
{
1070
   288
1070
     1
1070
   172
1070
     1
1070
    75
1070
     1
1070
    40
1040
10.0
1070
   271
1070
     0
1070
   143
1040
0.039
1002
}
  0
ENDSEC
  0
EOF
