  0
SECTION
  2
HEADER
  9
$ACADVER
  1
AC1009
  9
$INSBASE
 10
0.0
 20
0.0
 30
0.0
  9
$EXTMIN
 10
250.0
 20
300.0
 30
0.0
  9
$EXTMAX
 10
1850.0
 20
2786.6522620000001
 30
0.0
  9
$LIMMIN
 10
0.0
 20
0.0
  9
$LIMMAX
 10
297.0
 20
210.0
  9
$ORTHOMODE
 70
     0
  9
$REGENMODE
 70
     1
  9
$FILLMODE
 70
     0
  9
$QTEXTMODE
 70
     0
  9
$MIRRTEXT
 70
     1
  9
$DRAGMODE
 70
     2
  9
$LTSCALE
 40
100.0
  9
$OSMODE
 70
    37
  9
$ATTMODE
 70
     1
  9
$TEXTSIZE
 40
180.0
  9
$TRACEWID
 40
0.05
  9
$TEXTSTYLE
  7
STANDARD
  9
$CLAYER
  8
3
  9
$CELTYPE
  6
BYLAYER
  9
$CECOLOR
 62
   256
  9
$DIMSCALE
 40
10.0
  9
$DIMASZ
 40
2.0
  9
$DIMEXO
 40
0.5
  9
$DIMDLI
 40
10.0
  9
$DIMRND
 40
0.0
  9
$DIMDLE
 40
0.0
  9
$DIMEXE
 40
1.0
  9
$DIMTP
 40
1.0
  9
$DIMTM
 40
1.0
  9
$DIMTXT
 40
3.0
  9
$DIMCEN
 40
0.0
  9
$DIMTSZ
 40
0.0
  9
$DIMTOL
 70
     0
  9
$DIMLIM
 70
     0
  9
$DIMTIH
 70
     0
  9
$DIMTOH
 70
     0
  9
$DIMSE1
 70
     0
  9
$DIMSE2
 70
     0
  9
$DIMTAD
 70
     1
  9
$DIMZIN
 70
     8
  9
$DIMBLK
  1

  9
$DIMASO
 70
     1
  9
$DIMSHO
 70
     1
  9
$DIMPOST
  1

  9
$DIMAPOST
  1

  9
$DIMALT
 70
     0
  9
$DIMALTD
 70
     2
  9
$DIMALTF
 40
0.039
  9
$DIMLFAC
 40
1.0
  9
$DIMTOFL
 70
     1
  9
$DIMTVP
 40
0.0
  9
$DIMTIX
 70
     0
  9
$DIMSOXD
 70
     0
  9
$DIMSAH
 70
     1
  9
$DIMBLK1
  1
OPEN
  9
$DIMBLK2
  1
OPEN
  9
$DIMSTYLE
  2
IGA
  9
$DIMCLRD
 70
     0
  9
$DIMCLRE
 70
     0
  9
$DIMCLRT
 70
     0
  9
$DIMTFAC
 40
10.0
  9
$DIMGAP
 40
1.0
  9
$LUNITS
 70
     2
  9
$LUPREC
 70
     3
  9
$SKETCHINC
 40
0.1
  9
$FILLETRAD
 40
50.0
  9
$AUNITS
 70
     0
  9
$AUPREC
 70
     0
  9
$MENU
  1
acad
  9
$ELEVATION
 40
0.0
  9
$PELEVATION
 40
0.0
  9
$THICKNESS
 40
0.0
  9
$LIMCHECK
 70
     0
  9
$BLIPMODE
 70
     0
  9
$CHAMFERA
 40
0.5
  9
$CHAMFERB
 40
0.5
  9
$SKPOLY
 70
     0
  9
$TDCREATE
 40
2450736.5767175918
  9
$TDUPDATE
 40
2454953.8587462041
  9
$TDINDWG
 40
0.0068759838
  9
$TDUSRTIMER
 40
0.0068759838
  9
$USRTIMER
 70
     1
  9
$ANGBASE
 50
0.0
  9
$ANGDIR
 70
     0
  9
$PDMODE
 70
     0
  9
$PDSIZE
 40
0.0
  9
$PLINEWID
 40
0.0
  9
$COORDS
 70
     1
  9
$SPLFRAME
 70
     0
  9
$SPLINETYPE
 70
     6
  9
$SPLINESEGS
 70
     8
  9
$ATTDIA
 70
     0
  9
$ATTREQ
 70
     1
  9
$HANDLING
 70
 10241
  9
$HANDSEED
  5
8113
  9
$SURFTAB1
 70
     6
  9
$SURFTAB2
 70
     6
  9
$SURFTYPE
 70
     6
  9
$SURFU
 70
     6
  9
$SURFV
 70
     6
  9
$UCSNAME
  2

  9
$UCSORG
 10
0.0
 20
0.0
 30
0.0
  9
$UCSXDIR
 10
1.0
 20
0.0
 30
0.0
  9
$UCSYDIR
 10
0.0
 20
1.0
 30
0.0
  9
$PUCSNAME
  2

  9
$PUCSORG
 10
0.0
 20
0.0
 30
0.0
  9
$PUCSXDIR
 10
1.0
 20
0.0
 30
0.0
  9
$PUCSYDIR
 10
0.0
 20
1.0
 30
0.0
  9
$USERI1
 70
     0
  9
$USERI2
 70
     0
  9
$USERI3
 70
     0
  9
$USERI4
 70
     0
  9
$USERI5
 70
     0
  9
$USERR1
 40
0.0
  9
$USERR2
 40
0.0
  9
$USERR3
 40
0.0
  9
$USERR4
 40
0.0
  9
$USERR5
 40
0.0
  9
$WORLDVIEW
 70
     1
  9
$SHADEDGE
 70
     3
  9
$SHADEDIF
 70
    70
  9
$TILEMODE
 70
     1
  9
$MAXACTVP
 70
    16
  9
$PLIMCHECK
 70
     0
  9
$PEXTMIN
 10
1.0000000000000000E+020
 20
1.0000000000000000E+020
 30
1.0000000000000000E+020
  9
$PEXTMAX
 10
-1.0000000000000000E+020
 20
-1.0000000000000000E+020
 30
-1.0000000000000000E+020
  9
$PLIMMIN
 10
0.0
 20
0.0
  9
$PLIMMAX
 10
12.0
 20
9.0
  9
$UNITMODE
 70
     0
  9
$VISRETAIN
 70
     0
  9
$PLINEGEN
 70
     0
  9
$PSLTSCALE
 70
     1
  0
ENDSEC
  0
SECTION
  2
TABLES
  0
TABLE
  2
VPORT
 70
     2
  0
VPORT
  2
*ACTIVE
 70
     0
 10
0.0
 20
0.0
 11
1.0
 21
1.0
 12
2694.4724648123852
 22
1760.043874176961
 13
0.0
 23
0.0
 14
10.0
 24
10.0
 15
10.0
 25
10.0
 16
0.0
 26
0.0
 36
1.0
 17
0.0
 27
0.0
 37
0.0
 40
3552.2128564519348
 41
1.5051150895140659
 42
50.0
 43
0.0
 44
0.0
 50
0.0
 51
0.0
 71
     0
 72
   100
 73
     1
 74
     0
 75
     0
 76
     0
 77
     0
 78
     0
  0
ENDTAB
  0
TABLE
  2
LTYPE
 70
     2
  0
LTYPE
  2
CONTINUOUS
 70
     0
  3
Solid line
 72
    65
 73
     0
 40
0.0
  0
LTYPE
  2
CENTER
 70
     0
  3
____ _ ____ _ ____ _ ____ _ ____ _ ____ _ ____ 
 72
    65
 73
     4
 40
2.0
 49
1.25
 49
-0.25
 49
0.25
 49
-0.25
  0
ENDTAB
  0
TABLE
  2
LAYER
 70
     6
  0
LAYER
  2
0
 70
     0
 62
     7
  6
CONTINUOUS
  0
LAYER
  2
3
 70
     0
 62
     2
  6
CONTINUOUS
  0
LAYER
  2
2
 70
     0
 62
     3
  6
CENTER
  0
LAYER
  2
1
 70
     0
 62
     4
  6
CONTINUOUS
  0
LAYER
  2
4
 70
     0
 62
     7
  6
CONTINUOUS
  0
LAYER
  2
DEFPOINTS
 70
     0
 62
     7
  6
CONTINUOUS
  0
ENDTAB
  0
TABLE
  2
STYLE
 70
     1
  0
STYLE
  2
STANDARD
 70
     0
 40
0.0
 41
1.0
 50
0.0
 71
     0
 42
180.0
  3
simplex.shx
  4
extfont.shx
  0
ENDTAB
  0
TABLE
  2
VIEW
 70
     0
  0
ENDTAB
  0
TABLE
  2
UCS
 70
     0
  0
ENDTAB
  0
TABLE
  2
APPID
 70
     1
  0
APPID
  2
ACAD
 70
     0
  0
ENDTAB
  0
TABLE
  2
DIMSTYLE
 70
     1
  0
DIMSTYLE
  2
IGA
 70
     0
  3

  4

  5

  6
OPEN
  7
OPEN
 40
2.0
 41
2.0
 42
0.5
 43
10.0
 44
1.0
 45
0.0
 46
0.0
 47
1.0
 48
1.0
140
3.0
141
0.0
142
0.0
143
0.03937
144
1.0
145
0.0
146
10.0
147
1.0
 71
     0
 72
     0
 73
     0
 74
     0
 75
     0
 76
     0
 77
     1
 78
     8
170
     0
171
     2
172
     0
173
     1
174
     0
175
     0
176
     0
177
     0
178
     0
  0
ENDTAB
  0
ENDSEC
  0
SECTION
  2
BLOCKS
  0
BLOCK
  8
0
  2
$MODEL_SPACE
 70
     0
 10
0.0
 20
0.0
 30
0.0
  3
$MODEL_SPACE
  1

  0
ENDBLK
  5
1B
  8
0
  0
BLOCK
 67
     1
  8
0
  2
$PAPER_SPACE
 70
     0
 10
0.0
 20
0.0
 30
0.0
  3
$PAPER_SPACE
  1

  0
ENDBLK
  5
18
 67
     1
  8
0
  0
BLOCK
  8
0
  2
_OPEN
 70
     0
 10
0.0
 20
0.0
 30
0.0
  3
_OPEN
  1

  0
LINE
  5
7C78
  8
0
  6
BYBLOCK
 62
     0
 10
-1.0
 20
0.166667
 30
0.0
 11
0.0
 21
0.0
 31
0.0
  0
LINE
  5
7C79
  8
0
  6
BYBLOCK
 62
     0
 10
0.0
 20
0.0
 30
0.0
 11
-1.0
 21
-0.166667
 31
0.0
  0
LINE
  5
7C7A
  8
0
  6
BYBLOCK
 62
     0
 10
0.0
 20
0.0
 30
0.0
 11
-1.0
 21
0.0
 31
0.0
  0
ENDBLK
  5
7C7B
  8
0
  0
BLOCK
  8
0
  2
*D1
 70
     1
 10
0.0
 20
0.0
 30
0.0
  3
*D1
  1

  0
LINE
  5
807C
  8
3
  6
CONTINUOUS
 62
     0
 10
383.103452
 20
782.52168705358315
 30
0.0
 11
383.103452
 21
722.98047105358307
 31
0.0
  0
LINE
  5
807D
  8
3
  6
CONTINUOUS
 62
     0
 10
833.10345199999995
 20
807.52168705358315
 30
0.0
 11
833.10345199999995
 21
722.98047105358307
 31
0.0
  0
LINE
  5
807E
  8
3
  6
CONTINUOUS
 62
     0
 10
403.103452
 20
732.98047105358319
 30
0.0
 11
813.10345199999995
 21
732.98047105358319
 31
0.0
  0
INSERT
  5
807F
  8
3
  6
CONTINUOUS
 62
     0
  2
_OPEN
 10
383.103452
 20
732.98047105358319
 30
0.0
 41
20.0
 42
20.0
 43
20.0
 50
180.0
  0
INSERT
  5
8080
  8
3
  6
CONTINUOUS
 62
     0
  2
_OPEN
 10
833.10345199999995
 20
732.98047105358319
 30
0.0
 41
20.0
 42
20.0
 43
20.0
  0
TEXT
  8
3
  40
30
  5
8103
  62
0
  72
0
  71
0
 10
556.428
 20
704.880
 30
0.000000
  1
450
  0
POINT
  5
8082
  8
DEFPOINTS
  6
CONTINUOUS
 62
     0
 10
383.103452
 20
787.52168705358315
 30
0.0
  0
POINT
  5
8083
  8
DEFPOINTS
  6
CONTINUOUS
 62
     0
 10
833.10345199999995
 20
812.52168705358315
 30
0.0
  0
POINT
  5
8084
  8
DEFPOINTS
  6
CONTINUOUS
 62
     0
 10
833.10345199999995
 20
732.98047105358319
 30
0.0
  0
ENDBLK
  5
7CAB
  8
0
  0
BLOCK
  8
0
  2
*D2
 70
     1
 10
0.0
 20
0.0
 30
0.0
  3
*D2
  1

  0
LINE
  5
8085
  8
3
  6
CONTINUOUS
 62
     0
 10
993.10345199999983
 20
782.52168705358315
 30
0.0
 11
993.10345199999983
 21
722.98047105358307
 31
0.0
  0
LINE
  5
8086
  8
3
  6
CONTINUOUS
 62
     0
 10
853.10345199999995
 20
732.98047105358319
 30
0.0
 11
973.10345199999995
 21
732.98047105358319
 31
0.0
  0
INSERT
  5
8087
  8
3
  6
CONTINUOUS
 62
     0
  2
_OPEN
 10
833.10345199999995
 20
732.98047105358319
 30
0.0
 41
20.0
 42
20.0
 43
20.0
 50
180.0
  0
INSERT
  5
8088
  8
3
  6
CONTINUOUS
 62
     0
  2
_OPEN
 10
993.10345199999983
 20
732.98047105358319
 30
0.0
 41
20.0
 42
20.0
 43
20.0
  0
TEXT
  8
3
  40
30
  5
8104
  62
0
  72
0
  71
0
 10
853.103
 20
704.880
 30
0.000000
  1
160
  0
POINT
  5
808A
  8
DEFPOINTS
  6
CONTINUOUS
 62
     0
 10
833.10345199999995
 20
812.52168705358315
 30
0.0
  0
POINT
  5
808B
  8
DEFPOINTS
  6
CONTINUOUS
 62
     0
 10
993.10345199999983
 20
787.52168705358315
 30
0.0
  0
POINT
  5
808C
  8
DEFPOINTS
  6
CONTINUOUS
 62
     0
 10
993.10345199999983
 20
732.98047105358319
 30
0.0
  0
ENDBLK
  5
7CB7
  8
0
  0
BLOCK
  8
0
  2
*D3
 70
     1
 10
0.0
 20
0.0
 30
0.0
  3
*D3
  1

  0
LINE
  5
808D
  8
3
  6
CONTINUOUS
 62
     0
 10
968.10345199999983
 20
1254.521687053583
 30
0.0
 11
1041.378064
 21
1254.521687053583
 31
0.0
  0
LINE
  5
808E
  8
3
  6
CONTINUOUS
 62
     0
 10
968.10345199999983
 20
1094.521687053583
 30
0.0
 11
1041.378064
 21
1094.521687053583
 31
0.0
  0
LINE
  5
808F
  8
3
  6
CONTINUOUS
 62
     0
 10
1031.378064
 20
1234.521687053583
 30
0.0
 11
1031.378064
 21
1114.521687053583
 31
0.0
  0
INSERT
  5
8090
  8
3
  6
CONTINUOUS
 62
     0
  2
_OPEN
 10
1031.378064
 20
1254.521687053583
 30
0.0
 41
20.0
 42
20.0
 43
20.0
 50
90.0
  0
INSERT
  5
8091
  8
3
  6
CONTINUOUS
 62
     0
  2
_OPEN
 10
1031.378064
 20
1094.521687053583
 30
0.0
 41
20.0
 42
20.0
 43
20.0
 50
270.0
  0
TEXT
  8
3
  40
30
  5
8105
  62
0
  72
0
  71
0
 10
946.378
 20
1118.89
 30
0.000000
  1
160
  0
POINT
  5
8093
  8
DEFPOINTS
  6
CONTINUOUS
 62
     0
 10
963.10345199999995
 20
1254.521687053583
 30
0.0
  0
POINT
  5
8094
  8
DEFPOINTS
  6
CONTINUOUS
 62
     0
 10
963.10345199999995
 20
1094.521687053583
 30
0.0
  0
POINT
  5
8095
  8
DEFPOINTS
  6
CONTINUOUS
 62
     0
 10
1031.378064
 20
1094.521687053583
 30
0.0
  0
ENDBLK
  5
7CD0
  8
0
  0
BLOCK
  8
0
  2
*D4
 70
     1
 10
0.0
 20
0.0
 30
0.0
  3
*D4
  1

  0
LINE
  5
8096
  8
3
  6
CONTINUOUS
 62
     0
 10
953.10345199999995
 20
1265.521687053583
 30
0.0
 11
1114.8032499999999
 21
1265.521687053583
 31
0.0
  0
LINE
  5
8097
  8
3
  6
CONTINUOUS
 62
     0
 10
968.10345199999983
 20
1094.521687053583
 30
0.0
 11
1114.8032499999999
 21
1094.521687053583
 31
0.0
  0
LINE
  5
8098
  8
3
  6
CONTINUOUS
 62
     0
 10
1104.8032499999999
 20
1245.521687053583
 30
0.0
 11
1104.8032499999999
 21
1114.521687053583
 31
0.0
  0
INSERT
  5
8099
  8
3
  6
CONTINUOUS
 62
     0
  2
_OPEN
 10
1104.8032499999999
 20
1265.521687053583
 30
0.0
 41
20.0
 42
20.0
 43
20.0
 50
90.0
  0
INSERT
  5
809A
  8
3
  6
CONTINUOUS
 62
     0
  2
_OPEN
 10
1104.8032499999999
 20
1094.521687053583
 30
0.0
 41
20.0
 42
20.0
 43
20.0
 50
270.0
  0
TEXT
  8
3
  40
30
  5
8106
  62
0
  72
0
  71
0
 10
1019.80
 20
1113.49
 30
0.000000
  1
171
  0
POINT
  5
809C
  8
DEFPOINTS
  6
CONTINUOUS
 62
     0
 10
948.10345199999995
 20
1265.521687053583
 30
0.0
  0
POINT
  5
809D
  8
DEFPOINTS
  6
CONTINUOUS
 62
     0
 10
963.10345199999995
 20
1094.521687053583
 30
0.0
  0
POINT
  5
809E
  8
DEFPOINTS
  6
CONTINUOUS
 62
     0
 10
1104.8032499999999
 20
1094.521687053583
 30
0.0
  0
ENDBLK
  5
7CDC
  8
0
  0
BLOCK
  8
0
  2
*D5
 70
     1
 10
0.0
 20
0.0
 30
0.0
  3
*D5
  1

  0
LINE
  5
809F
  8
3
  6
CONTINUOUS
 62
     0
 10
973.10345199999995
 20
859.52168705358315
 30
0.0
 11
1114.8032499999999
 21
859.52168705358315
 31
0.0
  0
LINE
  5
80A0
  8
3
  6
CONTINUOUS
 62
     0
 10
1104.8032499999999
 20
1074.521687053583
 30
0.0
 11
1104.8032499999999
 21
879.52168705358315
 31
0.0
  0
INSERT
  5
80A1
  8
3
  6
CONTINUOUS
 62
     0
  2
_OPEN
 10
1104.8032499999999
 20
1094.521687053583
 30
0.0
 41
20.0
 42
20.0
 43
20.0
 50
90.0
  0
INSERT
  5
80A2
  8
3
  6
CONTINUOUS
 62
     0
  2
_OPEN
 10
1104.8032499999999
 20
859.52168705358315
 30
0.0
 41
20.0
 42
20.0
 43
20.0
 50
270.0
  0
TEXT
  8
3
  40
30
  5
8107
  62
0
  72
0
  71
0
 10
1019.80
 20
923.922
 30
0.000000
  1
235
  0
POINT
  5
80A4
  8
DEFPOINTS
  6
CONTINUOUS
 62
     0
 10
963.10345199999995
 20
1094.521687053583
 30
0.0
  0
POINT
  5
80A5
  8
DEFPOINTS
  6
CONTINUOUS
 62
     0
 10
968.10345199999983
 20
859.52168705358315
 30
0.0
  0
POINT
  5
80A6
  8
DEFPOINTS
  6
CONTINUOUS
 62
     0
 10
1104.8032499999999
 20
859.52168705358315
 30
0.0
  0
ENDBLK
  5
7CE8
  8
0
  0
BLOCK
  8
0
  2
*D6
 70
     1
 10
0.0
 20
0.0
 30
0.0
  3
*D6
  1

  0
LINE
  5
80A7
  8
3
  6
CONTINUOUS
 62
     0
 10
953.10345199999995
 20
1265.521687053583
 30
0.0
 11
1200.3447779999999
 21
1265.521687053583
 31
0.0
  0
LINE
  5
80A8
  8
3
  6
CONTINUOUS
 62
     0
 10
998.10345199999995
 20
787.52168705358315
 30
0.0
 11
1200.3447779999999
 21
787.52168705358315
 31
0.0
  0
LINE
  5
80A9
  8
3
  6
CONTINUOUS
 62
     0
 10
1190.3447779999999
 20
1245.521687053583
 30
0.0
 11
1190.3447779999999
 21
807.52168705358315
 31
0.0
  0
INSERT
  5
80AA
  8
3
  6
CONTINUOUS
 62
     0
  2
_OPEN
 10
1190.3447779999999
 20
1265.521687053583
 30
0.0
 41
20.0
 42
20.0
 43
20.0
 50
90.0
  0
INSERT
  5
80AB
  8
3
  6
CONTINUOUS
 62
     0
  2
_OPEN
 10
1190.3447779999999
 20
787.52168705358315
 30
0.0
 41
20.0
 42
20.0
 43
20.0
 50
270.0
  0
TEXT
  8
3
  40
30
  5
8108
  62
0
  72
0
  71
0
 10
1105.34
 20
1029.01
 30
0.000000
  1
478
  0
POINT
  5
80AD
  8
DEFPOINTS
  6
CONTINUOUS
 62
     0
 10
948.10345199999995
 20
1265.521687053583
 30
0.0
  0
POINT
  5
80AE
  8
DEFPOINTS
  6
CONTINUOUS
 62
     0
 10
993.10345199999983
 20
787.52168705358315
 30
0.0
  0
POINT
  5
80AF
  8
DEFPOINTS
  6
CONTINUOUS
 62
     0
 10
1190.3447779999999
 20
787.52168705358315
 30
0.0
  0
ENDBLK
  5
7D19
  8
0
  0
BLOCK
  8
0
  2
*D7
 70
     1
 10
0.0
 20
0.0
 30
0.0
  3
*D7
  1

  0
LINE
  5
7F36
  8
0
  6
BYBLOCK
 62
     0
 10
833.10345199999995
 20
1269.9859690535829
 30
0.0
 11
833.10345199999995
 21
1316.329838053583
 31
0.0
  0
LINE
  5
7F37
  8
0
  6
BYBLOCK
 62
     0
 10
963.10345199999995
 20
1281.521687053583
 30
0.0
 11
963.10345199999995
 21
1316.329838053583
 31
0.0
  0
LINE
  5
7F38
  8
0
  6
BYBLOCK
 62
     0
 10
853.10345199999995
 20
1306.329838053583
 30
0.0
 11
943.10345199999983
 21
1306.329838053583
 31
0.0
  0
TEXT
  5
7F39
  8
3
 62
     0
 10
859.97972793267252
 20
1318.613190990229
 30
0.0
 40
30.0
  1
130
  0
INSERT
  5
7F3A
  8
0
  6
BYBLOCK
 62
     0
  2
_OPEN
 10
833.10345199999995
 20
1306.329838053583
 30
0.0
 41
20.0
 42
20.0
 43
20.0
 50
180.0
  0
INSERT
  5
7F3B
  8
0
  6
BYBLOCK
 62
     0
  2
_OPEN
 10
963.10345199999995
 20
1306.329838053583
 30
0.0
 41
20.0
 42
20.0
 43
20.0
  0
POINT
  5
7F3C
  8
DEFPOINTS
  6
BYBLOCK
 62
     0
 10
833.10345199999995
 20
1264.9859690535829
 30
0.0
  0
POINT
  5
7F3D
  8
DEFPOINTS
  6
BYBLOCK
 62
     0
 10
963.10345199999995
 20
1276.521687053583
 30
0.0
  0
POINT
  5
7F3E
  8
DEFPOINTS
  6
BYBLOCK
 62
     0
 10
963.10345199999995
 20
1306.329838053583
 30
0.0
  0
ENDBLK
  5
7F3F
  8
0
  0
BLOCK
  8
0
  2
*D8
 70
     1
 10
0.0
 20
0.0
 30
0.0
  3
*D8
  1

  0
LINE
  5
80B0
  8
3
  6
CONTINUOUS
 62
     0
 10
383.103452
 20
1691.4449481097629
 30
0.0
 11
383.103452
 21
1607.188417109764
 31
0.0
  0
LINE
  5
80B1
  8
3
  6
CONTINUOUS
 62
     0
 10
993.10345199999983
 20
1691.4449481097629
 30
0.0
 11
993.10345199999983
 21
1607.188417109764
 31
0.0
  0
LINE
  5
80B2
  8
3
  6
CONTINUOUS
 62
     0
 10
403.103452
 20
1617.1884171097629
 30
0.0
 11
973.10345199999995
 21
1617.1884171097629
 31
0.0
  0
INSERT
  5
80B3
  8
3
  6
CONTINUOUS
 62
     0
  2
_OPEN
 10
383.103452
 20
1617.1884171097629
 30
0.0
 41
20.0
 42
20.0
 43
20.0
 50
180.0
  0
INSERT
  5
80B4
  8
3
  6
CONTINUOUS
 62
     0
  2
_OPEN
 10
993.10345199999983
 20
1617.1884171097629
 30
0.0
 41
20.0
 42
20.0
 43
20.0
  0
TEXT
  8
3
  40
30
  5
8109
  62
0
  72
0
  71
0
 10
600.602
 20
1589.09
 30
0.000000
  1
610
  0
POINT
  5
80B6
  8
DEFPOINTS
  6
CONTINUOUS
 62
     0
 10
383.103452
 20
1696.4449481097629
 30
0.0
  0
POINT
  5
80B7
  8
DEFPOINTS
  6
CONTINUOUS
 62
     0
 10
993.10345199999983
 20
1696.4449481097629
 30
0.0
  0
POINT
  5
80B8
  8
DEFPOINTS
  6
CONTINUOUS
 62
     0
 10
993.10345199999983
 20
1617.1884171097629
 30
0.0
  0
ENDBLK
  5
7D64
  8
0
  0
BLOCK
  8
0
  2
*D9
 70
     1
 10
0.0
 20
0.0
 30
0.0
  3
*D9
  1

  0
LINE
  5
80B9
  8
3
  6
CONTINUOUS
 62
     0
 10
998.10345199999995
 20
2126.4449481097631
 30
0.0
 11
1092.326376
 21
2126.4449481097631
 31
0.0
  0
LINE
  5
80BA
  8
3
  6
CONTINUOUS
 62
     0
 10
998.10345199999995
 20
1696.4449481097629
 30
0.0
 11
1092.326376
 21
1696.4449481097629
 31
0.0
  0
LINE
  5
80BB
  8
3
  6
CONTINUOUS
 62
     0
 10
1082.326376
 20
2106.4449481097631
 30
0.0
 11
1082.326376
 21
1716.4449481097629
 31
0.0
  0
INSERT
  5
80BC
  8
3
  6
CONTINUOUS
 62
     0
  2
_OPEN
 10
1082.326376
 20
2126.4449481097631
 30
0.0
 41
20.0
 42
20.0
 43
20.0
 50
90.0
  0
INSERT
  5
80BD
  8
3
  6
CONTINUOUS
 62
     0
  2
_OPEN
 10
1082.326376
 20
1696.4449481097629
 30
0.0
 41
20.0
 42
20.0
 43
20.0
 50
270.0
  0
TEXT
  8
3
  40
30
  5
810A
  62
0
  72
0
  71
0
 10
997.326
 20
1859.00
 30
0.000000
  1
430
  0
POINT
  5
80BF
  8
DEFPOINTS
  6
CONTINUOUS
 62
     0
 10
993.10345199999983
 20
2126.4449481097631
 30
0.0
  0
POINT
  5
80C0
  8
DEFPOINTS
  6
CONTINUOUS
 62
     0
 10
993.10345199999983
 20
1696.4449481097629
 30
0.0
  0
POINT
  5
80C1
  8
DEFPOINTS
  6
CONTINUOUS
 62
     0
 10
1082.326376
 20
1696.4449481097629
 30
0.0
  0
ENDBLK
  5
7D71
  8
0
  0
BLOCK
  8
0
  2
*D10
 70
     1
 10
0.0
 20
0.0
 30
0.0
  3
*D10
  1

  0
LINE
  5
80C2
  8
3
  6
CONTINUOUS
 62
     0
 10
1378.3862693544941
 20
782.98967105358315
 30
0.0
 11
1378.3862693544941
 21
706.54989705358309
 31
0.0
  0
LINE
  5
80C3
  8
3
  6
CONTINUOUS
 62
     0
 10
1650.3862693544941
 20
782.98967105358315
 30
0.0
 11
1650.3862693544941
 21
706.54989705358309
 31
0.0
  0
LINE
  5
80C4
  8
3
  6
CONTINUOUS
 62
     0
 10
1398.3862693544941
 20
716.54989705358298
 30
0.0
 11
1630.3862693544941
 21
716.54989705358298
 31
0.0
  0
INSERT
  5
80C5
  8
3
  6
CONTINUOUS
 62
     0
  2
_OPEN
 10
1378.3862693544941
 20
716.54989705358298
 30
0.0
 41
20.0
 42
20.0
 43
20.0
 50
180.0
  0
INSERT
  5
80C6
  8
3
  6
CONTINUOUS
 62
     0
  2
_OPEN
 10
1650.3862693544941
 20
716.54989705358298
 30
0.0
 41
20.0
 42
20.0
 43
20.0
  0
TEXT
  8
3
  40
30
  5
810B
  62
0
  72
0
  71
0
 10
1454.70
 20
688.450
 30
0.000000
  1
272
  0
POINT
  5
80C8
  8
DEFPOINTS
  6
CONTINUOUS
 62
     0
 10
1378.3862693544941
 20
787.98967105358315
 30
0.0
  0
POINT
  5
80C9
  8
DEFPOINTS
  6
CONTINUOUS
 62
     0
 10
1650.3862693544941
 20
787.98967105358315
 30
0.0
  0
POINT
  5
80CA
  8
DEFPOINTS
  6
CONTINUOUS
 62
     0
 10
1650.3862693544941
 20
716.54989705358298
 30
0.0
  0
ENDBLK
  5
7D82
  8
0
  0
BLOCK
  8
0
  2
*D11
 70
     1
 10
0.0
 20
0.0
 30
0.0
  3
*D11
  1

  0
LINE
  5
80CB
  8
3
  6
CONTINUOUS
 62
     0
 10
1808.3862693544941
 20
782.98967105358315
 30
0.0
 11
1808.3862693544941
 21
706.54989705358309
 31
0.0
  0
LINE
  5
80CC
  8
3
  6
CONTINUOUS
 62
     0
 10
1670.3862693544941
 20
716.54989705358298
 30
0.0
 11
1788.3862693544941
 21
716.54989705358298
 31
0.0
  0
INSERT
  5
80CD
  8
3
  6
CONTINUOUS
 62
     0
  2
_OPEN
 10
1650.3862693544941
 20
716.54989705358298
 30
0.0
 41
20.0
 42
20.0
 43
20.0
 50
180.0
  0
INSERT
  5
80CE
  8
3
  6
CONTINUOUS
 62
     0
  2
_OPEN
 10
1808.3862693544941
 20
716.54989705358298
 30
0.0
 41
20.0
 42
20.0
 43
20.0
  0
TEXT
  8
3
  40
30
  5
810C
  62
0
  72
0
  71
0
 10
1669.39
 20
688.450
 30
0.000000
  1
158
  0
POINT
  5
80D0
  8
DEFPOINTS
  6
CONTINUOUS
 62
     0
 10
1650.3862693544941
 20
787.98967105358315
 30
0.0
  0
POINT
  5
80D1
  8
DEFPOINTS
  6
CONTINUOUS
 62
     0
 10
1808.3862693544941
 20
787.98967105358315
 30
0.0
  0
POINT
  5
80D2
  8
DEFPOINTS
  6
CONTINUOUS
 62
     0
 10
1808.3862693544941
 20
716.54989705358298
 30
0.0
  0
ENDBLK
  5
7D8E
  8
0
  0
BLOCK
  8
0
  2
*D12
 70
     1
 10
0.0
 20
0.0
 30
0.0
  3
*D12
  1

  0
LINE
  5
7EFD
  8
0
  6
BYBLOCK
 62
     0
 10
1594.3862693544941
 20
1259.9896710535829
 30
0.0
 11
1594.3862693544941
 21
1303.6708690535829
 31
0.0
  0
LINE
  5
7EFE
  8
0
  6
BYBLOCK
 62
     0
 10
1706.3862693544941
 20
1259.9896710535829
 30
0.0
 11
1706.3862693544941
 21
1303.6708690535829
 31
0.0
  0
LINE
  5
7EFF
  8
0
  6
BYBLOCK
 62
     0
 10
1614.3862693544941
 20
1293.6708690535829
 30
0.0
 11
1686.3862693544941
 21
1293.6708690535829
 31
0.0
  0
TEXT
  5
7F00
  8
3
 62
     0
 10
1618.750187400474
 20
1300.4594935503751
 30
0.0
 40
30.0
  1
112
  0
INSERT
  5
7F01
  8
0
  6
BYBLOCK
 62
     0
  2
_OPEN
 10
1594.3862693544941
 20
1293.6708690535829
 30
0.0
 41
20.0
 42
20.0
 43
20.0
 50
180.0
  0
INSERT
  5
7F02
  8
0
  6
BYBLOCK
 62
     0
  2
_OPEN
 10
1706.3862693544941
 20
1293.6708690535829
 30
0.0
 41
20.0
 42
20.0
 43
20.0
  0
POINT
  5
7F03
  8
DEFPOINTS
  6
BYBLOCK
 62
     0
 10
1594.3862693544941
 20
1254.9896710535829
 30
0.0
  0
POINT
  5
7F04
  8
DEFPOINTS
  6
BYBLOCK
 62
     0
 10
1706.3862693544941
 20
1254.9896710535829
 30
0.0
  0
POINT
  5
7F05
  8
DEFPOINTS
  6
BYBLOCK
 62
     0
 10
1706.3862693544941
 20
1293.6708690535829
 30
0.0
  0
ENDBLK
  5
7F06
  8
0
  0
BLOCK
  8
0
  2
*D13
 70
     1
 10
0.0
 20
0.0
 30
0.0
  3
*D13
  1

  0
LINE
  5
80D3
  8
3
  6
CONTINUOUS
 62
     0
 10
1390.3862693544941
 20
1194.9896710535829
 30
0.0
 11
1390.3862693544941
 21
1363.5995021673091
 31
0.0
  0
LINE
  5
80D4
  8
3
  6
CONTINUOUS
 62
     0
 10
1650.3862693544941
 20
1341.6290730535829
 30
0.0
 11
1650.3862693544941
 21
1363.5995021673091
 31
0.0
  0
LINE
  5
80D5
  8
3
  6
CONTINUOUS
 62
     0
 10
1410.3862693544941
 20
1353.5995021673091
 30
0.0
 11
1630.3862693544941
 21
1353.5995021673091
 31
0.0
  0
INSERT
  5
80D6
  8
3
  6
CONTINUOUS
 62
     0
  2
_OPEN
 10
1390.3862693544941
 20
1353.5995021673091
 30
0.0
 41
20.0
 42
20.0
 43
20.0
 50
180.0
  0
INSERT
  5
80D7
  8
3
  6
CONTINUOUS
 62
     0
  2
_OPEN
 10
1650.3862693544941
 20
1353.5995021673091
 30
0.0
 41
20.0
 42
20.0
 43
20.0
  0
TEXT
  8
3
  40
30
  5
810D
  62
0
  72
0
  71
0
 10
1461.74
 20
1350.50
 30
0.000000
  1
MAX
  0
TEXT
  8
3
  40
30
  5
810E
  62
0
  72
0
  71
0
 10
1461.74
 20
1311.50
 30
0.000000
  1
260
  0
POINT
  5
80D9
  8
DEFPOINTS
  6
CONTINUOUS
 62
     0
 10
1390.3862693544941
 20
1189.9896710535829
 30
0.0
  0
POINT
  5
80DA
  8
DEFPOINTS
  6
CONTINUOUS
 62
     0
 10
1650.3862693544941
 20
1336.6290730535829
 30
0.0
  0
POINT
  5
80DB
  8
DEFPOINTS
  6
CONTINUOUS
 62
     0
 10
1650.3862693544941
 20
1353.5995021673091
 30
0.0
  0
ENDBLK
  5
7F4A
  8
0
  0
BLOCK
  8
0
  2
*D14
 70
     1
 10
0.0
 20
0.0
 30
0.0
  3
*D14
  1

  0
LINE
  5
80DC
  8
3
  6
CONTINUOUS
 62
     0
 10
1714.3862693544941
 20
1199.9896710535829
 30
0.0
 11
1714.3862693544941
 21
1363.5995021673091
 31
0.0
  0
LINE
  5
80DD
  8
3
  6
CONTINUOUS
 62
     0
 10
1670.3862693544941
 20
1353.5995021673091
 30
0.0
 11
1694.3862693544941
 21
1353.5995021673091
 31
0.0
  0
TEXT
  8
3
  40
30
  5
810F
  62
0
  72
0
  71
0
 10
1623.70
 20
1325.64
 30
0.000000
  1
64
  0
INSERT
  5
80DF
  8
3
  6
CONTINUOUS
 62
     0
  2
_OPEN
 10
1650.3862693544941
 20
1353.5995021673091
 30
0.0
 41
20.0
 42
20.0
 43
20.0
 50
180.0
  0
INSERT
  5
80E0
  8
3
  6
CONTINUOUS
 62
     0
  2
_OPEN
 10
1714.3862693544941
 20
1353.5995021673091
 30
0.0
 41
20.0
 42
20.0
 43
20.0
  0
POINT
  5
80E1
  8
DEFPOINTS
  6
CONTINUOUS
 62
     0
 10
1650.3862693544941
 20
1336.6290730535829
 30
0.0
  0
POINT
  5
80E2
  8
DEFPOINTS
  6
CONTINUOUS
 62
     0
 10
1714.3862693544941
 20
1194.9896710535829
 30
0.0
  0
POINT
  5
80E3
  8
DEFPOINTS
  6
CONTINUOUS
 62
     0
 10
1714.3862693544941
 20
1353.5995021673091
 30
0.0
  0
ENDBLK
  5
7EE5
  8
0
  0
BLOCK
  8
0
  2
*D15
 70
     1
 10
0.0
 20
0.0
 30
0.0
  3
*D15
  1

  0
LINE
  5
7F08
  8
0
  6
BYBLOCK
 62
     0
 10
1719.3862693544941
 20
1174.521687053583
 30
0.0
 11
1797.913591354494
 21
1174.521687053583
 31
0.0
  0
LINE
  5
7F09
  8
0
  6
BYBLOCK
 62
     0
 10
1719.3862693544941
 20
1014.521687053583
 30
0.0
 11
1797.913591354494
 21
1014.521687053583
 31
0.0
  0
LINE
  5
7F0A
  8
0
  6
BYBLOCK
 62
     0
 10
1787.913591354494
 20
1154.521687053583
 30
0.0
 11
1787.913591354494
 21
1034.521687053583
 31
0.0
  0
TEXT
  5
7F0B
  8
3
 62
     0
 10
1778.7621352633901
 20
1046.008307247331
 30
0.0
 40
30.0
  1
φ160
 50
90.0
  0
INSERT
  5
7F0C
  8
0
  6
BYBLOCK
 62
     0
  2
_OPEN
 10
1787.913591354494
 20
1174.521687053583
 30
0.0
 41
20.0
 42
20.0
 43
20.0
 50
90.0
  0
INSERT
  5
7F0D
  8
0
  6
BYBLOCK
 62
     0
  2
_OPEN
 10
1787.913591354494
 20
1014.521687053583
 30
0.0
 41
20.0
 42
20.0
 43
20.0
 50
270.0
  0
POINT
  5
7F0E
  8
DEFPOINTS
  6
BYBLOCK
 62
     0
 10
1714.3862693544941
 20
1174.521687053583
 30
0.0
  0
POINT
  5
7F0F
  8
DEFPOINTS
  6
BYBLOCK
 62
     0
 10
1714.3862693544941
 20
1014.521687053583
 30
0.0
  0
POINT
  5
7F10
  8
DEFPOINTS
  6
BYBLOCK
 62
     0
 10
1787.913591354494
 20
1014.521687053583
 30
0.0
  0
ENDBLK
  5
7F11
  8
0
  0
BLOCK
  8
0
  2
*D16
 70
     1
 10
0.0
 20
0.0
 30
0.0
  3
*D16
  1

  0
LINE
  5
7F68
  8
0
  6
BYBLOCK
 62
     0
 10
998.10345199999995
 20
812.52168705358315
 30
0.0
 11
1114.8032499999999
 21
812.52168705358315
 31
0.0
  0
LINE
  5
7F69
  8
0
  6
BYBLOCK
 62
     0
 10
1104.8032499999999
 20
879.52168705358315
 30
0.0
 11
1104.8032499999999
 21
899.52168705358315
 31
0.0
  0
LINE
  5
7F6A
  8
0
  6
BYBLOCK
 62
     0
 10
1104.8032499999999
 20
792.52168705358315
 30
0.0
 11
1104.8032499999999
 21
772.52168705358315
 31
0.0
  0
TEXT
  5
7F6B
  8
3
 62
     0
 10
1160.7883167907439
 20
812.99232597541175
 30
0.0
 40
30.0
  1
47
 50
90.0
  0
LINE
  5
7F6C
  8
0
  6
BYBLOCK
 62
     0
 10
1104.8032499999999
 20
859.52168705358315
 30
0.0
 11
1104.8032499999999
 21
812.52168705358315
 31
0.0
  0
INSERT
  5
7F6D
  8
0
  6
BYBLOCK
 62
     0
  2
_OPEN
 10
1104.8032499999999
 20
859.52168705358315
 30
0.0
 41
20.0
 42
20.0
 43
20.0
 50
270.0
  0
INSERT
  5
7F6E
  8
0
  6
BYBLOCK
 62
     0
  2
_DOT
 10
1104.8032499999999
 20
812.52168705358315
 30
0.0
 41
20.0
 42
20.0
 43
20.0
 50
90.0
  0
POINT
  5
7F6F
  8
DEFPOINTS
  6
BYBLOCK
 62
     0
 10
968.10345199999983
 20
859.52168705358315
 30
0.0
  0
POINT
  5
7F70
  8
DEFPOINTS
  6
BYBLOCK
 62
     0
 10
993.10345199999983
 20
812.52168705358315
 30
0.0
  0
POINT
  5
7F71
  8
DEFPOINTS
  6
BYBLOCK
 62
     0
 10
1104.8032499999999
 20
812.52168705358315
 30
0.0
  0
ENDBLK
  5
7F72
  8
0
  0
BLOCK
  8
0
  2
*D17
 70
     1
 10
0.0
 20
0.0
 30
0.0
  3
*D17
  1

  0
LINE
  5
80E4
  8
3
  6
CONTINUOUS
 62
     0
 10
998.10345199999995
 20
812.52168705358315
 30
0.0
 11
1114.8032499999999
 21
812.52168705358315
 31
0.0
  0
LINE
  5
80E5
  8
3
  6
CONTINUOUS
 62
     0
 10
998.10345199999995
 20
787.52168705358315
 30
0.0
 11
1114.8032499999999
 21
787.52168705358315
 31
0.0
  0
LINE
  5
80E6
  8
3
  6
CONTINUOUS
 62
     0
 10
1104.8032499999999
 20
832.52168705358315
 30
0.0
 11
1104.8032499999999
 21
852.52168705358315
 31
0.0
  0
LINE
  5
80E7
  8
3
  6
CONTINUOUS
 62
     0
 10
1104.8032499999999
 20
767.52168705358315
 30
0.0
 11
1104.8032499999999
 21
678.95025848215437
 31
0.0
  0
LINE
  5
80E8
  8
3
  6
CONTINUOUS
 62
     0
 10
1104.8032499999999
 20
812.52168705358315
 30
0.0
 11
1104.8032499999999
 21
787.52168705358315
 31
0.0
  0
INSERT
  5
80E9
  8
3
  6
CONTINUOUS
 62
     0
  2
_DOT
 10
1104.8032499999999
 20
812.52168705358315
 30
0.0
 41
20.0
 42
20.0
 43
20.0
 50
270.0
  0
INSERT
  5
80EA
  8
3
  6
CONTINUOUS
 62
     0
  2
_OPEN
 10
1104.8032499999999
 20
787.52168705358315
 30
0.0
 41
20.0
 42
20.0
 43
20.0
 50
90.0
  0
TEXT
  8
3
  40
30
  5
8110
  62
0
  72
0
  71
0
 10
1019.80
 20
660.136
 30
0.000000
  1
25
  0
POINT
  5
80EC
  8
DEFPOINTS
  6
CONTINUOUS
 62
     0
 10
993.10345199999983
 20
812.52168705358315
 30
0.0
  0
POINT
  5
80ED
  8
DEFPOINTS
  6
CONTINUOUS
 62
     0
 10
993.10345199999983
 20
787.52168705358315
 30
0.0
  0
POINT
  5
80EE
  8
DEFPOINTS
  6
CONTINUOUS
 62
     0
 10
1104.8032499999999
 20
787.52168705358315
 30
0.0
  0
ENDBLK
  5
7F7F
  8
0
  0
BLOCK
  8
0
  2
*D18
 70
     1
 10
0.0
 20
0.0
 30
0.0
  3
*D18
  1

  0
LINE
  5
80EF
  8
3
  6
CONTINUOUS
 62
     0
 10
688.10345199999995
 20
1099.521687053583
 30
0.0
 11
688.10345199999995
 21
1316.329838053583
 31
0.0
  0
LINE
  5
80F0
  8
3
  6
CONTINUOUS
 62
     0
 10
813.10345199999995
 20
1306.329838053583
 30
0.0
 11
708.10345199999995
 21
1306.329838053583
 31
0.0
  0
INSERT
  5
80F1
  8
3
  6
CONTINUOUS
 62
     0
  2
_OPEN
 10
833.10345199999995
 20
1306.329838053583
 30
0.0
 41
20.0
 42
20.0
 43
20.0
  0
INSERT
  5
80F2
  8
3
  6
CONTINUOUS
 62
     0
  2
_OPEN
 10
688.10345199999995
 20
1306.329838053583
 30
0.0
 41
20.0
 42
20.0
 43
20.0
 50
180.0
  0
TEXT
  8
3
  40
30
  5
8111
  62
0
  72
0
  71
0
 10
700.603
 20
1278.23
 30
0.000000
  1
145
  0
POINT
  5
80F4
  8
DEFPOINTS
  6
CONTINUOUS
 62
     0
 10
833.10345199999995
 20
1264.9859690535829
 30
0.0
  0
POINT
  5
80F5
  8
DEFPOINTS
  6
CONTINUOUS
 62
     0
 10
688.10345199999995
 20
1094.521687053583
 30
0.0
  0
POINT
  5
80F6
  8
DEFPOINTS
  6
CONTINUOUS
 62
     0
 10
688.10345199999995
 20
1306.329838053583
 30
0.0
  0
ENDBLK
  5
7FA0
  8
0
  0
BLOCK
  8
0
  2
_DOT
 70
     0
 10
0.0
 20
0.0
 30
0.0
  3
_DOT
  1

  0
LINE
  5
7F8D
  8
0
  6
BYBLOCK
 62
     0
 10
0.0
 20
0.0
 30
0.0
 11
-1.0
 21
-0.0000000000000284
 31
0.0
  0
POLYLINE
  5
7F8E
  8
0
  6
BYBLOCK
 62
     0
 66
     1
 10
0.0
 20
0.0
 30
0.0
 70
     1
 40
0.1666666666666666
 41
0.1666666666666666
  0
VERTEX
  5
8100
  8
0
  6
BYBLOCK
 62
     0
 10
-0.0833333333333286
 20
-0.0000000000000284
 30
0.0
 42
1.0
  0
VERTEX
  5
8101
  8
0
  6
BYBLOCK
 62
     0
 10
0.0833333333333286
 20
-0.0000000000000284
 30
0.0
 42
1.0
  0
SEQEND
  5
8102
  8
0
  6
BYBLOCK
 62
     0
  0
ENDBLK
  5
7F66
  8
0
  0
BLOCK
  8
0
  2
*D20
 70
     1
 10
0.0
 20
0.0
 30
0.0
  3
*D20
  1

  0
LINE
  5
80F7
  8
3
 62
     0
 10
963.10345199999995
 20
1281.521687053583
 30
0.0
 11
963.10345199999995
 21
1371.7489910321599
 31
0.0
  0
LINE
  5
80F8
  8
3
 62
     0
 10
383.103452
 20
842.52168705358304
 30
0.0
 11
383.10345200000012
 21
1371.7489910321599
 31
0.0
  0
LINE
  5
80F9
  8
3
 62
     0
 10
943.10345199999983
 20
1361.7489910321599
 30
0.0
 11
403.10345200000012
 21
1361.7489910321599
 31
0.0
  0
INSERT
  5
80FA
  8
3
 62
     0
  2
_OPEN
 10
963.10345199999995
 20
1361.7489910321599
 30
0.0
 41
20.0
 42
20.0
 43
20.0
  0
INSERT
  5
80FB
  8
3
 62
     0
  2
_OPEN
 10
383.10345200000012
 20
1361.7489910321599
 30
0.0
 41
20.0
 42
20.0
 43
20.0
 50
180.0
  0
TEXT
  8
3
  40
30
  5
8112
  62
0
  72
0
  71
0
 10
652.426
 20
1333.65
 30
0.000000
  1
580
  0
POINT
  5
80FD
  8
DEFPOINTS
 62
     0
 10
963.10345199999995
 20
1276.521687053583
 30
0.0
  0
POINT
  5
80FE
  8
DEFPOINTS
 62
     0
 10
383.103452
 20
837.52168705358315
 30
0.0
  0
POINT
  5
80FF
  8
DEFPOINTS
 62
     0
 10
383.10345200000012
 20
1361.7489910321599
 30
0.0
  0
ENDBLK
  5
7F8B
  8
0
  0
ENDSEC
  0
SECTION
  2
ENTITIES
  0
LINE
  5
7B29
  8
4
  6
CONTINUOUS
 10
1850.0
 20
500.0
 30
0.0
 11
1850.0
 21
300.0
 31
0.0
  0
LINE
  5
7B2A
  8
4
  6
CONTINUOUS
 10
1150.0
 20
500.0
 30
0.0
 11
1150.0
 21
300.0
 31
0.0
  0
LINE
  5
7B2B
  8
4
  6
CONTINUOUS
 10
650.0
 20
500.0
 30
0.0
 11
650.0
 21
300.0
 31
0.0
  0
LINE
  5
7B2E
  8
4
  6
CONTINUOUS
 10
650.0
 20
300.0
 30
0.0
 11
1850.0
 21
300.0
 31
0.0
  0
LINE
  5
7B2F
  8
4
  6
CONTINUOUS
 10
650.0
 20
400.0
 30
0.0
 11
1850.0
 21
400.0
 31
0.0
  0
TEXT
  5
7B30
  8
4
  6
CONTINUOUS
 10
688.50208099999998
 20
431.543026
 30
0.0
 40
50.0
  1
機器名称
  0
TEXT
  5
7B31
  8
4
  6
CONTINUOUS
 10
686.258106
 20
321.64515699999993
 30
0.0
 40
50.0
  1
機器型番
  0
TEXT
  5
7B32
  8
4
  6
CONTINUOUS
 10
1177.678744999999
 20
422.57176900000002
 30
0.0
 40
45.0
  1
ミツヤニューマルチファン
  0
TEXT
  5
7B33
  8
4
  6
CONTINUOUS
 10
1186.6544960000001
 20
317.159584
 30
0.0
 40
50.0
  1
NM#1-1
  0
TEXT
  5
7B35
  8
4
  6
CONTINUOUS
 10
739.00978399999997
 20
2383.4288409999999
 30
0.0
 40
54.0
  1
天井吊防振ベット
  0
TEXT
  5
7B36
  8
4
  6
CONTINUOUS
 10
316.16759300000001
 20
2533.8809759999999
 30
0.0
 40
72.0
  1
ベルト駆動式片吸込片持多翼ファン
  0
LINE
  5
7B37
  8
4
  6
CONTINUOUS
 10
250.0
 20
2469.408754
 30
0.0
 11
1850.0
 21
2469.408754
 31
0.0
  0
LINE
  5
7B38
  8
4
  6
CONTINUOUS
 10
250.0
 20
2669.408754
 30
0.0
 11
1850.0
 21
2669.408754
 31
0.0
  0
LINE
  5
7B39
  8
4
  6
CONTINUOUS
 10
650.0
 20
500.0
 30
0.0
 11
1850.0
 21
500.0
 31
0.0
  0
LINE
  5
7B3A
  8
4
  6
CONTINUOUS
 10
250.0
 20
2669.408754
 30
0.0
 11
250.0
 21
2469.408754
 31
0.0
  0
TEXT
  5
7B3B
  8
4
  6
CONTINUOUS
 10
303.15095099999991
 20
2382.3194779999999
 30
0.0
 40
54.0
  1
右回転右横向
  0
TEXT
  5
7B3C
  8
4
  6
CONTINUOUS
 10
1468.9695589999999
 20
2706.0610809999998
 30
0.0
 40
56.0
  1
No.
  0
TEXT
  5
7B3D
  8
4
  6
CONTINUOUS
 10
1383.416154
 20
2383.4288409999999
 30
0.0
 40
54.0
  1
縮尺：1/10
  0
LINE
  5
7B3E
  8
4
  6
CONTINUOUS
 10
1850.0
 20
2669.408754
 30
0.0
 11
1850.0
 21
2469.408754
 31
0.0
  0
LINE
  5
7B40
  8
4
  6
CONTINUOUS
 10
1440.617422
 20
2681.2635829999999
 30
0.0
 11
1440.617422
 21
2786.6522620000001
 31
0.0
  0
LINE
  5
7B41
  8
4
  6
CONTINUOUS
 10
1440.617422
 20
2786.6522620000001
 30
0.0
 11
1850.0
 21
2786.6522620000001
 31
0.0
  0
LINE
  5
7B42
  8
4
  6
CONTINUOUS
 10
1850.0
 20
2786.6522620000001
 30
0.0
 11
1850.0
 21
2681.2635829999999
 31
0.0
  0
LINE
  5
7B43
  8
4
  6
CONTINUOUS
 10
1850.0
 20
2681.2635829999999
 30
0.0
 11
1440.617422
 21
2681.2635829999999
 31
0.0
  0
LINE
  5
7BE1
  8
1
  6
CONTINUOUS
 62
     4
 10
556.50345199999992
 20
975.62168705358295
 30
0.0
 11
844.50345200000004
 21
1051.021687053583
 31
0.0
  0
LINE
  5
7BE2
  8
1
  6
CONTINUOUS
 62
     4
 10
536.50345199999992
 20
1042.7216870535831
 30
0.0
 11
818.80345199999999
 21
1137.2216870535831
 31
0.0
  0
LINE
  5
7BE3
  8
1
  6
CONTINUOUS
 62
     4
 10
930.40345200000002
 20
1189.521687053583
 30
0.0
 11
450.40345200000002
 21
1189.521687053583
 31
0.0
  0
LINE
  5
7BE4
  8
1
  6
CONTINUOUS
 62
     4
 10
408.10345200000012
 20
909.52168705358315
 30
0.0
 11
968.10345199999983
 21
909.52168705358315
 31
0.0
  0
LINE
  5
7BE5
  8
1
  6
CONTINUOUS
 62
     4
 10
408.10345200000012
 20
859.52168705358315
 30
0.0
 11
968.10345199999983
 21
859.52168705358315
 31
0.0
  0
ARC
  5
7BE6
  8
1
  6
CONTINUOUS
 62
     4
 10
547.60345199999995
 20
1009.521687053583
 30
0.0
 40
85.0
 50
324.69999999999987
 51
215.30000000000001
  0
LINE
  5
7BE7
  8
1
  6
CONTINUOUS
 62
     4
 10
408.10345200000012
 20
929.52168705358304
 30
0.0
 11
659.10345199999995
 21
929.52168705358304
 31
0.0
  0
LINE
  5
7BE8
  8
1
  6
CONTINUOUS
 62
     4
 10
383.103452
 20
837.52168705358315
 30
0.0
 11
993.10345199999983
 21
837.52168705358315
 31
0.0
  0
LINE
  5
7BE9
  8
1
  6
CONTINUOUS
 62
     4
 10
383.103452
 20
812.52168705358315
 30
0.0
 11
993.10345199999983
 21
812.52168705358315
 31
0.0
  0
LINE
  5
7BEA
  8
1
  6
CONTINUOUS
 62
     4
 10
408.10345200000012
 20
929.52168705358304
 30
0.0
 11
408.10345200000012
 21
859.52168705358315
 31
0.0
  0
LINE
  5
7BEB
  8
1
  6
CONTINUOUS
 62
     4
 10
383.103452
 20
787.52168705358315
 30
0.0
 11
408.10345200000012
 21
787.52168705358315
 31
0.0
  0
LINE
  5
7BEC
  8
1
  6
CONTINUOUS
 62
     4
 10
408.10345200000012
 20
812.52168705358315
 30
0.0
 11
408.10345200000012
 21
787.52168705358315
 31
0.0
  0
LINE
  5
7BED
  8
1
  6
CONTINUOUS
 62
     4
 10
383.103452
 20
837.52168705358315
 30
0.0
 11
383.103452
 21
787.52168705358315
 31
0.0
  0
LINE
  5
7BEE
  8
1
  6
CONTINUOUS
 62
     4
 10
470.10345199999989
 20
929.52168705358304
 30
0.0
 11
470.10345199999989
 21
937.52168705358304
 31
0.0
  0
LINE
  5
7BEF
  8
1
  6
CONTINUOUS
 62
     4
 10
450.40345200000002
 20
1189.521687053583
 30
0.0
 11
450.40345200000002
 21
909.52168705358315
 31
0.0
  0
LINE
  5
7BF0
  8
1
  6
CONTINUOUS
 62
     4
 10
470.10345199999989
 20
937.52168705358304
 30
0.0
 11
478.30345199999988
 21
960.3216870535831
 31
0.0
  0
CIRCLE
  5
7BF1
  8
1
  6
CONTINUOUS
 62
     4
 10
547.60345199999995
 20
1009.521687053583
 30
0.0
 40
35.0
  0
LINE
  5
7BF2
  8
2
  6
CENTER
 62
     3
 10
547.60345199999995
 20
974.52168705358315
 30
0.0
 11
547.60345199999995
 21
1044.521687053583
 31
0.0
  0
LINE
  5
7BF3
  8
2
  6
CENTER
 10
512.60345199999995
 20
1009.521687053583
 30
0.0
 11
582.60345199999995
 21
1009.521687053583
 31
0.0
  0
LINE
  5
7BF4
  8
1
  6
CONTINUOUS
 62
     4
 10
968.10345199999983
 20
859.52168705358315
 30
0.0
 11
968.10345199999983
 21
909.52168705358315
 31
0.0
  0
LINE
  5
7BF5
  8
1
  6
CONTINUOUS
 62
     4
 10
968.10345199999983
 20
812.52168705358315
 30
0.0
 11
968.10345199999983
 21
787.52168705358315
 31
0.0
  0
LINE
  5
7BF6
  8
1
  6
CONTINUOUS
 62
     4
 10
993.10345199999983
 20
787.52168705358315
 30
0.0
 11
968.10345199999983
 21
787.52168705358315
 31
0.0
  0
LINE
  5
7BF7
  8
1
  6
CONTINUOUS
 62
     4
 10
993.10345199999983
 20
787.52168705358315
 30
0.0
 11
993.10345199999983
 21
837.52168705358315
 31
0.0
  0
CIRCLE
  5
7BF8
  8
1
  6
CONTINUOUS
 62
     4
 10
833.10345199999995
 20
1094.521687053583
 30
0.0
 40
80.0
  0
CIRCLE
  5
7BF9
  8
1
  6
CONTINUOUS
 62
     4
 10
833.10345199999995
 20
1094.521687053583
 30
0.0
 40
100.0
  0
LINE
  5
7BFA
  8
2
  6
CENTER
 10
429.76051799999999
 20
1094.521687053583
 30
0.0
 11
1026.9938029999989
 21
1094.521687053583
 31
0.0
  0
ARC
  5
7BFB
  8
1
  6
CONTINUOUS
 62
     4
 10
822.10345199999995
 20
1105.521687053583
 30
0.0
 40
134.0
 50
189.90000000000001
 51
270.5
  0
ARC
  5
7BFC
  8
1
  6
CONTINUOUS
 62
     4
 10
846.10345199999995
 20
1107.521687053583
 30
0.0
 40
158.0
 50
90.0
 51
189.09999999999999
  0
LINE
  5
7BFD
  8
1
  6
CONTINUOUS
 62
     4
 10
869.70345199999997
 20
1199.521687053583
 30
0.0
 11
796.50345199999992
 21
1199.521687053583
 31
0.0
  0
LINE
  5
7BFE
  8
1
  6
CONTINUOUS
 62
     4
 10
723.10345199999995
 20
1061.2216870535831
 30
0.0
 11
943.10345199999983
 21
1061.2216870535831
 31
0.0
  0
CIRCLE
  5
7BFF
  8
1
  6
CONTINUOUS
 62
     4
 10
833.10345199999995
 20
1094.521687053583
 30
0.0
 40
45.0
  0
LINE
  5
7C00
  8
1
  6
CONTINUOUS
 62
     4
 10
659.10345199999995
 20
929.52168705358304
 30
0.0
 11
659.10345199999995
 21
909.52168705358315
 31
0.0
  0
LINE
  5
7C01
  8
1
  6
CONTINUOUS
 62
     4
 10
625.10345199999995
 20
929.52168705358304
 30
0.0
 11
625.10345199999995
 21
937.52168705358304
 31
0.0
  0
LINE
  5
7C02
  8
1
  6
CONTINUOUS
 62
     4
 10
625.10345199999995
 20
937.52168705358304
 30
0.0
 11
616.9034519999999
 21
960.3216870535831
 31
0.0
  0
LINE
  5
7C03
  8
1
  6
CONTINUOUS
 62
     4
 10
723.10345199999995
 20
1136.6216870535829
 30
0.0
 11
796.50345199999992
 21
1199.521687053583
 31
0.0
  0
LINE
  5
7C04
  8
1
  6
CONTINUOUS
 62
     4
 10
723.10345199999995
 20
1136.6216870535829
 30
0.0
 11
723.10345199999995
 21
909.52168705358315
 31
0.0
  0
LINE
  5
7C05
  8
1
  6
CONTINUOUS
 62
     4
 10
948.10345199999995
 20
1240.521687053583
 30
0.0
 11
948.10345199999995
 21
1108.521687053583
 31
0.0
  0
LINE
  5
7C06
  8
1
  6
CONTINUOUS
 62
     4
 10
963.10345199999995
 20
1276.521687053583
 30
0.0
 11
963.10345199999995
 21
1072.5216870535819
 31
0.0
  0
ARC
  5
7C07
  8
1
  6
CONTINUOUS
 62
     4
 10
824.10345199999995
 20
1085.521687053583
 30
0.0
 40
114.0
 50
269.5
 51
359.5
  0
LINE
  5
7C08
  8
1
  6
CONTINUOUS
 62
     4
 10
943.10345199999983
 20
1136.6216870535829
 30
0.0
 11
869.70345199999997
 21
1199.521687053583
 31
0.0
  0
LINE
  5
7C09
  8
2
  6
CENTER
 10
833.10345199999995
 20
807.39890605358312
 30
0.0
 11
833.10345199999995
 21
1290.3047870535829
 31
0.0
  0
LINE
  5
7C0A
  8
1
  6
CONTINUOUS
 62
     4
 10
948.10345199999995
 20
1094.521687053583
 30
0.0
 11
948.10345199999995
 21
1084.521687053583
 31
0.0
  0
LINE
  5
7C0B
  8
1
  6
CONTINUOUS
 62
     4
 10
948.10345199999995
 20
1094.521687053583
 30
0.0
 11
963.10345199999995
 21
1094.521687053583
 31
0.0
  0
LINE
  5
7C0C
  8
1
  6
CONTINUOUS
 62
     4
 10
963.10345199999995
 20
1093.521687053583
 30
0.0
 11
948.10345199999995
 21
1108.521687053583
 31
0.0
  0
LINE
  5
7C0D
  8
1
  6
CONTINUOUS
 62
     4
 10
948.10345199999995
 20
1084.521687053583
 30
0.0
 11
938.10345199999995
 21
1084.521687053583
 31
0.0
  0
LINE
  5
7C0E
  8
1
  6
CONTINUOUS
 62
     4
 10
943.10345199999983
 20
909.52168705358315
 30
0.0
 11
943.10345199999983
 21
1136.6216870535829
 31
0.0
  0
LINE
  5
7C0F
  8
1
  6
CONTINUOUS
 62
     4
 10
930.40345200000002
 20
909.52168705358315
 30
0.0
 11
930.40345200000002
 21
1189.521687053583
 31
0.0
  0
LINE
  5
7C10
  8
1
  6
CONTINUOUS
 62
     4
 10
948.10345199999995
 20
1265.521687053583
 30
0.0
 11
846.10345199999995
 21
1265.521687053583
 31
0.0
  0
LINE
  5
7C11
  8
1
  6
CONTINUOUS
 62
     4
 10
948.10345199999995
 20
1254.521687053583
 30
0.0
 11
963.10345199999995
 21
1254.521687053583
 31
0.0
  0
LINE
  5
7C12
  8
1
  6
CONTINUOUS
 62
     4
 10
963.10345199999995
 20
1255.521687053583
 30
0.0
 11
948.10345199999995
 21
1240.521687053583
 31
0.0
  0
LINE
  5
7C13
  8
1
  6
CONTINUOUS
 62
     4
 10
948.10345199999995
 20
1265.521687053583
 30
0.0
 11
948.10345199999995
 21
1254.521687053583
 31
0.0
  0
LINE
  5
7C14
  8
1
  6
CONTINUOUS
 62
     4
 10
632.60345199999995
 20
1794.6449481097629
 30
0.0
 11
462.60345199999989
 21
1794.6449481097629
 31
0.0
  0
LINE
  5
7C15
  8
1
  6
CONTINUOUS
 62
     4
 10
632.60345199999995
 20
1985.4449481097629
 30
0.0
 11
462.60345199999989
 21
1985.4449481097629
 31
0.0
  0
LINE
  5
7C16
  8
1
  6
CONTINUOUS
 62
     4
 10
930.40345200000002
 20
1708.9449481097629
 30
0.0
 11
450.4034519999999
 21
1708.9449481097629
 31
0.0
  0
LINE
  5
7C17
  8
1
  6
CONTINUOUS
 62
     4
 10
930.40345200000002
 20
1783.944948109764
 30
0.0
 11
450.4034519999999
 21
1783.944948109764
 31
0.0
  0
LINE
  5
7C18
  8
1
  6
CONTINUOUS
 62
     4
 10
557.10345199999995
 20
1780.9449481097629
 30
0.0
 11
821.10345199999995
 21
1780.9449481097629
 31
0.0
  0
LINE
  5
7C19
  8
1
  6
CONTINUOUS
 62
     4
 10
699.00345199999992
 20
2004.9449481097629
 30
0.0
 11
408.103452
 21
2004.9449481097629
 31
0.0
  0
LINE
  5
7C1A
  8
1
  6
CONTINUOUS
 62
     4
 10
462.60345199999989
 20
1794.6449481097629
 30
0.0
 11
462.60345199999989
 21
1985.4449481097629
 31
0.0
  0
LINE
  5
7C1B
  8
1
  6
CONTINUOUS
 62
     4
 10
408.103452
 20
2126.4449481097631
 30
0.0
 11
408.103452
 21
1696.4449481097629
 31
0.0
  0
LINE
  5
7C1C
  8
1
  6
CONTINUOUS
 62
     4
 10
383.103452
 20
2126.4449481097631
 30
0.0
 11
383.103452
 21
1696.4449481097629
 31
0.0
  0
LINE
  5
7C1D
  8
1
  6
CONTINUOUS
 62
     4
 10
408.103452
 20
1780.9449481097629
 30
0.0
 11
538.10345199999995
 21
1780.9449481097629
 31
0.0
  0
LINE
  5
7C1E
  8
1
  6
CONTINUOUS
 62
     4
 10
408.103452
 20
1696.4449481097629
 30
0.0
 11
383.103452
 21
1696.4449481097629
 31
0.0
  0
LINE
  5
7C1F
  8
1
  6
CONTINUOUS
 62
     4
 10
450.4034519999999
 20
1783.944948109764
 30
0.0
 11
450.4034519999999
 21
1708.9449481097629
 31
0.0
  0
LINE
  5
7C20
  8
1
  6
CONTINUOUS
 62
     4
 10
557.10345199999995
 20
1764.844948109763
 30
0.0
 11
557.10345199999995
 21
1794.6449481097629
 31
0.0
  0
LINE
  5
7C21
  8
1
  6
CONTINUOUS
 62
     4
 10
538.10345199999995
 20
1764.844948109763
 30
0.0
 11
538.10345199999995
 21
1794.6449481097629
 31
0.0
  0
LINE
  5
7C22
  8
1
  6
CONTINUOUS
 62
     4
 10
582.60345199999995
 20
1764.844948109763
 30
0.0
 11
512.60345199999995
 21
1764.844948109763
 31
0.0
  0
LINE
  5
7C23
  8
1
  6
CONTINUOUS
 62
     4
 10
582.60345199999995
 20
1729.844948109763
 30
0.0
 11
512.60345199999995
 21
1729.844948109763
 31
0.0
  0
LINE
  5
7C24
  8
1
  6
CONTINUOUS
 62
     4
 10
582.60345199999995
 20
1764.844948109763
 30
0.0
 11
582.60345199999995
 21
1729.844948109763
 31
0.0
  0
LINE
  5
7C25
  8
1
  6
CONTINUOUS
 62
     4
 10
512.60345199999995
 20
1764.844948109763
 30
0.0
 11
512.60345199999995
 21
1729.844948109763
 31
0.0
  0
LINE
  5
7C26
  8
1
  6
CONTINUOUS
 62
     4
 10
408.103452
 20
2126.4449481097631
 30
0.0
 11
383.103452
 21
2126.4449481097631
 31
0.0
  0
LINE
  5
7C27
  8
1
  6
CONTINUOUS
 62
     4
 10
632.60345199999995
 20
1794.6449481097629
 30
0.0
 11
632.60345199999995
 21
1985.4449481097629
 31
0.0
  0
LINE
  5
7C28
  8
1
  6
CONTINUOUS
 62
     4
 10
993.10345199999983
 20
2126.4449481097631
 30
0.0
 11
993.10345199999983
 21
1696.4449481097629
 31
0.0
  0
LINE
  5
7C29
  8
1
  6
CONTINUOUS
 62
     4
 10
968.10345199999983
 20
2126.4449481097631
 30
0.0
 11
968.10345199999983
 21
1696.4449481097629
 31
0.0
  0
LINE
  5
7C2A
  8
1
  6
CONTINUOUS
 62
     4
 10
699.00345199999992
 20
2016.9449481097629
 30
0.0
 11
699.00345199999992
 21
1920.9449481097629
 31
0.0
  0
LINE
  5
7C2B
  8
1
  6
CONTINUOUS
 62
     4
 10
948.10345199999995
 20
2010.9449481097629
 30
0.0
 11
948.10345199999995
 21
1926.9449481097629
 31
0.0
  0
LINE
  5
7C2C
  8
1
  6
CONTINUOUS
 62
     4
 10
963.10345199999995
 20
2045.9449481097629
 30
0.0
 11
963.10345199999995
 21
1891.944948109764
 31
0.0
  0
LINE
  5
7C2D
  8
1
  6
CONTINUOUS
 62
     4
 10
707.00345199999992
 20
1912.9449481097629
 30
0.0
 11
963.10345199999995
 21
1912.9449481097629
 31
0.0
  0
LINE
  5
7C2E
  8
1
  6
CONTINUOUS
 62
     4
 10
943.10345199999983
 20
1905.344948109763
 30
0.0
 11
723.10345199999995
 21
1905.344948109763
 31
0.0
  0
LINE
  5
7C2F
  8
1
  6
CONTINUOUS
 62
     4
 10
878.10345199999995
 20
1729.844948109763
 30
0.0
 11
788.10345199999995
 21
1729.844948109763
 31
0.0
  0
LINE
  5
7C30
  8
1
  6
CONTINUOUS
 62
     4
 10
878.10345199999995
 20
1764.844948109763
 30
0.0
 11
788.10345199999995
 21
1764.844948109763
 31
0.0
  0
ARC
  5
7C31
  8
1
  6
CONTINUOUS
 62
     4
 10
707.00345199999992
 20
1920.9449481097629
 30
0.0
 40
8.0
 50
180.0
 51
270.0
  0
LINE
  5
7C32
  8
1
  6
CONTINUOUS
 62
     4
 10
733.10345199999995
 20
1905.344948109763
 30
0.0
 11
733.10345199999995
 21
1912.9449481097629
 31
0.0
  0
LINE
  5
7C33
  8
1
  6
CONTINUOUS
 62
     4
 10
723.10345199999995
 20
1905.344948109763
 30
0.0
 11
723.10345199999995
 21
1780.9449481097629
 31
0.0
  0
LINE
  5
7C34
  8
1
  6
CONTINUOUS
 62
     4
 10
788.10345199999995
 20
1764.844948109763
 30
0.0
 11
788.10345199999995
 21
1729.844948109763
 31
0.0
  0
LINE
  5
7C35
  8
1
  6
CONTINUOUS
 62
     4
 10
845.10345199999995
 20
1780.9449481097629
 30
0.0
 11
968.10345199999983
 21
1780.9449481097629
 31
0.0
  0
LINE
  5
7C36
  8
1
  6
CONTINUOUS
 62
     4
 10
878.10345199999995
 20
1764.844948109763
 30
0.0
 11
878.10345199999995
 21
1729.844948109763
 31
0.0
  0
LINE
  5
7C37
  8
1
  6
CONTINUOUS
 62
     4
 10
821.10345199999995
 20
1905.344948109763
 30
0.0
 11
821.10345199999995
 21
1764.844948109763
 31
0.0
  0
LINE
  5
7C38
  8
1
  6
CONTINUOUS
 62
     4
 10
845.10345199999995
 20
1905.344948109763
 30
0.0
 11
845.10345199999995
 21
1764.844948109763
 31
0.0
  0
LINE
  5
7C39
  8
1
  6
CONTINUOUS
 62
     4
 10
968.10345199999983
 20
1696.4449481097629
 30
0.0
 11
993.10345199999983
 21
1696.4449481097629
 31
0.0
  0
LINE
  5
7C3A
  8
1
  6
CONTINUOUS
 62
     4
 10
963.10345199999995
 20
1911.944948109764
 30
0.0
 11
948.10345199999995
 21
1926.9449481097629
 31
0.0
  0
LINE
  5
7C3B
  8
1
  6
CONTINUOUS
 62
     4
 10
933.10345199999995
 20
1905.344948109763
 30
0.0
 11
933.10345199999995
 21
1912.9449481097629
 31
0.0
  0
LINE
  5
7C3C
  8
1
  6
CONTINUOUS
 62
     4
 10
943.10345199999983
 20
1780.9449481097629
 30
0.0
 11
943.10345199999983
 21
1905.344948109763
 31
0.0
  0
LINE
  5
7C3D
  8
1
  6
CONTINUOUS
 62
     4
 10
930.40345200000002
 20
1708.9449481097629
 30
0.0
 11
930.40345200000002
 21
1783.944948109764
 31
0.0
  0
LINE
  5
7C3E
  8
1
  6
CONTINUOUS
 62
     4
 10
933.10345199999995
 20
2032.9449481097629
 30
0.0
 11
733.10345199999995
 21
2032.9449481097629
 31
0.0
  0
LINE
  5
7C3F
  8
1
  6
CONTINUOUS
 62
     4
 10
707.00345199999992
 20
2024.9449481097629
 30
0.0
 11
963.10345199999995
 21
2024.9449481097629
 31
0.0
  0
ARC
  5
7C40
  8
1
  6
CONTINUOUS
 62
     4
 10
707.00345199999992
 20
2016.9449481097629
 30
0.0
 40
8.0
 50
90.0
 51
180.0
  0
LINE
  5
7C41
  8
1
  6
CONTINUOUS
 62
     4
 10
733.10345199999995
 20
2032.9449481097629
 30
0.0
 11
733.10345199999995
 21
2024.9449481097629
 31
0.0
  0
LINE
  5
7C42
  8
1
  6
CONTINUOUS
 62
     4
 10
968.10345199999983
 20
2126.4449481097631
 30
0.0
 11
993.10345199999983
 21
2126.4449481097631
 31
0.0
  0
LINE
  5
7C43
  8
1
  6
CONTINUOUS
 62
     4
 10
963.10345199999995
 20
2025.9449481097629
 30
0.0
 11
948.10345199999995
 21
2010.9449481097629
 31
0.0
  0
LINE
  5
7C44
  8
1
  6
CONTINUOUS
 62
     4
 10
933.10345199999995
 20
2032.9449481097629
 30
0.0
 11
933.10345199999995
 21
2024.9449481097629
 31
0.0
  0
LINE
  5
7C45
  8
1
  6
CONTINUOUS
 62
     4
 10
968.10345199999983
 20
2004.9449481097629
 30
0.0
 11
963.10345199999995
 21
2004.9449481097629
 31
0.0
  0
LINE
  5
7C46
  8
1
  6
CONTINUOUS
 62
     4
 10
968.10345199999983
 20
2004.9449481097629
 30
0.0
 11
963.10345199999995
 21
2004.9449481097629
 31
0.0
  0
LINE
  5
7C47
  8
1
  6
CONTINUOUS
 62
     4
 10
1378.3862693544941
 20
787.98967105358315
 30
0.0
 11
1808.3862693544941
 21
787.98967105358315
 31
0.0
  0
LINE
  5
7C48
  8
1
  6
CONTINUOUS
 62
     4
 10
1515.486269354494
 20
1082.9896710535829
 30
0.0
 11
1445.3862693544941
 21
1082.9896710535829
 31
0.0
  0
LINE
  5
7C49
  8
1
  6
CONTINUOUS
 62
     4
 10
1547.0862693544941
 20
1106.9896710535829
 30
0.0
 11
1445.3862693544941
 21
1106.9896710535829
 31
0.0
  0
LINE
  5
7C4A
  8
1
  6
CONTINUOUS
 62
     4
 10
1462.3862693544941
 20
859.98967105358315
 30
0.0
 11
1686.3862693544941
 21
859.98967105358315
 31
0.0
  0
LINE
  5
7C4B
  8
1
  6
CONTINUOUS
 62
     4
 10
1390.3862693544941
 20
909.98967105358315
 30
0.0
 11
1686.3862693544941
 21
909.98967105358315
 31
0.0
  0
LINE
  5
7C4C
  8
1
  6
CONTINUOUS
 62
     4
 10
1586.7862693544939
 20
1137.0896710535831
 30
0.0
 11
1487.3862693544941
 21
1061.689671053583
 31
0.0
  0
LINE
  5
7C4D
  8
1
  6
CONTINUOUS
 62
     4
 10
1378.3862693544941
 20
812.98967105358315
 30
0.0
 11
1808.3862693544941
 21
812.98967105358315
 31
0.0
  0
LINE
  5
7C4E
  8
1
  6
CONTINUOUS
 62
     4
 10
1462.3862693544941
 20
837.98967105358315
 30
0.0
 11
1686.3862693544941
 21
837.98967105358315
 31
0.0
  0
LINE
  5
7C4F
  8
1
  6
CONTINUOUS
 62
     4
 10
1462.3862693544941
 20
909.98967105358315
 30
0.0
 11
1462.3862693544941
 21
859.98967105358315
 31
0.0
  0
LINE
  5
7C54
  8
1
  6
CONTINUOUS
 62
     4
 10
1378.3862693544941
 20
812.98967105358315
 30
0.0
 11
1378.3862693544941
 21
787.98967105358315
 31
0.0
  0
LINE
  5
7C55
  8
1
  6
CONTINUOUS
 62
     4
 10
1462.3862693544941
 20
837.98967105358315
 30
0.0
 11
1462.3862693544941
 21
812.98967105358315
 31
0.0
  0
LINE
  5
7C56
  8
1
  6
CONTINUOUS
 62
     4
 10
1445.3862693544941
 20
1049.9896710535829
 30
0.0
 11
1445.3862693544941
 21
1139.9896710535829
 31
0.0
  0
LINE
  5
7C57
  8
1
  6
CONTINUOUS
 62
     4
 10
1410.3862693544941
 20
1049.9896710535829
 30
0.0
 11
1410.3862693544941
 21
1139.9896710535829
 31
0.0
  0
LINE
  5
7C58
  8
1
  6
CONTINUOUS
 62
     4
 10
1445.3862693544941
 20
1049.9896710535829
 30
0.0
 11
1410.3862693544941
 21
1049.9896710535829
 31
0.0
  0
LINE
  5
7C59
  8
1
  6
CONTINUOUS
 62
     4
 10
1445.3862693544941
 20
1139.9896710535829
 30
0.0
 11
1410.3862693544941
 21
1139.9896710535829
 31
0.0
  0
LINE
  5
7C5A
  8
1
  6
CONTINUOUS
 62
     4
 10
1445.3862693544941
 20
1044.9896710535829
 30
0.0
 11
1410.3862693544941
 21
1044.9896710535829
 31
0.0
  0
LINE
  5
7C5B
  8
1
  6
CONTINUOUS
 62
     4
 10
1445.3862693544941
 20
974.98967105358304
 30
0.0
 11
1410.3862693544941
 21
974.98967105358304
 31
0.0
  0
LINE
  5
7C5C
  8
1
  6
CONTINUOUS
 62
     4
 10
1410.3862693544941
 20
974.98967105358304
 30
0.0
 11
1410.3862693544941
 21
1044.9896710535829
 31
0.0
  0
LINE
  5
7C5D
  8
1
  6
CONTINUOUS
 62
     4
 10
1445.3862693544941
 20
974.98967105358304
 30
0.0
 11
1445.3862693544941
 21
1044.9896710535829
 31
0.0
  0
LINE
  5
7C5E
  8
1
  6
CONTINUOUS
 62
     4
 10
1445.3862693544941
 20
1019.489671053583
 30
0.0
 11
1487.3862693544941
 21
1019.489671053583
 31
0.0
  0
LINE
  5
7C5F
  8
1
  6
CONTINUOUS
 62
     4
 10
1445.3862693544941
 20
1000.489671053583
 30
0.0
 11
1487.3862693544941
 21
1000.489671053583
 31
0.0
  0
LINE
  5
7C60
  8
1
  6
CONTINUOUS
 62
     4
 10
1465.3862693544941
 20
1189.9896710535829
 30
0.0
 11
1390.3862693544941
 21
1189.9896710535829
 31
0.0
  0
LINE
  5
7C61
  8
1
  6
CONTINUOUS
 62
     4
 10
1465.3862693544941
 20
909.98967105358315
 30
0.0
 11
1465.3862693544941
 21
1189.9896710535829
 31
0.0
  0
LINE
  5
7C62
  8
1
  6
CONTINUOUS
 62
     4
 10
1390.3862693544941
 20
909.98967105358315
 30
0.0
 11
1390.3862693544941
 21
1189.9896710535829
 31
0.0
  0
LINE
  5
7C63
  8
1
  6
CONTINUOUS
 62
     4
 10
1487.3862693544941
 20
1061.689671053583
 30
0.0
 11
1487.3862693544941
 21
909.98967105358315
 31
0.0
  0
LINE
  5
7C64
  8
1
  6
CONTINUOUS
 62
     4
 10
1686.3862693544941
 20
909.98967105358315
 30
0.0
 11
1686.3862693544941
 21
859.98967105358315
 31
0.0
  0
LINE
  5
7C65
  8
1
  6
CONTINUOUS
 62
     4
 10
1686.3862693544941
 20
837.98967105358315
 30
0.0
 11
1686.3862693544941
 21
812.98967105358315
 31
0.0
  0
LINE
  5
7C66
  8
1
  6
CONTINUOUS
 62
     4
 10
1808.3862693544941
 20
812.98967105358315
 30
0.0
 11
1808.3862693544941
 21
787.98967105358315
 31
0.0
  0
LINE
  5
7C67
  8
1
  6
CONTINUOUS
 62
     4
 10
1714.3862693544941
 20
1194.9896710535829
 30
0.0
 11
1705.986269354494
 21
1194.9896710535829
 31
0.0
  0
LINE
  5
7C68
  8
1
  6
CONTINUOUS
 62
     4
 10
1714.3862693544941
 20
994.98967105358304
 30
0.0
 11
1705.986269354494
 21
994.98967105358304
 31
0.0
  0
ARC
  5
7C69
  8
1
  6
CONTINUOUS
 62
     4
 10
1694.3862693544941
 20
972.88967105358313
 30
0.0
 40
12.0
 50
270.0
 51
0.0
  0
LINE
  5
7C6A
  8
1
  6
CONTINUOUS
 62
     4
 10
1706.3862693544941
 20
972.88967105358313
 30
0.0
 11
1706.3862693544941
 21
1254.9896710535829
 31
0.0
  0
LINE
  5
7C6B
  8
1
  6
CONTINUOUS
 62
     4
 10
1594.3862693544941
 20
1254.9896710535829
 30
0.0
 11
1594.3862693544941
 21
972.88967105358313
 31
0.0
  0
LINE
  5
7C6C
  8
1
  6
CONTINUOUS
 62
     4
 10
1706.3862693544941
 20
1094.9896710535829
 30
0.0
 11
1594.3862693544941
 21
1254.9896710535829
 31
0.0
  0
LINE
  5
7C6D
  8
1
  6
CONTINUOUS
 62
     4
 10
1706.3862693544941
 20
1254.9896710535829
 30
0.0
 11
1594.3862693544941
 21
1094.9896710535829
 31
0.0
  0
LINE
  5
7C6E
  8
1
  6
CONTINUOUS
 62
     4
 10
1594.3862693544941
 20
1094.9896710535829
 30
0.0
 11
1706.3862693544941
 21
1094.9896710535829
 31
0.0
  0
ARC
  5
7C6F
  8
1
  6
CONTINUOUS
 62
     4
 10
1606.3862693544941
 20
972.88967105358313
 30
0.0
 40
12.0
 50
180.0
 51
270.0
  0
LINE
  5
7C70
  8
1
  6
CONTINUOUS
 62
     4
 10
1586.7862693544939
 20
994.98967105358304
 30
0.0
 11
1594.7862693544939
 21
994.98967105358304
 31
0.0
  0
LINE
  5
7C71
  8
1
  6
CONTINUOUS
 62
     4
 10
1586.7862693544939
 20
1194.9896710535829
 30
0.0
 11
1594.7862693544939
 21
1194.9896710535829
 31
0.0
  0
LINE
  5
7C72
  8
1
  6
CONTINUOUS
 62
     4
 10
1586.7862693544939
 20
1194.9896710535829
 30
0.0
 11
1586.7862693544939
 21
909.98967105358315
 31
0.0
  0
LINE
  5
7C73
  8
1
  6
CONTINUOUS
 62
     4
 10
1606.3862693544941
 20
960.88967105358302
 30
0.0
 11
1694.3862693544941
 21
960.88967105358302
 31
0.0
  0
LINE
  5
7C74
  8
1
  6
CONTINUOUS
 62
     4
 10
1706.3862693544941
 20
1254.9896710535829
 30
0.0
 11
1594.3862693544941
 21
1254.9896710535829
 31
0.0
  0
LINE
  5
7C75
  8
1
  6
CONTINUOUS
 62
     4
 10
1714.3862693544941
 20
1194.9896710535829
 30
0.0
 11
1714.3862693544941
 21
994.98967105358304
 31
0.0
  0
DIMENSION
  5
7CAC
  8
3
  6
CONTINUOUS
  2
*D1
 10
833.10345199999995
 20
732.98047105358319
 30
0.0
 11
616.42756499999996
 21
732.98047105358319
 31
0.0
 70
   128
 13
383.103452
 23
787.52168705358315
 33
0.0
 14
833.10345199999995
 24
812.52168705358315
 34
0.0
1001
ACAD
1000
DSTYLE
1002
{
1070
   287
1070
     3
1070
   287
1070
     3
1070
    40
1040
10.0
1070
   143
1040
0.039
1070
   172
1070
     1
1070
   271
1070
     0
1070
   279
1070
     0
1070
   288
1070
     1
1002
}
  0
DIMENSION
  5
7CB8
  8
3
  6
CONTINUOUS
  2
*D2
 10
993.10345199999983
 20
732.98047105358319
 30
0.0
 11
913.10345199999995
 21
757.98047105358319
 31
0.0
 70
     0
 13
833.10345199999995
 23
812.52168705358315
 33
0.0
 14
993.10345199999983
 24
787.52168705358315
 34
0.0
1001
ACAD
1000
DSTYLE
1002
{
1070
   287
1070
     4
1070
   287
1070
     4
1070
    40
1040
10.0
1070
    75
1070
     1
1070
   143
1040
0.039
1070
   172
1070
     1
1070
   271
1070
     0
1070
   279
1070
     1
1070
   288
1070
     1
1002
}
  0
DIMENSION
  5
7CC5
  8
3
  6
CONTINUOUS
  2
*D3
 10
1031.378064
 20
1094.521687053583
 30
0.0
 11
1031.378064
 21
1171.9940210535831
 31
0.0
 70
   128
 13
963.10345199999995
 23
1254.521687053583
 33
0.0
 14
963.10345199999995
 24
1094.521687053583
 34
0.0
 50
90.0
1001
ACAD
1000
DSTYLE
1002
{
1070
   287
1070
     3
1070
   287
1070
     3
1070
    40
1040
10.0
1070
   143
1040
0.039
1070
   172
1070
     1
1070
   271
1070
     0
1070
   279
1070
     0
1070
   288
1070
     1
1002
}
  0
DIMENSION
  5
7CDD
  8
3
  6
CONTINUOUS
  2
*D4
 10
1104.8032499999999
 20
1094.521687053583
 30
0.0
 11
1104.8032499999999
 21
1166.5873360535829
 31
0.0
 70
   128
 13
948.10345199999995
 23
1265.521687053583
 33
0.0
 14
963.10345199999995
 24
1094.521687053583
 34
0.0
 50
90.0
1001
ACAD
1000
DSTYLE
1002
{
1070
   287
1070
     3
1070
   287
1070
     3
1070
    40
1040
10.0
1070
   143
1040
0.039
1070
   172
1070
     1
1070
   271
1070
     0
1070
   279
1070
     0
1070
   288
1070
     1
1002
}
  0
DIMENSION
  5
7CE9
  8
3
  6
CONTINUOUS
  2
*D5
 10
1104.8032499999999
 20
859.52168705358315
 30
0.0
 11
1079.803249999999
 21
977.02168705358315
 31
0.0
 70
     0
 13
963.10345199999995
 23
1094.521687053583
 33
0.0
 14
968.10345199999983
 24
859.52168705358315
 34
0.0
 50
90.0
1001
ACAD
1000
DSTYLE
1002
{
1070
   287
1070
     4
1070
   287
1070
     4
1070
    40
1040
10.0
1070
    75
1070
     1
1070
   143
1040
0.039
1070
   172
1070
     1
1070
   271
1070
     0
1070
   279
1070
     1
1070
   288
1070
     1
1002
}
  0
DIMENSION
  5
7D1A
  8
3
  6
CONTINUOUS
  2
*D6
 10
1190.3447779999999
 20
787.52168705358315
 30
0.0
 11
1190.344777999999
 21
1082.108439053583
 31
0.0
 70
   128
 13
948.10345199999995
 23
1265.521687053583
 33
0.0
 14
993.10345199999983
 24
787.52168705358315
 34
0.0
 50
90.0
1001
ACAD
1000
DSTYLE
1002
{
1070
   287
1070
     3
1070
   287
1070
     3
1070
    40
1040
10.0
1070
   143
1040
0.039
1070
   172
1070
     1
1070
   271
1070
     0
1070
   279
1070
     0
1070
   288
1070
     1
1002
}
  0
DIMENSION
  5
7D35
  8
3
  6
CONTINUOUS
  2
*D7
 10
963.10345199999995
 20
1306.329838053583
 30
0.0
 11
895.6940136469583
 21
1333.6131909902281
 31
0.0
 70
   128
 13
833.10345199999995
 23
1264.9859690535829
 33
0.0
 14
963.10345199999995
 24
1276.521687053583
 34
0.0
1001
ACAD
1000
DSTYLE
1002
{
1070
   288
1070
     1
1070
   172
1070
     1
1070
    40
1040
10.0
1070
   271
1070
     0
1070
   143
1040
0.039
1002
}
  0
DIMENSION
  5
7D65
  8
3
  6
CONTINUOUS
  2
*D8
 10
993.10345199999983
 20
1617.1884171097629
 30
0.0
 11
660.60178399999995
 21
1617.1884171097629
 31
0.0
 70
   128
 13
383.103452
 23
1696.4449481097629
 33
0.0
 14
993.10345199999983
 24
1696.4449481097629
 34
0.0
1001
ACAD
1000
DSTYLE
1002
{
1070
   287
1070
     3
1070
   287
1070
     3
1070
    40
1040
10.0
1070
   143
1040
0.039
1070
   172
1070
     1
1070
   271
1070
     0
1070
   279
1070
     0
1070
   288
1070
     1
1002
}
  0
DIMENSION
  5
7D72
  8
3
  6
CONTINUOUS
  2
*D9
 10
1082.326376
 20
1696.4449481097629
 30
0.0
 11
1082.3263759999991
 21
1912.0977471097631
 31
0.0
 70
   128
 13
993.10345199999983
 23
2126.4449481097631
 33
0.0
 14
993.10345199999983
 24
1696.4449481097629
 34
0.0
 50
90.0
1001
ACAD
1000
DSTYLE
1002
{
1070
   287
1070
     3
1070
   287
1070
     3
1070
    40
1040
10.0
1070
   143
1040
0.039
1070
   172
1070
     1
1070
   271
1070
     0
1070
   279
1070
     0
1070
   288
1070
     1
1002
}
  0
LINE
  5
7D73
  8
2
  6
CENTER
 10
833.10345199999995
 20
1650.7893181097629
 30
0.0
 11
833.10345199999995
 21
2078.235540109763
 31
0.0
  0
LINE
  5
7D74
  8
2
  6
CENTER
 10
981.73793000000001
 20
1968.9449481097629
 30
0.0
 11
676.12540199999989
 21
1968.9449481097629
 31
0.0
  0
LINE
  5
7D75
  8
2
  6
CENTER
 10
1650.3862693544941
 20
1298.3842700535829
 30
0.0
 11
1650.3862693544941
 21
738.23531605358323
 31
0.0
  0
DIMENSION
  5
7D83
  8
3
  6
CONTINUOUS
  2
*D10
 10
1650.3862693544941
 20
716.54989705358298
 30
0.0
 11
1514.695604354494
 21
716.54989705358298
 31
0.0
 70
   128
 13
1378.3862693544941
 23
787.98967105358315
 33
0.0
 14
1650.3862693544941
 24
787.98967105358315
 34
0.0
1001
ACAD
1000
DSTYLE
1002
{
1070
   287
1070
     3
1070
   287
1070
     3
1070
    40
1040
10.0
1070
   143
1040
0.039
1070
   172
1070
     1
1070
   271
1070
     0
1070
   279
1070
     0
1070
   288
1070
     1
1002
}
  0
DIMENSION
  5
7D8F
  8
3
  6
CONTINUOUS
  2
*D11
 10
1808.3862693544941
 20
716.54989705358298
 30
0.0
 11
1729.3862693544941
 21
741.54989705358298
 31
0.0
 70
     0
 13
1650.3862693544941
 23
787.98967105358315
 33
0.0
 14
1808.3862693544941
 24
787.98967105358315
 34
0.0
1001
ACAD
1000
DSTYLE
1002
{
1070
   287
1070
     4
1070
   287
1070
     4
1070
    40
1040
10.0
1070
    75
1070
     1
1070
   143
1040
0.039
1070
   172
1070
     1
1070
   271
1070
     0
1070
   279
1070
     1
1070
   288
1070
     1
1002
}
  0
DIMENSION
  5
7D9E
  8
3
  6
CONTINUOUS
  2
*D12
 10
1706.3862693544941
 20
1293.6708690535829
 30
0.0
 11
1651.6073302576169
 21
1315.4594935503751
 31
0.0
 70
   128
 13
1594.3862693544941
 23
1254.9896710535829
 33
0.0
 14
1706.3862693544941
 24
1254.9896710535829
 34
0.0
1001
ACAD
1000
DSTYLE
1002
{
1070
   288
1070
     1
1070
   172
1070
     1
1070
    40
1040
10.0
1070
   271
1070
     0
1070
   143
1040
0.039
1002
}
  0
DIMENSION
  5
7DAB
  8
3
  6
CONTINUOUS
  2
*D13
 10
1650.3862693544941
 20
1353.5995021673091
 30
0.0
 11
1521.7373053544941
 21
1353.5995021673091
 31
0.0
 70
   128
  1
MAX\P260
 13
1390.3862693544941
 23
1189.9896710535829
 33
0.0
 14
1650.3862693544941
 24
1336.6290730535829
 34
0.0
1001
ACAD
1000
DSTYLE
1002
{
1070
   287
1070
     3
1070
   287
1070
     3
1070
    40
1040
10.0
1070
   143
1040
0.039
1070
   172
1070
     1
1070
   271
1070
     0
1070
   279
1070
     0
1070
   288
1070
     1
1002
}
  0
DIMENSION
  5
7DB9
  8
3
  6
CONTINUOUS
  2
*D14
 10
1714.3862693544941
 20
1353.5995021673091
 30
0.0
 11
1683.6964213544941
 21
1353.738459167309
 31
0.0
 70
   128
 13
1650.3862693544941
 23
1336.6290730535829
 33
0.0
 14
1714.3862693544941
 24
1194.9896710535829
 34
0.0
1001
ACAD
1000
DSTYLE
1002
{
1070
   287
1070
     4
1070
   287
1070
     4
1070
    40
1040
10.0
1070
    75
1070
     1
1070
   143
1040
0.039
1070
   172
1070
     1
1070
   271
1070
     0
1070
   279
1070
     1
1070
   288
1070
     1
1002
}
  0
LINE
  5
7DD0
  8
3
  6
CONTINUOUS
 10
1714.3862693544941
 20
1094.9896710535829
 30
0.0
 11
1714.3862693544941
 21
1174.9896710535829
 31
0.0
  0
LINE
  5
7DD3
  8
3
  6
CONTINUOUS
 10
1714.3862693544941
 20
1014.521687053583
 30
0.0
 11
1714.3862693544941
 21
1024.5295570535829
 31
0.0
  0
LINE
  5
7DD4
  8
3
  6
CONTINUOUS
 10
1714.3862693544941
 20
1094.521687053583
 30
0.0
 11
1714.3862693544941
 21
1174.521687053583
 31
0.0
  0
LINE
  5
7DD5
  8
3
  6
CONTINUOUS
 10
1714.3862693544941
 20
1174.521687053583
 30
0.0
 11
1728.763306354494
 21
1174.521687053583
 31
0.0
  0
LINE
  5
7DD6
  8
3
  6
CONTINUOUS
 10
1714.3862693544941
 20
1094.521687053583
 30
0.0
 11
1714.3862693544941
 21
1014.521687053583
 31
0.0
  0
LINE
  5
7DD7
  8
3
  6
CONTINUOUS
 10
1714.3862693544941
 20
1014.521687053583
 30
0.0
 11
1727.354965354494
 21
1014.521687053583
 31
0.0
  0
DIMENSION
  5
7DE4
  8
3
  6
CONTINUOUS
  2
*D15
 10
1787.913591354494
 20
1014.521687053583
 30
0.0
 11
1763.7621352633901
 21
1096.722592961617
 31
0.0
 70
   128
 13
1714.3862693544941
 23
1174.521687053583
 33
0.0
 14
1714.3862693544941
 24
1014.521687053583
 34
0.0
 50
90.0
1001
ACAD
1000
DSTYLE
1002
{
1070
   288
1070
     1
1070
   172
1070
     1
1070
    40
1040
10.0
1070
     3
1000
φ<>
1070
   271
1070
     0
1070
   143
1040
0.039
1002
}
  0
LINE
  5
7DE6
  8
2
  6
CENTER
 10
1370.624090354494
 20
1094.521687053583
 30
0.0
 11
1728.763306354494
 21
1094.521687053583
 31
0.0
  0
DIMENSION
  5
7DFB
  8
3
  6
CONTINUOUS
  2
*D16
 10
1104.8032499999999
 20
812.52168705358315
 30
0.0
 11
1145.7883167907439
 21
837.27804026112597
 31
0.0
 70
   128
 13
968.10345199999983
 23
859.52168705358315
 33
0.0
 14
993.10345199999983
 24
812.52168705358315
 34
0.0
 50
90.0
1001
ACAD
1000
DSTYLE
1002
{
1070
   288
1070
     1
1070
   172
1070
     1
1070
    75
1070
     1
1070
    40
1040
10.0
1070
   271
1070
     0
1070
     7
1000
_DOT
1070
   143
1040
0.039
1002
}
  0
DIMENSION
  5
7E0B
  8
3
  6
CONTINUOUS
  2
*D17
 10
1104.8032499999999
 20
787.52168705358315
 30
0.0
 11
1104.8032499999999
 21
713.23597276786893
 31
0.0
 70
   128
 13
993.10345199999983
 23
812.52168705358315
 33
0.0
 14
993.10345199999983
 24
787.52168705358315
 34
0.0
 50
90.0
1001
ACAD
1000
DSTYLE
1002
{
1070
   287
1070
     3
1070
   287
1070
     3
1070
    40
1040
10.0
1070
   143
1040
0.039
1070
   172
1070
     1
1070
   271
1070
     0
1070
   279
1070
     0
1070
   288
1070
     1
1070
     6
1000
DOT
1002
}
  0
DIMENSION
  5
7E68
  8
3
  6
CONTINUOUS
  2
*D18
 10
688.10345199999995
 20
1306.329838053583
 30
0.0
 11
760.60345199999995
 21
1331.329838053583
 31
0.0
 70
     0
 13
833.10345199999995
 23
1264.9859690535829
 33
0.0
 14
688.10345199999995
 24
1094.521687053583
 34
0.0
1001
ACAD
1000
DSTYLE
1002
{
1070
   287
1070
     4
1070
   287
1070
     4
1070
    40
1040
10.0
1070
    75
1070
     1
1070
   143
1040
0.039
1070
   172
1070
     1
1070
   271
1070
     0
1070
   279
1070
     1
1070
   288
1070
     1
1002
}
  0
DIMENSION
  5
7F8C
  8
3
  2
*D20
 10
383.10345200000012
 20
1361.7489910321599
 30
0.0
 11
712.4256071363161
 21
1361.7489910321599
 31
0.0
 70
   128
 13
963.10345199999995
 23
1276.521687053583
 33
0.0
 14
383.103452
 24
837.52168705358315
 34
0.0
1001
ACAD
1000
DSTYLE
1002
{
1070
   287
1070
     3
1070
   287
1070
     3
1070
    40
1040
10.0
1070
   143
1040
0.039
1070
   172
1070
     1
1070
   271
1070
     0
1070
   279
1070
     0
1070
   288
1070
     1
1002
}
  0
ENDSEC
  0
EOF
